osu file format v14

[General]
AudioFilename: audio.mp3
AudioLeadIn: 0
PreviewTime: 265648
Countdown: 0
SampleSet: Normal
StackLeniency: 0.4
Mode: 0
LetterboxInBreaks: 0
WidescreenStoryboard: 0

[Editor]
Bookmarks: 385,41294,110006,126593,142475,159416,180592,197533,214474,231416,254710,266148,338130,362130
DistanceSpacing: 0.1
BeatDivisor: 4
GridSize: 8
TimelineZoom: 2.1

[Metadata]
Title:Sanctus Absurdus
TitleUnicode:Sanctus Absurdus
Artist:Octaferista
ArtistUnicode:Octaferista
Creator:TheKingHenry
Version:Sacer Ludicrum
Source:魔法少女まどか☆マギカ
Tags:symphonic black metal instrumental kaoru mahou shoujo magical girl madoka magica symposium sacrificium witch world 2 we are here for you human bullet venari strigas sis puella magica surgam identidem absolute configuration arrange yuki kajiura abusrdus 梶浦由記
BeatmapID:1625858
BeatmapSetID:773449

[Difficulty]
HPDrainRate:4
CircleSize:4
OverallDifficulty:10
ApproachRate:10
SliderMultiplier:1.5
SliderTickRate:1

[Events]
//Background and Video events
0,0,"madokapic.jpg",0,0
//Break Periods
2,254910,265198
//Storyboard Layer 0 (Background)
//Storyboard Layer 1 (Fail)
//Storyboard Layer 2 (Pass)
//Storyboard Layer 3 (Foreground)
//Storyboard Sound Samples

[TimingPoints]
385,272.727272727273,3,1,1,70,1,0
41294,214.285714285714,4,1,1,70,1,0
55008,-66.6666666666667,4,1,1,70,0,0
55222,-100,4,1,1,70,0,0
68722,-66.6666666666667,4,1,1,70,0,0
68936,-100,4,1,1,70,0,0
75579,-66.6666666666667,4,1,1,70,0,0
75793,-100,4,1,1,70,0,0
82436,-66.6666666666667,4,1,1,70,0,0
87579,-50,4,1,1,70,0,0
90472,-66.6666666666667,4,1,1,70,0,0
91008,-50,4,1,1,70,0,0
91222,-66.6666666666667,4,1,1,70,0,0
92722,-50,4,1,1,70,0,0
92936,-66.6666666666667,4,1,1,70,0,0
96151,-100,4,1,1,70,0,0
102151,-66.6666666666667,4,1,1,70,0,0
102579,-100,4,1,1,70,0,0
103008,-66.6666666666667,4,1,1,70,0,0
106436,-100,4,1,1,70,0,0
108151,216.606498194946,4,1,1,70,1,0
108692,-100,4,1,1,70,0,0
109017,230.769230769231,4,1,1,70,1,0
109478,264.31718061674,4,1,1,70,1,0
110006,352.941176470588,11,1,1,70,1,0
110182,-100,11,1,1,80,0,0
110711,-200,11,1,1,80,0,0
110976,-200,11,1,99,80,0,0
111064,-100,11,1,1,80,0,0
111770,-200,11,1,1,80,0,0
112035,-200,11,1,99,80,0,0
112123,-100,11,1,1,80,0,0
112829,-200,11,1,1,80,0,0
113094,-200,11,1,99,80,0,0
113182,-100,11,1,1,80,0,0
113535,-66.6666666666667,11,1,1,70,0,0
113799,-66.6666666666667,11,1,99,70,0,0
113888,352.941176470588,13,1,1,80,1,0
114593,-200,11,1,1,80,0,0
114858,-200,11,1,99,80,0,0
114946,-100,11,1,1,80,0,0
115652,-200,11,1,1,80,0,0
115917,-200,11,1,99,80,0,0
116005,-100,11,1,1,80,0,0
116711,-200,11,1,1,80,0,0
116976,-200,11,1,99,80,0,0
117064,-100,11,1,1,80,0,0
117417,-200,11,1,1,70,0,0
117682,-200,11,1,99,70,0,0
117770,-200,11,1,1,75,0,0
118035,-200,11,1,99,75,0,0
118123,-200,11,1,1,80,0,0
118388,-200,11,1,99,80,0,0
118476,352.941176470588,11,1,1,80,1,0
119181,-200,11,1,1,80,0,0
119446,-200,11,1,99,80,0,0
119534,-100,11,1,1,80,0,0
120240,-200,11,1,1,80,0,0
120505,-200,11,1,99,80,0,0
120593,-100,11,1,1,80,0,0
121299,-200,11,1,1,80,0,0
121564,-200,11,1,99,80,0,0
121652,-100,11,1,1,80,0,0
122005,-66.6666666666667,11,1,1,80,0,0
122269,-66.6666666666667,11,1,99,80,0,0
122358,352.941176470588,3,1,1,80,1,0
123063,-200,11,1,1,80,0,0
123328,-200,11,1,99,80,0,0
123416,-100,11,1,1,80,0,0
124122,-200,11,1,1,80,0,0
124387,-200,11,1,99,80,0,0
124475,-100,11,1,1,80,0,0
125181,-200,11,1,1,80,0,0
125446,-200,11,1,99,80,0,0
125534,-100,11,1,1,80,0,0
126593,352.941176470588,11,1,1,80,1,0
126593,-133.333333333333,11,1,1,80,0,0
128357,-100,11,1,1,80,0,0
130476,352.941176470588,3,1,1,80,1,0
130476,-133.333333333333,3,1,1,80,0,0
131534,-100,3,1,1,80,0,0
134711,352.941176470588,11,1,1,80,1,0
134711,-133.333333333333,11,1,1,80,0,0
136475,-100,11,1,1,80,0,0
138593,-133.333333333333,11,1,1,80,0,0
141240,-100,11,1,1,80,0,0
142122,-200,11,1,1,80,0,0
142386,-200,11,1,99,80,0,0
142475,352.941176470588,3,1,1,80,1,0
143533,-100,3,1,1,80,0,0
144239,-133.333333333333,3,1,1,80,0,0
144504,-133.333333333333,3,1,99,80,0,0
144592,-100,3,1,1,80,0,0
146710,-100,3,1,1,80,0,0
147769,-100,3,1,1,80,0,0
148475,-133.333333333333,3,1,1,80,0,0
148739,-133.333333333333,3,1,99,80,0,0
148827,-100,3,1,1,80,0,0
149533,-133.333333333333,3,1,1,80,0,0
149798,-133.333333333333,3,1,99,80,0,0
149886,-100,3,1,1,80,0,0
151651,-133.333333333333,3,1,1,80,0,0
151916,-133.333333333333,3,1,99,80,0,0
152004,-100,3,1,1,80,0,0
152710,-133.333333333333,3,1,1,80,0,0
152975,-133.333333333333,3,1,99,80,0,0
153063,-100,3,1,1,80,0,0
153769,-133.333333333333,3,1,1,80,0,0
154033,-133.333333333333,3,1,99,80,0,0
154122,-100,3,1,1,80,0,0
154827,-133.333333333333,3,1,1,80,0,0
155092,-133.333333333333,3,1,99,80,0,0
155180,-100,3,1,1,80,0,0
155886,-133.333333333333,3,1,1,80,0,0
156151,-133.333333333333,3,1,99,80,0,0
156239,-100,3,1,1,80,0,0
156945,-133.333333333333,3,1,1,80,0,0
157210,-133.333333333333,3,1,99,80,0,0
157298,-100,3,1,1,80,0,0
197622,-100,3,1,1,70,0,0
213769,-66.6666666666667,3,1,1,80,0,0
214474,-100,3,1,1,80,0,0
216239,-133.333333333333,3,1,1,80,0,0
216504,-133.333333333333,3,1,99,80,0,0
216592,-100,3,1,1,80,0,0
218357,-133.333333333333,3,1,1,80,0,0
218622,-133.333333333333,3,1,99,80,0,0
218710,-100,3,1,1,80,0,0
220474,-133.333333333333,3,1,1,80,0,0
220739,-133.333333333333,3,1,99,80,0,0
220827,-100,3,1,1,80,0,0
224710,-133.333333333333,3,1,1,80,0,0
224974,-133.333333333333,3,1,99,80,0,0
225063,-100,3,1,1,80,0,0
226827,-133.333333333333,3,1,1,80,0,0
227092,-133.333333333333,3,1,99,80,0,0
227180,-100,3,1,1,80,0,0
228945,-133.333333333333,3,1,1,80,0,0
229210,-133.333333333333,3,1,99,80,0,0
229298,-100,3,1,1,80,0,0
232122,-133.333333333333,3,1,1,80,0,0
232386,-133.333333333333,3,1,99,80,0,0
232474,-100,3,1,1,80,0,0
233180,-133.333333333333,3,1,1,80,0,0
233445,-133.333333333333,3,1,99,80,0,0
233533,-100,3,1,1,80,0,0
235298,-133.333333333333,3,1,1,80,0,0
235563,-133.333333333333,3,1,99,80,0,0
235651,-100,3,1,1,80,0,0
236357,-133.333333333333,3,1,1,80,0,0
236622,-133.333333333333,3,1,99,80,0,0
236710,-100,3,1,1,80,0,0
237416,-133.333333333333,3,1,1,80,0,0
237680,-133.333333333333,3,1,99,80,0,0
237769,-100,3,1,1,80,0,0
240592,-133.333333333333,3,1,1,80,0,0
240857,-133.333333333333,3,1,99,80,0,0
240945,-100,3,1,1,80,0,0
241651,-133.333333333333,3,1,1,80,0,0
241916,-133.333333333333,3,1,99,80,0,0
242004,-100,3,1,1,80,0,0
243769,-133.333333333333,3,1,1,80,0,0
244033,-133.333333333333,3,1,99,80,0,0
244122,-100,3,1,1,80,0,0
244827,-133.333333333333,3,1,1,80,0,0
245092,-133.333333333333,3,1,99,80,0,0
245180,-100,3,1,1,80,0,0
245886,-133.333333333333,3,1,1,80,0,0
246151,-133.333333333333,3,1,99,80,0,0
246239,-83.3333333333333,3,1,1,80,0,0
254474,-83.3333333333333,3,1,1,70,0,0
254710,491.803278688525,4,1,1,100,1,0
258644,500.291836904861,3,1,1,100,1,0
266148,-200,3,1,2,50,0,1
269150,-200,3,1,3,50,0,1
272151,-200,3,1,2,50,0,1
275153,-200,3,1,3,50,0,1
276654,-133.333333333333,3,1,4,50,0,1
278155,-200,3,1,2,50,0,1
281157,-200,3,1,3,50,0,1
284158,-200,3,1,2,50,0,1
287160,-200,3,1,3,50,0,1
289662,-200,3,1,3,80,0,1
290162,-133.333333333333,3,1,2,50,0,1
291663,-133.333333333333,3,1,4,50,0,1
292163,-133.333333333333,3,1,3,50,0,1
294665,-133.333333333333,3,1,4,50,0,1
295165,-133.333333333333,3,1,2,50,0,1
296165,-133.333333333333,3,1,4,50,0,1
297666,-133.333333333333,3,1,3,50,0,1
299167,-100,3,1,2,50,0,1
300668,-133.333333333333,3,1,3,50,0,1
301669,-133.333333333333,3,1,4,50,0,1
303670,-100,3,1,3,50,0,1
304170,-133.333333333333,3,1,4,50,0,1
305671,-133.333333333333,3,1,3,50,0,1
306672,-133.333333333333,3,1,4,50,0,1
308172,-133.333333333333,3,1,2,50,0,1
311174,-133.333333333333,3,1,4,50,0,1
312175,-133.333333333333,3,1,4,70,0,1
312675,-133.333333333333,3,1,4,50,0,1
314176,-133.333333333333,3,1,1,50,0,1
319679,-133.333333333333,3,1,1,10,0,1
319929,-133.333333333333,3,1,1,50,0,1
323181,-100,3,1,1,50,0,1
337064,-100,3,1,99,50,0,1
337189,441.176470588235,3,1,1,70,1,1
337189,-200,3,1,1,70,0,1
337519,-200,3,1,99,70,0,1
337630,500,3,1,1,70,1,0
337630,-50,3,1,1,70,0,1
337755,-50,3,1,1,70,0,0
338005,-50,3,1,99,70,0,0
338130,500,3,1,1,70,1,1
348630,-66.6666666666667,3,1,1,70,0,1
349192,-66.6666666666667,3,1,1,70,0,1
349380,-66.6666666666667,3,1,1,70,0,1
350130,-100,3,1,1,70,0,1
360630,-66.6666666666667,3,1,1,70,0,1
360880,-66.6666666666667,3,1,1,70,0,1
361130,-66.6666666666667,3,1,1,70,0,1
361692,-66.6666666666667,3,1,1,70,0,0
362130,250,6,1,1,70,1,1
362130,-50,6,1,1,70,0,1
372630,-66.6666666666667,6,1,1,70,0,1
373755,-100,6,1,1,70,0,1
374130,-50,6,1,1,70,0,1
377130,-66.6666666666667,6,1,1,70,0,1
377255,-50,6,1,1,70,0,1
378630,-66.6666666666667,6,1,1,70,0,1
392192,-100,6,1,1,50,0,0
395192,-100,6,1,1,40,0,0
396692,-100,6,1,1,30,0,0
398192,-100,6,1,1,20,0,0

[Colours]
Combo1 : 255,60,255
Combo2 : 128,128,128
Combo3 : 196,196,196
Combo4 : 0,0,255
Combo5 : 119,119,255
Combo6 : 255,0,0
Combo7 : 255,98,98
Combo8 : 157,60,255

[HitObjects]
328,230,385,37,6,0:0:0:0:
343,196,453,1,8,0:0:0:0:
343,159,521,1,2,0:0:0:0:
328,125,589,1,8,0:0:0:0:
300,100,657,1,2,0:0:0:0:
264,89,725,1,8,0:0:0:0:
228,95,794,2,0,L|185:115,1,37.5,2|8,0:0|0:0,0:0:0:0:
336,25,930,2,0,L|384:53,3,37.5,2|8|2|8,0:0|0:0|0:0|0:0,0:0:0:0:
258,177,1203,5,2,0:0:0:0:
242,210,1271,1,8,0:0:0:0:
241,247,1339,1,2,0:0:0:0:
256,282,1407,1,8,0:0:0:0:
283,307,1475,1,2,0:0:0:0:
319,318,1543,1,8,0:0:0:0:
356,314,1612,1,2,0:0:0:0:
388,295,1680,1,8,0:0:0:0:
409,265,1748,1,2,0:0:0:0:
416,228,1816,1,8,0:0:0:0:
408,192,1884,1,2,0:0:0:0:
385,163,1953,1,8,0:0:0:0:
334,142,2020,5,6,0:0:0:0:
314,110,2089,1,8,0:0:0:0:
311,73,2157,1,2,0:0:0:0:
326,38,2225,1,8,0:0:0:0:
355,15,2294,1,2,0:0:0:0:
391,8,2362,1,8,0:0:0:0:
427,18,2431,1,2,0:0:0:0:
453,44,2499,1,8,0:0:0:0:
465,79,2566,2,0,L|462:134,3,37.5,2|8|2|8,0:0|0:0|0:0|0:0,0:0:0:0:
328,230,2839,5,6,0:0:0:0:
290,223,2908,1,8,0:0:0:0:
260,202,2976,1,2,0:0:0:0:
244,168,3044,1,8,0:0:0:0:
244,131,3113,1,2,0:0:0:0:
262,99,3181,1,8,0:0:0:0:
293,78,3248,1,2,0:0:0:0:
330,75,3316,1,8,0:0:0:0:
363,88,3385,2,0,L|403:125,3,37.5,2|8|2|8,0:0|0:0|0:0|0:0,0:0:0:0:
185,44,3657,5,6,0:0:0:0:
160,81,3725,1,8,0:0:0:0:
147,124,3793,1,2,0:0:0:0:
146,169,3861,1,8,0:0:0:0:
157,212,3929,1,2,0:0:0:0:
180,251,3997,1,8,0:0:0:0:
213,281,4066,2,0,L|260:307,1,37.5,2|8,0:0|0:0,0:0:0:0:
344,177,4203,2,0,L|319:150,3,37.5,2|8|2|8,0:0|0:0|0:0|0:0,0:0:0:0:
336,325,4476,5,2,0:0:0:0:
317,357,4543,1,8,0:0:0:0:
288,379,4612,1,2,0:0:0:0:
251,388,4679,1,8,0:0:0:0:
215,382,4748,1,2,0:0:0:0:
184,362,4815,1,8,0:0:0:0:
163,330,4885,1,2,0:0:0:0:
157,294,4952,1,8,0:0:0:0:
166,258,5020,1,2,0:0:0:0:
188,228,5088,1,8,0:0:0:0:
201,194,5158,1,2,0:0:0:0:
197,157,5226,1,8,0:0:0:0:
165,111,5294,37,6,0:0:0:0:
132,93,5362,1,8,0:0:0:0:
95,90,5431,1,2,0:0:0:0:
60,103,5499,1,8,0:0:0:0:
32,128,5567,1,2,0:0:0:0:
17,162,5635,1,8,0:0:0:0:
16,200,5703,1,2,0:0:0:0:
30,234,5771,1,8,0:0:0:0:
57,259,5839,2,0,L|105:268,3,37.5,2|8|2|8,0:0|0:0|0:0|0:0,0:0:0:0:
110,181,6112,5,6,0:0:0:0:
139,158,6180,1,8,0:0:0:0:
175,149,6249,1,2,0:0:0:0:
212,155,6317,1,8,0:0:0:0:
243,175,6385,1,2,0:0:0:0:
264,205,6453,1,8,0:0:0:0:
272,242,6521,1,2,0:0:0:0:
264,278,6589,1,8,0:0:0:0:
242,308,6657,2,0,L|196:326,3,37.5,2|8|2|8,0:0|0:0|0:0|0:0,0:0:0:0:
336,134,6930,5,6,0:0:0:0:
379,123,6998,1,8,0:0:0:0:
421,137,7066,1,2,0:0:0:0:
450,171,7134,1,8,0:0:0:0:
457,214,7202,1,2,0:0:0:0:
441,256,7270,1,8,0:0:0:0:
405,282,7339,2,0,L|358:290,1,37.5,2|8,0:0|0:0,0:0:0:0:
262,126,7475,2,0,L|273:79,3,37.5,2|8|2|8,0:0|0:0|0:0|0:0,0:0:0:0:
378,203,7748,5,2,0:0:0:0:
414,208,7817,1,8,0:0:0:0:
451,199,7884,1,2,0:0:0:0:
481,178,7953,1,8,0:0:0:0:
502,148,8020,1,2,0:0:0:0:
511,111,8089,1,8,0:0:0:0:
505,74,8157,1,2,0:0:0:0:
486,42,8226,1,8,0:0:0:0:
457,19,8293,1,2,0:0:0:0:
422,8,8362,1,8,0:0:0:0:
385,10,8429,1,2,0:0:0:0:
351,26,8497,1,8,0:0:0:0:
313,28,8566,6,0,L|257:7,3,37.5,6|8|2|8,0:0|0:0|0:0|0:0,0:0:0:0:
451,199,8839,2,0,L|486:212,3,37.5,6|8|2|8,0:0|0:0|0:0|0:0,0:0:0:0:
214,117,9112,2,0,L|158:96,3,37.5,6|8|2|8,0:0|0:0|0:0|0:0,0:0:0:0:
408,283,9385,5,6,0:0:0:0:
406,320,9453,1,8,0:0:0:0:
388,353,9521,1,2,0:0:0:0:
359,376,9589,1,8,0:0:0:0:
323,384,9657,1,2,0:0:0:0:
286,377,9725,1,8,0:0:0:0:
256,356,9794,1,2,0:0:0:0:
238,323,9862,1,8,0:0:0:0:
234,286,9930,2,0,L|240:244,3,37.5,2|8|2|8,0:0|0:0|0:0|0:0,0:0:0:0:
322,294,10203,37,6,0:0:0:0:
314,322,10271,1,8,0:0:0:0:
298,347,10339,1,2,0:0:0:0:
274,365,10407,1,8,0:0:0:0:
245,374,10475,1,2,0:0:0:0:
215,373,10543,1,8,0:0:0:0:
188,362,10612,2,0,L|145:332,1,37.5,2|8,0:0|0:0,0:0:0:0:
310,220,10748,2,0,L|316:178,3,37.5,2|8|2|8,0:0|0:0|0:0|0:0,0:0:0:0:
83,294,11021,6,0,L|77:331,3,37.5,6|8|2|8,0:0|0:0|0:0|0:0,0:0:0:0:
154,57,11294,2,0,L|159:19,3,37.5,6|8|2|8,0:0|0:0|0:0|0:0,0:0:0:0:
239,256,11566,2,0,L|233:293,3,37.5,6|8|2|8,0:0|0:0|0:0|0:0,0:0:0:0:
77,42,11839,6,0,L|25:54,3,37.5,6|8|2|8,0:0|0:0|0:0|0:0,0:0:0:0:
309,118,12112,2,0,L|345:109,3,37.5,6|8|2|8,0:0|0:0|0:0|0:0,0:0:0:0:
99,186,12385,2,0,L|47:198,3,37.5,6|8|2|8,0:0|0:0|0:0|0:0,0:0:0:0:
311,38,12657,5,8,0:3:0:0:
336,31,12725,1,8,0:3:0:0:
362,33,12793,1,8,0:3:0:0:
386,43,12861,1,2,0:0:0:0:
406,59,12929,1,10,0:3:0:0:
408,63,12998,1,10,0:3:0:0:
408,66,13066,2,0,L|424:130,1,37.5,2|2,0:0|0:0,0:0:0:0:
265,193,13203,2,0,L|223:164,1,37.5,10|10,0:3|0:3,0:0:0:0:
391,268,13339,2,0,L|433:239,1,37.5,10|10,0:3|0:3,0:0:0:0:
309,118,13475,5,6,0:0:0:0:
281,92,13543,1,8,0:0:0:0:
246,79,13611,1,2,0:0:0:0:
209,82,13679,1,8,0:0:0:0:
176,99,13747,1,2,0:0:0:0:
152,127,13815,1,8,0:0:0:0:
142,163,13885,2,0,L|141:212,1,37.5,2|8,0:0|0:0,0:0:0:0:
111,37,14021,2,0,L|111:0,3,37.5,2|8|2|8,0:0|0:0|0:0|0:0,0:0:0:0:
234,171,14294,5,2,0:0:0:0:
236,208,14362,1,8,0:0:0:0:
224,243,14430,1,2,0:0:0:0:
200,271,14498,1,8,0:0:0:0:
166,288,14566,1,2,0:0:0:0:
129,292,14634,1,8,0:0:0:0:
94,281,14703,1,2,0:0:0:0:
65,257,14771,1,8,0:0:0:0:
47,224,14839,1,2,0:0:0:0:
49,185,14906,1,8,0:0:0:0:
62,151,14975,1,2,0:0:0:0:
88,124,15044,1,8,0:0:0:0:
140,104,15111,37,6,0:0:0:0:
178,104,15179,1,8,0:0:0:0:
212,94,15248,1,2,0:0:0:0:
240,69,15316,1,8,0:0:0:0:
257,36,15385,1,2,0:0:0:0:
289,15,15453,1,8,0:0:0:0:
325,5,15521,1,2,0:0:0:0:
362,11,15589,1,8,0:0:0:0:
394,29,15657,2,0,L|415:62,3,37.5,2|8|2|8,0:0|0:0|0:0|0:0,0:0:0:0:
234,171,15930,5,6,0:0:0:0:
212,201,15998,1,8,0:0:0:0:
201,237,16066,1,2,0:0:0:0:
204,274,16134,1,8,0:0:0:0:
220,308,16202,1,2,0:0:0:0:
246,334,16270,1,8,0:0:0:0:
280,350,16339,1,2,0:0:0:0:
317,353,16407,1,8,0:0:0:0:
353,343,16475,2,0,L|393:317,3,37.5,2|8|2|8,0:0|0:0|0:0|0:0,0:0:0:0:
304,248,16748,5,6,0:0:0:0:
272,267,16816,1,8,0:0:0:0:
235,274,16884,1,2,0:0:0:0:
198,268,16952,1,8,0:0:0:0:
166,249,17020,1,2,0:0:0:0:
143,220,17088,1,8,0:0:0:0:
132,184,17157,2,0,L|126:134,1,37.5,2|8,0:0|0:0,0:0:0:0:
160,349,17294,2,0,L|206:367,3,37.5,2|8|2|8,0:0|0:0|0:0|0:0,0:0:0:0:
234,171,17566,5,2,0:0:0:0:
265,150,17635,1,8,0:0:0:0:
301,143,17702,1,2,0:0:0:0:
338,149,17771,1,8,0:0:0:0:
371,167,17838,1,2,0:0:0:0:
394,196,17907,1,8,0:0:0:0:
406,232,17975,1,2,0:0:0:0:
404,269,18043,1,8,0:0:0:0:
389,303,18112,2,0,L|358:348,3,37.5,2|8|2|8,0:0|0:0|0:0|0:0,0:0:0:0:
304,248,18385,5,6,0:0:0:0:
324,216,18454,1,8,0:0:0:0:
334,181,18521,1,2,0:0:0:0:
330,143,18590,1,8,0:0:0:0:
315,110,18657,1,2,0:0:0:0:
287,83,18726,1,8,0:0:0:0:
253,70,18794,1,2,0:0:0:0:
216,70,18862,1,8,0:0:0:0:
181,82,18931,2,0,L|133:109,3,37.5,2|8|2|8,0:0|0:0|0:0|0:0,0:0:0:0:
234,171,19204,5,2,0:0:0:0:
259,154,19271,1,8,0:0:0:0:
277,131,19340,1,2,0:0:0:0:
286,103,19407,1,8,0:0:0:0:
304,78,19476,1,2,0:0:0:0:
327,59,19543,1,8,0:0:0:0:
355,48,19612,1,2,0:0:0:0:
385,44,19679,1,8,0:0:0:0:
414,48,19748,1,2,0:0:0:0:
441,60,19816,1,8,0:0:0:0:
464,80,19884,1,2,0:0:0:0:
481,104,19952,1,8,0:0:0:0:
491,133,20021,37,6,0:0:0:0:
464,119,20089,1,8,0:0:0:0:
434,115,20157,1,2,0:0:0:0:
405,119,20225,1,8,0:0:0:0:
378,133,20293,1,2,0:0:0:0:
357,154,20361,1,8,0:0:0:0:
343,181,20430,1,2,0:0:0:0:
339,210,20498,1,8,0:0:0:0:
343,240,20566,2,0,L|361:288,3,37.5,2|8|2|8,0:0|0:0|0:0|0:0,0:0:0:0:
440,212,20839,5,6,0:0:0:0:
427,184,20907,1,8,0:0:0:0:
407,162,20975,1,2,0:0:0:0:
381,147,21043,1,8,0:0:0:0:
352,140,21111,1,2,0:0:0:0:
323,142,21179,1,8,0:0:0:0:
295,152,21248,1,2,0:0:0:0:
271,170,21316,1,8,0:0:0:0:
254,195,21384,1,2,0:0:0:0:
245,223,21452,1,8,0:0:0:0:
244,253,21520,1,2,0:0:0:0:
253,282,21589,1,8,0:0:0:0:
269,307,21657,6,0,L|307:347,3,37.5,6|8|2|8,0:0|0:0|0:0|0:0,0:0:0:0:
143,256,21930,2,0,L|117:228,3,37.5,6|8|2|8,0:0|0:0|0:0|0:0,0:0:0:0:
343,240,22203,2,0,L|381:280,3,37.5,6|8|2|8,0:0|0:0|0:0|0:0,0:0:0:0:
95,147,22475,6,0,L|52:159,3,37.5,6|8|2|8,0:0|0:0|0:0|0:0,0:0:0:0:
312,106,22748,2,0,L|348:95,3,37.5,6|8|2|8,0:0|0:0|0:0|0:0,0:0:0:0:
107,66,23021,2,0,L|64:78,3,37.5,6|8|2|8,0:0|0:0|0:0|0:0,0:0:0:0:
367,172,23294,5,6,0:0:0:0:
399,154,23362,1,8,0:0:0:0:
421,124,23430,1,2,0:0:0:0:
426,87,23498,1,8,0:0:0:0:
414,52,23566,1,2,0:0:0:0:
388,26,23634,1,8,0:0:0:0:
352,15,23703,2,0,L|299:19,1,37.5,2|8,0:0|0:0,0:0:0:0:
511,91,23839,2,0,L|507:132,3,37.5,2|8|2|8,0:0|0:0|0:0|0:0,0:0:0:0:
347,95,24112,5,6,0:0:0:0:
315,113,24180,1,8,0:0:0:0:
294,145,24248,1,2,0:0:0:0:
290,182,24316,1,8,0:0:0:0:
304,216,24384,1,2,0:0:0:0:
331,241,24452,1,8,0:0:0:0:
344,276,24521,1,2,0:0:0:0:
342,313,24589,1,8,0:0:0:0:
324,346,24657,1,2,0:0:0:0:
294,368,24725,1,8,0:0:0:0:
258,377,24794,1,2,0:0:0:0:
222,369,24862,1,8,0:0:0:0:
185,327,24930,37,6,0:0:0:0:
169,293,24998,1,8,0:0:0:0:
162,256,25066,1,2,0:0:0:0:
141,225,25135,1,8,0:0:0:0:
110,204,25203,1,2,0:0:0:0:
73,200,25271,1,8,0:0:0:0:
38,212,25339,1,2,0:0:0:0:
12,239,25408,1,8,0:0:0:0:
0,274,25476,1,2,0:0:0:0:
5,311,25544,1,8,0:0:0:0:
26,342,25612,1,2,0:0:0:0:
58,360,25680,1,8,0:0:0:0:
95,363,25748,5,2,0:0:0:0:
88,333,25816,1,8,0:0:0:0:
90,303,25884,1,2,0:0:0:0:
99,275,25952,1,8,0:0:0:0:
117,251,26020,1,2,0:0:0:0:
140,232,26088,1,8,0:0:0:0:
167,220,26157,1,2,0:0:0:0:
197,216,26225,1,8,0:0:0:0:
224,206,26294,1,2,0:0:0:0:
248,188,26362,1,8,0:0:0:0:
265,163,26430,1,2,0:0:0:0:
274,135,26498,1,8,0:0:0:0:
274,105,26566,6,0,L|267:49,1,37.5,6|8,0:0|0:0,0:0:0:0:
136,112,26703,2,0,L|140:149,1,37.5,2|2,0:3|0:0,0:0:0:0:
336,198,26839,1,2,0:3:0:0:
337,194,26907,1,2,0:3:0:0:
338,190,26975,2,0,L|345:148,1,37.5,2|2,0:3|0:0,0:0:0:0:
203,26,27112,2,0,L|196:62,1,37.5,2|2,0:3|0:3,0:0:0:0:
216,280,27248,1,10,0:3:0:0:
217,284,27316,1,10,0:3:0:0:
218,288,27385,5,10,0:3:0:0:
239,303,27453,1,10,0:3:0:0:
263,312,27521,1,10,0:3:0:0:
289,315,27589,1,10,0:3:0:0:
323,345,27657,5,2,0:0:0:0:
340,351,27725,1,2,0:0:0:0:
358,357,27793,1,2,0:0:0:0:
376,363,27861,1,2,0:0:0:0:
419,348,27930,5,8,0:0:0:0:
446,322,27998,1,8,0:0:0:0:
462,289,28066,1,8,0:0:0:0:
465,252,28134,1,8,0:0:0:0:
422,221,28203,37,6,0:0:0:0:
379,206,28270,1,8,0:0:0:0:
348,174,28339,1,2,0:0:0:0:
334,131,28406,1,8,0:0:0:0:
336,86,28475,1,2,0:0:0:0:
321,43,28544,1,8,0:0:0:0:
288,13,28611,1,2,0:0:0:0:
245,2,28680,1,8,0:0:0:0:
202,13,28747,1,2,0:0:0:0:
168,42,28815,1,8,0:0:0:0:
155,85,28884,1,2,0:0:0:0:
163,129,28953,1,8,0:0:0:0:
190,165,29020,5,6,0:0:0:0:
230,183,29089,1,8,0:0:0:0:
259,217,29157,1,2,0:0:0:0:
274,260,29224,1,8,0:0:0:0:
271,304,29293,1,2,0:0:0:0:
250,344,29362,1,8,0:0:0:0:
216,373,29430,1,6,0:0:0:0:
174,386,29497,1,8,0:0:0:0:
129,382,29566,1,2,0:0:0:0:
90,360,29635,1,8,0:0:0:0:
62,326,29702,1,2,0:0:0:0:
50,283,29770,1,8,0:0:0:0:
55,238,29839,5,6,0:0:0:0:
77,199,29906,1,8,0:0:0:0:
113,172,29975,1,2,0:0:0:0:
156,162,30043,1,8,0:0:0:0:
200,170,30112,1,2,0:0:0:0:
237,195,30179,1,8,0:0:0:0:
280,199,30249,1,2,0:0:0:0:
321,181,30316,1,8,0:0:0:0:
348,146,30385,1,2,0:0:0:0:
390,129,30452,1,8,0:0:0:0:
435,132,30521,1,2,0:0:0:0:
473,155,30588,1,8,0:0:0:0:
496,193,30657,5,6,0:0:0:0:
499,238,30725,1,8,0:0:0:0:
482,279,30794,1,2,0:0:0:0:
448,307,30862,1,8,0:0:0:0:
405,317,30930,1,2,0:0:0:0:
361,307,30998,1,8,0:0:0:0:
328,277,31066,2,0,L|299:243,5,37.5,6|8|2|8|2|8,0:0|0:0|0:0|0:0|0:0|0:0,0:0:0:0:
406,223,31475,5,6,0:0:0:0:
384,179,31544,1,8,0:0:0:0:
345,150,31611,1,2,0:0:0:0:
298,141,31679,1,8,0:0:0:0:
251,155,31747,1,2,0:0:0:0:
216,187,31815,1,8,0:0:0:0:
198,232,31884,1,2,0:0:0:0:
162,264,31953,1,8,0:0:0:0:
115,277,32021,1,2,0:0:0:0:
68,268,32089,1,8,0:0:0:0:
29,238,32157,1,2,0:0:0:0:
8,195,32226,1,8,0:0:0:0:
8,147,32294,5,6,0:0:0:0:
30,103,32362,1,8,0:0:0:0:
68,74,32430,1,2,0:0:0:0:
116,66,32498,1,8,0:0:0:0:
162,79,32567,1,6,0:0:0:0:
199,109,32635,1,8,0:0:0:0:
216,156,32703,1,2,0:0:0:0:
251,185,32771,1,8,0:0:0:0:
299,192,32839,1,2,0:0:0:0:
343,173,32907,1,8,0:0:0:0:
372,134,32975,1,2,0:0:0:0:
375,86,33044,1,8,0:0:0:0:
354,43,33112,37,6,0:0:0:0:
313,17,33180,1,8,0:0:0:0:
265,17,33248,1,2,0:0:0:0:
223,41,33316,1,8,0:0:0:0:
198,83,33385,1,2,0:0:0:0:
193,131,33453,1,8,0:0:0:0:
202,180,33521,1,2,0:0:0:0:
197,226,33589,1,8,0:0:0:0:
169,266,33657,1,2,0:0:0:0:
126,287,33725,1,8,0:0:0:0:
78,286,33793,1,2,0:0:0:0:
36,262,33862,1,8,0:0:0:0:
10,221,33930,5,6,0:0:0:0:
7,173,33998,1,8,0:0:0:0:
27,129,34066,1,2,0:0:0:0:
65,100,34134,1,8,0:0:0:0:
112,90,34203,1,2,0:0:0:0:
158,104,34271,1,8,0:0:0:0:
192,139,34339,2,0,L|217:190,5,37.5,6|8|2|8|2|8,0:0|0:0|0:0|0:0|0:0|0:0,0:0:0:0:
106,188,34748,5,6,0:0:0:0:
126,235,34816,1,8,0:0:0:0:
167,267,34884,1,2,0:0:0:0:
219,274,34952,1,8,0:0:0:0:
267,255,35020,1,2,0:0:0:0:
300,216,35088,1,8,0:0:0:0:
310,164,35157,1,2,0:0:0:0:
343,125,35225,1,8,0:0:0:0:
392,109,35293,1,2,0:0:0:0:
443,120,35361,1,8,0:0:0:0:
481,155,35429,1,2,0:0:0:0:
496,204,35498,1,8,0:0:0:0:
483,255,35566,5,6,0:0:0:0:
447,292,35634,1,8,0:0:0:0:
396,305,35702,1,2,0:0:0:0:
346,292,35771,1,8,0:0:0:0:
310,255,35839,1,2,0:0:0:0:
259,240,35908,1,8,0:0:0:0:
208,251,35976,1,6,0:0:0:0:
168,284,36044,1,8,0:0:0:0:
116,295,36112,1,2,0:0:0:0:
66,282,36180,1,8,0:0:0:0:
27,248,36248,1,2,0:0:0:0:
7,200,36316,1,8,0:0:0:0:
11,148,36385,5,6,0:0:0:0:
38,104,36453,1,8,0:0:0:0:
81,76,36521,1,2,0:0:0:0:
133,71,36589,1,8,0:0:0:0:
182,90,36657,1,2,0:0:0:0:
233,87,36725,1,8,0:0:0:0:
278,61,36793,1,2,0:0:0:0:
331,55,36862,1,8,0:0:0:0:
382,64,36930,1,2,0:0:0:0:
428,89,36998,1,8,0:0:0:0:
463,128,37066,1,2,0:0:0:0:
483,176,37135,1,8,0:0:0:0:
487,228,37203,5,6,0:0:0:0:
475,279,37271,1,8,0:0:0:0:
446,322,37339,1,2,0:0:0:0:
405,355,37407,1,8,0:0:0:0:
355,372,37475,1,2,0:0:0:0:
303,372,37544,1,8,0:0:0:0:
254,355,37612,2,0,L|214:322,5,37.5,6|8|2|8|2|8,0:0|0:0|0:0|0:0|0:0|0:0,0:0:0:0:
335,215,38022,37,6,0:0:0:0:
388,200,38089,1,8,0:0:0:0:
427,160,38158,1,2,0:0:0:0:
438,106,38225,1,8,0:0:0:0:
420,53,38294,1,2,0:0:0:0:
377,18,38361,1,8,0:0:0:0:
322,11,38430,1,2,0:0:0:0:
271,33,38498,1,8,0:0:0:0:
239,78,38566,1,2,0:0:0:0:
187,99,38635,1,8,0:0:0:0:
132,92,38703,1,2,0:0:0:0:
78,109,38771,1,8,0:0:0:0:
35,145,38839,5,6,0:0:0:0:
10,195,38907,1,8,0:0:0:0:
7,251,38975,1,2,0:0:0:0:
26,304,39044,1,8,0:0:0:0:
64,344,39112,1,2,0:0:0:0:
115,367,39180,1,8,0:0:0:0:
171,367,39248,1,6,0:0:0:0:
223,346,39316,1,8,0:0:0:0:
262,306,39384,1,2,0:0:0:0:
282,254,39453,1,8,0:0:0:0:
279,198,39521,1,2,0:0:0:0:
304,148,39589,1,8,0:0:0:0:
349,116,39657,5,6,0:0:0:0:
405,110,39725,1,8,0:0:0:0:
456,132,39793,1,2,0:0:0:0:
490,175,39862,1,8,0:0:0:0:
500,230,39930,1,2,0:0:0:0:
481,283,39998,1,8,0:0:0:0:
440,320,40066,1,2,0:0:0:0:
386,332,40134,1,8,0:0:0:0:
332,316,40203,1,2,0:0:0:0:
293,276,40271,1,8,0:0:0:0:
277,223,40339,1,2,0:0:0:0:
236,183,40407,1,8,0:0:0:0:
183,169,40475,5,14,0:3:0:0:
177,194,40543,1,10,0:3:0:0:
166,218,40611,1,10,0:3:0:0:
150,238,40679,1,10,0:3:0:0:
100,221,40748,5,10,0:3:0:0:
94,199,40816,1,10,0:3:0:0:
83,179,40884,1,10,0:3:0:0:
68,162,40952,1,10,0:3:0:0:
17,187,41021,5,10,0:3:0:0:
12,205,41089,1,10,0:3:0:0:
8,223,41157,1,10,0:3:0:0:
3,241,41225,1,2,0:0:0:0:
0,259,41294,38,0,L|8:300,3,37.5,6|8|2|8,0:0|0:0|0:0|0:0,0:0:0:0:
83,289,41508,2,0,L|91:330,3,37.5,2|8|2|8,0:0|0:0|0:0|0:0,0:0:0:0:
166,319,41722,2,0,L|174:278,3,37.5,2|8|2|8,0:0|0:0|0:0|0:0,0:0:0:0:
249,289,41936,2,0,L|257:248,3,37.5,2|8|2|8,0:0|0:0|0:0|0:0,0:0:0:0:
332,259,42151,5,2,0:0:0:0:
335,240,42204,1,8,0:0:0:0:
341,223,42258,1,2,0:0:0:0:
351,206,42311,1,8,0:0:0:0:
363,192,42365,1,2,0:0:0:0:
377,180,42418,1,8,0:0:0:0:
394,171,42472,1,2,0:0:0:0:
411,164,42525,1,8,0:0:0:0:
430,161,42579,1,2,0:0:0:0:
448,161,42633,1,8,0:0:0:0:
466,156,42687,1,2,0:0:0:0:
482,146,42740,1,8,0:0:0:0:
495,132,42794,2,0,L|503:88,3,37.5,2|8|2|8,0:0|0:0|0:0|0:0,0:0:0:0:
430,258,43009,5,6,0:0:0:0:
411,261,43061,1,8,0:0:0:0:
392,262,43116,1,2,0:0:0:0:
374,259,43168,1,8,0:0:0:0:
356,254,43223,1,2,0:0:0:0:
340,245,43275,1,8,0:0:0:0:
325,233,43330,1,2,0:0:0:0:
312,220,43382,1,8,0:0:0:0:
302,204,43437,1,2,0:0:0:0:
295,187,43490,1,8,0:0:0:0:
290,168,43544,1,2,0:0:0:0:
289,150,43597,1,8,0:0:0:0:
291,131,43651,1,2,0:0:0:0:
290,112,43704,1,8,0:0:0:0:
285,94,43757,1,2,0:0:0:0:
276,78,43811,1,8,0:0:0:0:
263,64,43864,5,2,0:0:0:0:
248,54,43918,1,8,0:0:0:0:
230,47,43971,1,2,0:0:0:0:
212,43,44025,1,8,0:0:0:0:
193,45,44079,2,0,L|156:52,3,37.5,2|8|2|8,0:0|0:0|0:0|0:0,0:0:0:0:
207,125,44293,1,2,0:0:0:0:
190,134,44347,1,8,0:0:0:0:
173,140,44400,1,2,0:0:0:0:
154,141,44454,1,8,0:0:0:0:
135,139,44508,2,0,L|98:129,3,37.5,2|8|2|8,0:0|0:0|0:0|0:0,0:0:0:0:
60,40,44722,5,6,0:0:0:0:
43,48,44775,1,8,0:0:0:0:
29,60,44829,1,2,0:0:0:0:
17,75,44882,1,8,0:0:0:0:
8,91,44936,1,2,0:0:0:0:
2,109,44989,1,8,0:0:0:0:
0,128,45043,2,0,L|7:180,1,37.5,2|8,0:0|0:0,0:0:0:0:
90,201,45151,1,2,0:0:0:0:
107,209,45204,1,8,0:0:0:0:
121,221,45258,1,2,0:0:0:0:
133,236,45311,1,8,0:0:0:0:
142,252,45365,1,2,0:0:0:0:
148,270,45418,1,8,0:0:0:0:
150,289,45472,2,0,L|143:341,1,37.5,2|8,0:0|0:0,0:0:0:0:
61,290,45579,5,2,0:0:0:0:
44,281,45632,1,8,0:0:0:0:
29,269,45686,1,2,0:0:0:0:
17,255,45739,1,8,0:0:0:0:
8,238,45793,1,2,0:0:0:0:
3,221,45846,1,8,0:0:0:0:
1,202,45900,1,2,0:0:0:0:
2,183,45953,1,8,0:0:0:0:
7,165,46007,1,2,0:0:0:0:
16,149,46061,1,8,0:0:0:0:
28,134,46114,1,2,0:0:0:0:
42,122,46168,1,8,0:0:0:0:
59,113,46222,2,0,L|108:104,3,37.5,2|8|2|8,0:0|0:0|0:0|0:0,0:0:0:0:
90,201,46437,37,6,0:0:0:0:
105,211,46490,1,8,0:0:0:0:
122,219,46544,1,2,0:0:0:0:
140,224,46596,1,8,0:0:0:0:
159,225,46651,1,2,0:0:0:0:
177,222,46703,1,8,0:0:0:0:
195,217,46758,2,0,L|234:196,1,37.5,2|8,0:0|0:0,0:0:0:0:
254,89,46865,1,2,0:0:0:0:
269,78,46918,1,8,0:0:0:0:
286,70,46972,1,2,0:0:0:0:
304,65,47026,1,8,0:0:0:0:
323,64,47079,1,2,0:0:0:0:
341,67,47133,1,8,0:0:0:0:
359,73,47186,2,0,L|398:94,1,37.5,2|8,0:0|0:0,0:0:0:0:
320,161,47293,5,2,0:3:0:0:
319,165,47347,1,8,0:0:0:0:
318,169,47401,2,0,L|315:213,1,37.5,2|8,0:0|0:0,0:0:0:0:
417,218,47508,1,2,0:0:0:0:
418,214,47562,1,8,0:0:0:0:
419,210,47616,2,0,L|422:166,1,37.5,2|8,0:0|0:0,0:0:0:0:
347,288,47722,1,10,0:3:0:0:
343,288,47776,1,10,0:3:0:0:
339,288,47829,2,0,L|295:283,1,37.5,10|10,0:3|0:3,0:0:0:0:
429,342,47936,1,10,0:3:0:0:
433,342,47990,1,10,0:3:0:0:
437,342,48043,2,0,L|480:337,1,37.5,10|8,0:3|0:0,0:0:0:0:
336,376,48151,5,6,0:0:0:0:
314,381,48204,1,8,0:0:0:0:
291,381,48258,1,2,0:0:0:0:
269,377,48311,1,8,0:0:0:0:
249,367,48365,1,2,0:0:0:0:
231,354,48418,1,8,0:0:0:0:
217,336,48472,2,0,L|201:291,1,37.5,2|8,0:0|0:0,0:0:0:0:
131,215,48579,1,2,0:0:0:0:
109,209,48632,1,8,0:0:0:0:
86,209,48686,1,2,0:0:0:0:
64,213,48739,1,8,0:0:0:0:
44,223,48793,1,2,0:0:0:0:
26,236,48846,1,8,0:0:0:0:
12,255,48900,2,0,L|-4:300,1,37.5,2|8,0:0|0:0,0:0:0:0:
93,301,49008,5,2,0:0:0:0:
114,306,49061,1,8,0:0:0:0:
137,307,49115,1,2,0:0:0:0:
159,302,49168,1,8,0:0:0:0:
179,292,49222,1,2,0:0:0:0:
196,277,49275,1,8,0:0:0:0:
209,259,49329,1,2,0:0:0:0:
217,238,49382,1,8,0:0:0:0:
221,216,49436,1,2,0:0:0:0:
218,194,49490,1,8,0:0:0:0:
211,172,49543,1,2,0:0:0:0:
199,154,49597,1,8,0:0:0:0:
182,138,49651,2,0,L|133:112,3,37.5,2|8|2|8,0:0|0:0|0:0|0:0,0:0:0:0:
131,215,49865,5,6,0:0:0:0:
150,226,49918,1,8,0:0:0:0:
171,232,49972,1,2,0:0:0:0:
194,232,50025,1,8,0:0:0:0:
216,227,50079,1,2,0:0:0:0:
235,217,50132,1,8,0:0:0:0:
252,201,50186,2,0,L|270:166,1,37.5,2|8,0:0|0:0,0:0:0:0:
381,149,50293,1,2,0:0:0:0:
401,156,50346,1,8,0:0:0:0:
418,170,50400,1,2,0:0:0:0:
432,189,50453,1,8,0:0:0:0:
440,209,50507,1,2,0:0:0:0:
443,231,50560,1,8,0:0:0:0:
439,254,50614,2,0,L|420:288,1,37.5,2|8,0:0|0:0,0:0:0:0:
339,263,50722,6,0,L|357:230,3,37.5,2|8|2|8,0:0|0:0|0:0|0:0,0:0:0:0:
269,167,50936,2,0,L|296:141,3,37.5,2|8|2|8,0:0|0:0|0:0|0:0,0:0:0:0:
381,149,51151,2,0,L|398:115,3,37.5,2|8|2|8,0:0|0:0|0:0|0:0,0:0:0:0:
310,52,51365,2,0,L|337:26,3,37.5,2|8|2|8,0:0|0:0|0:0|0:0,0:0:0:0:
203,95,51579,37,6,0:0:0:0:
189,112,51632,1,8,0:0:0:0:
179,133,51686,1,2,0:0:0:0:
175,155,51739,1,8,0:0:0:0:
175,177,51793,1,2,0:0:0:0:
181,199,51846,1,8,0:0:0:0:
191,219,51901,2,0,L|216:258,1,37.5,2|8,0:0|0:0,0:0:0:0:
269,167,52008,1,2,0:0:0:0:
286,153,52061,1,8,0:0:0:0:
307,143,52115,1,2,0:0:0:0:
329,139,52168,1,8,0:0:0:0:
351,139,52222,1,2,0:0:0:0:
373,145,52275,1,8,0:0:0:0:
393,155,52330,2,0,L|432:180,1,37.5,2|8,0:0|0:0,0:0:0:0:
340,237,52436,5,2,0:0:0:0:
323,252,52489,1,8,0:0:0:0:
312,271,52543,1,2,0:0:0:0:
306,293,52596,1,8,0:0:0:0:
307,315,52650,1,2,0:0:0:0:
315,336,52703,1,8,0:0:0:0:
328,355,52757,1,2,0:0:0:0:
346,368,52810,1,8,0:0:0:0:
366,376,52864,1,2,0:0:0:0:
389,378,52918,1,8,0:0:0:0:
411,373,52971,1,2,0:0:0:0:
430,363,53025,1,8,0:0:0:0:
446,347,53079,2,0,L|466:314,3,37.5,2|8|2|8,0:0|0:0|0:0|0:0,0:0:0:0:
340,237,53294,5,6,0:0:0:0:
317,233,53346,1,8,0:0:0:0:
295,234,53401,1,2,0:0:0:0:
273,240,53453,1,8,0:0:0:0:
254,251,53508,1,2,0:0:0:0:
237,267,53560,1,8,0:0:0:0:
225,285,53615,2,0,L|203:328,1,37.5,2|8,0:0|0:0,0:0:0:0:
126,240,53722,5,2,0:0:0:0:
118,218,53776,1,8,0:0:0:0:
115,196,53829,1,2,0:0:0:0:
118,174,53883,1,8,0:0:0:0:
125,153,53936,1,2,0:0:0:0:
137,134,53990,1,8,0:0:0:0:
153,118,54043,2,0,L|191:88,1,37.5,2|8,0:0|0:0,0:0:0:0:
241,172,54151,6,0,L|212:195,3,37.5,2|8|2|8,0:0|0:0|0:0|0:0,0:0:0:0:
282,77,54365,1,2,0:3:0:0:
284,74,54418,1,2,0:3:0:0:
286,71,54472,2,0,L|324:41,1,37.5,2|8,0:0|0:0,0:0:0:0:
320,220,54579,2,0,L|290:242,3,37.5,2|8|2|8,0:0|0:0|0:0|0:0,0:0:0:0:
360,124,54793,1,2,0:3:0:0:
362,121,54846,1,2,0:3:0:0:
364,118,54900,2,0,L|402:88,1,37.5,2|8,0:0|0:0,0:0:0:0:
358,284,55008,6,0,B|371:342|371:342|427:373,1,112.500004291535,6|0,0:0|0:0,0:0:0:0:
467,287,55222,1,2,0:0:0:0:
477,283,55275,1,8,0:0:0:0:
487,277,55329,1,2,0:0:0:0:
495,270,55382,1,8,0:0:0:0:
502,262,55436,1,2,0:0:0:0:
507,251,55490,1,8,0:0:0:0:
511,241,55543,1,2,0:0:0:0:
512,230,55597,1,8,0:0:0:0:
512,219,55651,2,0,L|512:178,1,37.5,2|8,0:0|0:0,0:0:0:0:
431,195,55758,2,0,L|426:152,1,37.5,2|8,0:0|0:0,0:0:0:0:
342,227,55865,37,2,0:0:0:0:
331,230,55918,1,8,0:0:0:0:
320,232,55972,1,2,0:0:0:0:
309,233,56025,1,8,0:0:0:0:
297,232,56079,1,2,0:0:0:0:
286,230,56132,1,8,0:0:0:0:
276,227,56186,1,2,0:0:0:0:
266,222,56239,1,8,0:0:0:0:
256,216,56293,1,2,0:0:0:0:
248,208,56347,1,8,0:0:0:0:
240,200,56401,1,2,0:0:0:0:
234,191,56454,1,8,0:0:0:0:
229,181,56508,2,0,L|217:138,1,37.5,2|8,0:0|0:0,0:0:0:0:
296,112,56615,2,0,L|307:149,1,37.5,2|8,0:0|0:0,0:0:0:0:
227,286,56722,5,6,0:0:0:0:
219,293,56776,1,8,0:0:0:0:
210,301,56829,1,2,0:0:0:0:
200,306,56883,1,8,0:0:0:0:
190,311,56936,1,2,0:0:0:0:
179,315,56989,1,8,0:0:0:0:
168,317,57043,1,2,0:0:0:0:
157,317,57096,1,8,0:0:0:0:
146,317,57150,1,2,0:0:0:0:
135,315,57204,1,8,0:0:0:0:
124,312,57257,1,2,0:0:0:0:
114,307,57311,1,8,0:0:0:0:
104,301,57365,2,0,L|70:272,1,37.5,2|8,0:0|0:0,0:0:0:0:
158,227,57472,2,0,L|186:202,1,37.5,2|8,0:0|0:0,0:0:0:0:
74,180,57579,5,2,0:0:0:0:
76,169,57632,1,8,0:0:0:0:
79,158,57686,1,2,0:0:0:0:
82,147,57739,1,8,0:0:0:0:
85,135,57793,2,0,L|138:134,1,37.5,2|8,0:0|0:0,0:0:0:0:
186,202,57901,1,2,0:0:0:0:
191,212,57954,1,8,0:0:0:0:
198,221,58008,1,2,0:0:0:0:
205,231,58061,1,8,0:0:0:0:
211,241,58115,2,0,L|261:222,1,37.5,2|8,0:0|0:0,0:0:0:0:
256,127,58222,1,2,0:0:0:0:
259,116,58275,1,8,0:0:0:0:
262,104,58329,2,0,L|315:103,1,37.5,2|8,0:0|0:0,0:0:0:0:
341,225,58436,5,6,0:0:0:0:
347,234,58489,1,8,0:0:0:0:
354,242,58543,1,2,0:0:0:0:
363,249,58596,1,8,0:0:0:0:
373,255,58650,1,2,0:0:0:0:
383,259,58703,1,8,0:0:0:0:
394,261,58757,1,2,0:0:0:0:
406,261,58810,1,8,0:0:0:0:
417,260,58864,1,2,0:0:0:0:
427,256,58918,1,8,0:0:0:0:
438,251,58971,1,2,0:0:0:0:
447,245,59025,1,8,0:0:0:0:
455,237,59079,2,0,L|474:192,1,37.5,2|8,0:0|0:0,0:0:0:0:
393,165,59186,2,0,L|408:131,1,37.5,2|8,0:0|0:0,0:0:0:0:
501,114,59294,5,2,0:0:0:0:
498,102,59346,1,8,0:0:0:0:
495,92,59401,1,2,0:0:0:0:
490,82,59453,1,8,0:0:0:0:
484,72,59508,1,2,0:0:0:0:
477,63,59560,1,8,0:0:0:0:
469,56,59614,1,2,0:0:0:0:
460,49,59667,1,8,0:0:0:0:
450,43,59721,1,2,0:0:0:0:
440,39,59775,1,8,0:0:0:0:
429,36,59828,1,2,0:0:0:0:
418,34,59882,1,8,0:0:0:0:
407,33,59936,2,0,L|353:40,1,37.5,2|8,0:0|0:0,0:0:0:0:
370,135,60043,2,0,L|407:130,1,37.5,2|8,0:0|0:0,0:0:0:0:
285,86,60151,5,6,0:0:0:0:
274,89,60204,1,8,0:0:0:0:
263,93,60258,1,2,0:0:0:0:
253,98,60311,1,8,0:0:0:0:
244,105,60365,1,2,0:0:0:0:
235,112,60418,1,8,0:0:0:0:
227,120,60472,1,2,0:0:0:0:
220,128,60525,1,8,0:0:0:0:
214,138,60579,1,2,0:0:0:0:
209,148,60633,1,8,0:0:0:0:
205,158,60686,1,2,0:0:0:0:
202,169,60740,1,8,0:0:0:0:
200,180,60793,2,0,L|193:234,1,37.5,2|8,0:0|0:0,0:0:0:0:
285,252,60901,2,0,L|292:306,1,37.5,2|8,0:0|0:0,0:0:0:0:
200,324,61008,37,2,0:0:0:0:
188,323,61061,1,8,0:0:0:0:
177,322,61115,1,2,0:0:0:0:
166,320,61168,1,8,0:0:0:0:
155,316,61222,2,0,L|112:297,1,37.5,2|8,0:0|0:0,0:0:0:0:
195,217,61329,1,2,0:0:0:0:
204,210,61382,1,8,0:0:0:0:
213,204,61436,1,2,0:0:0:0:
221,197,61489,1,8,0:0:0:0:
229,187,61543,2,0,L|256:149,1,37.5,2|8,0:0|0:0,0:0:0:0:
114,136,61651,1,2,0:0:0:0:
106,129,61704,1,8,0:0:0:0:
98,119,61758,2,0,L|70:81,1,37.5,2|8,0:0|0:0,0:0:0:0:
225,64,61865,5,6,0:0:0:0:
243,60,61918,1,8,0:0:0:0:
262,59,61972,1,2,0:0:0:0:
280,62,62025,1,8,0:0:0:0:
297,69,62079,1,2,0:0:0:0:
313,79,62132,1,8,0:0:0:0:
327,92,62186,1,2,0:0:0:0:
337,108,62239,1,8,0:0:0:0:
345,125,62293,1,2,0:0:0:0:
349,143,62347,1,8,0:0:0:0:
349,162,62400,1,2,0:0:0:0:
346,180,62454,1,8,0:0:0:0:
339,198,62508,2,0,L|318:236,1,37.5,2|8,0:0|0:0,0:0:0:0:
432,208,62615,2,0,L|437:170,1,37.5,2|8,0:0|0:0,0:0:0:0:
251,156,62722,5,2,0:0:0:0:
238,169,62775,1,8,0:0:0:0:
227,185,62829,1,2,0:0:0:0:
220,202,62882,1,8,0:0:0:0:
217,220,62936,1,2,0:0:0:0:
216,239,62989,1,8,0:0:0:0:
220,258,63043,1,2,0:0:0:0:
226,275,63096,1,8,0:0:0:0:
236,291,63150,1,2,0:0:0:0:
249,305,63204,1,8,0:0:0:0:
264,316,63257,1,2,0:0:0:0:
280,324,63311,1,8,0:0:0:0:
299,329,63365,2,0,L|338:327,1,37.5,2|8,0:0|0:0,0:0:0:0:
390,240,63472,2,0,L|351:238,1,37.5,2|8,0:0|0:0,0:0:0:0:
251,156,63579,5,6,0:0:0:0:
239,141,63632,1,8,0:0:0:0:
231,124,63686,1,2,0:0:0:0:
226,106,63739,1,8,0:0:0:0:
226,87,63793,1,2,0:0:0:0:
230,69,63846,1,8,0:0:0:0:
237,52,63900,1,2,0:0:0:0:
248,36,63953,1,8,0:0:0:0:
262,24,64007,1,2,0:0:0:0:
279,15,64061,1,8,0:0:0:0:
297,10,64114,1,2,0:0:0:0:
315,8,64168,1,8,0:0:0:0:
334,11,64222,2,0,L|406:25,1,37.5,2|8,0:0|0:0,0:0:0:0:
319,99,64329,2,0,L|374:147,1,37.5,2|8,0:0|0:0,0:0:0:0:
158,132,64436,5,2,0:0:0:0:
142,141,64489,1,8,0:0:0:0:
128,154,64543,1,2,0:0:0:0:
118,170,64596,1,8,0:0:0:0:
111,187,64651,2,0,L|97:250,1,37.5,2|8,0:0|0:0,0:0:0:0:
250,308,64758,1,2,0:0:0:0:
249,289,64811,1,8,0:0:0:0:
245,271,64865,1,2,0:0:0:0:
236,254,64918,1,8,0:0:0:0:
225,239,64973,2,0,L|177:195,1,37.5,2|8,0:0|0:0,0:0:0:0:
87,315,65079,1,2,0:0:0:0:
106,315,65132,1,8,0:0:0:0:
125,313,65187,2,0,L|186:293,1,37.5,2|8,0:0|0:0,0:0:0:0:
251,156,65293,5,6,0:0:0:0:
267,146,65347,1,8,0:0:0:0:
284,139,65401,1,2,0:0:0:0:
303,136,65454,1,8,0:0:0:0:
321,136,65508,1,2,0:0:0:0:
340,139,65561,1,8,0:0:0:0:
357,145,65615,1,2,0:0:0:0:
374,155,65668,1,8,0:0:0:0:
388,167,65721,1,2,0:0:0:0:
400,181,65775,1,8,0:0:0:0:
409,198,65828,1,2,0:0:0:0:
415,215,65882,1,8,0:0:0:0:
418,234,65936,2,0,L|418:301,1,37.5,2|8,0:0|0:0,0:0:0:0:
312,284,66043,2,0,L|312:247,1,37.5,2|8,0:0|0:0,0:0:0:0:
413,151,66151,37,2,0:0:0:0:
423,135,66204,1,8,0:0:0:0:
430,118,66258,1,2,0:0:0:0:
433,99,66311,1,8,0:0:0:0:
431,81,66365,1,2,0:0:0:0:
424,63,66418,1,8,0:0:0:0:
414,47,66472,1,2,0:0:0:0:
400,34,66526,1,8,0:0:0:0:
384,25,66579,1,2,0:0:0:0:
366,20,66633,1,8,0:0:0:0:
348,19,66686,1,2,0:0:0:0:
329,23,66740,1,8,0:0:0:0:
312,31,66793,2,0,L|271:58,1,37.5,2|8,0:0|0:0,0:0:0:0:
314,158,66901,2,0,L|345:137,1,37.5,2|8,0:0|0:0,0:0:0:0:
220,109,67008,5,6,0:0:0:0:
212,126,67062,1,8,0:0:0:0:
207,144,67115,1,2,0:0:0:0:
206,162,67169,1,8,0:0:0:0:
209,181,67222,1,2,0:0:0:0:
215,199,67276,1,8,0:0:0:0:
224,215,67329,1,2,0:0:0:0:
230,232,67383,1,8,0:0:0:0:
232,251,67436,1,2,0:0:0:0:
231,270,67490,1,8,0:0:0:0:
226,288,67543,1,2,0:0:0:0:
217,304,67597,1,8,0:0:0:0:
205,319,67651,2,0,L|174:351,1,37.5,2|8,0:0|0:0,0:0:0:0:
301,306,67758,2,0,L|332:338,1,37.5,2|8,0:0|0:0,0:0:0:0:
139,253,67865,6,0,L|108:221,3,37.5,6|2|2|2,0:0|0:0|0:0|0:0,0:0:0:0:
174,164,68079,2,0,L|163:120,3,37.5,2|2|2|2,0:0|0:0|0:0|0:0,0:0:0:0:
248,104,68293,1,10,0:3:0:0:
249,100,68347,1,10,0:3:0:0:
250,96,68401,2,0,L|262:53,1,37.5,10|2,0:3|0:0,0:0:0:0:
344,81,68507,1,10,0:3:0:0:
346,78,68561,1,10,0:3:0:0:
349,75,68615,2,0,L|381:44,1,37.5,10|2,0:3|0:0,0:0:0:0:
445,179,68722,6,0,B|432:237|432:237|376:268,1,112.500004291535,6|0,0:0|0:0,0:0:0:0:
260,181,68936,1,2,0:0:0:0:
249,177,68989,1,8,0:0:0:0:
238,174,69043,1,2,0:0:0:0:
227,173,69096,1,8,0:0:0:0:
216,174,69150,1,2,0:0:0:0:
205,176,69203,1,8,0:0:0:0:
194,179,69257,1,2,0:0:0:0:
184,184,69311,1,8,0:0:0:0:
175,191,69365,2,0,L|148:217,1,37.5,2|8,0:0|0:0,0:0:0:0:
224,258,69472,2,0,L|213:294,1,37.5,2|8,0:0|0:0,0:0:0:0:
327,233,69580,5,2,0:0:0:0:
333,223,69633,1,8,0:0:0:0:
337,213,69687,1,2,0:0:0:0:
341,202,69740,1,8,0:0:0:0:
343,191,69794,1,2,0:0:0:0:
344,180,69846,1,8,0:0:0:0:
343,169,69901,1,2,0:0:0:0:
340,158,69954,1,8,0:0:0:0:
337,147,70008,1,2,0:0:0:0:
331,137,70061,1,8,0:0:0:0:
325,128,70114,1,2,0:0:0:0:
318,119,70168,1,8,0:0:0:0:
309,112,70222,2,0,L|274:92,1,37.5,2|8,0:0|0:0,0:0:0:0:
260,181,70329,2,0,L|222:167,1,37.5,2|8,0:0|0:0,0:0:0:0:
169,284,70437,5,6,0:0:0:0:
159,290,70490,1,8,0:0:0:0:
149,295,70544,1,2,0:0:0:0:
139,299,70597,1,8,0:0:0:0:
128,302,70651,1,2,0:0:0:0:
117,303,70703,1,8,0:0:0:0:
105,303,70758,1,2,0:0:0:0:
94,302,70811,1,8,0:0:0:0:
83,300,70864,1,2,0:0:0:0:
73,296,70918,1,8,0:0:0:0:
63,291,70971,1,2,0:0:0:0:
53,284,71025,1,8,0:0:0:0:
45,277,71079,2,0,L|26:245,1,37.5,2|8,0:0|0:0,0:0:0:0:
109,173,71186,2,0,L|110:211,1,37.5,2|8,0:0|0:0,0:0:0:0:
169,284,71293,37,2,0:0:0:0:
177,291,71346,1,8,0:0:0:0:
186,298,71400,1,2,0:0:0:0:
195,304,71453,1,8,0:0:0:0:
206,307,71508,2,0,L|247:302,1,37.5,2|8,0:0|0:0,0:0:0:0:
279,207,71615,1,2,0:0:0:0:
287,199,71668,1,8,0:0:0:0:
296,192,71722,1,2,0:0:0:0:
305,186,71775,1,8,0:0:0:0:
316,184,71830,2,0,L|357:189,1,37.5,2|8,0:0|0:0,0:0:0:0:
403,294,71935,1,2,0:0:0:0:
412,300,71990,1,8,0:0:0:0:
423,302,72043,2,0,L|464:297,1,37.5,2|8,0:0|0:0,0:0:0:0:
493,147,72151,5,6,0:0:0:0:
491,135,72204,1,8,0:0:0:0:
488,124,72258,1,2,0:0:0:0:
484,114,72311,1,8,0:0:0:0:
480,104,72365,1,2,0:0:0:0:
474,94,72418,1,8,0:0:0:0:
467,85,72472,1,2,0:0:0:0:
460,77,72526,1,8,0:0:0:0:
452,69,72579,1,2,0:0:0:0:
443,62,72633,1,8,0:0:0:0:
433,56,72686,1,2,0:0:0:0:
423,51,72740,1,8,0:0:0:0:
412,47,72793,2,0,L|367:36,1,37.5,2|8,0:0|0:0,0:0:0:0:
341,128,72901,2,0,L|296:139,1,37.5,2|8,0:0|0:0,0:0:0:0:
270,47,73008,5,2,0:0:0:0:
259,42,73061,1,8,0:0:0:0:
249,38,73115,1,2,0:0:0:0:
238,36,73168,1,8,0:0:0:0:
227,34,73222,1,2,0:0:0:0:
215,35,73275,1,8,0:0:0:0:
204,36,73329,1,2,0:0:0:0:
193,39,73383,1,8,0:0:0:0:
183,43,73436,1,2,0:0:0:0:
173,48,73490,1,8,0:0:0:0:
163,54,73543,1,2,0:0:0:0:
155,61,73597,1,8,0:0:0:0:
147,70,73651,2,0,L|123:107,1,37.5,2|8,0:0|0:0,0:0:0:0:
46,60,73758,2,0,L|66:28,1,37.5,2|8,0:0|0:0,0:0:0:0:
52,153,73865,5,2,0:0:0:0:
58,161,73919,1,8,0:0:0:0:
66,170,73972,1,2,0:0:0:0:
75,177,74026,1,8,0:0:0:0:
84,183,74079,1,2,0:0:0:0:
95,187,74132,1,8,0:0:0:0:
105,191,74186,1,2,0:0:0:0:
116,193,74240,1,8,0:0:0:0:
128,193,74293,1,2,0:0:0:0:
139,192,74347,1,8,0:0:0:0:
150,190,74400,1,2,0:0:0:0:
160,186,74454,1,8,0:0:0:0:
170,181,74508,2,0,L|208:153,1,37.5,2|8,0:0|0:0,0:0:0:0:
291,185,74615,2,0,L|270:216,1,37.5,2|8,0:0|0:0,0:0:0:0:
215,302,74722,5,2,0:0:0:0:
217,312,74775,1,8,0:0:0:0:
221,323,74829,1,2,0:0:0:0:
226,333,74882,1,8,0:0:0:0:
233,342,74936,1,2,0:0:0:0:
241,350,74989,1,8,0:0:0:0:
250,356,75043,2,0,L|289:369,1,37.5,2|8,0:0|0:0,0:0:0:0:
360,242,75151,5,10,0:3:0:0:
361,238,75204,1,10,0:3:0:0:
362,234,75258,2,0,L|382:202,1,37.5,2|8,0:0|0:0,0:0:0:0:
488,193,75365,1,10,0:3:0:0:
487,189,75418,1,10,0:3:0:0:
486,185,75472,2,0,L|465:153,1,37.5,2|8,0:0|0:0,0:0:0:0:
350,71,75579,38,0,B|290:73|290:73|250:123,1,112.500004291535,6|0,3:0|0:0,0:0:0:0:
170,281,75793,1,2,0:0:0:0:
156,293,75846,1,8,0:0:0:0:
140,302,75900,1,2,0:0:0:0:
122,308,75953,1,8,0:0:0:0:
103,309,76007,1,2,0:0:0:0:
85,305,76060,1,8,0:0:0:0:
67,298,76114,1,2,0:0:0:0:
52,287,76168,1,8,0:0:0:0:
40,272,76222,2,0,L|24:239,1,37.5,2|8,0:0|0:0,0:0:0:0:
108,221,76329,2,0,L|124:188,1,37.5,2|8,0:0|0:0,0:0:0:0:
51,101,76436,5,2,0:0:0:0:
54,82,76489,1,8,0:0:0:0:
61,65,76543,1,2,0:0:0:0:
71,49,76596,1,8,0:0:0:0:
84,36,76650,1,2,0:0:0:0:
100,25,76703,1,8,0:0:0:0:
117,18,76757,1,2,0:0:0:0:
136,14,76811,1,8,0:0:0:0:
154,14,76864,1,2,0:0:0:0:
173,18,76918,1,8,0:0:0:0:
190,25,76971,1,2,0:0:0:0:
205,36,77025,1,8,0:0:0:0:
219,49,77079,2,0,L|240:84,1,37.5,2|8,0:0|0:0,0:0:0:0:
145,114,77186,2,0,L|124:149,1,37.5,2|8,0:0|0:0,0:0:0:0:
235,177,77293,5,6,0:0:0:0:
253,176,77346,1,8,0:0:0:0:
271,172,77400,1,2,0:0:0:0:
288,164,77453,1,8,0:0:0:0:
303,153,77507,1,2,0:0:0:0:
316,139,77560,1,8,0:0:0:0:
325,122,77614,1,2,0:0:0:0:
331,105,77668,1,8,0:0:0:0:
341,88,77722,1,2,0:0:0:0:
354,74,77775,1,8,0:0:0:0:
369,64,77829,1,2,0:0:0:0:
386,56,77882,1,8,0:0:0:0:
404,52,77936,2,0,L|460:61,1,37.5,2|8,0:0|0:0,0:0:0:0:
452,149,78043,2,0,L|415:144,1,37.5,2|8,0:0|0:0,0:0:0:0:
333,47,78151,5,2,0:0:0:0:
318,35,78204,1,8,0:0:0:0:
301,26,78258,1,2,0:0:0:0:
283,23,78311,1,8,0:0:0:0:
264,24,78365,2,0,L|226:34,1,37.5,2|8,0:0|0:0,0:0:0:0:
273,112,78472,1,2,0:0:0:0:
289,121,78525,1,8,0:0:0:0:
303,133,78579,1,2,0:0:0:0:
312,149,78632,1,8,0:0:0:0:
318,168,78686,2,0,L|321:207,1,37.5,2|8,0:0|0:0,0:0:0:0:
225,196,78794,1,2,0:0:0:0:
208,199,78847,1,8,0:0:0:0:
190,207,78901,2,0,L|157:229,1,37.5,2|8,0:0|0:0,0:0:0:0:
282,303,79008,5,6,0:0:0:0:
300,306,79061,1,8,0:0:0:0:
319,307,79115,1,2,0:0:0:0:
337,304,79168,1,8,0:0:0:0:
355,298,79222,1,2,0:0:0:0:
371,290,79275,1,8,0:0:0:0:
386,278,79329,1,2,0:0:0:0:
398,264,79383,1,8,0:0:0:0:
408,248,79436,1,2,0:0:0:0:
415,230,79490,1,8,0:0:0:0:
419,212,79543,1,2,0:0:0:0:
419,193,79597,1,8,0:0:0:0:
416,175,79651,2,0,L|409:134,1,37.5,2|8,0:0|0:0,0:0:0:0:
303,160,79758,2,0,L|310:197,1,37.5,2|8,0:0|0:0,0:0:0:0:
282,303,79866,5,2,0:0:0:0:
267,315,79918,1,8,0:0:0:0:
251,324,79973,1,2,0:0:0:0:
233,329,80025,1,8,0:0:0:0:
214,331,80080,1,2,0:0:0:0:
196,329,80132,1,8,0:0:0:0:
178,323,80187,1,2,0:0:0:0:
162,313,80240,1,8,0:0:0:0:
148,301,80294,1,2,0:0:0:0:
137,285,80347,1,8,0:0:0:0:
129,268,80401,1,2,0:0:0:0:
125,250,80454,1,8,0:0:0:0:
125,231,80508,2,0,L|128:190,1,37.5,2|8,0:0|0:0,0:0:0:0:
233,184,80615,2,0,L|230:143,1,37.5,2|8,0:0|0:0,0:0:0:0:
136,83,80722,37,6,0:0:0:0:
117,85,80776,1,8,0:0:0:0:
99,89,80829,1,2,0:0:0:0:
82,97,80883,1,8,0:0:0:0:
66,108,80936,1,2,0:0:0:0:
53,120,80989,1,8,0:0:0:0:
41,135,81043,1,2,0:0:0:0:
32,152,81097,1,8,0:0:0:0:
26,169,81150,1,2,0:0:0:0:
23,188,81204,1,8,0:0:0:0:
23,206,81257,1,2,0:0:0:0:
25,225,81311,1,8,0:0:0:0:
31,243,81365,2,0,L|52:279,1,37.5,2|8,0:0|0:0,0:0:0:0:
125,231,81472,2,0,L|128:190,1,37.5,2|8,0:0|0:0,0:0:0:0:
117,318,81579,6,0,L|138:354,3,37.5,6|8|2|8,0:0|0:0|0:0|0:0,0:0:0:0:
211,306,81793,2,0,L|214:265,3,37.5,10|8|2|8,0:0|0:0|0:0|0:0,0:0:0:0:
305,320,82008,1,10,0:3:0:0:
306,324,82061,1,10,0:3:0:0:
307,328,82115,2,0,L|304:365,1,37.5,10|2,0:3|0:0,0:0:0:0:
386,271,82222,1,10,0:3:0:0:
387,267,82275,1,10,0:3:0:0:
388,263,82329,2,0,L|385:225,1,37.5,10|2,0:3|0:0,0:0:0:0:
463,347,82436,6,0,B|505:280|505:280|502:220,1,112.500004291535,6|10,0:0|0:0,0:0:0:0:
422,137,82651,1,2,0:0:0:0:
388,263,82758,1,2,0:0:0:0:
387,267,82812,1,10,0:0:0:0:
386,271,82865,1,10,0:0:0:0:
331,155,82972,1,10,0:0:0:0:
329,150,83025,1,2,0:0:0:0:
327,145,83078,1,2,0:0:0:0:
287,287,83186,1,10,0:0:0:0:
233,135,83293,6,0,B|177:101|177:101|125:104,1,112.500004291535,2|10,0:0|0:0,0:0:0:0:
65,254,83508,1,2,0:0:0:0:
203,207,83615,1,10,0:0:0:0:
108,318,83722,1,2,0:0:0:0:
166,184,83829,1,10,0:0:0:0:
180,352,83936,1,2,0:0:0:0:
127,180,84043,1,10,0:0:0:0:
260,349,84151,6,0,B|321:317|321:317|352:270,1,112.500004291535,6|8,0:0|0:0,0:0:0:0:
334,135,84365,1,2,0:0:0:0:
275,243,84472,1,10,0:0:0:0:
258,265,84525,1,2,0:0:0:0:
235,281,84579,1,2,0:0:0:0:
208,288,84632,1,2,0:0:0:0:
180,285,84686,1,10,0:0:0:0:
127,180,84793,1,2,0:0:0:0:
93,323,84901,1,10,0:0:0:0:
95,328,84954,1,2,0:0:0:0:
97,333,85008,6,0,B|157:364|157:364|222:363,1,112.500004291535,2|8,0:0|0:0,0:0:0:0:
345,280,85222,1,2,0:0:0:0:
350,278,85276,1,2,0:0:0:0:
355,276,85329,1,10,0:0:0:0:
203,207,85436,1,2,0:0:0:0:
198,205,85490,1,2,0:0:0:0:
193,203,85543,1,10,0:0:0:0:
324,167,85651,1,2,0:0:0:0:
329,165,85705,1,2,0:0:0:0:
334,163,85758,1,10,0:0:0:0:
271,307,85865,38,0,B|308:360|308:360|389:365,1,112.500004291535,6|8,0:0|0:0,0:0:0:0:
492,246,86079,1,2,0:0:0:0:
495,218,86132,1,2,0:0:0:0:
491,190,86186,1,10,0:0:0:0:
479,164,86239,1,2,0:0:0:0:
462,143,86293,2,0,B|405:103|405:103|398:38,1,112.500004291535,2|8,0:0|0:0,0:0:0:0:
250,11,86508,1,2,0:0:0:0:
225,24,86561,1,2,0:0:0:0:
204,42,86615,1,10,0:0:0:0:
189,66,86668,1,2,0:0:0:0:
180,93,86722,5,2,0:0:0:0:
312,198,86829,2,0,B|318:125|318:125|284:107,1,112.500004291535,10|2,0:0|0:0,0:0:0:0:
161,223,87043,1,10,0:0:0:0:
159,228,87097,1,2,0:0:0:0:
157,233,87151,1,2,0:0:0:0:
85,119,87258,1,10,0:0:0:0:
83,114,87312,1,2,0:0:0:0:
81,109,87366,1,2,0:0:0:0:
33,245,87472,1,10,0:0:0:0:
31,250,87526,1,2,0:0:0:0:
29,255,87579,6,0,B|55:295|55:295|174:314,1,150,6|8,0:0|0:0,0:0:0:0:
318,102,87793,2,0,B|279:73|279:73|161:96,1,150,6|8,0:0|0:0,0:0:0:0:
31,320,88008,6,0,B|75:348|75:348|184:352,1,150,6|8,0:0|0:0,0:0:0:0:
313,54,88222,2,0,B|262:42|262:42|157:75,1,150,6|8,0:0|0:0,0:0:0:0:
290,363,88436,6,0,B|370:322|370:322|431:259,1,150,6|8,0:0|0:0,0:0:0:0:
160,50,88651,2,0,B|98:115|98:115|63:195,1,150,6|8,0:0|0:0,0:0:0:0:
369,376,88865,6,0,L|460:237,1,150,6|8,0:0|0:0,0:0:0:0:
89,70,89079,2,0,L|54:216,1,150,6|8,0:0|0:0,0:0:0:0:
489,225,89293,70,0,P|491:146|443:93,1,150,6|8,0:0|0:0,0:0:0:0:
266,106,89508,1,2,0:0:0:0:
395,184,89615,1,10,0:0:0:0:
225,127,89722,1,2,0:0:0:0:
390,165,89829,1,10,0:0:0:0:
196,162,89936,1,2,0:0:0:0:
382,149,90043,1,10,0:0:0:0:
202,258,90151,86,0,P|133:232|100:166,1,150,2|8,0:0|0:0,0:0:0:0:
199,53,90365,1,2,0:0:0:0:
286,197,90472,2,0,L|272:318,1,112.500004291535,8|2,0:0|0:0,0:0:0:0:
394,260,90686,2,0,L|381:148,1,112.500004291535,8|2,0:0|0:0,0:0:0:0:
507,225,90901,1,8,0:0:0:0:
464,79,91008,6,0,P|402:38|330:50,1,150,6|8,0:0|0:0,0:0:0:0:
286,197,91222,1,2,0:0:0:0:
265,215,91275,1,2,0:0:0:0:
240,228,91329,1,10,0:0:0:0:
212,232,91382,1,2,0:0:0:0:
184,229,91436,1,2,0:0:0:0:
134,66,91543,1,10,0:0:0:0:
160,74,91596,1,2,0:0:0:0:
183,90,91650,1,2,0:0:0:0:
201,111,91703,1,2,0:0:0:0:
212,137,91757,1,10,0:0:0:0:
92,273,91865,5,2,0:0:0:0:
54,127,91972,2,0,L|63:68,2,56.2500021457673,10|2|2,0:0|0:0|0:0,0:0:0:0:
8,266,92186,2,0,L|16:321,2,56.2500021457673,10|2|2,0:0|0:0|0:0,0:0:0:0:
46,123,92401,2,0,L|55:64,2,56.2500021457673,10|2|2,0:0|0:0|0:0,0:0:0:0:
0,262,92615,2,0,L|8:317,1,56.2500021457673,10|2,0:0|0:0,0:0:0:0:
166,336,92722,6,0,B|203:262|203:262|202:187,1,150,6|10,0:0|0:0,0:0:0:0:
134,66,92936,1,2,0:0:0:0:
283,166,93043,2,0,L|327:127,2,56.2500021457673,10|2|2,0:0|0:0|0:0,0:0:0:0:
117,202,93258,1,10,0:0:0:0:
274,263,93365,1,2,0:0:0:0:
301,260,93418,1,2,0:0:0:0:
328,250,93472,1,10,0:0:0:0:
350,233,93525,1,2,0:0:0:0:
367,211,93579,5,2,0:0:0:0:
430,311,93686,1,10,0:0:0:0:
486,207,93793,1,2,0:0:0:0:
487,202,93847,1,2,0:0:0:0:
488,197,93901,1,10,0:0:0:0:
337,188,94008,5,2,0:0:0:0:
437,294,94115,1,10,0:0:0:0:
480,154,94222,1,2,0:0:0:0:
478,148,94276,1,2,0:0:0:0:
476,142,94329,1,10,0:0:0:0:
293,182,94436,37,6,0:0:0:0:
265,185,94489,1,2,0:0:0:0:
237,183,94543,1,10,0:0:0:0:
210,174,94596,1,2,0:0:0:0:
187,158,94651,2,0,L|153:110,3,56.2500021457673,2|2|10|2,0:0|0:0|0:0|0:0,0:0:0:0:
256,97,94865,1,6,0:0:0:0:
283,94,94918,1,2,0:0:0:0:
311,96,94972,1,2,0:0:0:0:
338,105,95025,1,2,0:0:0:0:
362,121,95080,2,0,L|396:169,3,56.2500021457673,2|2|2|2,0:0|0:0|0:0|0:0,0:0:0:0:
296,273,95293,5,8,0:0:0:0:
297,278,95347,1,8,0:0:0:0:
298,283,95401,2,0,L|359:298,1,56.2500021457673,10|2,0:0|0:0,0:0:0:0:
223,354,95508,2,0,L|162:369,3,56.2500021457673,2|2|2|2,0:0|0:0|0:0|0:0,0:0:0:0:
237,183,95722,5,10,0:3:0:0:
236,177,95776,1,10,0:3:0:0:
235,171,95829,2,0,L|218:108,1,56.2500021457673,10|2,0:3|0:0,0:0:0:0:
131,248,95936,1,10,0:3:0:0:
130,254,95990,1,10,0:3:0:0:
129,260,96043,2,0,L|112:323,1,56.2500021457673,10|2,0:3|0:0,0:0:0:0:
47,134,96151,5,6,0:0:0:0:
48,122,96204,1,8,0:0:0:0:
51,111,96258,1,2,0:0:0:0:
54,101,96311,1,8,0:0:0:0:
59,91,96365,1,2,0:0:0:0:
65,81,96418,1,8,0:0:0:0:
71,72,96472,1,2,0:0:0:0:
79,63,96526,1,8,0:0:0:0:
87,56,96579,1,2,0:0:0:0:
96,49,96633,1,8,0:0:0:0:
106,43,96686,1,2,0:0:0:0:
116,38,96740,1,8,0:0:0:0:
126,34,96793,1,2,0:0:0:0:
137,31,96847,1,8,0:0:0:0:
148,30,96901,1,2,0:0:0:0:
159,29,96954,1,8,0:0:0:0:
171,30,97008,6,0,L|219:40,3,37.5,2|8|2|8,0:0|0:0|0:0|0:0,0:0:0:0:
186,120,97222,2,0,L|138:130,3,37.5,2|8|2|8,0:0|0:0|0:0|0:0,0:0:0:0:
171,210,97436,2,0,L|219:220,3,37.5,2|8|2|8,0:0|0:0|0:0|0:0,0:0:0:0:
186,300,97651,2,0,L|138:310,3,37.5,2|8|2|8,0:0|0:0|0:0|0:0,0:0:0:0:
293,355,97865,5,6,0:0:0:0:
311,354,97918,1,8,0:0:0:0:
330,350,97972,1,2,0:0:0:0:
348,345,98025,1,8,0:0:0:0:
365,337,98079,1,2,0:0:0:0:
381,328,98132,1,8,0:0:0:0:
395,316,98186,1,2,0:0:0:0:
408,303,98240,1,8,0:0:0:0:
420,288,98293,1,2,0:0:0:0:
429,271,98347,1,8,0:0:0:0:
436,254,98400,1,2,0:0:0:0:
441,236,98454,1,8,0:0:0:0:
444,217,98507,1,2,0:0:0:0:
444,199,98561,1,8,0:0:0:0:
442,180,98615,1,2,0:0:0:0:
438,162,98668,1,8,0:0:0:0:
431,144,98722,38,0,L|411:92,3,37.5,2|8|2|8,0:0|0:0|0:0|0:0,0:0:0:0:
362,202,98936,2,0,L|342:254,3,37.5,2|8|2|8,0:0|0:0|0:0|0:0,0:0:0:0:
293,144,99151,2,0,L|273:92,3,37.5,2|8|2|8,0:0|0:0|0:0|0:0,0:0:0:0:
224,202,99365,2,0,L|204:254,3,37.5,2|8|2|8,0:0|0:0|0:0|0:0,0:0:0:0:
177,74,99579,5,6,0:0:0:0:
161,63,99632,1,8,0:0:0:0:
143,57,99686,1,2,0:0:0:0:
125,53,99739,1,8,0:0:0:0:
106,53,99793,1,2,0:0:0:0:
88,57,99846,1,8,0:0:0:0:
71,65,99900,1,2,0:0:0:0:
55,75,99954,1,8,0:0:0:0:
42,88,100007,1,2,0:0:0:0:
32,104,100061,1,8,0:0:0:0:
25,121,100114,1,2,0:0:0:0:
21,140,100168,1,8,0:0:0:0:
21,158,100221,1,2,0:0:0:0:
25,177,100275,1,8,0:0:0:0:
32,194,100329,1,2,0:0:0:0:
42,210,100382,1,8,0:0:0:0:
56,223,100436,6,0,L|100:248,3,37.5,2|8|2|8,0:0|0:0|0:0|0:0,0:0:0:0:
139,319,100651,2,0,L|95:344,3,37.5,2|8|2|8,0:0|0:0|0:0|0:0,0:0:0:0:
186,227,100865,2,0,L|230:252,3,37.5,2|8|2|8,0:0|0:0|0:0|0:0,0:0:0:0:
269,323,101080,2,0,L|225:348,3,37.5,2|8|2|8,0:0|0:0|0:0|0:0,0:0:0:0:
324,208,101294,5,6,0:0:0:0:
316,186,101346,1,8,0:0:0:0:
304,167,101401,1,2,0:0:0:0:
288,151,101453,1,8,0:0:0:0:
269,140,101508,1,2,0:0:0:0:
248,133,101560,1,8,0:0:0:0:
226,131,101614,1,2,0:0:0:0:
203,126,101668,1,8,0:0:0:0:
183,116,101721,1,2,0:0:0:0:
166,102,101775,1,8,0:0:0:0:
151,85,101828,1,2,0:0:0:0:
141,65,101882,1,8,0:0:0:0:
127,47,101937,1,2,0:0:0:0:
108,35,101990,1,8,0:0:0:0:
87,27,102044,1,2,0:0:0:0:
64,27,102097,1,8,0:0:0:0:
43,32,102151,6,0,B|23:47|23:47|7:141,1,112.500004291535,6|0,0:0|0:0,0:0:0:0:
79,298,102365,2,0,B|99:283|99:283|115:189,1,112.500004291535,2|0,0:0|0:0,0:0:0:0:
227,48,102579,5,10,0:3:0:0:
230,47,102633,1,10,0:3:0:0:
233,46,102686,2,0,L|284:49,1,37.5,10|2,0:3|0:0,0:0:0:0:
269,143,102793,1,10,0:3:0:0:
272,143,102847,1,10,0:3:0:0:
275,144,102900,2,0,L|317:172,1,37.5,10|2,0:3|0:0,0:0:0:0:
223,303,103008,38,0,P|268:355|324:370,1,112.500004291535,6|8,0:0|0:0,0:0:0:0:
434,267,103222,1,2,0:0:0:0:
254,218,103329,2,0,L|137:234,1,112.500004291535,8|2,0:0|0:0,0:0:0:0:
81,83,103543,2,0,L|192:98,1,112.500004291535,8|2,0:0|0:0,0:0:0:0:
254,218,103758,1,8,0:0:0:0:
284,69,103865,38,0,P|250:24|199:3,1,112.500004291535,2|8,0:0|0:0,0:0:0:0:
80,167,104079,1,2,0:0:0:0:
192,98,104186,1,8,0:0:0:0:
102,227,104293,1,2,0:0:0:0:
179,75,104401,1,8,0:0:0:0:
148,264,104508,2,0,P|181:308|232:329,1,112.500004291535,2|8,0:0|0:0,0:0:0:0:
330,165,104722,5,6,0:0:0:0:
183,202,104829,1,8,0:0:0:0:
313,290,104936,1,2,0:0:0:0:
264,129,105043,2,0,L|336:29,1,112.500004291535,8|2,0:0|0:0,0:0:0:0:
400,229,105258,2,0,L|472:329,1,112.500004291535,8|2,0:0|0:0,0:0:0:0:
511,146,105472,1,2,0:0:0:0:
330,165,105579,6,0,P|312:227|332:288,1,112.500004291535,2|8,0:0|0:0,0:0:0:0:
426,82,105793,2,0,P|383:46|329:37,1,112.500004291535,2|8,0:0|0:0,0:0:0:0:
213,162,106008,1,2,0:0:0:0:
258,0,106115,1,8,0:0:0:0:
330,165,106222,2,0,P|313:227|264:269,1,112.500004291535,2|8,0:0|0:0,0:0:0:0:
75,172,106437,37,6,0:0:0:0:
76,142,106490,1,8,0:0:0:0:
83,113,106544,1,2,0:0:0:0:
97,86,106597,1,8,0:0:0:0:
116,63,106651,1,2,0:0:0:0:
139,44,106704,1,8,0:0:0:0:
166,31,106758,1,2,0:0:0:0:
195,24,106812,1,8,0:0:0:0:
225,23,106865,1,2,0:0:0:0:
254,29,106919,1,8,0:0:0:0:
282,40,106972,1,2,0:0:0:0:
306,58,107026,1,8,0:0:0:0:
326,80,107079,1,2,0:0:0:0:
341,106,107133,1,8,0:0:0:0:
350,134,107186,1,2,0:0:0:0:
353,164,107239,1,8,0:0:0:0:
349,194,107293,5,2,0:0:0:0:
344,225,107346,1,8,0:0:0:0:
349,255,107401,1,2,0:0:0:0:
363,281,107454,1,8,0:0:0:0:
387,300,107508,1,2,0:0:0:0:
415,309,107561,1,8,0:0:0:0:
445,306,107615,1,2,0:0:0:0:
472,293,107669,1,8,0:0:0:0:
491,271,107722,1,2,0:0:0:0:
502,243,107776,1,8,0:0:0:0:
501,213,107829,1,2,0:0:0:0:
489,186,107883,1,8,0:0:0:0:
468,165,107936,1,2,0:0:0:0:
441,153,107990,1,8,0:0:0:0:
410,153,108043,1,2,0:0:0:0:
382,163,108097,1,8,0:0:0:0:
360,183,108151,6,0,L|333:225,3,37.5,10|8|2|8,0:0|0:0|0:0|0:0,0:0:0:0:
255,191,108367,2,0,L|247:254,3,37.5,2|8|10|8,0:0|0:0|0:3|0:0,0:0:0:0:
304,92,108584,5,2,0:0:0:0:
339,214,108692,1,10,0:3:0:0:
339,232,108746,1,10,0:3:0:0:
336,251,108800,1,10,0:3:0:0:
330,268,108854,1,10,0:3:0:0:
319,284,108908,1,10,0:3:0:0:
306,297,108962,1,10,0:3:0:0:
290,307,109017,6,0,P|256:315|220:310,2,50,6|2|2,0:0|0:3|0:3,0:0:0:0:
250,228,109247,2,0,P|216:220|180:225,2,50,2|2|2,0:0|0:0|0:0,0:0:0:0:
154,320,109478,5,10,0:3:0:0:
114,289,109566,1,10,0:3:0:0:
92,245,109654,1,10,0:3:0:0:
131,193,109742,37,8,0:3:0:0:
129,158,109830,1,8,0:3:0:0:
113,127,109918,1,8,0:3:0:0:
54,105,110006,86,0,P|55:64|80:26,1,75,6|0,0:0|0:0,0:0:0:0:
179,4,110358,1,0,0:0:0:0:
131,193,110535,1,2,0:0:0:0:
263,50,110711,2,0,P|298:47|326:56,1,56.25,8|0,0:0|0:0,0:0:0:0:
330,108,111064,6,8,P|350:139|382:157,1,75,2|0,0:0|0:0,0:0:0:0:
493,138,111417,1,0,0:0:0:0:
401,302,111594,1,2,0:0:0:0:
330,108,111770,2,0,P|302:102|274:105,1,56.25,8|0,0:0|0:0,0:0:0:0:
244,154,112123,102,8,P|214:176|177:182,1,75,6|0,0:0|0:0,0:0:0:0:
202,65,112476,1,0,0:0:0:0:
22,75,112653,1,2,0:0:0:0:
177,182,112829,2,0,P|189:206|193:234,1,56.25,8|0,0:0|0:0,0:0:0:0:
170,286,113182,5,2,0:0:0:0:
83,138,113358,1,2,0:0:0:0:
135,357,113535,2,0,B|175:373|217:360|238:325|238:325|254:360|254:360|302:329,1,168.750006437302,6|0,0:0|0:0,0:0:0:0:
336,329,113888,102,8,P|354:296|356:259,1,75,6|0,0:0|0:0,0:0:0:0:
286,172,114240,1,0,0:0:0:0:
461,241,114417,1,2,0:0:0:0:
303,92,114593,2,0,P|275:90|248:99,1,56.25,8|0,0:0|0:0,0:0:0:0:
201,68,114946,6,0,P|194:31|172:1,1,75,2|0,0:0|0:0,0:0:0:0:
60,12,115299,1,0,0:0:0:0:
189,159,115476,1,2,0:0:0:0:
185,196,115564,1,2,0:0:0:0:
181,233,115652,2,0,P|153:234|126:225,1,56.25,8|0,0:0|0:0,0:0:0:0:
77,261,116005,101,6,0:0:0:0:
238,300,116182,1,2,0:0:0:0:
72,346,116358,1,2,0:0:0:0:
257,379,116535,1,2,0:0:0:0:
289,361,116623,1,10,0:0:0:0:
321,343,116711,2,0,P|330:316|330:288,1,56.25,8|0,0:0|0:0,0:0:0:0:
306,237,117064,5,2,0:0:0:0:
460,296,117240,1,2,0:0:0:0:
292,157,117417,2,0,P|265:166|244:185,1,56.25,6|0,0:0|0:0,0:0:0:0:
332,90,117770,2,0,P|305:80|277:80,1,56.25,6|0,0:0|0:0,0:0:0:0:
405,64,118123,2,0,P|390:39|369:22,1,56.25,12|0,0:0|0:0,0:0:0:0:
483,36,118476,102,0,P|487:73|475:108,1,75,6|0,0:0|0:0,0:0:0:0:
397,189,118828,1,0,0:0:0:0:
369,22,119005,1,2,0:0:0:0:
476,176,119181,2,0,P|476:203|466:230,1,56.25,8|0,0:0|0:0,0:0:0:0:
419,265,119534,6,0,P|382:258|346:269,1,75,2|0,0:0|0:0,0:0:0:0:
287,365,119887,1,0,0:0:0:0:
230,178,120064,1,2,0:0:0:0:
167,370,120240,2,0,P|139:370|112:360,1,56.25,8|0,0:0|0:0,0:0:0:0:
77,312,120593,102,0,P|78:274|97:242,1,75,6|0,0:0|0:0,0:0:0:0:
217,258,120946,1,0,0:0:0:0:
75,159,121123,1,2,0:0:0:0:
266,195,121299,2,0,P|284:216|294:242,1,56.25,8|0,0:0|0:0,0:0:0:0:
288,299,121652,5,2,0:0:0:0:
157,182,121828,1,2,0:0:0:0:
376,236,122005,2,0,B|389:258|389:258|402:222|402:222|442:233|491:202|494:157,1,168.750006437302
421,148,122358,102,0,P|409:112|416:75,1,75,6|0,0:0|0:0,0:0:0:0:
512,4,122710,1,0,0:0:0:0:
488,178,122887,1,2,0:0:0:0:
393,6,123063,2,0,P|368:19|350:40,1,56.25,8|0,0:0|0:0,0:0:0:0:
336,96,123416,6,0,P|323:131|296:156,1,75,2|0,0:0|0:0,0:0:0:0:
185,140,123769,1,0,0:0:0:0:
263,286,123946,1,2,0:0:0:0:
296,268,124034,1,2,0:0:0:0:
329,250,124122,2,0,P|353:263|371:284,1,56.25,8|0,0:0|0:0,0:0:0:0:
388,347,124475,101,6,0:0:0:0:
436,150,124652,1,2,0:0:0:0:
315,339,124828,1,2,0:0:0:0:
504,178,125005,1,2,0:0:0:0:
263,286,125181,2,0,P|238:272|220:251,1,56.25,8|0,0:0|0:0,0:0:0:0:
213,191,125534,5,2,0:0:0:0:
369,263,125710,1,2,0:0:0:0:
239,107,125887,1,2,0:0:0:0:
213,103,125975,1,2,0:0:0:0:
187,108,126063,1,2,0:0:0:0:
163,119,126151,1,2,0:0:0:0:
144,137,126240,101,2,0:0:0:0:
107,130,126328,1,2,0:0:0:0:
78,107,126416,1,2,0:0:0:0:
65,72,126504,1,2,0:0:0:0:
72,36,126593,22,0,P|118:44|185:12,1,112.500004291535,6|0,0:0|0:0,0:0:0:0:
290,56,127122,1,2,0:0:0:0:
144,137,127298,1,8,0:0:0:0:
143,137,127651,2,0,P|137:192|160:242,1,112.500004291535,2|8,0:0|0:0,0:0:0:0:
294,215,128357,6,0,L|231:176,1,75,2|0,0:0|0:0,0:0:0:0:
256,294,128710,1,2,0:0:0:0:
375,202,128887,2,0,L|339:136,1,75,8|0,0:0|0:0,0:0:0:0:
418,297,129240,1,2,0:0:0:0:
434,263,129328,1,2,0:0:0:0:
450,229,129416,2,0,L|452:154,1,75,8|0,0:0|0:0,0:0:0:0:
269,66,129769,5,2,0:0:0:0:
254,87,129857,1,2,0:0:0:0:
245,112,129945,1,2,0:0:0:0:
242,138,130033,1,2,0:0:0:0:
247,163,130121,1,8,0:0:0:0:
339,136,130298,1,2,0:0:0:0:
157,43,130476,6,0,P|136:93|137:160,1,112.500004291535,6|0,0:0|0:0,0:0:0:0:
247,163,131005,1,2,0:0:0:0:
79,265,131181,1,8,0:0:0:0:
79,265,131534,2,0,P|132:233|236:274,1,150,2|0,0:0|0:0,0:0:0:0:
264,370,132064,1,2,0:0:0:0:
320,153,132240,1,8,0:0:0:0:
320,153,132593,5,2,0:0:0:0:
214,251,132770,1,8,0:0:0:0:
214,251,132946,1,0,0:0:0:0:
208,121,133123,1,2,0:0:0:0:
196,85,133211,1,2,0:0:0:0:
184,49,133299,1,8,0:0:0:0:
139,211,133476,1,0,0:0:0:0:
276,77,133652,5,2,0:0:0:0:
311,66,133740,1,2,0:0:0:0:
348,71,133828,1,2,0:0:0:0:
379,91,133916,1,2,0:0:0:0:
400,122,134005,37,10,0:0:0:0:
374,117,134093,1,2,0:0:0:0:
348,121,134181,1,2,0:0:0:0:
325,134,134269,1,2,0:0:0:0:
308,154,134358,5,10,0:3:0:0:
326,156,134446,1,2,0:0:0:0:
343,164,134534,1,2,0:0:0:0:
358,175,134622,1,2,0:0:0:0:
370,189,134711,6,0,P|386:241|372:295,1,112.500004291535,6|0,0:0|0:0,0:0:0:0:
220,369,135240,1,2,0:0:0:0:
223,167,135416,1,8,0:0:0:0:
223,167,135769,2,0,P|251:215|301:241,1,112.500004291535,2|8,0:0|0:0,0:0:0:0:
301,241,136475,5,2,0:0:0:0:
189,90,136652,2,0,L|100:122,1,75,8|0,0:0|0:0,0:0:0:0:
308,154,137005,1,8,0:0:0:0:
115,268,137181,1,2,0:0:0:0:
115,272,137269,1,2,0:0:0:0:
115,276,137358,1,8,0:0:0:0:
189,90,137534,5,2,0:0:0:0:
220,260,137711,1,8,0:0:0:0:
281,60,137887,1,2,0:0:0:0:
306,56,137975,1,2,0:0:0:0:
332,60,138063,1,2,0:0:0:0:
356,70,138151,1,2,0:0:0:0:
377,86,138239,1,8,0:0:0:0:
308,154,138416,1,2,0:0:0:0:
417,9,138593,6,0,P|454:49|464:104,1,112.500004291535,6|0,0:0|0:0,0:0:0:0:
409,240,139122,1,2,0:0:0:0:
281,60,139299,1,8,0:0:0:0:
281,60,139652,2,0,P|226:69|185:107,1,112.500004291535,2|0,0:0|0:0,0:0:0:0:
226,231,140181,1,2,0:0:0:0:
73,43,140358,37,2,0:0:0:0:
60,239,140534,1,2,0:0:0:0:
185,107,140711,1,2,0:0:0:0:
46,229,140887,1,2,0:0:0:0:
226,231,141063,1,2,0:0:0:0:
32,219,141240,1,2,0:0:0:0:
22,182,141328,1,2,0:0:0:0:
27,144,141416,5,8,0:0:0:0:
27,144,142122,2,0,P|22:177|28:211,1,56.25,2|0,0:0|0:0,0:0:0:0:
31,219,142475,6,0,P|81:165|154:161,1,150,6|0,0:0|0:0,0:0:0:0:
221,253,143004,1,2,0:0:0:0:
155,70,143180,1,0,0:0:0:0:
153,160,143357,1,0,0:0:0:0:
265,119,143533,6,0,L|348:108,1,75,2|0,0:0|0:0,0:0:0:0:
318,206,143886,1,0,0:0:0:0:
274,31,144063,1,2,0:0:0:0:
241,201,144239,2,0,P|247:242|275:272,1,84.3750032186509,8|0,0:0|0:0,0:0:0:0:
334,289,144592,6,0,P|399:255|469:277,1,150,6|0,0:0|0:0,0:0:0:0:
367,367,145122,1,2,0:0:0:0:
394,167,145298,2,0,L|344:101,1,75,8|0,0:0|0:0,0:0:0:0:
241,201,145651,5,2,0:0:0:0:
436,90,145827,2,0,L|386:24,1,75,2|0,0:0|0:0,0:0:0:0:
333,217,146180,1,2,0:0:0:0:
250,33,146357,1,8,0:0:0:0:
348,107,146533,1,0,0:0:0:0:
210,129,146710,38,0,P|136:124|86:70,1,150,6|0,0:0|0:0,0:0:0:0:
68,229,147239,1,2,0:0:0:0:
272,177,147416,1,8,0:0:0:0:
170,48,147592,1,0,0:0:0:0:
344,43,147769,6,0,L|422:89,1,75,2|0,0:0|0:0,0:0:0:0:
425,200,148122,1,0,0:0:0:0:
210,129,148298,1,2,0:0:0:0:
363,279,148475,2,0,P|363:320|341:356,1,84.3750032186509,8|0,0:0|0:0,0:0:0:0:
289,356,148827,38,0,P|239:302|166:298,1,150,6|0,0:0|0:0,0:0:0:0:
38,378,149357,1,2,0:0:0:0:
189,220,149533,2,0,P|183:178|156:146,1,84.3750032186509,8|0,0:0|0:0,0:0:0:0:
102,130,149886,5,2,0:0:0:0:
309,92,150063,2,0,L|373:158,1,75,8|0,0:0|0:0,0:0:0:0:
150,67,150416,1,2,0:0:0:0:
272,228,150592,1,8,0:0:0:0:
246,4,150769,1,8,0:0:0:0:
189,220,150945,38,0,P|218:286|301:306,1,150,6|0,0:0|0:0,0:0:0:0:
434,214,151475,1,2,0:0:0:0:
260,150,151651,2,0,P|265:108|292:76,1,84.3750032186509,8|0,0:0|0:0,0:0:0:0:
255,48,152004,6,0,L|164:37,1,75,2|0,0:0|0:0,0:0:0:0:
119,105,152357,1,0,0:0:0:0:
333,138,152533,1,2,0:0:0:0:
123,185,152710,2,0,P|109:145|118:104,1,84.3750032186509,8|0,0:0|0:0,0:0:0:0:
55,132,153063,38,0,P|38:202|92:268,1,150,6|0,0:0|0:0,0:0:0:0:
204,141,153592,1,2,0:0:0:0:
197,316,153769,2,0,P|211:354|245:379,1,84.3750032186509,8|0,0:0|0:0,0:0:0:0:
300,365,154122,5,2,0:0:0:0:
136,212,154298,2,0,L|72:269,1,75,8|0,0:0|0:0,0:0:0:0:
204,141,154651,1,2,0:0:0:0:
270,296,154827,2,0,P|309:309|349:300,1,84.3750032186509,8|0,0:0|0:0,0:0:0:0:
347,251,155180,38,0,P|327:180|367:119,1,150,6|0,0:0|0:0,0:0:0:0:
452,263,155710,1,2,0:0:0:0:
411,60,155886,2,0,P|371:46|331:55,1,84.3750032186509,8|0,0:0|0:0,0:0:0:0:
291,95,156239,5,2,0:0:0:0:
422,196,156416,1,0,0:0:0:0:
422,196,156592,1,0,0:0:0:0:
237,163,156769,1,2,0:0:0:0:
349,300,156945,2,0,P|337:339|305:366,1,84.3750032186509,8|0,0:0|0:0,0:0:0:0:
260,333,157298,38,0,P|229:266|160:245,1,150,6|0,0:0|0:0,0:0:0:0:
42,361,157827,1,2,0:0:0:0:
41,150,158004,2,0,L|124:117,1,75,8|0,0:0|0:0,0:0:0:0:
262,258,158357,5,6,0:0:0:0:
262,258,158710,1,8,0:0:0:0:
79,218,158886,1,2,0:0:0:0:
274,52,159063,1,8,0:0:0:0:
274,52,159239,1,8,0:0:0:0:
176,330,159416,38,0,L|144:252,1,75,6|2,0:0|0:0,0:0:0:0:
247,184,159769,2,0,L|264:271,1,75,2|2,0:0|0:0,0:0:0:0:
163,144,160122,1,10,0:0:0:0:
296,122,160298,1,2,0:0:0:0:
162,53,160475,5,2,0:0:0:0:
158,51,160563,1,2,0:0:0:0:
154,49,160651,1,2,0:0:0:0:
247,184,160827,1,2,0:0:0:0:
275,44,161004,1,2,0:0:0:0:
163,144,161180,2,0,L|169:232,1,75,10|2,0:0|0:0,0:0:0:0:
356,164,161533,6,0,L|329:94,1,75,2|2,0:0|0:0,0:0:0:0:
424,239,161886,2,0,L|435:164,1,75,2|2,0:0|0:0,0:0:0:0:
445,337,162239,2,0,L|492:278,1,75,2|2,0:0|0:0,0:0:0:0:
327,286,162592,5,2,0:0:0:0:
323,284,162680,1,2,0:0:0:0:
319,282,162769,1,2,0:0:0:0:
439,168,162945,1,2,0:0:0:0:
439,168,163122,1,2,0:0:0:0:
445,337,163298,1,10,0:0:0:0:
446,340,163386,1,2,0:0:0:0:
447,343,163475,1,2,0:0:0:0:
288,164,163651,6,0,L|181:179,1,75,6|2,0:0|0:0,0:0:0:0:
169,310,164004,2,0,L|276:325,1,75,2|2,0:0|0:0,0:0:0:0:
288,164,164357,1,10,0:0:0:0:
317,330,164533,1,2,0:0:0:0:
138,184,164710,5,6,0:0:0:0:
134,183,164798,1,2,0:0:0:0:
130,181,164886,1,2,0:0:0:0:
303,254,165063,2,0,L|368:214,1,75,2|2,0:0|0:0,0:0:0:0:
291,51,165416,1,10,0:0:0:0:
401,72,165592,1,2,0:0:0:0:
209,150,165769,37,6,0:0:0:0:
209,150,165945,1,2,0:0:0:0:
132,21,166122,1,2,0:0:0:0:
132,21,166298,1,2,0:0:0:0:
119,216,166475,2,0,L|227:235,1,75,10|2,0:0|0:0,0:0:0:0:
328,123,166827,5,6,0:0:0:0:
209,150,167004,1,2,0:0:0:0:
356,205,167180,1,2,0:0:0:0:
197,120,167357,1,2,0:0:0:0:
325,286,167533,1,10,0:0:0:0:
197,91,167710,1,10,0:0:0:0:
243,341,167886,6,0,L|140:365,1,75,6|2,0:0|0:0,0:0:0:0:
86,233,168239,1,2,0:0:0:0:
86,233,168416,1,2,0:0:0:0:
250,216,168592,2,0,L|303:145,1,75,10|2,0:0|0:0,0:0:0:0:
177,29,168945,5,2,0:0:0:0:
174,26,169033,1,2,0:0:0:0:
171,23,169122,1,2,0:0:0:0:
293,60,169298,2,0,L|374:34,1,75,2|2,0:0|0:0,0:0:0:0:
294,155,169651,2,0,L|213:129,1,75,10|2,0:0|0:0,0:0:0:0:
408,100,170004,6,0,L|413:195,1,75,6|0,0:0|0:0,0:0:0:0:
281,228,170357,2,0,L|295:146,1,75,2|2,0:0|0:0,0:0:0:0:
437,251,170710,1,10,0:0:0:0:
299,308,170886,1,2,0:0:0:0:
411,174,171063,5,2,0:0:0:0:
413,171,171151,1,2,0:0:0:0:
416,168,171239,1,2,0:0:0:0:
379,309,171416,1,2,0:0:0:0:
379,309,171592,1,2,0:0:0:0:
293,154,171769,1,10,0:0:0:0:
291,150,171857,1,2,0:0:0:0:
289,146,171945,1,2,0:0:0:0:
264,355,172122,38,0,L|188:312,1,75,6|2,0:0|0:0,0:0:0:0:
203,131,172474,2,0,L|226:221,1,75,2|2,0:0|0:0,0:0:0:0:
87,287,172827,1,10,0:0:0:0:
125,134,173004,1,2,0:0:0:0:
198,318,173180,5,2,0:0:0:0:
200,321,173269,1,2,0:0:0:0:
202,324,173357,1,2,0:0:0:0:
277,259,173533,1,2,0:0:0:0:
277,259,173710,1,2,0:0:0:0:
284,163,173886,1,10,0:0:0:0:
284,163,174063,1,2,0:0:0:0:
161,78,174239,5,6,0:0:0:0:
182,227,174416,1,2,0:0:0:0:
276,57,174592,2,0,L|374:77,1,75,2|2,0:0|0:0,0:0:0:0:
435,196,174945,1,2,0:0:0:0:
437,199,175033,1,2,0:0:0:0:
439,202,175122,1,2,0:0:0:0:
249,126,175298,6,0,L|276:56,1,75,2|2,0:0|0:0,0:0:0:0:
181,201,175651,2,0,L|170:126,1,75,2|2,0:0|0:0,0:0:0:0:
160,299,176004,1,10,0:0:0:0:
159,302,176092,1,2,0:0:0:0:
158,305,176180,1,2,0:0:0:0:
97,143,176357,5,6,0:0:0:0:
46,275,176533,1,2,0:0:0:0:
181,201,176710,1,2,0:0:0:0:
14,159,176886,2,0,L|10:85,1,75,2|10,0:0|0:0,0:0:0:0:
114,24,177239,1,2,0:0:0:0:
181,201,177416,5,2,0:0:0:0:
180,204,177504,1,2,0:0:0:0:
179,207,177592,1,2,0:0:0:0:
188,17,177769,2,0,L|99:25,1,75,2|2,0:0|0:0,0:0:0:0:
263,94,178122,2,0,L|352:102,1,75,10|2,0:0|0:0,0:0:0:0:
170,115,178474,37,6,0:0:0:0:
134,126,178562,1,2,0:0:0:0:
106,150,178650,1,2,0:0:0:0:
90,184,178738,1,2,0:0:0:0:
88,221,178826,1,2,0:0:0:0:
101,256,178915,1,2,0:0:0:0:
127,282,179003,1,2,0:0:0:0:
161,297,179091,1,2,0:0:0:0:
199,297,179179,1,2,0:0:0:0:
233,281,179268,1,2,0:0:0:0:
258,254,179356,1,2,0:0:0:0:
270,219,179445,1,2,0:0:0:0:
297,192,179534,5,2,0:0:0:0:
332,179,179622,1,2,0:0:0:0:
369,180,179710,2,0,L|423:196,1,37.5,10|2,0:0|0:0,0:0:0:0:
345,272,179886,1,2,0:0:0:0:
312,254,179974,1,2,0:0:0:0:
287,226,180062,1,2,0:0:0:0:
275,190,180150,1,2,0:0:0:0:
277,153,180239,2,0,L|291:93,1,37.5,10|2,0:0|0:0,0:0:0:0:
199,43,180416,1,2,0:0:0:0:
163,56,180504,1,2,0:0:0:0:
128,69,180592,6,0,L|106:166,1,75,6|0,0:0|0:0,0:0:0:0:
213,232,180945,1,2,0:0:0:0:
34,94,181122,2,0,L|12:191,1,75,2|8,0:0|0:0,0:0:0:0:
99,310,181474,1,2,0:0:0:0:
214,116,181651,5,2,0:0:0:0:
214,112,181739,1,2,0:0:0:0:
214,108,181827,1,2,0:0:0:0:
283,207,182004,1,2,0:0:0:0:
120,182,182180,2,0,L|116:103,1,75,2|8,0:0|0:0,0:0:0:0:
210,20,182533,1,2,0:0:0:0:
202,200,182710,5,2,0:0:0:0:
202,204,182798,1,2,0:0:0:0:
202,208,182886,1,2,0:0:0:0:
290,86,183063,1,2,0:0:0:0:
319,225,183239,2,0,L|248:292,1,75,2|8,0:0|0:0,0:0:0:0:
139,300,183592,1,2,0:0:0:0:
349,311,183769,5,2,0:0:0:0:
371,298,183857,1,2,0:0:0:0:
390,279,183945,1,10,0:0:0:0:
402,256,184033,1,2,0:0:0:0:
407,231,184121,1,2,0:0:0:0:
405,205,184210,1,2,0:0:0:0:
395,180,184298,1,2,0:0:0:0:
378,160,184386,1,2,0:0:0:0:
323,156,184474,37,2,0:0:0:0:
305,150,184562,1,2,0:0:0:0:
288,141,184650,1,2,0:0:0:0:
274,129,184738,1,2,0:0:0:0:
200,115,184827,6,0,L|162:195,1,75,6|2,0:0|0:0,0:0:0:0:
264,276,185180,1,2,0:0:0:0:
200,115,185357,2,0,L|232:47,1,75,2|10,0:0|0:0,0:0:0:0:
348,58,185710,1,2,0:0:0:0:
314,211,185886,5,2,0:0:0:0:
313,214,185974,1,2,0:0:0:0:
312,217,186063,1,2,0:0:0:0:
418,140,186239,1,2,0:0:0:0:
254,164,186416,2,0,L|194:227,1,75,2|10,0:0|0:0,0:0:0:0:
302,310,186769,1,2,0:0:0:0:
330,133,186945,5,6,0:0:0:0:
329,130,187033,1,2,0:0:0:0:
328,127,187122,1,2,0:0:0:0:
387,240,187298,1,2,0:0:0:0:
202,218,187474,2,0,L|170:137,1,75,2|10,0:0|0:0,0:0:0:0:
280,64,187827,1,2,0:0:0:0:
236,285,188004,5,10,0:0:0:0:
210,291,188092,1,2,0:0:0:0:
184,289,188180,1,2,0:0:0:0:
160,279,188268,1,2,0:0:0:0:
122,238,188357,5,2,0:0:0:0:
103,239,188445,1,2,0:0:0:0:
85,245,188533,1,2,0:0:0:0:
69,255,188621,1,2,0:0:0:0:
18,233,188710,37,10,0:0:0:0:
6,197,188798,1,2,0:0:0:0:
9,160,188886,1,2,0:0:0:0:
26,126,188974,1,2,0:0:0:0:
101,116,189063,6,0,L|165:174,1,75,6|2,0:0|0:0,0:0:0:0:
118,312,189416,1,2,0:0:0:0:
193,95,189592,2,0,L|257:153,1,75,2|10,0:0|0:0,0:0:0:0:
210,291,189945,1,2,0:0:0:0:
347,93,190122,5,2,0:0:0:0:
348,89,190210,1,2,0:0:0:0:
349,85,190298,1,2,0:0:0:0:
407,198,190474,1,2,0:0:0:0:
248,145,190651,2,0,L|199:211,1,75,2|10,0:0|0:0,0:0:0:0:
280,326,191004,1,2,0:0:0:0:
347,93,191180,5,6,0:0:0:0:
348,89,191268,1,2,0:0:0:0:
349,85,191356,1,2,0:0:0:0:
173,126,191533,1,2,0:0:0:0:
334,218,191710,2,0,L|425:192,1,75,2|10,0:0|0:0,0:0:0:0:
427,79,192063,1,2,0:0:0:0:
262,167,192239,5,2,0:0:0:0:
251,191,192327,1,2,0:0:0:0:
248,216,192415,1,2,0:0:0:0:
251,242,192503,1,2,0:0:0:0:
304,264,192592,5,2,0:0:0:0:
321,258,192680,1,2,0:0:0:0:
340,256,192768,1,2,0:0:0:0:
359,258,192856,1,2,0:0:0:0:
395,214,192945,37,10,0:0:0:0:
383,178,193033,1,2,0:0:0:0:
386,141,193121,1,2,0:0:0:0:
404,108,193209,1,2,0:0:0:0:
400,33,193298,6,0,L|309:3,1,75,6|2,0:0|0:0,0:0:0:0:
247,87,193651,1,2,0:0:0:0:
483,101,193827,2,0,L|477:8,1,75,2|8,0:0|0:0,0:0:0:0:
334,88,194180,1,2,0:0:0:0:
488,196,194357,5,2,0:0:0:0:
491,197,194445,1,2,0:0:0:0:
494,198,194533,1,2,0:0:0:0:
404,108,194710,1,2,0:0:0:0:
395,257,194886,2,0,L|340:330,1,75,2|8,0:0|0:0,0:0:0:0:
222,321,195239,1,2,0:0:0:0:
303,135,195416,5,6,0:0:0:0:
304,131,195504,1,2,0:0:0:0:
305,127,195592,1,2,0:0:0:0:
395,257,195769,1,2,0:0:0:0:
210,176,195945,2,0,L|228:93,1,75,2|8,0:0|0:0,0:0:0:0:
334,43,196298,1,2,0:0:0:0:
271,227,196474,5,6,0:0:0:0:
250,243,196562,1,2,0:0:0:0:
226,253,196650,1,2,0:0:0:0:
200,254,196738,1,2,0:0:0:0:
151,227,196827,5,2,0:0:0:0:
137,204,196915,1,2,0:0:0:0:
118,187,197003,1,2,0:0:0:0:
94,176,197091,1,2,0:0:0:0:
71,125,197180,37,10,0:0:0:0:
75,99,197268,1,2,0:0:0:0:
88,76,197356,1,2,0:0:0:0:
107,58,197444,1,2,0:0:0:0:
179,83,197533,5,6,0:0:0:0:
196,88,197621,1,2,0:0:0:0:
215,90,197709,1,2,0:0:0:0:
234,87,197797,1,2,0:0:0:0:
294,48,197886,5,6,0:0:0:0:
312,45,197974,1,2,0:0:0:0:
331,47,198062,1,2,0:0:0:0:
349,52,198150,1,2,0:0:0:0:
360,123,198239,5,6,0:0:0:0:
364,141,198327,1,2,0:0:0:0:
372,158,198415,1,2,0:0:0:0:
383,173,198503,1,2,0:0:0:0:
424,241,198592,5,14,0:0:0:0:
423,259,198680,1,2,0:0:0:0:
419,277,198768,1,2,0:0:0:0:
411,294,198856,1,2,0:0:0:0:
340,306,198945,5,6,0:0:0:0:
321,309,199033,1,2,0:0:0:0:
304,317,199121,1,2,0:0:0:0:
289,328,199209,1,2,0:0:0:0:
229,367,199298,37,6,0:0:0:0:
210,366,199386,1,2,0:0:0:0:
192,362,199474,1,2,0:0:0:0:
175,354,199562,1,2,0:0:0:0:
180,282,199651,5,6,0:0:0:0:
188,265,199739,1,2,0:0:0:0:
194,247,199827,1,2,0:0:0:0:
195,228,199915,1,2,0:0:0:0:
233,167,200004,5,6,0:0:0:0:
250,161,200092,1,2,0:0:0:0:
269,158,200180,1,2,0:0:0:0:
287,160,200268,1,2,0:0:0:0:
350,197,200357,5,6,0:0:0:0:
365,187,200445,1,2,0:0:0:0:
379,174,200533,1,2,0:0:0:0:
390,158,200621,1,2,0:0:0:0:
342,96,200710,5,14,0:0:0:0:
308,79,200798,1,2,0:0:0:0:
282,52,200886,1,2,0:0:0:0:
269,18,200974,1,2,0:0:0:0:
199,4,201063,5,6,0:0:0:0:
169,26,201151,1,2,0:0:0:0:
150,58,201239,1,2,0:0:0:0:
146,95,201327,1,2,0:0:0:0:
203,139,201416,37,6,0:0:0:0:
212,163,201504,1,2,0:0:0:0:
214,189,201592,1,2,0:0:0:0:
209,214,201680,1,2,0:0:0:0:
164,280,201769,5,6,0:0:0:0:
173,295,201857,1,2,0:0:0:0:
186,309,201945,1,2,0:0:0:0:
202,320,202033,1,2,0:0:0:0:
273,310,202122,5,6,0:0:0:0:
291,310,202210,1,2,0:0:0:0:
309,315,202298,1,2,0:0:0:0:
326,323,202386,1,2,0:0:0:0:
383,367,202474,5,6,0:0:0:0:
400,359,202562,1,2,0:0:0:0:
415,349,202650,1,2,0:0:0:0:
428,335,202738,1,2,0:0:0:0:
405,260,202827,5,14,0:0:0:0:
402,241,202915,1,2,0:0:0:0:
404,222,203003,1,2,0:0:0:0:
409,204,203091,1,2,0:0:0:0:
453,148,203180,5,6,0:0:0:0:
452,129,203268,1,2,0:0:0:0:
447,111,203356,1,2,0:0:0:0:
439,94,203444,1,2,0:0:0:0:
367,90,203533,37,6,0:0:0:0:
348,89,203621,1,2,0:0:0:0:
330,84,203709,1,2,0:0:0:0:
313,76,203797,1,2,0:0:0:0:
241,76,203886,5,6,0:0:0:0:
225,86,203974,1,2,0:0:0:0:
211,99,204062,1,2,0:0:0:0:
201,114,204150,1,2,0:0:0:0:
202,187,204239,5,6,0:0:0:0:
192,202,204327,1,2,0:0:0:0:
179,216,204415,1,2,0:0:0:0:
163,226,204503,1,2,0:0:0:0:
95,206,204592,5,6,0:0:0:0:
87,188,204680,1,2,0:0:0:0:
77,173,204768,1,2,0:0:0:0:
63,160,204856,1,2,0:0:0:0:
82,83,204945,5,6,0:0:0:0:
105,71,205033,1,2,0:0:0:0:
131,66,205121,1,2,0:0:0:0:
157,66,205209,1,2,0:0:0:0:
193,129,205298,5,6,0:0:0:0:
209,137,205386,1,2,0:0:0:0:
226,144,205474,1,2,0:0:0:0:
245,148,205562,1,2,0:0:0:0:
293,90,205651,37,6,0:0:0:0:
327,75,205739,1,2,0:0:0:0:
364,75,205827,1,2,0:0:0:0:
398,90,205915,1,2,0:0:0:0:
379,172,206004,5,6,0:0:0:0:
373,197,206092,1,2,0:0:0:0:
373,223,206180,1,2,0:0:0:0:
379,249,206268,1,2,0:0:0:0:
377,321,206357,5,6,0:0:0:0:
358,339,206445,1,2,0:0:0:0:
335,352,206533,1,2,0:0:0:0:
310,359,206621,1,2,0:0:0:0:
268,302,206710,5,6,0:0:0:0:
249,283,206798,1,2,0:0:0:0:
226,270,206886,1,2,0:0:0:0:
201,263,206974,1,2,0:0:0:0:
126,288,207063,5,14,0:0:0:0:
100,280,207151,1,2,0:0:0:0:
78,267,207239,1,2,0:0:0:0:
59,249,207327,1,2,0:0:0:0:
88,184,207416,5,6,0:0:0:0:
97,159,207504,1,2,0:0:0:0:
101,133,207592,1,2,0:0:0:0:
98,107,207680,1,2,0:0:0:0:
99,36,207769,37,6,0:0:0:0:
122,25,207857,1,2,0:0:0:0:
148,20,207945,1,2,0:0:0:0:
174,22,208033,1,2,0:0:0:0:
226,73,208122,5,6,0:0:0:0:
252,73,208210,1,2,0:0:0:0:
277,68,208298,1,2,0:0:0:0:
301,56,208386,1,2,0:0:0:0:
365,25,208474,5,6,0:0:0:0:
388,36,208562,1,2,0:0:0:0:
408,53,208650,1,2,0:0:0:0:
424,74,208738,1,2,0:0:0:0:
386,135,208827,5,6,0:0:0:0:
375,158,208915,1,2,0:0:0:0:
370,184,209003,1,2,0:0:0:0:
372,210,209091,1,2,0:0:0:0:
353,288,209180,5,14,0:0:0:0:
331,302,209268,1,2,0:0:0:0:
306,311,209356,1,2,0:0:0:0:
280,314,209444,1,2,0:0:0:0:
238,257,209533,5,6,0:0:0:0:
226,241,209621,1,2,0:0:0:0:
213,228,209709,1,2,0:0:0:0:
197,218,209797,1,2,0:0:0:0:
168,153,209886,37,6,0:0:0:0:
160,108,209974,1,2,0:0:0:0:
169,65,210062,1,2,0:0:0:0:
194,27,210150,1,2,0:0:0:0:
251,89,210239,5,6,0:0:0:0:
226,117,210327,1,2,0:0:0:0:
194,136,210415,1,2,0:0:0:0:
158,145,210503,1,2,0:0:0:0:
88,130,210592,5,6,0:0:0:0:
59,154,210680,1,2,0:0:0:0:
40,186,210768,1,2,0:0:0:0:
31,222,210856,1,2,0:0:0:0:
95,257,210945,5,6,0:0:0:0:
129,270,211033,1,2,0:0:0:0:
158,293,211121,1,2,0:0:0:0:
179,325,211209,1,2,0:0:0:0:
252,357,211298,5,14,0:0:0:0:
277,329,211386,1,2,0:0:0:0:
310,311,211474,1,2,0:0:0:0:
347,304,211562,1,2,0:0:0:0:
376,239,211651,5,6,0:0:0:0:
355,207,211739,1,2,0:0:0:0:
326,184,211827,1,2,0:0:0:0:
291,170,211915,1,2,0:0:0:0:
222,189,212004,37,6,0:0:0:0:
199,159,212092,1,2,0:0:0:0:
187,123,212180,1,2,0:0:0:0:
186,86,212268,1,2,0:0:0:0:
250,52,212357,5,6,0:0:0:0:
274,60,212445,1,2,0:0:0:0:
300,62,212533,1,2,0:0:0:0:
326,59,212621,1,2,0:0:0:0:
396,40,212710,5,6,0:0:0:0:
418,53,212798,1,2,0:0:0:0:
437,71,212886,1,2,0:0:0:0:
451,93,212974,1,2,0:0:0:0:
405,148,213063,5,6,0:0:0:0:
388,167,213151,1,2,0:0:0:0:
377,191,213239,1,2,0:0:0:0:
371,216,213327,1,2,0:0:0:0:
386,294,213416,5,14,0:0:0:0:
372,307,213504,1,2,0:0:0:0:
357,317,213592,1,2,0:0:0:0:
340,325,213680,1,2,0:0:0:0:
262,340,213769,6,0,L|204:307,1,56.2500021457673,10|2,0:0|0:0,0:0:0:0:
247,113,213945,2,0,L|295:140,1,56.2500021457673,10|2,0:0|0:0,0:0:0:0:
223,356,214122,38,0,L|171:313,1,56.2500021457673,10|2,0:0|0:0,0:0:0:0:
288,86,214298,2,0,L|331:121,1,56.2500021457673,10|2,0:0|0:0,0:0:0:0:
145,384,214474,6,0,P|91:334|86:261,1,150,6|0,0:0|0:0,0:0:0:0:
190,186,215004,1,2,0:0:0:0:
22,122,215180,1,2,0:0:0:0:
331,121,215533,5,2,0:0:0:0:
331,121,215886,1,2,0:0:0:0:
221,30,216063,1,2,0:0:0:0:
409,117,216239,2,0,P|399:158|369:189,1,84.3750032186509,10|0,0:0|0:0,0:0:0:0:
314,193,216592,6,0,P|242:209|201:270,1,150,6|0,0:0|0:0,0:0:0:0:
281,356,217122,1,2,0:0:0:0:
103,377,217298,1,10,0:0:0:0:
236,75,217651,5,2,0:0:0:0:
237,71,217739,1,2,0:0:0:0:
238,67,217827,1,10,0:0:0:0:
138,35,218004,1,2,0:0:0:0:
317,24,218180,1,2,0:0:0:0:
129,115,218357,2,0,P|110:152|113:195,1,84.3750032186509,10|0,0:0|0:0,0:0:0:0:
168,207,218710,6,0,P|229:246|247:317,1,150,6|0,0:0|0:0,0:0:0:0:
152,384,219239,1,2,0:0:0:0:
35,191,219416,1,10,0:0:0:0:
393,229,219769,37,2,0:0:0:0:
393,229,220122,1,2,0:0:0:0:
247,317,220298,1,2,0:0:0:0:
466,268,220474,2,0,P|475:227|463:187,1,84.3750032186509,10|0,0:0|0:0,0:0:0:0:
414,153,220827,6,0,P|343:129|308:65,1,150,6|0,0:0|0:0,0:0:0:0:
458,48,221357,1,2,0:0:0:0:
393,229,221533,1,10,0:0:0:0:
152,27,221886,5,2,0:0:0:0:
148,25,221974,1,2,0:0:0:0:
144,23,222063,1,10,0:0:0:0:
256,32,222239,1,2,0:0:0:0:
123,102,222416,1,2,0:0:0:0:
294,120,222592,1,10,0:0:0:0:
67,42,222769,1,10,0:0:0:0:
274,218,222945,6,0,P|268:291|214:340,1,150,6|0,0:0|0:0,0:0:0:0:
125,273,223474,1,2,0:0:0:0:
317,360,223651,1,10,0:0:0:0:
134,67,224004,5,2,0:0:0:0:
134,67,224357,1,0,0:0:0:0:
73,195,224533,1,2,0:0:0:0:
229,56,224710,2,0,P|270:53|308:72,1,84.3750032186509,10|0,0:0|0:0,0:0:0:0:
297,128,225063,6,0,P|302:201|356:250,1,150,6|0,0:0|0:0,0:0:0:0:
476,237,225592,1,2,0:0:0:0:
381,66,225769,1,10,0:0:0:0:
269,344,226122,37,2,0:0:0:0:
269,347,226210,1,2,0:0:0:0:
269,350,226298,1,2,0:0:0:0:
227,246,226474,1,2,0:0:0:0:
368,305,226651,1,2,0:0:0:0:
171,305,226827,2,0,P|148:270|145:228,1,84.3750032186509,10|0,0:0|0:0,0:0:0:0:
182,185,227180,6,0,P|215:119|195:49,1,150,6|0,0:0|0:0,0:0:0:0:
84,30,227710,1,2,0:0:0:0:
270,9,227886,1,10,0:0:0:0:
91,338,228239,5,2,0:0:0:0:
91,338,228592,1,2,0:0:0:0:
15,217,228769,1,2,0:0:0:0:
177,295,228945,2,0,P|214:276|237:241,1,84.3750032186509,10|0,0:0|0:0,0:0:0:0:
267,193,229298,6,0,P|336:171|402:203,1,150,6|0,0:0|0:0,0:0:0:0:
424,322,229827,1,2,0:0:0:0:
491,130,230004,1,10,0:0:0:0:
214,360,230357,5,6,0:0:0:0:
214,360,230710,1,10,0:0:0:0:
345,322,230886,1,2,0:0:0:0:
116,247,231063,1,10,0:0:0:0:
292,382,231239,1,10,0:0:0:0:
188,122,231416,21,6,0:0:0:0:
188,122,231769,1,2,0:0:0:0:
251,215,231945,1,2,0:0:0:0:
110,130,232122,2,0,P|116:88|143:56,1,84.3750032186509,8|0,0:0|0:0,0:0:0:0:
199,37,232474,5,6,0:0:0:0:
199,37,232651,1,0,0:0:0:0:
190,156,232827,1,0,0:0:0:0:
300,53,233004,1,2,0:0:0:0:
110,130,233180,2,0,P|106:171|126:213,1,84.3750032186509,8|0,0:0|0:0,0:0:0:0:
173,230,233533,101,6,0:0:0:0:
286,197,233710,2,0,L|332:122,1,75
187,311,234063,1,2,0:0:0:0:
320,298,234239,2,0,L|372:229,1,75,8|0,0:0|0:0,0:0:0:0:
163,148,234592,5,6,0:0:0:0:
387,167,234769,2,0,L|360:258,1,75,8|0,0:0|0:0,0:0:0:0:
179,235,235122,1,2,0:0:0:0:
349,315,235298,2,0,P|390:311|427:284,1,84.3750032186509,8|0,0:0|0:0,0:0:0:0:
445,235,235651,101,6,0:0:0:0:
445,235,236004,1,0,0:0:0:0:
505,372,236180,1,2,0:0:0:0:
464,146,236357,2,0,P|422:145|386:166,1,84.3750032186509,8|0,0:0|0:0,0:0:0:0:
365,225,236710,5,6,0:0:0:0:
365,225,236886,1,0,0:0:0:0:
326,107,237063,1,0,0:0:0:0:
445,235,237239,1,2,0:0:0:0:
383,53,237416,2,0,P|346:31|305:31,1,84.3750032186509,8|0,0:0|0:0,0:0:0:0:
250,88,237769,5,6,0:0:0:0:
226,98,237857,1,2,0:0:0:0:
200,103,237945,1,2,0:0:0:0:
174,102,238033,1,2,0:0:0:0:
149,95,238121,1,2,0:0:0:0:
122,99,238210,1,2,0:0:0:0:
98,110,238298,1,2,0:0:0:0:
78,126,238386,1,2,0:0:0:0:
97,180,238474,5,10,0:0:0:0:
100,205,238562,1,2,0:0:0:0:
95,231,238650,1,2,0:0:0:0:
83,254,238738,1,2,0:0:0:0:
63,272,238827,5,2,0:0:0:0:
45,268,238916,1,2,0:0:0:0:
26,263,239004,2,0,L|-1:212,1,37.5,10|2,0:0|0:0,0:0:0:0:
173,194,239180,1,2,0:0:0:0:
189,204,239269,1,2,0:0:0:0:
205,215,239357,2,0,L|212:272,1,37.5,10|2,0:0|0:0,0:0:0:0:
9,161,239533,6,0,L|3:123,1,37.5,10|2,0:0|0:0,0:0:0:0:
131,312,239710,2,0,L|136:349,1,37.5,10|2,0:0|0:0,0:0:0:0:
85,62,239886,37,6,0:0:0:0:
85,62,240239,1,0,0:0:0:0:
8,229,240416,1,2,0:0:0:0:
165,53,240592,2,0,P|205:60|237:87,1,84.3750032186509,8|0,0:0|0:0,0:0:0:0:
247,148,240945,5,6,0:0:0:0:
247,148,241122,1,0,0:0:0:0:
130,130,241298,1,0,0:0:0:0:
313,90,241474,1,2,0:0:0:0:
164,204,241651,2,0,P|164:245|185:281,1,84.3750032186509,8|0,0:0|0:0,0:0:0:0:
246,275,242004,102,0,L|297:196,1,75,6|0,0:0|0:0,0:0:0:0:
341,336,242357,1,0,0:0:0:0:
381,150,242533,2,0,L|330:71,1,75,2|8,0:0|0:0,0:0:0:0:
286,211,242886,1,0,0:0:0:0:
458,157,243063,5,6,0:0:0:0:
231,123,243239,2,0,L|208:212,1,75,8|0,0:0|0:0,0:0:0:0:
381,150,243592,1,2,0:0:0:0:
223,41,243769,2,0,P|183:55|157:88,1,84.3750032186509,8|0,0:0|0:0,0:0:0:0:
151,145,244122,101,6,0:0:0:0:
151,145,244474,1,0,0:0:0:0:
102,35,244651,1,2,0:0:0:0:
83,202,244827,2,0,P|115:228|156:235,1,84.3750032186509,8|0,0:0|0:0,0:0:0:0:
212,219,245180,5,6,0:0:0:0:
212,219,245357,1,2,0:0:0:0:
226,108,245533,1,0,0:0:0:0:
292,268,245710,1,2,0:0:0:0:
146,128,245886,2,0,P|145:86|166:49,1,84.3750032186509,8|0,0:0|0:0,0:0:0:0:
217,28,246239,6,0,L|325:56,1,89.9999972534181,6|0,0:0|0:0,0:0:0:0:
356,176,246592,1,0,0:0:0:0:
146,128,246769,2,0,L|38:156,1,89.9999972534181,2|8,0:0|0:0,0:0:0:0:
129,277,247122,1,0,0:0:0:0:
217,28,247298,5,6,0:0:0:0:
78,65,247474,1,0,0:0:0:0:
225,108,247651,2,0,L|282:185,1,89.9999972534181,0|2,0:0|0:0,0:0:0:0:
98,344,248004,1,8,0:0:0:0:
98,344,248357,6,0,L|78:248,1,89.9999972534181,6|0,0:0|0:0,0:0:0:0:
156,133,248710,1,0,0:0:0:0:
207,361,248886,2,0,L|272:287,1,89.9999972534181,2|8,0:0|0:0,0:0:0:0:
262,149,249239,1,0,0:0:0:0:
338,332,249416,5,6,0:0:0:0:
203,255,249592,1,0,0:0:0:0:
412,198,249769,5,2,0:0:0:0:
272,362,249945,1,8,0:0:0:0:
333,117,250122,5,8,0:0:0:0:
392,380,250298,1,8,0:0:0:0:
272,73,250474,38,0,L|171:68,1,89.9999972534181,6|0,0:0|0:0,0:0:0:0:
91,203,250827,1,0,0:0:0:0:
316,184,251004,2,0,L|384:288,1,89.9999972534181,2|8,0:0|0:0,0:0:0:0:
230,349,251357,1,0,0:0:0:0:
176,140,251533,5,6,0:0:0:0:
265,242,251710,1,0,0:0:0:0:
91,203,251886,2,0,L|75:114,1,89.9999972534181,0|2,0:0|0:0,0:0:0:0:
273,126,252239,1,8,0:0:0:0:
273,126,252592,6,0,P|308:179|426:176,1,179.999994506836,6|0,0:0|0:0,0:0:0:0:
462,65,253122,1,2,0:0:0:0:
493,287,253298,1,8,0:0:0:0:
493,287,253651,6,0,P|476:256|472:222,2,59.9999981689454,6|2|2,0:0|0:0|0:0,0:0:0:0:
397,292,254004,5,8,0:0:0:0:
327,283,254121,1,8,0:0:0:0:
269,324,254239,1,8,0:0:0:0:
176,346,254357,5,2,0:0:0:0:
154,310,254474,1,2,0:0:0:0:
148,269,254592,1,2,0:0:0:0:
212,200,254710,37,6,0:0:0:0:
212,200,265648,37,0,0:0:0:0:
212,200,266148,6,0,P|255:218|364:188,1,150,2|0,0:0|0:0,0:0:0:0:
352,197,267649,2,0,P|334:156|346:90,1,112.5,2|0,0:0|0:0,0:0:0:0:
415,47,268649,1,0,0:0:0:0:
415,47,269150,6,0,P|370:12|308:20,1,112.5,2|0,0:0|0:0,0:0:0:0:
251,65,270150,1,0,0:0:0:0:
251,65,270651,1,2,0:0:0:0:
251,65,272151,38,0,P|252:138|296:198,1,150,2|0,0:0|0:0,0:0:0:0:
296,198,273652,2,0,P|259:224|237:287,1,112.5,2|0,0:0|0:0,0:0:0:0:
252,368,274653,1,0,0:0:0:0:
251,368,275153,6,0,P|207:359|159:313,1,112.5,2|0,0:0|0:0,0:0:0:0:
163,220,276154,1,0,0:0:0:0:
163,220,276654,2,0,P|110:237|76:282,2,112.500004291535,2|0|0,0:0|0:0|0:0,0:0:0:0:
163,220,278155,6,0,P|207:206|271:113,1,150,2|0,0:0|0:0,0:0:0:0:
269,127,279656,2,0,P|223:122|173:79,1,112.5,2|0,0:0|0:0,0:0:0:0:
92,76,280656,1,0,0:0:0:0:
92,76,281157,6,0,P|109:128|154:161,1,112.5,2|0,0:0|0:0,0:0:0:0:
236,170,282157,1,0,0:0:0:0:
236,170,282658,1,2,0:0:0:0:
236,170,284158,6,0,P|280:202|298:255,1,112.5,2|0,0:0|0:0,0:0:0:0:
270,333,285159,1,0,0:0:0:0:
270,333,285659,2,0,P|307:337|350:321,2,75,2|0|0,0:0|0:0|0:0,0:0:0:0:
270,333,287160,6,0,P|218:312|164:325,1,112.5,2|0,0:0|0:0,0:0:0:0:
105,383,288161,1,0,0:0:0:0:
105,383,288661,37,2,0:0:0:0:
105,383,289662,2,0,L|92:340,1,37.5
148,187,290162,6,0,P|203:207|237:264,1,112.500004291535,2|0,0:0|0:0,0:0:0:0:
239,334,290912,1,0,0:0:0:0:
309,287,291162,1,0,0:0:0:0:
148,187,291663,5,2,0:0:0:0:
309,287,292163,1,2,0:0:0:0:
309,287,293164,5,0,0:0:0:0:
341,215,293664,2,0,P|369:236|383:260,2,56.2500021457673,2|0|0,0:0|0:0|0:0,0:0:0:0:
197,242,294665,5,2,0:0:0:0:
340,98,295165,1,2,0:0:0:0:
340,98,296165,6,0,P|385:104|449:66,2,112.500004291535,2|0|0,0:0|0:0|0:0,0:0:0:0:
173,74,297666,2,0,P|128:83|81:141,2,112.500004291535,2|0|0,0:0|0:0|0:0,0:0:0:0:
326,239,299167,38,0,P|324:290|179:307,1,225,2|0,0:0|0:0,0:0:0:0:
162,217,300168,1,0,0:0:0:0:
162,217,300668,2,0,P|115:243|90:300,1,112.500004291535,2|0,0:0|0:0,0:0:0:0:
90,294,301669,1,2,0:0:0:0:
90,294,302169,5,0,0:0:0:0:
58,222,302669,2,0,P|30:243|16:267,2,56.2500021457673,2|0|0,0:0|0:0|0:0,0:0:0:0:
238,228,303670,5,2,0:0:0:0:
132,164,304170,1,2,0:0:0:0:
132,164,305171,5,0,0:0:0:0:
100,236,305671,2,0,P|72:215|58:191,2,56.2500021457673,2|0|0,0:0|0:0|0:0,0:0:0:0:
211,215,306672,5,2,0:0:0:0:
179,299,307172,1,2,0:0:0:0:
179,299,307672,1,0,0:0:0:0:
179,299,308172,6,0,P|224:301|284:257,2,112.500004291535,2|0|0,0:0|0:0|0:0,0:0:0:0:
197,120,309673,2,0,P|224:83|296:65,2,112.500004291535,2|0|0,0:0|0:0|0:0,0:0:0:0:
357,226,311174,38,0,P|362:281|335:329,1,112.500004291535,2|0,0:0|0:0,0:0:0:0:
335,329,312175,2,0,L|278:368,1,56.2500021457673
205,214,312675,1,2,0:0:0:0:
205,214,314176,6,0,P|273:206|313:174,1,112.500004291535,2|0,0:0|0:0,0:0:0:0:
312,40,314926,1,0,0:0:0:0:
312,40,315677,2,0,P|256:43|209:73,1,112.500004291535,2|0,0:0|0:0,0:0:0:0:
184,165,316427,1,0,0:0:0:0:
96,202,316677,1,0,0:0:0:0:
15,151,316927,1,0,0:0:0:0:
135,67,317178,5,2,0:0:0:0:
96,202,317428,1,0,0:0:0:0:
92,244,317553,1,0,0:0:0:0:
88,286,317678,2,0,P|125:323|203:322,1,112.500004291535
182,329,318679,5,2,0:0:0:0:
213,203,318929,1,0,0:0:0:0:
267,282,319179,2,0,P|310:283|370:187,1,168.750006437302
342,138,320054,1,0,0:0:0:0:
312,89,320179,6,0,P|342:38|397:18,1,112.500004291535,2|0,0:0|0:0,0:0:0:0:
424,108,320930,1,0,0:0:0:0:
369,186,321180,1,0,0:0:0:0:
273,183,321430,1,0,0:0:0:0:
122,258,321680,5,2,0:0:0:0:
185,120,321930,1,0,0:0:0:0:
246,278,322181,1,0,0:0:0:0:
246,278,322681,1,0,0:0:0:0:
38,192,322931,1,0,0:0:0:0:
273,183,323181,38,0,P|322:221|340:317,1,150,2|0,0:0|0:0,0:0:0:0:
193,374,323932,1,0,0:0:0:0:
202,209,324182,1,0,0:0:0:0:
281,345,324432,1,0,0:0:0:0:
102,250,324682,5,2,0:0:0:0:
208,171,324932,2,0,L|199:226,1,37.5
46,186,325182,2,0,P|40:127|111:47,1,150
90,56,326183,5,2,0:0:0:0:
46,186,326433,1,0,0:0:0:0:
190,55,326683,2,0,P|241:68|277:165,1,150
279,150,327684,5,2,0:0:0:0:
338,29,327934,1,0,0:0:0:0:
362,192,328184,2,0,P|308:238|226:225,1,150
187,150,328935,1,0,0:0:0:0:
362,192,329185,6,0,P|365:262|313:340,2,150,2|0|0,0:0|0:0|0:0,0:0:0:0:
362,192,330686,5,2,0:0:0:0:
486,262,330936,1,0,0:0:0:0:
325,329,331186,2,0,P|272:302|230:208,1,150
253,114,331936,1,0,0:0:0:0:
237,80,332061,1,0,0:0:0:0:
221,46,332186,37,2,0:0:0:0:
160,184,332437,1,0,0:0:0:0:
147,72,332687,1,0,0:0:0:0:
160,184,332937,1,0,0:0:0:0:
285,133,333187,1,0,0:0:0:0:
160,184,333437,1,0,0:0:0:0:
361,285,333687,5,2,0:0:0:0:
366,141,333937,1,0,0:0:0:0:
270,206,334188,2,0,L|288:112,1,75
435,185,334688,1,0,0:0:0:0:
334,64,334938,1,0,0:0:0:0:
262,305,335188,5,2,0:0:0:0:
366,141,335438,1,0,0:0:0:0:
127,217,335688,1,0,0:0:0:0:
332,267,335939,1,0,0:0:0:0:
213,142,336189,1,0,0:0:0:0:
196,276,336439,1,0,0:0:0:0:
285,120,336689,6,0,P|231:69|172:78,1,112.5,2|0,0:0|0:0,0:0:0:0:
164,85,337189,6,0,P|130:89|102:82,1,56.25
137,15,337630,6,0,P|224:37|196:154,1,225
114,172,338130,37,6,0:0:0:0:
93,186,338213,1,8,0:0:0:0:
77,205,338296,1,2,0:0:0:0:
66,227,338379,1,8,0:0:0:0:
61,252,338463,1,2,0:0:0:0:
62,277,338546,1,8,0:0:0:0:
69,301,338629,1,2,0:0:0:0:
82,322,338713,1,8,0:0:0:0:
100,339,338796,1,2,0:0:0:0:
121,352,338879,1,8,0:0:0:0:
145,359,338963,1,2,0:0:0:0:
170,360,339046,1,8,0:0:0:0:
194,355,339130,5,2,0:0:0:0:
190,343,339213,1,8,0:0:0:0:
187,330,339296,1,2,0:0:0:0:
186,318,339379,1,8,0:0:0:0:
187,305,339463,1,2,0:0:0:0:
189,293,339546,1,8,0:0:0:0:
193,281,339630,5,6,0:0:0:0:
213,294,339713,1,8,0:0:0:0:
237,303,339796,1,2,0:0:0:0:
262,305,339879,1,8,0:0:0:0:
286,300,339963,1,2,0:0:0:0:
309,289,340046,1,8,0:0:0:0:
328,273,340129,1,2,0:0:0:0:
342,253,340213,1,8,0:0:0:0:
351,230,340296,1,2,0:0:0:0:
353,205,340379,1,8,0:0:0:0:
349,180,340463,1,2,0:0:0:0:
339,157,340546,1,8,0:0:0:0:
323,138,340630,5,2,0:0:0:0:
291,158,340713,1,8,0:0:0:0:
254,161,340796,1,2,0:0:0:0:
221,145,340879,1,8,0:0:0:0:
198,116,340963,1,2,0:0:0:0:
193,79,341046,1,8,0:0:0:0:
206,44,341130,5,6,0:0:0:0:
219,55,341213,1,8,0:0:0:0:
230,68,341296,1,2,0:0:0:0:
239,83,341379,1,8,0:0:0:0:
245,99,341463,1,2,0:0:0:0:
249,116,341546,1,8,0:0:0:0:
249,134,341629,1,2,0:0:0:0:
246,151,341713,1,8,0:0:0:0:
241,168,341796,1,2,0:0:0:0:
232,183,341879,1,8,0:0:0:0:
222,197,341963,1,2,0:0:0:0:
209,208,342046,1,8,0:0:0:0:
194,218,342129,1,2,0:0:0:0:
178,224,342213,1,8,0:0:0:0:
160,228,342296,1,2,0:0:0:0:
143,228,342379,1,8,0:0:0:0:
126,226,342463,1,2,0:0:0:0:
109,221,342546,1,8,0:0:0:0:
94,213,342630,5,6,0:0:0:0:
95,205,342713,1,8,0:0:0:0:
97,198,342796,1,2,0:0:0:0:
97,190,342879,1,8,0:0:0:0:
98,183,342963,1,2,0:0:0:0:
98,175,343046,1,8,0:0:0:0:
90,139,343130,37,10,0:0:0:0:
92,131,343213,1,10,0:0:0:0:
97,125,343296,1,2,0:0:0:0:
100,118,343379,1,8,0:0:0:0:
105,112,343463,1,2,0:0:0:0:
110,106,343546,1,8,0:0:0:0:
148,107,343630,5,2,0:0:0:0:
154,102,343713,1,8,0:0:0:0:
159,97,343796,1,2,0:0:0:0:
165,92,343879,1,8,0:0:0:0:
170,87,343963,1,2,0:0:0:0:
175,81,344046,1,8,0:0:0:0:
182,31,344130,5,6,0:0:0:0:
204,20,344214,1,8,0:0:0:0:
229,16,344296,1,2,0:0:0:0:
254,17,344380,1,8,0:0:0:0:
278,23,344463,1,2,0:0:0:0:
299,35,344547,1,8,0:0:0:0:
318,52,344629,1,2,0:0:0:0:
332,73,344714,1,8,0:0:0:0:
341,96,344796,1,2,0:0:0:0:
345,121,344880,1,8,0:0:0:0:
342,146,344963,1,2,0:0:0:0:
334,169,345047,1,8,0:0:0:0:
321,190,345130,5,2,0:0:0:0:
311,181,345214,1,8,0:0:0:0:
301,173,345296,1,2,0:0:0:0:
290,167,345380,1,8,0:0:0:0:
279,163,345463,1,2,0:0:0:0:
267,160,345547,1,8,0:0:0:0:
254,158,345630,5,6,0:0:0:0:
255,182,345714,1,8,0:0:0:0:
250,207,345796,1,2,0:0:0:0:
238,229,345880,1,8,0:0:0:0:
221,246,345963,1,2,0:0:0:0:
199,259,346047,1,8,0:0:0:0:
175,265,346129,1,2,0:0:0:0:
150,264,346214,1,8,0:0:0:0:
126,256,346296,1,2,0:0:0:0:
106,242,346380,1,8,0:0:0:0:
90,223,346463,1,2,0:0:0:0:
80,200,346547,1,8,0:0:0:0:
76,175,346630,5,2,0:0:0:0:
113,171,346714,1,8,0:0:0:0:
149,182,346796,1,2,0:0:0:0:
179,204,346880,1,8,0:0:0:0:
199,235,346963,1,2,0:0:0:0:
207,271,347046,1,8,0:0:0:0:
202,308,347130,37,6,0:0:0:0:
185,302,347213,1,8,0:0:0:0:
170,292,347296,1,2,0:0:0:0:
157,280,347379,1,8,0:0:0:0:
147,266,347463,1,2,0:0:0:0:
140,250,347546,1,8,0:0:0:0:
137,233,347629,1,2,0:0:0:0:
137,216,347713,1,8,0:0:0:0:
140,199,347796,1,2,0:0:0:0:
147,183,347879,1,8,0:0:0:0:
158,168,347963,1,2,0:0:0:0:
170,156,348046,1,8,0:0:0:0:
185,147,348130,5,2,0:0:0:0:
205,161,348213,1,8,0:0:0:0:
228,169,348296,1,2,0:0:0:0:
253,170,348379,1,8,0:0:0:0:
278,165,348463,1,2,0:0:0:0:
299,153,348546,1,8,0:0:0:0:
355,129,348630,6,0,L|401:149,3,28.1250010728836,6|2|2|2,0:0|0:0|0:0|0:0,0:0:0:0:
349,213,348880,1,10,0:3:0:0:
345,226,348942,1,10,0:3:0:0:
344,240,349005,1,2,0:0:0:0:
345,254,349067,1,2,0:0:0:0:
336,299,349130,5,10,0:3:0:0:
320,310,349192,1,10,0:3:0:0:
302,319,349255,1,10,0:3:0:0:
283,323,349317,1,10,0:3:0:0:
241,286,349380,5,10,0:3:0:0:
213,278,349442,1,10,0:3:0:0:
185,278,349505,1,10,0:3:0:0:
158,286,349567,1,10,0:3:0:0:
133,327,349630,6,0,L|154:362,2,37.5000014305115,2|2|2,0:0|0:0|0:0,0:0:0:0:
66,266,349880,1,10,0:3:0:0:
74,210,349963,1,10,0:3:0:0:
107,165,350046,1,10,0:3:0:0:
180,187,350130,37,6,0:0:0:0:
203,196,350214,1,8,0:0:0:0:
227,199,350296,1,2,0:0:0:0:
252,196,350380,1,8,0:0:0:0:
275,186,350463,1,2,0:0:0:0:
295,171,350547,1,8,0:0:0:0:
310,151,350629,1,2,0:0:0:0:
320,128,350714,1,8,0:0:0:0:
324,104,350796,1,2,0:0:0:0:
321,79,350880,1,8,0:0:0:0:
312,56,350963,1,2,0:0:0:0:
297,36,351047,1,8,0:0:0:0:
278,20,351130,5,2,0:0:0:0:
267,27,351214,1,8,0:0:0:0:
258,35,351296,1,2,0:0:0:0:
250,45,351380,1,8,0:0:0:0:
244,56,351463,1,2,0:0:0:0:
239,67,351547,1,8,0:0:0:0:
237,79,351630,5,6,0:0:0:0:
219,61,351714,1,8,0:0:0:0:
198,47,351796,1,2,0:0:0:0:
174,39,351880,1,8,0:0:0:0:
150,37,351963,1,2,0:0:0:0:
125,40,352047,1,8,0:0:0:0:
101,48,352129,1,2,0:0:0:0:
81,62,352214,1,8,0:0:0:0:
63,80,352296,1,2,0:0:0:0:
51,101,352380,1,8,0:0:0:0:
43,125,352463,1,2,0:0:0:0:
42,150,352546,1,8,0:0:0:0:
45,175,352630,5,2,0:0:0:0:
78,158,352713,1,8,0:0:0:0:
115,160,352796,1,2,0:0:0:0:
146,179,352879,1,8,0:0:0:0:
164,212,352963,1,2,0:0:0:0:
163,249,353046,1,8,0:0:0:0:
145,281,353130,5,6,0:0:0:0:
133,267,353213,1,8,0:0:0:0:
125,252,353296,1,2,0:0:0:0:
118,236,353379,1,8,0:0:0:0:
115,219,353463,1,2,0:0:0:0:
114,201,353546,1,8,0:0:0:0:
116,184,353629,1,2,0:0:0:0:
120,167,353713,1,8,0:0:0:0:
128,151,353796,1,2,0:0:0:0:
138,137,353879,1,8,0:0:0:0:
150,124,353963,1,2,0:0:0:0:
163,113,354046,1,8,0:0:0:0:
179,105,354129,1,2,0:0:0:0:
195,99,354213,1,8,0:0:0:0:
213,96,354296,1,2,0:0:0:0:
230,96,354379,1,8,0:0:0:0:
247,99,354463,1,2,0:0:0:0:
264,104,354546,1,8,0:0:0:0:
280,112,354630,5,6,0:0:0:0:
279,119,354713,1,8,0:0:0:0:
279,126,354796,1,2,0:0:0:0:
280,134,354879,1,8,0:0:0:0:
282,141,354963,1,2,0:0:0:0:
284,148,355046,1,8,0:0:0:0:
301,183,355130,37,6,0:0:0:0:
301,190,355213,1,8,0:0:0:0:
301,197,355296,1,2,0:0:0:0:
300,205,355379,1,8,0:0:0:0:
298,212,355463,1,2,0:0:0:0:
296,219,355546,1,8,0:0:0:0:
282,254,355630,5,2,0:0:0:0:
284,261,355713,1,8,0:0:0:0:
286,268,355796,1,2,0:0:0:0:
290,274,355879,1,8,0:0:0:0:
294,281,355963,1,2,0:0:0:0:
298,287,356046,1,8,0:0:0:0:
283,335,356130,5,6,0:0:0:0:
262,349,356214,1,8,0:0:0:0:
239,359,356296,1,2,0:0:0:0:
215,362,356380,1,8,0:0:0:0:
190,360,356463,1,2,0:0:0:0:
166,353,356547,1,8,0:0:0:0:
145,340,356629,1,2,0:0:0:0:
127,322,356714,1,8,0:0:0:0:
114,300,356796,1,2,0:0:0:0:
107,277,356880,1,8,0:0:0:0:
105,252,356963,1,2,0:0:0:0:
109,227,357047,1,8,0:0:0:0:
119,204,357129,1,2,0:0:0:0:
123,180,357214,1,8,0:0:0:0:
120,155,357296,1,2,0:0:0:0:
109,133,357381,1,8,0:0:0:0:
92,115,357463,1,2,0:0:0:0:
70,103,357547,1,8,0:0:0:0:
45,98,357630,5,6,0:0:0:0:
41,115,357714,1,8,0:0:0:0:
42,132,357796,1,2,0:0:0:0:
46,149,357880,1,8,0:0:0:0:
54,165,357963,1,2,0:0:0:0:
64,178,358047,1,8,0:0:0:0:
78,189,358130,5,2,0:0:0:0:
85,178,358214,1,8,0:0:0:0:
93,169,358296,1,2,0:0:0:0:
103,161,358380,1,8,0:0:0:0:
113,155,358463,1,2,0:0:0:0:
125,150,358547,1,8,0:0:0:0:
137,147,358630,5,2,0:0:0:0:
138,154,358714,1,8,0:0:0:0:
139,161,358796,1,2,0:0:0:0:
142,168,358880,1,8,0:0:0:0:
145,175,358963,1,2,0:0:0:0:
148,182,359046,1,8,0:0:0:0:
153,188,359130,37,6,0:0:0:0:
175,177,359213,1,8,0:0:0:0:
199,171,359296,1,2,0:0:0:0:
224,171,359379,1,8,0:0:0:0:
249,176,359463,1,2,0:0:0:0:
272,186,359546,1,8,0:0:0:0:
292,200,359629,1,2,0:0:0:0:
308,219,359713,1,8,0:0:0:0:
321,241,359796,1,2,0:0:0:0:
328,264,359879,1,8,0:0:0:0:
331,289,359963,1,2,0:0:0:0:
339,311,360046,1,8,0:0:0:0:
355,331,360129,1,2,0:0:0:0:
375,346,360213,1,8,0:0:0:0:
398,354,360296,1,2,0:0:0:0:
423,356,360379,1,8,0:0:0:0:
447,350,360463,1,2,0:0:0:0:
469,338,360546,1,8,0:0:0:0:
488,281,360630,6,0,L|493:237,3,28.1250010728836,6|2|2|2,0:0|0:0|0:0|0:0,0:0:0:0:
392,256,360880,1,8,0:0:0:0:
366,266,360942,1,8,0:0:0:0:
344,284,361005,1,8,0:0:0:0:
329,308,361067,1,8,0:0:0:0:
302,348,361130,5,2,0:0:0:0:
288,350,361192,1,2,0:0:0:0:
274,350,361255,1,2,0:0:0:0:
260,348,361317,1,2,0:0:0:0:
230,300,361380,5,10,0:3:0:0:
219,279,361442,1,10,0:3:0:0:
205,262,361505,1,10,0:3:0:0:
187,248,361567,1,10,0:3:0:0:
126,256,361630,5,2,0:3:0:0:
125,260,361692,1,2,0:3:0:0:
124,264,361755,2,0,L|119:308,1,28.1250010728836,2|2,0:3|0:0,0:0:0:0:
80,180,361880,5,2,0:3:0:0:
79,176,361942,1,2,0:3:0:0:
78,172,362005,2,0,L|73:128,1,28.1250010728836,2|2,0:3|0:0,0:0:0:0:
203,224,362130,38,0,B|267:182|267:182|324:105,1,150,6|2,0:0|0:0,0:0:0:0:
87,24,362380,2,0,B|68:98|68:98|79:193,1,150,2|10,0:0|0:0,0:0:0:0:
230,300,362630,1,2,0:0:0:0:
200,108,362755,1,8,0:0:0:0:
155,283,362880,1,2,0:0:0:0:
192,92,363005,1,8,0:0:0:0:
84,243,363130,1,2,0:0:0:0:
184,76,363255,1,8,0:0:0:0:
230,300,363380,2,0,B|306:308|306:308|399:286,1,150,2|10,0:0|0:0,0:0:0:0:
319,17,363630,6,0,B|244:34|244:34|164:87,1,150,6|10,0:0|0:0,0:0:0:0:
253,372,363880,2,0,B|323:341|323:341|392:275,1,150,6|10,0:0|0:0,0:0:0:0:
222,0,364130,6,0,B|162:46|162:46|101:119,1,150,6|10,0:0|0:0,0:0:0:0:
339,384,364380,2,0,B|390:328|390:328|437:245,1,150,6|10,0:0|0:0,0:0:0:0:
116,0,364630,6,0,B|42:153,1,150,6|10,0:0|0:0,0:0:0:0:
430,378,364880,2,0,B|473:214,1,150,6|10,0:0|0:0,0:0:0:0:
34,114,365130,6,0,B|18:188|18:188|32:283,1,150,6|10,0:0|0:0,0:0:0:0:
225,375,365380,2,0,B|265:309|265:309|284:216,1,150,2|10,0:0|0:0,0:0:0:0:
114,103,365630,1,2,0:0:0:0:
163,329,365755,2,0,B|230:292|230:292|293:220,1,150,10|2,0:0|0:0,0:0:0:0:
214,0,366005,2,0,B|138:11|138:11|54:56,1,150,10|2,0:0|0:0,0:0:0:0:
104,271,366255,1,10,0:0:0:0:
211,73,366380,2,0,B|284:74|284:74|355:103,1,150,2|10,0:0|0:0,0:0:0:0:
229,348,366630,6,0,B|160:321|160:321|103:270,1,150,6|10,0:0|0:0,0:0:0:0:
245,4,366880,2,0,B|307:42|307:42|355:102,1,150,6|10,0:0|0:0,0:0:0:0:
169,378,367130,38,0,B|114:323|114:323|72:255,1,150,6|10,0:0|0:0,0:0:0:0:
323,0,367380,2,0,B|367:63|367:63|397:137,1,150,6|10,0:0|0:0,0:0:0:0:
69,373,367630,38,0,B|19:224,1,150,6|10,0:0|0:0,0:0:0:0:
410,2,367880,2,0,B|431:150,1,150,6|10,0:0|0:0,0:0:0:0:
0,276,368130,6,0,B|1:202|1:202|30:131,1,150,6|10,0:0|0:0,0:0:0:0:
214,73,368380,1,2,0:0:0:0:
94,228,368505,1,10,0:0:0:0:
145,40,368630,1,2,0:0:0:0:
175,248,368755,2,0,B|222:308|222:308|285:346,1,150,10|2,0:0|0:0,0:0:0:0:
464,237,369005,1,10,0:0:0:0:
255,224,369130,1,2,0:0:0:0:
434,146,369255,1,10,0:0:0:0:
217,147,369380,2,0,B|146:177|146:177|93:227,1,150,2|10,0:0|0:0,0:0:0:0:
353,378,369630,6,0,B|386:309|386:309|393:235,1,150,6|10,0:0|0:0,0:0:0:0:
41,109,369880,2,0,B|20:182|20:182|26:255,1,150,6|10,0:0|0:0,0:0:0:0:
442,310,370130,38,0,B|444:233|444:233|431:152,1,150,6|10,0:0|0:0,0:0:0:0:
3,228,370380,2,0,B|14:304|14:304|41:381,1,150,6|10,0:0|0:0,0:0:0:0:
449,232,370630,5,6,0:0:0:0:
120,263,370755,1,10,0:0:0:0:
492,305,370880,1,6,0:0:0:0:
120,188,371005,1,10,0:0:0:0:
503,90,371130,6,0,B|508:58|508:58|397:5,1,150,6|0,0:0|0:0,0:0:0:0:
185,257,371380,1,2,0:0:0:0:
138,280,371442,1,8,0:0:0:0:
87,275,371505,1,2,0:0:0:0:
45,244,371567,1,8,0:0:0:0:
26,196,371630,1,2,0:0:0:0:
36,145,371692,1,8,0:0:0:0:
71,106,371755,1,2,0:0:0:0:
120,92,371817,1,8,0:0:0:0:
170,106,371880,1,2,0:0:0:0:
205,145,371942,1,8,0:0:0:0:
252,164,372005,1,2,0:0:0:0:
304,161,372067,1,8,0:0:0:0:
349,135,372130,1,2,0:0:0:0:
401,132,372192,1,8,0:0:0:0:
449,152,372254,1,2,0:0:0:0:
483,192,372317,1,8,0:0:0:0:
495,242,372379,1,2,0:0:0:0:
485,293,372442,1,8,0:0:0:0:
453,334,372504,1,2,0:0:0:0:
406,356,372567,1,8,0:0:0:0:
353,356,372630,6,0,L|302:330,3,56.2500021457673,2|2|2|2,0:0|0:0|0:0|0:0,0:0:0:0:
385,240,372880,1,8,0:0:0:0:
374,202,372942,1,8,0:0:0:0:
350,171,373005,1,8,0:0:0:0:
317,150,373067,1,8,0:0:0:0:
264,170,373130,5,10,0:3:0:0:
236,175,373192,1,2,0:3:0:0:
208,174,373255,1,2,0:3:0:0:
181,168,373317,1,2,0:3:0:0:
130,144,373380,5,10,0:3:0:0:
105,157,373442,1,2,0:3:0:0:
84,175,373505,1,2,0:3:0:0:
67,198,373567,1,2,0:3:0:0:
76,254,373630,37,2,0:0:0:0:
78,259,373692,1,2,0:0:0:0:
80,264,373755,2,0,L|123:299,1,37.5,2|2,0:0|0:0,0:0:0:0:
216,250,373880,5,10,0:3:0:0:
251,260,373942,1,10,0:3:0:0:
280,284,374005,1,10,0:3:0:0:
295,318,374067,1,10,0:3:0:0:
290,371,374130,6,0,B|209:377|209:377|173:308,1,150,6|0,0:0|0:0,0:0:0:0:
308,112,374380,1,2,0:0:0:0:
345,108,374442,1,8,0:0:0:0:
380,118,374505,1,2,0:0:0:0:
409,142,374567,1,8,0:0:0:0:
427,175,374630,1,2,0:0:0:0:
431,212,374692,1,8,0:0:0:0:
421,247,374755,1,2,0:0:0:0:
398,276,374817,1,8,0:0:0:0:
365,295,374880,1,2,0:0:0:0:
328,299,374942,1,8,0:0:0:0:
292,289,375005,1,2,0:0:0:0:
263,266,375067,1,8,0:0:0:0:
245,234,375130,1,2,0:0:0:0:
216,210,375193,1,8,0:0:0:0:
180,200,375255,1,2,0:0:0:0:
143,206,375318,1,8,0:0:0:0:
112,226,375380,1,2,0:0:0:0:
91,257,375443,1,8,0:0:0:0:
84,294,375505,1,2,0:0:0:0:
93,330,375568,1,8,0:0:0:0:
116,360,375630,5,6,0:0:0:0:
173,127,375755,1,10,0:0:0:0:
172,119,375817,1,2,0:0:0:0:
171,111,375880,1,6,0:0:0:0:
237,295,376005,1,2,0:0:0:0:
240,301,376067,1,2,0:0:0:0:
243,307,376130,5,6,0:0:0:0:
280,306,376192,1,2,0:0:0:0:
314,291,376255,1,2,0:0:0:0:
339,264,376317,1,2,0:0:0:0:
352,229,376380,1,6,0:0:0:0:
90,170,376505,1,2,0:0:0:0:
84,165,376567,1,2,0:0:0:0:
78,160,376630,5,6,0:0:0:0:
70,123,376692,1,2,0:0:0:0:
76,86,376755,1,2,0:0:0:0:
94,54,376817,1,2,0:0:0:0:
123,30,376880,1,6,0:0:0:0:
159,19,376942,1,2,0:0:0:0:
196,21,377005,1,2,0:0:0:0:
230,36,377067,1,2,0:0:0:0:
256,62,377130,38,0,L|292:108,2,56.2500021457673,6|8|2,0:0|0:0|0:0,0:0:0:0:
155,211,377380,1,2,0:0:0:0:
159,248,377442,1,8,0:0:0:0:
172,283,377505,1,2,0:0:0:0:
193,313,377567,1,8,0:0:0:0:
222,338,377630,1,2,0:0:0:0:
255,354,377692,1,8,0:0:0:0:
292,362,377755,1,2,0:0:0:0:
329,360,377817,1,8,0:0:0:0:
365,349,377880,1,2,0:0:0:0:
397,329,377942,1,8,0:0:0:0:
423,302,378005,1,2,0:0:0:0:
441,269,378067,1,8,0:0:0:0:
451,233,378130,1,2,0:0:0:0:
451,196,378192,1,8,0:0:0:0:
442,160,378255,1,2,0:0:0:0:
425,127,378317,1,8,0:0:0:0:
399,99,378380,1,2,0:0:0:0:
368,79,378442,1,8,0:0:0:0:
332,67,378505,1,2,0:0:0:0:
295,64,378567,1,8,0:0:0:0:
258,71,378630,6,0,L|195:98,3,56.2500021457673,6|2|10|2,0:0|0:0|0:0|0:0,0:0:0:0:
400,218,378880,2,0,L|451:195,3,56.2500021457673,6|2|10|2,0:0|0:0|0:0|0:0,0:0:0:0:
204,58,379130,6,0,L|154:104,3,56.2500021457673,6|2|10|2,0:0|0:0|0:0|0:0,0:0:0:0:
446,179,379380,2,0,L|487:140,3,56.2500021457673,6|2|10|2,0:0|0:0|0:0|0:0,0:0:0:0:
154,70,379630,6,0,L|123:131,3,56.2500021457673,6|2|10|2,0:0|0:0|0:0|0:0,0:0:0:0:
480,133,379880,2,0,L|505:82,3,56.2500021457673,6|2|10|2,0:0|0:0|0:0|0:0,0:0:0:0:
86,182,380130,5,14,0:0:0:0:
54,228,380192,1,2,0:0:0:0:
47,283,380255,1,10,0:0:0:0:
66,335,380317,1,2,0:0:0:0:
107,373,380380,1,10,0:0:0:0:
161,389,380442,1,2,0:0:0:0:
216,378,380505,1,10,0:0:0:0:
259,344,380567,1,2,0:0:0:0:
283,293,380630,5,10,0:0:0:0:
251,253,380692,1,2,0:0:0:0:
238,204,380755,1,10,0:0:0:0:
244,155,380817,1,2,0:0:0:0:
269,111,380880,1,10,0:0:0:0:
309,80,380942,1,2,0:0:0:0:
357,67,381005,1,10,0:0:0:0:
407,74,381067,1,2,0:0:0:0:
451,99,381130,37,10,0:0:0:0:
438,141,381192,1,2,0:0:0:0:
411,177,381255,1,10,0:0:0:0:
373,201,381317,1,2,0:0:0:0:
329,211,381380,1,10,0:0:0:0:
285,205,381442,1,2,0:0:0:0:
246,183,381505,1,10,0:0:0:0:
216,150,381567,1,2,0:0:0:0:
200,108,381630,5,14,0:0:0:0:
244,114,381692,1,2,0:0:0:0:
282,137,381755,1,10,0:0:0:0:
309,172,381817,1,2,0:0:0:0:
320,216,381880,1,10,0:0:0:0:
314,260,381942,1,2,0:0:0:0:
292,298,382005,1,10,0:0:0:0:
256,326,382067,1,2,0:0:0:0:
213,337,382130,5,10,0:0:0:0:
206,303,382192,1,2,0:0:0:0:
190,274,382255,1,10,0:0:0:0:
166,251,382317,1,2,0:0:0:0:
135,237,382380,1,10,0:0:0:0:
102,232,382442,1,2,0:0:0:0:
71,216,382505,1,10,0:0:0:0:
48,192,382567,1,2,0:0:0:0:
34,162,382630,5,10,0:0:0:0:
73,141,382692,1,2,0:0:0:0:
117,131,382755,1,10,0:0:0:0:
162,134,382817,1,2,0:0:0:0:
204,149,382880,1,10,0:0:0:0:
240,175,382942,1,2,0:0:0:0:
268,211,383005,1,10,0:0:0:0:
285,252,383067,1,2,0:0:0:0:
291,297,383130,5,14,0:0:0:0:
235,298,383192,1,2,0:0:0:0:
188,269,383255,1,10,0:0:0:0:
164,219,383317,1,2,0:0:0:0:
172,164,383380,1,10,0:0:0:0:
208,122,383442,1,2,0:0:0:0:
261,107,383505,1,10,0:0:0:0:
314,124,383567,1,2,0:0:0:0:
349,167,383630,1,10,0:0:0:0:
405,174,383693,1,2,0:0:0:0:
454,149,383755,1,10,0:0:0:0:
478,99,383818,1,2,0:0:0:0:
467,45,383880,1,10,0:0:0:0:
425,9,383943,1,2,0:0:0:0:
370,6,384005,1,10,0:0:0:0:
324,37,384068,1,2,0:0:0:0:
306,91,384130,6,0,L|311:152,3,56.2500021457673,2|10|2|10,0:0|0:0|0:0|0:0,0:0:0:0:
496,94,384380,2,0,L|491:37,3,56.2500021457673,2|10|2|10,0:0|0:0|0:0|0:0,0:0:0:0:
417,228,384630,37,14,0:0:0:0:
370,258,384692,1,2,0:0:0:0:
315,268,384755,1,10,0:0:0:0:
261,254,384817,1,2,0:0:0:0:
217,220,384880,1,10,0:0:0:0:
190,171,384942,1,2,0:0:0:0:
185,116,385005,1,10,0:0:0:0:
151,72,385068,1,2,0:0:0:0:
98,56,385130,1,10,0:0:0:0:
45,73,385193,1,2,0:0:0:0:
12,117,385255,1,10,0:0:0:0:
9,173,385318,1,2,0:0:0:0:
39,219,385380,1,10,0:0:0:0:
90,241,385443,1,2,0:0:0:0:
144,231,385505,1,10,0:0:0:0:
184,192,385568,1,2,0:0:0:0:
238,181,385630,1,10,0:0:0:0:
290,202,385692,1,2,0:0:0:0:
322,247,385755,1,10,0:0:0:0:
377,264,385818,1,2,0:0:0:0:
431,254,385880,1,10,0:0:0:0:
474,218,385943,1,2,0:0:0:0:
491,165,386005,1,10,0:0:0:0:
480,111,386068,1,2,0:0:0:0:
443,70,386130,5,14,0:0:0:0:
367,195,386255,1,10,0:0:0:0:
337,40,386380,1,2,0:0:0:0:
448,182,386505,1,10,0:0:0:0:
450,187,386567,1,2,0:0:0:0:
452,192,386630,1,2,0:0:0:0:
281,107,386755,1,10,0:0:0:0:
283,102,386817,1,2,0:0:0:0:
285,97,386880,5,2,0:0:0:0:
366,283,387005,1,10,0:0:0:0:
375,108,387130,1,2,0:0:0:0:
230,280,387255,1,10,0:0:0:0:
191,288,387317,1,2,0:0:0:0:
153,278,387380,1,2,0:0:0:0:
124,253,387442,1,2,0:0:0:0:
110,217,387505,1,10,0:0:0:0:
230,27,387630,5,6,0:0:0:0:
271,214,387755,1,10,0:0:0:0:
304,233,387817,1,2,0:0:0:0:
343,236,387880,1,2,0:0:0:0:
380,222,387942,1,2,0:0:0:0:
407,194,388005,1,10,0:0:0:0:
227,133,388130,1,2,0:0:0:0:
451,114,388255,1,10,0:0:0:0:
482,138,388317,1,2,0:0:0:0:
499,174,388380,1,2,0:0:0:0:
498,213,388442,1,2,0:0:0:0:
481,248,388505,1,10,0:0:0:0:
257,268,388630,6,0,L|274:199,1,56.2500021457673,6|2,0:0|0:0,0:0:0:0:
427,63,388755,1,10,0:0:0:0:
432,61,388817,1,2,0:0:0:0:
437,59,388880,6,0,L|454:128,1,56.2500021457673,6|2,0:0|0:0,0:0:0:0:
322,334,389005,1,10,0:0:0:0:
320,339,389067,1,2,0:0:0:0:
318,344,389130,37,14,0:0:0:0:
279,367,389192,1,2,0:0:0:0:
236,379,389255,1,10,0:0:0:0:
191,377,389317,1,2,0:0:0:0:
149,362,389380,1,10,0:0:0:0:
113,335,389442,1,2,0:0:0:0:
86,299,389505,1,10,0:0:0:0:
72,257,389567,1,2,0:0:0:0:
70,212,389630,1,10,0:0:0:0:
81,169,389692,1,2,0:0:0:0:
105,131,389755,1,10,0:0:0:0:
139,101,389817,1,2,0:0:0:0:
180,83,389880,1,10,0:0:0:0:
224,78,389942,1,2,0:0:0:0:
268,86,390005,1,10,0:0:0:0:
308,107,390067,1,2,0:0:0:0:
340,138,390130,5,10,0:0:0:0:
370,123,390192,1,2,0:0:0:0:
403,119,390255,1,10,0:0:0:0:
436,126,390317,1,2,0:0:0:0:
464,144,390380,1,10,0:0:0:0:
484,171,390442,1,2,0:0:0:0:
495,203,390505,1,10,0:0:0:0:
493,237,390567,1,2,0:0:0:0:
481,268,390630,5,6,0:0:0:0:
464,273,390692,1,6,0:0:0:0:
448,278,390755,1,6,0:0:0:0:
432,283,390817,1,6,0:0:0:0:
398,255,390880,5,10,0:3:0:0:
374,239,390942,1,2,0:0:0:0:
348,230,391005,1,2,0:0:0:0:
320,229,391067,1,2,0:0:0:0:
285,274,391130,5,10,0:3:0:0:
249,291,391192,1,10,0:3:0:0:
210,291,391255,1,10,0:3:0:0:
175,275,391317,1,2,0:3:0:0:
179,219,391380,5,10,0:3:0:0:
175,179,391442,1,10,0:3:0:0:
156,145,391505,1,10,0:3:0:0:
124,122,391567,1,10,0:3:0:0:
57,133,391630,38,0,P|62:180|90:212,2,75.000002861023,10|2|2,0:3|0:3|0:3,0:0:0:0:
125,24,391880,1,10,0:3:0:0:
211,11,391963,1,10,0:3:0:0:
283,62,392046,1,10,0:3:0:0:
300,148,392129,5,6,0:0:0:0:
256,192,392192,12,0,393630,0:0:0:0:
256,192,393692,12,0,395130,0:0:0:0:
256,192,395192,12,0,396630,0:0:0:0:
256,192,396692,12,0,398130,0:0:0:0:
256,192,398192,12,0,399630,0:0:0:0:
