osu file format v14

[General]
AudioFilename: audio.mp3
AudioLeadIn: 0
PreviewTime: 265648
Countdown: 0
SampleSet: Drum
StackLeniency: 0.7
Mode: 0
LetterboxInBreaks: 0
EpilepsyWarning: 1
WidescreenStoryboard: 1

[Editor]
DistanceSpacing: 1.2
BeatDivisor: 4
GridSize: 8
TimelineZoom: 3.299999

[Metadata]
Title:Sanctus Absurdus
TitleUnicode:Sanctus Absurdus
Artist:Octaferista
ArtistUnicode:Octaferista
Creator:Hey lululu
Version:Desperate Fate
Source:魔法少女まどか☆マギカ
Tags:symphonic black metal instrumental kaoru mahou shoujo magical girl madoka magica symposium sacrificium witch world 2 we are here for you a human bullet venari strigas sis puella magica surgam identidem absolute configuration arrange yuki kajiura abusrdus 梶浦由記 japanese anime lu^3 ScubDomino
BeatmapID:2118540
BeatmapSetID:1012144

[Difficulty]
HPDrainRate:5
CircleSize:4.2
OverallDifficulty:10
ApproachRate:10
SliderMultiplier:1.8
SliderTickRate:1

[Events]
//Background and Video events
0,0,"BG.jpg",0,0
//Break Periods
//Storyboard Layer 0 (Background)
//Storyboard Layer 1 (Fail)
//Storyboard Layer 2 (Pass)
//Storyboard Layer 3 (Foreground)
//Storyboard Layer 4 (Overlay)
//Storyboard Sound Samples

[TimingPoints]
443,272.727272727273,3,3,1,60,1,0
8624,-83.3333333333333,3,3,1,60,0,0
9443,-100,3,3,1,60,0,0
11897,-83.3333333333333,3,3,1,60,0,0
12716,-100,3,3,1,60,0,0
22533,-83.3333333333333,3,3,1,60,0,0
23352,-100,3,3,1,60,0,0
28261,-83.3333333333333,3,3,1,60,0,0
41352,214.285714285714,4,3,1,60,1,0
41352,-83.3333333333333,3,3,1,60,0,0
82494,-83.3333333333333,4,3,2,60,0,0
87637,-100,3,3,2,60,0,0
88066,-90.9090909090909,3,3,2,60,0,0
88494,-83.3333333333333,3,3,2,60,0,0
88923,-76.9230769230769,3,3,2,60,0,0
89351,-83.3333333333333,3,3,2,60,0,0
108209,216.606498194946,4,3,2,60,1,0
109075,230.769230769231,4,3,1,60,1,0
109536,264.31718061674,4,3,1,60,1,0
110064,352.941176470588,11,3,1,60,1,0
111034,-100,11,3,1,5,0,0
111122,-100,11,3,1,60,0,0
112093,-100,11,3,1,5,0,0
112181,-100,11,3,1,60,0,0
113152,-100,11,3,1,5,0,0
113240,-100,11,3,1,60,0,0
113593,-66.6666666666667,11,3,1,60,0,0
113857,-66.6666666666667,11,3,1,5,0,0
113946,352.941176470588,13,3,1,60,1,0
114916,-100,11,3,1,5,0,0
115004,-100,11,3,1,60,0,0
115975,-100,11,3,1,5,0,0
116063,-100,11,3,1,60,0,0
117034,-100,11,3,1,5,0,0
117122,-100,11,3,1,60,0,0
118534,352.941176470588,11,3,1,60,1,0
119504,-100,11,3,1,5,0,0
119592,-100,11,3,1,60,0,0
120563,-100,11,3,1,5,0,0
120651,-100,11,3,1,60,0,0
121622,-100,11,3,1,5,0,0
121710,-100,11,3,1,60,0,0
122063,-66.6666666666667,11,3,1,60,0,0
122327,-66.6666666666667,11,3,1,5,0,0
122416,352.941176470588,12,3,1,60,1,0
123386,-100,11,3,1,5,0,0
123474,-100,11,3,1,60,0,0
124445,-100,11,3,1,5,0,0
124533,-100,11,3,1,60,0,0
125504,-100,11,3,1,5,0,0
125592,-100,11,3,1,60,0,0
126651,352.941176470588,11,3,1,60,1,0
130534,352.941176470588,12,3,1,60,1,0
134769,352.941176470588,11,3,1,60,1,0
139621,-100,11,3,1,5,0,0
139710,-100,11,3,1,60,0,0
142180,-125,11,3,1,60,0,0
142445,-125,11,3,1,5,0,0
142533,352.941176470588,3,3,1,60,1,0
144562,-100,11,3,1,5,0,0
144650,-100,11,3,1,60,0,0
149856,-100,11,3,1,5,0,0
149944,-100,11,3,1,60,0,0
151974,-100,11,3,1,5,0,0
152062,-100,11,3,1,60,0,0
153033,-100,11,3,1,5,0,0
153121,-100,11,3,1,60,0,0
154091,-100,11,3,1,5,0,0
154179,-100,11,3,1,60,0,0
155150,-100,11,3,1,5,0,0
155238,-100,11,3,1,60,0,0
156209,-100,11,3,1,5,0,0
156297,-100,11,3,1,60,0,0
157268,-100,11,3,1,5,0,0
157356,-100,11,3,1,60,0,0
197591,-100,3,3,1,60,0,0
215503,-100,11,3,1,5,0,0
215591,-100,11,3,1,60,0,0
216562,-100,11,3,1,5,0,0
216650,-100,11,3,1,60,0,0
218680,-100,11,3,1,5,0,0
218768,-100,11,3,1,60,0,0
219738,-100,11,3,1,5,0,0
219826,-100,11,3,1,60,0,0
220797,-100,11,3,1,5,0,0
220885,-100,11,3,1,60,0,0
225032,-100,11,3,1,5,0,0
225120,-100,11,3,1,60,0,0
226091,-100,11,3,1,5,0,0
226179,-100,11,3,1,60,0,0
227150,-100,11,3,1,5,0,0
227238,-100,11,3,1,60,0,0
228209,-100,11,3,1,5,0,0
228297,-100,11,3,1,60,0,0
229268,-100,11,3,1,5,0,0
229356,-100,11,3,1,60,0,0
252562,-100,11,3,1,5,0,0
252650,-100,11,3,1,60,0,0
254768,491.803278688525,4,3,1,50,1,0
254768,-208.333333333333,4,3,1,50,0,0
256735,-208.333333333333,4,3,1,40,0,0
258702,500.291836904861,3,3,1,30,1,0
258702,-208.333333333333,4,3,1,30,0,0
260202,-208.333333333333,4,3,1,20,0,0
261703,-208.333333333333,4,3,1,10,0,0
263204,-208.333333333333,4,2,1,5,0,0
266206,-333.333333333333,3,2,33,50,0,0
269208,-333.333333333333,3,2,32,50,0,0
270709,-333.333333333333,3,2,33,50,0,0
272209,-333.333333333333,3,2,31,50,0,0
275211,-333.333333333333,3,2,32,50,0,0
276712,-333.333333333333,3,2,39,50,0,0
278213,-333.333333333333,3,2,33,50,0,0
281215,-333.333333333333,3,2,32,50,0,0
282716,-333.333333333333,3,2,33,50,0,0
284216,-333.333333333333,3,2,31,50,0,0
285717,-333.333333333333,3,2,32,50,0,0
287218,-333.333333333333,3,2,33,50,0,0
288719,-333.333333333333,3,2,38,50,0,0
290200,500.291836904861,3,2,41,60,1,0
290200,-333.333333333333,3,2,41,60,0,0
290700,-100,3,2,91,50,0,0
291700,-333.333333333333,3,2,42,50,0,0
292201,-333.333333333333,3,2,37,50,0,0
293201,-333.333333333333,3,2,36,50,0,0
293702,-333.333333333333,3,2,46,50,0,0
294702,-333.333333333333,3,2,47,50,0,0
295202,-333.333333333333,3,2,45,50,0,0
296203,-333.333333333333,3,2,44,50,0,0
296703,-333.333333333333,3,2,45,50,0,0
297204,-333.333333333333,3,2,46,50,0,0
297704,-333.333333333333,3,2,47,50,0,0
298704,-333.333333333333,3,2,47,50,0,0
299205,-333.333333333333,3,2,91,50,0,0
300706,-333.333333333333,3,2,42,50,0,0
301206,-333.333333333333,3,2,48,40,0,0
301706,-333.333333333333,3,2,37,50,0,0
302207,-333.333333333333,3,2,41,70,0,0
302707,-333.333333333333,3,2,91,50,0,0
303707,-333.333333333333,3,2,42,50,0,0
304208,-333.333333333333,3,2,37,50,0,0
305208,-333.333333333333,3,2,36,50,0,0
305709,-333.333333333333,3,2,46,50,0,0
306709,-333.333333333333,3,2,45,50,0,0
307209,-333.333333333333,3,2,91,50,0,0
307710,-333.333333333333,3,2,91,50,0,0
308210,-333.333333333333,3,2,46,50,0,0
309711,-333.333333333333,3,2,51,50,0,0
311212,-333.333333333333,3,2,61,50,0,0
312713,-333.333333333333,3,2,47,50,0,0
313713,522.056904202558,3,2,37,50,1,0
313713,-333.333333333333,3,2,37,50,0,0
314234,500.291836904861,3,2,1,50,1,0
314234,-333.333333333333,3,2,1,50,0,0
336747,-333.333333333333,3,2,1,50,0,0
337247,441.176470588235,3,2,1,70,1,0
337247,-125,3,2,1,70,0,0
337688,500,3,3,1,70,1,0
337688,-83.3333333333333,3,3,1,70,0,0
338062,-100,3,3,1,5,0,0
338063,-83.3333333333333,3,3,1,5,0,0
338188,500,3,3,2,60,1,1
338188,-50,3,3,2,60,0,1
348688,-66.6666666666667,3,3,1,60,0,1
350188,-50,3,3,2,60,0,1
360688,-66.6666666666667,3,3,1,60,0,1
361688,-66.6666666666667,3,3,1,60,0,0
362188,250,6,3,2,60,1,1
362188,-83.3333333333333,6,3,2,60,0,1
364188,-71.4285714285714,6,3,2,60,0,1
364688,-62.5,6,3,2,60,0,1
365188,-83.3333333333333,6,3,2,60,0,1
367188,-71.4285714285714,6,3,2,60,0,1
367688,-62.5,6,3,2,60,0,1
368188,-83.3333333333333,6,3,2,60,0,1
370188,-71.4285714285714,6,3,2,60,0,1
370688,-62.5,6,3,2,60,0,1
371188,-83.3333333333333,6,3,1,60,0,1
374188,-83.3333333333333,6,3,2,60,0,1
376188,-71.4285714285714,6,3,2,60,0,1
376688,-62.5,6,3,2,60,0,1
377188,-83.3333333333333,6,3,2,60,0,1
379188,-71.4285714285714,6,3,2,60,0,1
379688,-100,6,3,2,60,0,0
380188,-83.3333333333333,6,3,1,60,0,1
392188,-83.3333333333333,6,3,47,60,0,0
393688,-83.3333333333333,6,2,47,50,0,0
395188,-83.3333333333333,6,2,47,40,0,0
396688,-83.3333333333333,6,2,47,30,0,0
398188,-83.3333333333333,6,2,47,20,0,0
399688,-83.3333333333333,6,2,47,10,0,0
401188,-83.3333333333333,6,2,47,5,0,0

[Colours]
Combo1 : 192,192,192
Combo2 : 172,172,89
Combo3 : 202,202,151
Combo4 : 128,128,64

[HitObjects]
443,367,443,5,4,1:3:0:0:
474,334,511,1,8,0:3:0:0:
493,294,579,1,2,1:3:0:0:
499,250,647,1,8,0:3:0:0:
491,205,715,1,2,1:3:0:0:
469,166,783,1,8,0:3:0:0:
436,136,852,2,0,L|372:156,1,45,2|8,1:3|0:3,0:0:0:0:
209,141,988,1,2,1:3:0:0:
180,106,1056,1,8,0:3:0:0:
175,62,1124,1,2,1:3:0:0:
194,22,1193,1,8,0:3:0:0:
232,0,1261,6,0,L|305:15,3,45,2|8|2|8,1:3|0:3|1:3|0:3,0:0:0:0:
83,117,1533,2,0,L|38:126,3,45,2|8|2|8,1:3|0:3|1:3|0:3,0:0:0:0:
255,221,1806,2,0,L|328:236,3,45,2|8|2|8,1:3|0:3|1:3|0:3,0:0:0:0:
41,298,2079,5,4,1:3:0:0:
75,270,2147,1,8,0:3:0:0:
119,264,2215,1,0,1:3:0:0:
160,283,2283,1,8,0:3:0:0:
185,319,2352,1,2,1:3:0:0:
210,355,2420,1,8,0:3:0:0:
250,374,2488,1,2,1:3:0:0:
294,368,2556,1,8,0:3:0:0:
329,340,2624,53,2,1:3:0:0:
296,297,2693,1,8,0:3:0:0:
296,244,2761,1,2,1:3:0:0:
329,203,2829,1,8,0:3:0:0:
380,189,2897,5,4,1:3:0:0:
339,173,2965,1,8,0:3:0:0:
311,139,3033,1,2,1:3:0:0:
305,95,3102,1,8,0:3:0:0:
322,54,3170,1,2,1:3:0:0:
358,27,3238,1,8,0:3:0:0:
402,23,3306,1,2,1:3:0:0:
443,42,3374,1,8,0:3:0:0:
467,77,3443,5,2,1:3:0:0:
469,130,3511,1,8,0:3:0:0:
438,173,3579,1,2,1:3:0:0:
388,189,3647,1,8,0:3:0:0:
341,176,3715,53,4,1:3:0:0:
331,132,3783,1,8,0:3:0:0:
305,95,3852,1,2,1:3:0:0:
267,71,3920,1,8,0:3:0:0:
224,64,3988,1,2,1:3:0:0:
181,75,4056,1,8,0:3:0:0:
145,102,4124,2,0,P|155:126|162:169,1,45,2|8,1:3|0:3,0:0:0:0:
180,298,4261,1,2,1:3:0:0:
191,341,4329,1,8,0:3:0:0:
226,368,4397,1,2,1:3:0:0:
270,370,4465,1,8,0:3:0:0:
313,353,4534,5,2,1:3:0:0:
321,308,4602,1,8,0:3:0:0:
308,265,4670,1,2,1:3:0:0:
276,235,4738,1,8,0:3:0:0:
233,222,4807,69,2,1:3:0:0:
207,258,4875,1,8,0:3:0:0:
169,282,4943,1,2,1:3:0:0:
125,289,5011,1,8,0:3:0:0:
82,276,5079,5,2,1:3:0:0:
96,233,5147,1,8,0:3:0:0:
93,189,5216,1,2,1:3:0:0:
71,150,5284,1,8,0:3:0:0:
36,123,5352,5,4,1:3:0:0:
76,142,5420,1,8,0:3:0:0:
121,141,5488,1,2,1:3:0:0:
160,121,5557,1,8,0:3:0:0:
187,85,5625,1,2,1:3:0:0:
213,49,5693,1,8,0:3:0:0:
253,29,5761,1,2,1:3:0:0:
298,28,5829,1,8,0:3:0:0:
339,44,5897,53,2,1:3:0:0:
291,68,5966,1,8,0:3:0:0:
263,113,6034,1,2,1:3:0:0:
260,167,6102,1,8,0:3:0:0:
267,220,6170,69,2,1:3:0:0:
296,186,6238,1,8,0:3:0:0:
338,171,6306,1,2,1:3:0:0:
381,181,6374,1,8,0:3:0:0:
425,188,6443,1,2,1:3:0:0:
468,174,6511,1,8,0:3:0:0:
498,142,6579,1,2,1:3:0:0:
505,99,6647,1,8,0:3:0:0:
499,54,6715,5,2,1:3:0:0:
462,92,6783,1,8,0:3:0:0:
411,107,6852,1,2,1:3:0:0:
358,97,6920,1,8,0:3:0:0:
315,65,6988,5,4,1:3:0:0:
281,36,7056,1,8,0:3:0:0:
239,25,7124,1,2,1:3:0:0:
194,32,7193,1,8,0:3:0:0:
157,57,7261,1,2,1:3:0:0:
135,95,7329,1,8,0:3:0:0:
139,139,7397,2,0,L|157:194,1,45,2|8,1:3|0:3,0:0:0:0:
260,275,7533,1,2,1:3:0:0:
288,239,7602,1,8,0:3:0:0:
331,228,7670,1,2,1:3:0:0:
373,242,7738,1,8,0:3:0:0:
412,262,7806,6,0,L|481:242,3,45,4|8|2|8,1:3|0:3|1:3|0:3,0:0:0:0:
296,368,8079,2,0,L|228:348,3,45,2|8|2|8,1:3|0:3|1:3|0:3,0:0:0:0:
416,181,8352,2,0,L|484:160,3,45,2|8|2|8,1:3|0:3|1:3|0:3,0:0:0:0:
415,37,8624,69,4,1:3:0:0:
415,37,8693,1,8,0:3:0:0:
415,37,8761,2,0,P|427:66|434:103,1,53.9999983520508,0|8,1:3|0:3,0:0:0:0:
324,260,8897,5,4,1:3:0:0:
324,260,8965,1,8,0:3:0:0:
324,260,9033,2,0,P|336:231|343:194,1,53.9999983520508,0|8,1:3|0:3,0:0:0:0:
216,0,9170,5,4,1:3:0:0:
216,0,9238,1,8,0:3:0:0:
216,0,9306,2,0,P|228:29|235:66,1,53.9999983520508,0|8,1:3|0:3,0:0:0:0:
63,273,9443,5,4,1:3:0:0:
25,249,9511,1,8,0:3:0:0:
2,210,9579,1,2,1:3:0:0:
0,166,9647,1,8,0:3:0:0:
20,126,9715,1,2,1:3:0:0:
55,99,9783,1,8,0:3:0:0:
99,92,9852,1,2,1:3:0:0:
141,107,9920,1,8,0:3:0:0:
172,139,9988,2,0,L|164:208,3,45,2|8|2|8,1:3|0:3|1:3|0:3,0:0:0:0:
173,301,10261,69,4,1:3:0:0:
201,335,10329,1,8,0:3:0:0:
242,351,10397,1,2,1:3:0:0:
287,345,10465,1,8,0:3:0:0:
322,319,10533,1,2,1:3:0:0:
357,293,10602,1,8,0:3:0:0:
402,287,10670,2,0,P|425:289|457:314,1,45,2|8,1:3|0:3,0:0:0:0:
512,384,10806,1,2,1:3:0:0:
467,354,10874,1,8,0:3:0:0:
440,308,10943,1,2,1:3:0:0:
435,254,11011,1,8,0:3:0:0:
454,204,11079,6,0,P|478:190|517:177,3,45,4|8|2|8,1:3|0:3|1:3|0:3,0:0:0:0:
362,157,11352,2,0,P|364:180|361:202,3,45,2|8|2|8,1:3|0:3|1:3|0:3,0:0:0:0:
454,97,11624,2,0,P|433:86|415:73,3,45,2|8|2|8,1:3|0:3|1:3|0:3,0:0:0:0:
337,5,11897,5,4,1:3:0:0:
337,5,11965,1,8,0:3:0:0:
337,5,12033,2,0,L|324:74,1,53.9999983520508,2|8,1:3|0:3,0:0:0:0:
143,94,12170,5,2,1:3:0:0:
143,94,12238,1,8,0:3:0:0:
143,94,12306,2,0,L|156:163,1,53.9999983520508,2|8,1:3|0:3,0:0:0:0:
378,269,12443,69,2,1:3:0:0:
378,269,12511,1,8,0:3:0:0:
378,269,12579,2,0,L|365:338,1,53.9999983520508,2|8,1:3|0:3,0:0:0:0:
212,358,12715,5,4,1:3:0:0:
208,347,12783,1,8,0:3:0:0:
203,338,12852,1,0,1:3:0:0:
197,329,12920,1,8,0:3:0:0:
191,320,12988,1,0,1:3:0:0:
183,313,13056,1,0,1:3:0:0:
175,306,13124,1,0,1:3:0:0:
165,300,13193,1,0,1:3:0:0:
156,295,13261,1,0,1:3:0:0:
146,292,13329,1,0,1:3:0:0:
135,289,13397,1,0,1:3:0:0:
124,288,13465,1,0,1:3:0:0:
113,288,13533,5,4,1:3:0:0:
148,314,13602,1,8,0:3:0:0:
193,317,13670,1,2,1:3:0:0:
232,298,13738,1,8,0:3:0:0:
256,260,13806,1,2,1:3:0:0:
291,234,13874,1,8,0:3:0:0:
336,231,13943,2,0,L|354:302,1,45,2|8,1:3|0:3,0:0:0:0:
472,334,14079,1,2,1:3:0:0:
501,300,14147,1,8,0:3:0:0:
512,257,14215,1,2,1:3:0:0:
502,214,14283,1,8,0:3:0:0:
473,180,14352,6,0,P|457:150|453:114,3,45,2|8|2|8,1:3|0:3|1:3|0:3,0:0:0:0:
347,274,14624,2,0,P|340:295|328:314,3,45,2|8|2|8,1:3|0:3|1:3|0:3,0:0:0:0:
241,111,14897,2,0,P|234:89|222:70,3,45,2|8|2|8,1:3|0:3|1:3|0:3,0:0:0:0:
7,186,15170,69,4,1:3:0:0:
8,141,15238,1,8,0:3:0:0:
32,104,15306,1,2,1:3:0:0:
72,83,15374,1,8,0:3:0:0:
116,86,15443,1,2,1:3:0:0:
153,110,15511,1,8,0:3:0:0:
173,150,15579,1,2,1:3:0:0:
170,194,15647,1,8,0:3:0:0:
145,231,15715,5,2,1:3:0:0:
92,237,15783,1,8,0:3:0:0:
56,275,15852,1,2,1:3:0:0:
51,328,15920,1,8,0:3:0:0:
81,371,15988,5,4,1:3:0:0:
105,333,16056,1,8,0:3:0:0:
113,289,16124,1,2,1:3:0:0:
103,246,16193,1,8,0:3:0:0:
76,211,16261,1,2,1:3:0:0:
52,173,16329,1,8,0:3:0:0:
44,129,16397,1,2,1:3:0:0:
54,86,16465,1,8,0:3:0:0:
81,51,16533,1,2,1:3:0:0:
122,34,16602,1,8,0:3:0:0:
166,39,16670,1,2,1:3:0:0:
202,65,16738,1,8,0:3:0:0:
222,105,16806,5,4,1:3:0:0:
219,149,16874,1,8,0:3:0:0:
196,187,16943,1,2,1:3:0:0:
172,225,17011,1,8,0:3:0:0:
170,269,17079,1,2,1:3:0:0:
189,309,17147,1,8,0:3:0:0:
226,333,17215,2,0,P|245:320|284:312,1,45,2|8,1:3|0:3,0:0:0:0:
433,368,17352,1,2,1:3:0:0:
474,350,17420,1,8,0:3:0:0:
490,308,17488,1,2,1:3:0:0:
473,266,17556,1,8,0:3:0:0:
436,240,17624,70,0,L|417:179,3,45,2|8|2|8,1:3|0:3|1:3|0:3,0:0:0:0:
303,100,17897,2,0,L|283:39,3,45,2|8|2|8,1:3|0:3|1:3|0:3,0:0:0:0:
150,206,18169,2,0,L|136:163,3,45,2|8|2|8,1:3|0:3|1:3|0:3,0:0:0:0:
4,327,18442,5,4,1:3:0:0:
27,289,18510,1,8,0:3:0:0:
67,270,18579,1,2,1:3:0:0:
111,276,18646,1,8,0:3:0:0:
145,306,18715,5,2,1:3:0:0:
179,276,18783,1,8,0:3:0:0:
223,270,18851,1,2,1:3:0:0:
263,289,18919,1,8,0:3:0:0:
286,327,18987,5,2,1:3:0:0:
320,357,19056,1,8,0:3:0:0:
364,363,19124,1,2,1:3:0:0:
404,344,19192,1,8,0:3:0:0:
427,306,19261,69,2,1:3:0:0:
386,287,19329,1,8,0:3:0:0:
362,249,19397,1,2,1:3:0:0:
362,205,19465,1,8,0:3:0:0:
386,167,19533,1,2,1:3:0:0:
426,148,19602,1,8,0:3:0:0:
450,110,19670,1,2,1:3:0:0:
450,66,19738,1,8,0:3:0:0:
426,28,19806,1,2,1:3:0:0:
385,10,19874,1,8,0:3:0:0:
342,21,19943,1,2,1:3:0:0:
315,55,20011,1,8,0:3:0:0:
288,91,20079,5,4,1:3:0:0:
245,105,20147,1,8,0:3:0:0:
201,97,20216,1,2,1:3:0:0:
166,71,20284,1,8,0:3:0:0:
145,31,20352,1,2,1:3:0:0:
106,10,20420,1,8,0:3:0:0:
62,11,20488,1,2,1:3:0:0:
24,34,20557,1,8,0:3:0:0:
5,74,20624,5,2,1:3:0:0:
9,128,20693,1,8,0:3:0:0:
51,161,20761,1,2,1:3:0:0:
104,165,20829,1,8,0:3:0:0:
151,139,20897,5,4,1:3:0:0:
189,162,20965,1,8,0:3:0:0:
200,205,21033,1,2,1:3:0:0:
191,249,21102,1,8,0:3:0:0:
202,292,21170,1,2,1:3:0:0:
240,315,21238,1,8,0:3:0:0:
284,311,21306,1,2,1:3:0:0:
316,281,21374,1,8,0:3:0:0:
321,236,21443,1,2,1:3:0:0:
298,199,21511,1,8,0:3:0:0:
273,162,21579,1,2,1:3:0:0:
271,118,21647,1,8,0:3:0:0:
297,82,21715,70,0,P|331:85|371:101,3,45,4|8|0|8,1:3|0:3|1:3|0:3,0:0:0:0:
464,153,21988,2,0,P|484:179|501:219,3,45,4|8|0|8,1:3|0:3|1:3|0:3,0:0:0:0:
484,313,22261,2,0,P|479:346|463:386,3,45,4|8|0|8,1:3|0:3|1:3|0:3,0:0:0:0:
322,341,22533,5,4,1:3:0:0:
322,341,22602,1,8,0:3:0:0:
322,341,22670,2,0,L|381:326,1,53.9999983520508,0|8,1:3|0:3,0:0:0:0:
159,233,22806,5,4,1:3:0:0:
159,233,22874,1,8,0:3:0:0:
159,233,22943,2,0,L|100:218,1,53.9999983520508,0|8,1:3|0:3,0:0:0:0:
374,67,23079,5,4,1:3:0:0:
374,67,23147,1,8,0:3:0:0:
374,67,23215,2,0,L|433:52,1,53.9999983520508,0|8,1:3|0:3,0:0:0:0:
291,185,23352,69,4,1:3:0:0:
246,181,23420,1,8,0:3:0:0:
208,159,23488,1,2,1:3:0:0:
184,121,23556,1,8,0:3:0:0:
179,77,23624,1,2,1:3:0:0:
194,35,23693,1,8,0:3:0:0:
227,5,23761,2,0,P|223:32|214:64,1,45,2|8,1:3|0:3,0:0:0:0:
1,152,23897,1,2,1:3:0:0:
45,145,23965,1,8,0:3:0:0:
88,157,24033,1,2,1:3:0:0:
122,186,24102,1,8,0:3:0:0:
146,223,24170,6,0,L|157:167,3,45,4|8|2|8,1:3|0:3|1:3|0:3,0:0:0:0:
241,346,24443,2,0,L|252:290,3,45,2|8|2|8,1:3|0:3|1:3|0:3,0:0:0:0:
355,170,24715,2,0,L|366:114,3,45,2|8|2|8,1:3|0:3|1:3|0:3,0:0:0:0:
512,224,24988,5,4,1:3:0:0:
469,208,25056,1,8,0:3:0:0:
425,214,25124,1,2,1:3:0:0:
389,241,25193,1,8,0:3:0:0:
371,281,25261,1,2,1:3:0:0:
351,321,25329,1,8,0:3:0:0:
316,347,25397,1,2,1:3:0:0:
272,355,25465,1,8,0:3:0:0:
230,339,25533,1,2,1:3:0:0:
199,307,25602,1,8,0:3:0:0:
192,263,25670,1,2,1:3:0:0:
211,223,25738,1,8,0:3:0:0:
249,201,25806,5,4,1:3:0:0:
284,174,25874,1,8,0:3:0:0:
300,132,25943,1,2,1:3:0:0:
291,88,26011,1,8,0:3:0:0:
261,56,26079,1,2,1:3:0:0:
218,44,26147,1,8,0:3:0:0:
175,57,26215,1,2,1:3:0:0:
146,91,26283,1,8,0:3:0:0:
136,134,26352,1,2,1:3:0:0:
147,177,26420,1,8,0:3:0:0:
177,210,26488,1,2,1:3:0:0:
219,225,26556,1,8,0:3:0:0:
263,219,26624,69,0,3:3:0:0:
273,199,26693,1,0,3:3:0:0:
288,182,26761,1,0,3:3:0:0:
307,170,26829,1,0,3:3:0:0:
329,164,26897,1,0,1:3:0:0:
351,165,26965,1,0,3:3:0:0:
373,171,27033,1,0,3:3:0:0:
392,183,27102,1,0,3:3:0:0:
407,200,27170,1,0,3:3:0:0:
416,220,27238,1,0,3:3:0:0:
420,242,27306,1,0,1:3:0:0:
418,264,27374,1,0,3:3:0:0:
409,280,27443,5,0,1:3:0:0:
413,277,27511,1,0,3:3:0:0:
417,276,27579,1,0,3:3:0:0:
421,273,27647,1,0,3:3:0:0:
425,272,27715,1,0,1:3:0:0:
429,270,27783,1,0,1:3:0:0:
434,268,27852,1,0,1:3:0:0:
437,266,27920,1,0,1:3:0:0:
442,266,27988,1,8,3:3:0:0:
446,263,28056,1,8,3:3:0:0:
450,262,28124,1,8,3:3:0:0:
454,260,28193,1,8,3:3:0:0:
459,258,28261,6,0,P|472:238|476:186,1,53.9999983520508,4|8,1:3|0:3,0:0:0:0:
400,154,28397,2,0,P|396:130|362:90,1,53.9999983520508,0|8,1:3|0:3,0:0:0:0:
293,154,28533,2,0,P|273:140|221:136,1,53.9999983520508,0|8,1:3|0:3,0:0:0:0:
215,228,28670,2,0,P|191:231|151:265,1,53.9999983520508,0|8,1:3|0:3,0:0:0:0:
170,384,28806,5,0,1:3:0:0:
223,373,28874,1,8,0:3:0:0:
276,363,28943,1,0,1:3:0:0:
329,353,29011,1,8,0:3:0:0:
382,343,29079,70,0,P|381:309|408:275,1,53.9999983520508,4|8,1:1|0:3,0:0:0:0:
312,231,29215,2,0,P|335:205|378:201,1,53.9999983520508,0|8,1:3|0:3,0:0:0:0:
347,105,29352,2,0,P|381:103|415:130,1,53.9999983520508,0|8,1:3|0:3,0:0:0:0:
448,42,29488,2,0,P|473:65|477:108,1,53.9999983520508,0|8,1:3|0:3,0:0:0:0:
460,193,29624,5,0,1:3:0:0:
407,202,29693,1,8,0:3:0:0:
353,199,29761,1,0,1:3:0:0:
301,183,29829,1,8,0:3:0:0:
255,155,29897,6,0,L|236:83,1,53.9999983520508,4|8,1:3|0:3,0:0:0:0:
147,1,30033,2,0,L|160:53,1,53.9999983520508,0|8,1:3|0:3,0:0:0:0:
126,209,30170,2,0,L|107:137,1,53.9999983520508,0|8,1:3|0:3,0:0:0:0:
18,55,30306,2,0,L|31:107,1,53.9999983520508,0|8,1:3|0:3,0:0:0:0:
164,379,30443,5,0,1:3:0:0:
147,328,30511,1,8,0:3:0:0:
105,296,30579,1,0,1:3:0:0:
52,295,30647,1,8,0:3:0:0:
8,325,30715,70,0,P|14:289|5:239,1,53.9999983520508,4|8,1:1|0:3,0:0:0:0:
107,103,30852,2,0,P|106:129|112:156,1,53.9999983520508,0|8,1:3|0:3,0:0:0:0:
228,327,30988,2,0,P|227:300|233:273,1,53.9999983520508,0|8,1:3|0:3,0:0:0:0:
312,128,31124,6,0,P|342:135|388:174,1,53.9999983520508,0|8,1:3|0:3,0:0:0:0:
400,304,31261,2,0,P|391:274|401:215,1,53.9999983520508,0|8,1:3|0:3,0:0:0:0:
504,147,31397,2,0,P|482:169|426:189,1,53.9999983520508,0|8,1:3|0:3,0:0:0:0:
280,338,31533,6,0,L|200:320,1,53.9999983520508,4|8,1:3|0:3,0:0:0:0:
296,244,31670,2,0,L|216:226,1,53.9999983520508,0|8,1:3|0:3,0:0:0:0:
168,120,31806,2,0,L|248:102,1,53.9999983520508,0|8,1:3|0:3,0:0:0:0:
152,26,31943,2,0,L|232:8,1,53.9999983520508,0|8,1:3|0:3,0:0:0:0:
443,0,32079,5,0,1:3:0:0:
434,53,32147,1,8,0:3:0:0:
426,106,32215,1,0,1:3:0:0:
417,160,32283,1,8,0:3:0:0:
409,213,32352,70,0,L|501:198,1,53.9999983520508,4|8,1:1|0:3,0:0:0:0:
366,335,32488,2,0,L|457:319,1,53.9999983520508,0|8,1:3|0:3,0:0:0:0:
236,240,32624,2,0,L|327:224,1,53.9999983520508,0|8,1:3|0:3,0:0:0:0:
192,361,32761,2,0,L|283:345,1,53.9999983520508,0|8,1:3|0:3,0:0:0:0:
83,342,32897,5,0,1:3:0:0:
46,303,32965,1,8,0:3:0:0:
35,251,33033,1,0,1:3:0:0:
52,200,33102,1,8,0:3:0:0:
92,165,33170,6,0,L|156:186,1,53.9999983520508,4|8,1:3|0:3,0:0:0:0:
159,58,33306,2,0,L|189:117,1,53.9999983520508,0|8,1:3|0:3,0:0:0:0:
282,28,33443,2,0,L|262:91,1,53.9999983520508,0|8,1:3|0:3,0:0:0:0:
389,95,33579,2,0,L|330:125,1,53.9999983520508,0|8,1:3|0:3,0:0:0:0:
509,235,33715,5,0,1:3:0:0:
462,208,33783,1,8,0:3:0:0:
409,213,33852,1,0,1:3:0:0:
368,247,33920,1,8,0:3:0:0:
354,298,33988,70,0,P|332:278|280:267,1,53.9999983520508,4|8,1:1|0:3,0:0:0:0:
190,336,34124,2,0,P|201:308|242:275,1,53.9999983520508,0|8,1:3|0:3,0:0:0:0:
358,282,34261,2,0,P|336:262|284:251,1,53.9999983520508,0|8,1:3|0:3,0:0:0:0:
157,216,34397,6,0,P|165:187|203:150,1,53.9999983520508,0|8,1:3|0:3,0:0:0:0:
315,160,34533,2,0,P|291:142|238:136,1,53.9999983520508,0|8,1:3|0:3,0:0:0:0:
144,203,34670,2,0,P|152:174|190:137,1,53.9999983520508,0|8,1:3|0:3,0:0:0:0:
321,10,34806,6,0,L|310:88,1,53.9999983520508,4|8,1:3|0:3,0:0:0:0:
451,152,34943,2,0,L|458:98,1,53.9999983520508,0|8,1:3|0:3,0:0:0:0:
315,160,35079,2,0,L|304:238,1,53.9999983520508,0|8,1:3|0:3,0:0:0:0:
480,356,35215,2,0,L|487:302,1,53.9999983520508,0|8,1:3|0:3,0:0:0:0:
331,342,35352,5,0,1:3:0:0:
278,331,35420,1,8,0:3:0:0:
225,320,35488,1,0,1:3:0:0:
172,310,35556,1,8,0:3:0:0:
119,299,35624,70,0,P|79:300|38:324,1,53.9999983520508,4|8,1:1|0:3,0:0:0:0:
0,197,35761,2,0,P|40:197|81:221,1,53.9999983520508,0|8,1:3|0:3,0:0:0:0:
135,112,35897,2,0,P|94:112|53:136,1,53.9999983520508,0|8,1:3|0:3,0:0:0:0:
15,9,36033,2,0,P|55:9|96:33,1,53.9999983520508,0|8,1:3|0:3,0:0:0:0:
237,68,36170,5,0,1:3:0:0:
290,58,36238,1,8,0:3:0:0:
343,49,36306,1,0,1:3:0:0:
396,39,36374,1,8,0:3:0:0:
449,30,36443,6,0,P|438:56|434:101,1,53.9999983520508,4|8,1:3|0:3,0:0:0:0:
510,223,36579,2,0,P|505:196|493:172,1,53.9999983520508,0|8,1:3|0:3,0:0:0:0:
381,178,36715,2,0,P|369:203|365:248,1,53.9999983520508,0|8,1:3|0:3,0:0:0:0:
441,370,36852,2,0,P|436:343|424:319,1,53.9999983520508,0|8,1:3|0:3,0:0:0:0:
206,241,36988,5,0,1:3:0:0:
187,190,37056,1,8,0:3:0:0:
196,138,37124,1,0,1:3:0:0:
231,97,37193,1,8,0:3:0:0:
281,79,37261,70,0,L|217:66,1,53.9999983520508,4|8,1:1|0:3,0:0:0:0:
47,152,37397,2,0,L|111:139,1,53.9999983520508,0|8,1:3|0:3,0:0:0:0:
284,62,37533,2,0,L|220:49,1,53.9999983520508,0|8,1:3|0:3,0:0:0:0:
70,242,37670,6,0,L|134:229,1,53.9999983520508,0|8,1:3|0:3,0:0:0:0:
304,315,37806,2,0,L|240:302,1,53.9999983520508,0|8,1:3|0:3,0:0:0:0:
67,225,37943,2,0,L|131:212,1,53.9999983520508,0|8,1:3|0:3,0:0:0:0:
370,63,38079,6,0,P|380:86|376:140,1,53.9999983520508,4|8,1:3|0:3,0:0:0:0:
473,139,38215,2,0,P|463:162|422:197,1,53.9999983520508,0|8,1:3|0:3,0:0:0:0:
462,269,38352,2,0,P|438:279|384:275,1,53.9999983520508,0|8,1:3|0:3,0:0:0:0:
349,342,38488,2,0,P|325:332|290:291,1,53.9999983520508,0|8,1:3|0:3,0:0:0:0:
199,72,38624,5,0,1:3:0:0:
250,87,38693,1,8,0:3:0:0:
287,125,38761,1,0,1:3:0:0:
299,177,38829,1,8,0:3:0:0:
284,228,38897,70,0,L|373:204,1,53.9999983520508,4|8,1:1|0:3,0:0:0:0:
184,328,39033,2,0,L|95:303,1,53.9999983520508,0|8,1:3|0:3,0:0:0:0:
349,342,39170,2,0,L|437:317,1,53.9999983520508,0|8,1:3|0:3,0:0:0:0:
165,184,39306,2,0,L|76:159,1,53.9999983520508,0|8,1:3|0:3,0:0:0:0:
0,65,39443,5,0,1:3:0:0:
11,117,39511,1,8,0:3:0:0:
23,170,39579,1,0,1:3:0:0:
35,223,39647,1,8,0:3:0:0:
47,275,39715,6,0,L|63:192,1,53.9999983520508,4|8,1:3|0:3,0:0:0:0:
187,109,39852,2,0,L|202:25,1,53.9999983520508,0|8,1:3|0:3,0:0:0:0:
258,357,39988,2,0,L|273:273,1,53.9999983520508,0|8,1:3|0:3,0:0:0:0:
399,227,40124,2,0,L|414:143,1,53.9999983520508,0|8,1:3|0:3,0:0:0:0:
503,4,40261,5,0,1:3:0:0:
449,0,40329,1,8,0:3:0:0:
398,13,40397,1,0,1:3:0:0:
356,47,40465,1,8,0:3:0:0:
331,93,40533,70,4,L|310:174,1,53.9999983520508,4|8,1:1|0:3,0:0:0:0:
399,280,40670,2,0,P|403:248|382:199,1,53.9999983520508,0|8,1:3|0:3,0:0:0:0:
181,205,40806,2,0,P|192:178|232:150,1,53.9999983520508,0|0,1:3|1:3,0:0:0:0:
258,357,40943,6,0,L|329:339,1,53.9999983520508,0|0,1:3|1:3,0:0:0:0:
56,259,41079,2,0,L|-17:275,1,53.9999983520508,0|0,1:3|1:3,0:0:0:0:
192,64,41215,2,0,L|262:47,1,53.9999983520508,0|0,1:3|1:3,0:0:0:0:
35,0,41352,5,4,1:3:0:0:
25,25,41405,1,8,0:3:0:0:
24,52,41459,1,0,1:3:0:0:
31,77,41512,1,8,0:3:0:0:
46,100,41566,1,0,1:3:0:0:
67,116,41619,1,8,0:3:0:0:
93,125,41673,1,0,1:3:0:0:
119,126,41726,1,8,0:3:0:0:
146,118,41780,5,0,1:3:0:0:
170,105,41833,1,8,0:3:0:0:
196,101,41887,1,0,1:3:0:0:
223,105,41940,1,8,0:3:0:0:
247,117,41994,1,0,1:3:0:0:
266,136,42047,1,8,0:3:0:0:
279,159,42101,1,0,1:3:0:0:
284,186,42154,1,8,0:3:0:0:
278,209,42209,69,0,1:3:0:0:
271,214,42262,1,8,0:3:0:0:
264,221,42316,1,0,1:3:0:0:
259,228,42369,1,8,0:3:0:0:
254,236,42423,1,0,1:3:0:0:
250,244,42476,1,8,0:3:0:0:
247,252,42530,1,0,1:3:0:0:
245,261,42583,1,8,0:3:0:0:
244,270,42637,1,0,1:3:0:0:
243,279,42691,1,8,0:3:0:0:
244,288,42744,1,0,1:3:0:0:
246,297,42798,1,8,0:3:0:0:
248,305,42852,6,0,P|277:291|315:294,1,53.9999983520508,0|8,1:3|0:3,0:0:0:0:
385,369,42959,2,0,P|414:383|452:380,1,53.9999983520508,0|8,1:3|0:3,0:0:0:0:
481,295,43066,5,4,1:1:0:0:
499,275,43119,1,8,0:3:0:0:
510,251,43173,1,0,1:3:0:0:
512,224,43226,1,8,0:3:0:0:
505,198,43280,1,0,1:3:0:0:
490,176,43333,1,8,0:3:0:0:
469,160,43387,1,0,1:3:0:0:
443,152,43440,1,8,0:3:0:0:
415,154,43494,5,0,1:3:0:0:
388,156,43547,1,8,0:3:0:0:
362,150,43601,1,0,1:3:0:0:
339,136,43654,1,8,0:3:0:0:
322,115,43708,1,0,1:3:0:0:
312,90,43761,1,8,0:3:0:0:
311,63,43815,1,0,1:3:0:0:
318,37,43868,1,8,0:3:0:0:
334,18,43923,70,0,L|349:81,3,53.9999983520508,0|8|0|8,1:3|0:3|1:3|0:3,0:0:0:0:
454,81,44137,2,0,L|439:144,3,53.9999983520508,0|8|0|8,1:3|0:3|1:3|0:3,0:0:0:0:
342,189,44351,2,0,L|329:241,3,53.9999983520508,0|8|0|8,1:3|0:3|1:3|0:3,0:0:0:0:
232,234,44565,2,0,L|244:286,3,53.9999983520508,0|8|0|8,1:3|0:3|1:3|0:3,0:0:0:0:
53,287,44780,5,4,1:3:0:0:
52,260,44833,1,8,0:3:0:0:
60,233,44887,1,0,1:3:0:0:
73,210,44940,1,8,0:3:0:0:
93,192,44994,1,0,1:3:0:0:
116,178,45047,1,8,0:3:0:0:
142,170,45101,1,0,1:3:0:0:
169,171,45154,1,8,0:3:0:0:
196,176,45209,5,0,1:3:0:0:
174,191,45262,1,8,0:3:0:0:
150,201,45316,1,0,1:3:0:0:
122,204,45369,1,8,0:3:0:0:
96,199,45423,1,0,1:3:0:0:
72,187,45476,1,8,0:3:0:0:
52,169,45530,1,0,1:3:0:0:
38,146,45583,1,8,0:3:0:0:
34,119,45637,5,0,1:3:0:0:
41,114,45690,1,8,0:3:0:0:
48,109,45744,1,0,1:3:0:0:
55,103,45797,1,8,0:3:0:0:
61,97,45851,1,0,1:3:0:0:
67,89,45904,1,8,0:3:0:0:
71,82,45958,1,0,1:3:0:0:
75,73,46011,1,8,0:3:0:0:
77,65,46065,1,0,1:3:0:0:
79,56,46119,1,8,0:3:0:0:
79,47,46172,1,0,1:3:0:0:
80,38,46226,1,8,0:3:0:0:
79,29,46280,70,0,P|52:47|33:79,1,53.9999983520508,0|8,1:3|0:3,0:0:0:0:
116,174,46387,2,0,P|109:205|118:241,1,53.9999983520508,0|8,1:3|0:3,0:0:0:0:
96,384,46494,5,4,1:1:0:0:
99,357,46547,1,8,0:3:0:0:
109,332,46601,1,0,1:3:0:0:
126,311,46654,1,8,0:3:0:0:
148,296,46708,1,0,1:3:0:0:
174,288,46761,1,8,0:3:0:0:
201,287,46815,1,0,1:3:0:0:
227,294,46868,1,8,0:3:0:0:
250,308,46923,5,0,1:3:0:0:
264,329,46976,1,8,0:3:0:0:
286,346,47030,1,0,1:3:0:0:
311,357,47083,1,8,0:3:0:0:
337,359,47137,1,0,1:3:0:0:
364,354,47190,1,8,0:3:0:0:
387,343,47244,1,0,1:3:0:0:
407,325,47297,1,8,0:3:0:0:
421,302,47351,5,4,3:1:0:0:
414,290,47404,1,0,3:3:0:0:
410,277,47458,1,0,3:3:0:0:
409,263,47511,1,0,3:3:0:0:
390,245,47566,69,0,3:3:0:0:
394,232,47618,1,0,3:3:0:0:
402,221,47672,1,0,3:3:0:0:
411,211,47725,1,0,3:3:0:0:
422,204,47780,6,0,L|493:217,3,53.9999983520508,0|0|0|0,1:3|1:3|1:3|1:3,0:0:0:0:
348,89,47994,1,0,3:3:0:0:
348,89,48048,1,0,3:3:0:0:
348,89,48101,2,0,L|276:114,1,53.9999983520508,0|0,3:3|3:3,0:0:0:0:
124,28,48209,5,4,1:3:0:0:
150,34,48262,1,8,0:3:0:0:
174,46,48316,1,0,1:3:0:0:
194,64,48369,1,8,0:3:0:0:
209,86,48423,1,0,1:3:0:0:
219,111,48476,1,8,0:3:0:0:
223,138,48530,1,0,1:3:0:0:
220,164,48583,1,8,0:3:0:0:
210,190,48638,5,0,1:3:0:0:
183,196,48691,1,8,0:3:0:0:
159,208,48745,1,0,1:3:0:0:
139,226,48798,1,8,0:3:0:0:
124,248,48852,1,0,1:3:0:0:
114,273,48905,1,8,0:3:0:0:
110,300,48959,1,0,1:3:0:0:
113,326,49012,1,8,0:3:0:0:
121,350,49066,69,0,1:3:0:0:
123,341,49119,1,8,0:3:0:0:
124,332,49173,1,0,1:3:0:0:
123,323,49226,1,8,0:3:0:0:
122,314,49280,1,0,1:3:0:0:
119,305,49333,1,8,0:3:0:0:
116,297,49387,1,0,1:3:0:0:
111,289,49440,1,8,0:3:0:0:
105,282,49494,1,0,1:3:0:0:
99,276,49548,1,8,0:3:0:0:
92,271,49601,1,0,1:3:0:0:
84,267,49655,1,8,0:3:0:0:
75,263,49709,6,0,L|135:243,1,53.9999983520508,0|8,1:3|0:3,0:0:0:0:
180,138,49816,2,0,L|240:118,1,53.9999983520508,0|8,1:3|0:3,0:0:0:0:
443,97,49923,5,4,1:1:0:0:
419,109,49976,1,8,0:3:0:0:
392,115,50030,1,0,1:3:0:0:
366,112,50083,1,8,0:3:0:0:
341,102,50137,1,0,1:3:0:0:
320,85,50190,1,8,0:3:0:0:
305,63,50244,1,0,1:3:0:0:
297,37,50297,1,8,0:3:0:0:
296,11,50351,5,0,1:3:0:0:
320,23,50404,1,8,0:3:0:0:
340,42,50458,1,0,1:3:0:0:
353,65,50511,1,8,0:3:0:0:
360,91,50565,1,0,1:3:0:0:
360,118,50618,1,8,0:3:0:0:
353,144,50672,1,0,1:3:0:0:
339,166,50725,1,8,0:3:0:0:
318,184,50780,70,0,P|292:173|265:177,3,53.9999983520508,0|8|0|8,1:3|0:3|1:3|0:3,0:0:0:0:
295,313,50994,2,0,P|268:316|244:306,3,53.9999983520508,0|8|0|8,1:3|0:3|1:3|0:3,0:0:0:0:
174,158,51209,2,0,P|148:147|121:151,3,53.9999983520508,0|8|0|8,1:3|0:3|1:3|0:3,0:0:0:0:
150,289,51423,2,0,P|123:291|98:281,3,53.9999983520508,0|8|0|8,1:3|0:3|1:3|0:3,0:0:0:0:
1,143,51637,5,4,1:3:0:0:
27,143,51690,1,8,0:3:0:0:
54,150,51744,1,0,1:3:0:0:
78,162,51797,1,8,0:3:0:0:
99,179,51851,1,0,1:3:0:0:
115,200,51904,1,8,0:3:0:0:
127,224,51958,1,0,1:3:0:0:
132,251,52011,1,8,0:3:0:0:
133,276,52066,5,0,1:3:0:0:
149,254,52119,1,8,0:3:0:0:
169,236,52173,1,0,1:3:0:0:
192,223,52226,1,8,0:3:0:0:
218,214,52280,1,0,1:3:0:0:
245,211,52333,1,8,0:3:0:0:
271,213,52387,1,0,1:3:0:0:
297,221,52440,1,8,0:3:0:0:
321,234,52494,5,0,1:3:0:0:
313,228,52547,1,8,0:3:0:0:
307,222,52601,1,0,1:3:0:0:
301,215,52654,1,8,0:3:0:0:
296,207,52708,1,0,1:3:0:0:
292,199,52761,1,8,0:3:0:0:
289,191,52815,1,0,1:3:0:0:
288,182,52868,1,8,0:3:0:0:
287,173,52922,1,0,1:3:0:0:
287,164,52976,1,8,0:3:0:0:
288,155,53029,1,0,1:3:0:0:
291,147,53083,1,8,0:3:0:0:
294,138,53137,70,0,P|316:155|364:167,1,53.9999983520508,0|8,1:3|0:3,0:0:0:0:
453,114,53244,2,0,P|431:97|383:85,1,53.9999983520508,0|8,1:3|0:3,0:0:0:0:
187,0,53351,5,4,1:1:0:0:
206,18,53404,1,8,0:3:0:0:
219,41,53458,1,0,1:3:0:0:
224,68,53511,1,8,0:3:0:0:
221,94,53565,1,0,1:3:0:0:
210,119,53618,1,8,0:3:0:0:
192,138,53672,1,0,1:3:0:0:
168,151,53725,1,8,0:3:0:0:
142,157,53780,5,0,1:3:0:0:
115,153,53833,1,8,0:3:0:0:
89,158,53887,1,0,1:3:0:0:
65,170,53940,1,8,0:3:0:0:
46,189,53994,1,0,1:3:0:0:
33,213,54047,1,8,0:3:0:0:
28,240,54101,1,0,1:3:0:0:
32,266,54154,1,8,0:3:0:0:
43,291,54209,5,4,3:1:0:0:
48,284,54262,1,0,3:3:0:0:
55,278,54316,1,0,3:3:0:0:
62,273,54369,1,0,3:3:0:0:
86,286,54423,69,0,3:1:0:0:
95,283,54476,1,0,3:3:0:0:
103,281,54530,1,0,3:3:0:0:
112,279,54583,1,0,3:3:0:0:
120,279,54637,6,0,P|142:300|158:333,3,53.9999983520508,0|0|0|0,1:3|1:3|1:3|1:3,0:0:0:0:
224,382,54851,5,0,3:3:0:0:
267,351,54904,1,0,3:3:0:0:
320,338,54958,1,0,3:3:0:0:
373,345,55011,1,0,3:3:0:0:
417,377,55066,5,4,1:3:0:0:
390,353,55119,1,8,0:3:0:0:
372,322,55173,1,0,1:3:0:0:
365,287,55226,1,8,0:3:0:0:
369,251,55280,1,0,1:3:0:0:
385,219,55333,1,8,0:3:0:0:
410,193,55388,1,0,1:3:0:0:
436,169,55441,1,8,0:3:0:0:
454,138,55495,1,0,1:3:0:0:
461,103,55548,1,8,0:3:0:0:
457,67,55602,1,0,1:3:0:0:
441,35,55655,1,8,0:3:0:0:
416,9,55709,70,0,L|402:84,1,53.9999983520508,0|8,1:3|0:3,0:0:0:0:
294,107,55816,2,0,L|308:182,1,53.9999983520508,0|8,1:3|0:3,0:0:0:0:
267,351,55923,5,0,1:3:0:0:
271,314,55976,1,8,0:3:0:0:
262,280,56030,1,0,1:3:0:0:
242,250,56083,1,8,0:3:0:0:
212,231,56137,1,0,1:3:0:0:
178,223,56190,1,8,0:3:0:0:
142,229,56244,1,0,1:3:0:0:
106,235,56299,1,8,0:3:0:0:
72,227,56352,1,0,1:3:0:0:
42,208,56406,1,8,0:3:0:0:
22,178,56459,1,0,1:3:0:0:
13,144,56513,1,8,0:3:0:0:
17,108,56566,6,0,P|30:88|68:70,1,53.9999983520508,0|8,1:3|0:3,0:0:0:0:
125,0,56673,2,0,P|147:7|174:39,1,53.9999983520508,0|8,1:3|0:3,0:0:0:0:
207,184,56780,5,4,1:1:0:0:
235,204,56833,1,8,0:3:0:0:
270,211,56887,1,0,1:3:0:0:
305,203,56940,1,8,0:3:0:0:
333,181,56994,1,0,1:3:0:0:
350,149,57047,1,8,0:3:0:0:
352,114,57101,1,0,1:3:0:0:
354,78,57156,1,8,0:3:0:0:
371,47,57209,1,0,1:3:0:0:
399,25,57263,1,8,0:3:0:0:
434,17,57316,1,0,1:3:0:0:
469,24,57370,1,8,0:3:0:0:
498,44,57423,70,0,L|440:69,1,53.9999983520508,0|8,1:3|0:3,0:0:0:0:
265,124,57530,2,0,L|215:102,1,53.9999983520508,0|8,1:3|0:3,0:0:0:0:
72,22,57637,5,0,1:3:0:0:
55,33,57690,1,8,0:3:0:0:
41,47,57744,1,0,1:3:0:0:
31,65,57797,1,8,0:3:0:0:
25,84,57851,1,0,1:3:0:0:
23,104,57904,1,8,0:3:0:0:
17,131,57959,5,0,1:3:0:0:
33,142,58012,1,8,0:3:0:0:
47,156,58066,1,0,1:3:0:0:
57,174,58119,1,8,0:3:0:0:
63,193,58173,1,0,1:3:0:0:
65,213,58226,1,8,0:3:0:0:
57,239,58280,5,0,1:3:0:0:
70,235,58333,1,8,0:3:0:0:
83,233,58387,1,0,1:3:0:0:
96,235,58440,1,8,0:3:0:0:
109,241,58494,69,4,1:3:0:0:
122,207,58547,1,8,0:3:0:0:
146,181,58601,1,0,1:3:0:0:
178,163,58654,1,8,0:3:0:0:
213,158,58708,1,0,1:3:0:0:
248,164,58761,1,8,0:3:0:0:
279,182,58815,1,0,1:3:0:0:
310,199,58870,1,8,0:3:0:0:
345,205,58923,1,0,1:3:0:0:
380,200,58977,1,8,0:3:0:0:
412,182,59030,1,0,1:3:0:0:
436,156,59084,1,8,0:3:0:0:
449,123,59137,6,0,L|416:45,1,53.9999983520508,0|8,1:3|0:3,0:0:0:0:
307,0,59244,2,0,L|328:49,1,53.9999983520508,0|8,1:3|0:3,0:0:0:0:
253,293,59351,5,0,1:3:0:0:
272,263,59404,1,8,0:3:0:0:
278,227,59458,1,0,1:3:0:0:
269,193,59511,1,8,0:3:0:0:
248,164,59565,1,0,1:3:0:0:
217,147,59618,1,8,0:3:0:0:
181,143,59672,1,0,1:3:0:0:
144,142,59727,1,8,0:3:0:0:
112,129,59780,1,0,1:3:0:0:
88,102,59834,1,8,0:3:0:0:
75,69,59887,1,0,1:3:0:0:
77,33,59941,1,8,0:3:0:0:
93,1,59994,6,0,P|114:31|115:77,1,53.9999983520508,0|8,1:3|0:3,0:0:0:0:
0,198,60101,2,0,P|7:172|24:151,1,53.9999983520508,0|8,1:3|0:3,0:0:0:0:
181,233,60209,69,4,1:1:0:0:
198,264,60262,1,8,0:3:0:0:
200,299,60316,1,0,1:3:0:0:
186,332,60369,1,8,0:3:0:0:
158,354,60423,1,0,1:3:0:0:
123,362,60476,1,8,0:3:0:0:
89,353,60530,1,0,1:3:0:0:
60,332,60583,1,8,0:3:0:0:
46,299,60637,1,0,1:3:0:0:
48,264,60690,1,8,0:3:0:0:
67,234,60744,1,0,1:3:0:0:
98,216,60797,1,8,0:3:0:0:
134,216,60851,6,0,L|200:233,1,53.9999983520508,0|8,1:3|0:3,0:0:0:0:
263,133,60959,2,0,L|328:116,1,53.9999983520508,0|8,1:3|0:3,0:0:0:0:
491,7,61066,5,4,3:1:0:0:
474,18,61119,1,0,3:3:0:0:
460,32,61173,1,0,3:3:0:0:
450,50,61226,1,0,3:3:0:0:
444,69,61280,1,0,3:3:0:0:
442,89,61333,1,0,3:3:0:0:
445,104,61387,2,0,P|463:134|465:169,1,53.9999983520508,0|0,3:3|3:3,0:0:0:0:
376,240,61494,5,0,1:3:0:0:
376,240,61548,1,0,1:3:0:0:
376,240,61601,2,0,L|316:226,1,53.9999983520508,0|0,1:3|1:3,0:0:0:0:
439,351,61709,69,0,3:3:0:0:
439,351,61763,1,0,3:3:0:0:
439,351,61816,2,0,L|499:337,1,53.9999983520508,0|0,3:3|3:3,0:0:0:0:
276,365,61923,5,4,1:3:0:0:
240,360,61976,1,8,0:3:0:0:
210,341,62030,1,0,1:3:0:0:
191,311,62083,1,8,0:3:0:0:
186,275,62137,1,0,1:3:0:0:
196,241,62190,1,8,0:3:0:0:
219,214,62244,1,0,1:3:0:0:
242,187,62298,1,8,0:3:0:0:
252,153,62351,1,0,1:3:0:0:
247,117,62405,1,8,0:3:0:0:
228,87,62458,1,0,1:3:0:0:
198,68,62512,1,8,0:3:0:0:
162,63,62566,6,0,L|98:102,1,53.9999983520508,0|8,1:3|0:3,0:0:0:0:
25,43,62673,2,0,L|7:115,1,53.9999983520508,0|8,1:3|0:3,0:0:0:0:
11,279,62780,5,0,1:3:0:0:
32,250,62833,1,8,0:3:0:0:
62,231,62887,1,0,1:3:0:0:
97,223,62940,1,8,0:3:0:0:
133,229,62994,1,0,1:3:0:0:
163,247,63047,1,8,0:3:0:0:
186,275,63101,1,0,1:3:0:0:
209,303,63156,1,8,0:3:0:0:
239,321,63209,1,0,1:3:0:0:
275,327,63263,1,8,0:3:0:0:
310,319,63316,1,0,1:3:0:0:
340,300,63370,1,8,0:3:0:0:
361,271,63423,70,0,P|337:260|312:233,1,53.9999983520508,0|8,1:3|0:3,0:0:0:0:
344,128,63530,2,0,P|368:139|393:166,1,53.9999983520508,0|8,1:3|0:3,0:0:0:0:
279,0,63637,5,4,1:1:0:0:
288,34,63690,1,8,0:3:0:0:
283,69,63744,1,0,1:3:0:0:
264,100,63797,1,8,0:3:0:0:
234,119,63851,1,0,1:3:0:0:
199,126,63904,1,8,0:3:0:0:
165,117,63958,1,0,1:3:0:0:
130,108,64013,1,8,0:3:0:0:
95,114,64066,1,0,1:3:0:0:
65,134,64120,1,8,0:3:0:0:
46,164,64173,1,0,1:3:0:0:
41,199,64227,1,8,0:3:0:0:
51,234,64280,6,0,L|114:214,1,53.9999983520508,0|8,1:3|0:3,0:0:0:0:
178,339,64387,2,0,L|241:319,1,53.9999983520508,0|8,1:3|0:3,0:0:0:0:
416,350,64494,5,0,1:3:0:0:
399,339,64547,1,8,0:3:0:0:
385,325,64601,1,0,1:3:0:0:
375,307,64654,1,8,0:3:0:0:
369,288,64708,1,0,1:3:0:0:
367,268,64761,1,8,0:3:0:0:
344,251,64816,69,0,1:3:0:0:
339,231,64869,1,8,0:3:0:0:
339,211,64923,1,0,1:3:0:0:
345,191,64976,1,8,0:3:0:0:
354,173,65030,1,0,1:3:0:0:
367,158,65083,1,8,0:3:0:0:
367,130,65137,5,0,1:3:0:0:
393,128,65190,1,8,0:3:0:0:
419,136,65244,1,0,1:3:0:0:
440,152,65297,1,8,0:3:0:0:
454,175,65351,5,4,1:3:0:0:
421,190,65404,1,8,0:3:0:0:
385,193,65458,1,0,1:3:0:0:
351,183,65511,1,8,0:3:0:0:
322,162,65565,1,0,1:3:0:0:
302,133,65618,1,8,0:3:0:0:
294,98,65672,1,0,1:3:0:0:
284,62,65727,1,8,0:3:0:0:
265,32,65780,1,0,1:3:0:0:
236,11,65834,1,8,0:3:0:0:
201,1,65887,1,0,1:3:0:0:
166,4,65941,1,8,0:3:0:0:
132,19,65994,6,0,L|119:98,1,53.9999983520508,0|8,1:3|0:3,0:0:0:0:
23,133,66101,2,0,L|36:212,1,53.9999983520508,0|8,1:3|0:3,0:0:0:0:
67,353,66209,69,0,1:3:0:0:
61,317,66262,1,8,0:3:0:0:
68,282,66316,1,0,1:3:0:0:
87,251,66369,1,8,0:3:0:0:
115,229,66423,1,0,1:3:0:0:
149,218,66476,1,8,0:3:0:0:
185,219,66530,1,0,1:3:0:0:
221,220,66584,1,8,0:3:0:0:
255,209,66637,1,0,1:3:0:0:
283,187,66691,1,8,0:3:0:0:
302,156,66744,1,0,1:3:0:0:
309,121,66798,1,8,0:3:0:0:
303,86,66851,6,0,P|280:106|270:156,1,53.9999983520508,0|8,1:3|0:3,0:0:0:0:
129,44,66959,2,0,P|117:19|96:2,1,53.9999983520508,0|8,1:3|0:3,0:0:0:0:
0,172,67066,5,4,1:1:0:0:
30,153,67119,1,8,0:3:0:0:
65,147,67173,1,0,1:3:0:0:
100,154,67226,1,8,0:3:0:0:
129,175,67280,1,0,1:3:0:0:
149,205,67333,1,8,0:3:0:0:
155,240,67388,1,0,1:3:0:0:
161,275,67442,1,8,0:3:0:0:
180,305,67495,1,0,1:3:0:0:
210,325,67549,1,8,0:3:0:0:
244,333,67602,1,0,1:3:0:0:
280,327,67656,1,8,0:3:0:0:
310,308,67709,1,0,1:3:0:0:
329,282,67762,1,8,0:3:0:0:
337,251,67816,1,0,1:3:0:0:
331,219,67869,1,8,0:3:0:0:
314,192,67923,5,4,3:1:0:0:
294,196,67976,1,0,3:3:0:0:
274,194,68030,1,0,3:3:0:0:
256,185,68083,1,0,3:3:0:0:
241,171,68137,1,0,3:3:0:0:
232,153,68190,1,0,3:3:0:0:
229,133,68244,1,0,3:3:0:0:
233,114,68298,1,0,3:3:0:0:
251,104,68351,69,0,1:3:0:0:
251,104,68405,1,0,1:3:0:0:
251,104,68459,2,0,P|279:96|313:71,1,53.9999983520508,0|0,1:3|1:3,0:0:0:0:
130,198,68566,5,0,3:3:0:0:
130,198,68620,1,0,3:3:0:0:
130,198,68674,2,0,P|102:206|68:231,1,53.9999983520508,0|0,3:3|0:0,0:0:0:0:
89,380,68780,5,4,1:3:0:0:
90,344,68833,1,8,0:3:0:0:
104,311,68887,1,0,1:3:0:0:
129,285,68940,1,8,0:3:0:0:
161,270,68994,1,0,1:3:0:0:
197,267,69047,1,8,0:3:0:0:
231,278,69101,1,0,1:3:0:0:
265,288,69156,1,8,0:3:0:0:
300,285,69209,1,0,1:3:0:0:
333,270,69263,1,8,0:3:0:0:
358,245,69316,1,0,1:3:0:0:
372,212,69370,1,8,0:3:0:0:
373,176,69423,6,0,L|316:197,1,53.9999983520508,0|8,1:3|0:3,0:0:0:0:
308,45,69530,2,0,L|282:100,1,53.9999983520508,0|8,1:3|0:3,0:0:0:0:
186,43,69637,69,0,1:3:0:0:
192,78,69690,1,8,0:3:0:0:
186,113,69744,1,0,1:3:0:0:
168,143,69797,1,8,0:3:0:0:
139,165,69851,1,0,1:3:0:0:
105,175,69904,1,8,0:3:0:0:
69,171,69958,1,0,1:3:0:0:
37,155,70012,1,8,0:3:0:0:
13,128,70065,1,0,1:3:0:0:
2,95,70119,1,8,0:3:0:0:
2,59,70172,1,0,1:3:0:0:
15,26,70226,1,8,0:3:0:0:
40,0,70280,6,0,P|59:31|69:83,1,53.9999983520508,0|8,1:3|0:3,0:0:0:0:
158,170,70387,2,0,P|139:201|129:253,1,53.9999983520508,0|8,1:3|0:3,0:0:0:0:
218,344,70494,5,4,1:1:0:0:
214,307,70547,1,8,0:3:0:0:
219,271,70601,1,0,1:3:0:0:
232,237,70654,1,8,0:3:0:0:
253,207,70708,1,0,1:3:0:0:
280,182,70761,1,8,0:3:0:0:
312,165,70815,1,0,1:3:0:0:
347,155,70869,1,8,0:3:0:0:
385,154,70922,1,0,1:3:0:0:
419,161,70976,1,8,0:3:0:0:
453,176,71029,1,0,1:3:0:0:
482,200,71083,1,8,0:3:0:0:
504,228,71137,6,0,P|473:236|428:266,1,53.9999983520508,0|8,1:3|0:3,0:0:0:0:
340,34,71244,2,0,P|364:45|390:51,1,53.9999983520508,0|8,1:3|0:3,0:0:0:0:
250,127,71351,69,0,1:3:0:0:
248,107,71404,1,8,0:3:0:0:
242,88,71458,1,0,1:3:0:0:
232,70,71511,1,8,0:3:0:0:
218,56,71565,1,0,1:3:0:0:
201,45,71618,1,8,0:3:0:0:
183,23,71673,5,0,1:3:0:0:
172,40,71726,1,8,0:3:0:0:
158,54,71780,1,0,1:3:0:0:
141,66,71833,1,8,0:3:0:0:
123,72,71887,1,0,1:3:0:0:
103,75,71940,1,8,0:3:0:0:
75,73,71994,5,0,1:3:0:0:
83,98,72047,1,8,0:3:0:0:
82,125,72101,1,0,1:3:0:0:
73,150,72154,1,8,0:3:0:0:
56,170,72209,69,4,1:3:0:0:
87,152,72262,1,8,0:3:0:0:
122,145,72316,1,0,1:3:0:0:
158,149,72369,1,8,0:3:0:0:
190,163,72423,1,0,1:3:0:0:
217,187,72476,1,8,0:3:0:0:
236,218,72530,1,0,1:3:0:0:
244,253,72584,1,8,0:3:0:0:
241,288,72637,1,0,1:3:0:0:
228,322,72691,1,8,0:3:0:0:
205,349,72744,1,0,1:3:0:0:
175,369,72798,1,8,0:3:0:0:
140,378,72851,6,0,L|73:361,1,53.9999983520508,0|8,1:3|0:3,0:0:0:0:
9,253,72959,2,0,L|76:236,1,53.9999983520508,0|8,1:3|0:3,0:0:0:0:
192,104,73066,5,0,1:3:0:0:
175,135,73119,1,8,0:3:0:0:
171,171,73173,1,0,1:3:0:0:
175,206,73226,1,8,0:3:0:0:
189,239,73280,1,0,1:3:0:0:
211,267,73333,1,8,0:3:0:0:
241,288,73387,1,0,1:3:0:0:
274,300,73441,1,8,0:3:0:0:
310,302,73494,1,0,1:3:0:0:
345,295,73548,1,8,0:3:0:0:
376,278,73601,1,0,1:3:0:0:
403,253,73655,1,8,0:3:0:0:
420,221,73709,6,0,P|389:209|346:212,1,53.9999983520508,0|8,1:3|0:3,0:0:0:0:
313,111,73816,2,0,P|287:119|265:135,1,53.9999983520508,0|8,1:3|0:3,0:0:0:0:
193,354,73923,69,4,1:1:0:0:
212,323,73976,1,8,0:3:0:0:
216,288,74030,1,0,1:3:0:0:
205,254,74083,1,8,0:3:0:0:
180,229,74137,1,0,1:3:0:0:
146,216,74190,1,8,0:3:0:0:
111,220,74244,1,0,1:3:0:0:
75,225,74299,1,8,0:3:0:0:
40,216,74352,1,0,1:3:0:0:
14,191,74406,1,8,0:3:0:0:
1,158,74459,1,0,1:3:0:0:
3,123,74513,1,8,0:3:0:0:
19,92,74566,6,0,P|47:87|89:48,1,53.9999983520508,0|8,1:3|0:3,0:0:0:0:
190,0,74673,2,0,P|218:5|260:44,1,53.9999983520508,0|8,1:3|0:3,0:0:0:0:
334,124,74780,5,4,3:1:0:0:
329,104,74833,1,0,3:3:0:0:
329,84,74887,1,0,3:3:0:0:
335,64,74940,1,0,3:3:0:0:
344,46,74994,1,0,3:3:0:0:
357,31,75047,1,0,3:3:0:0:
370,22,75101,2,0,P|398:38|414:72,1,53.9999983520508,0|0,3:3|3:3,0:0:0:0:
501,134,75209,5,4,1:1:0:0:
501,134,75262,1,0,1:3:0:0:
501,134,75316,2,0,P|509:165|496:200,1,53.9999983520508,0|0,1:3|1:3,0:0:0:0:
439,272,75423,69,0,3:3:0:0:
439,272,75476,1,0,3:3:0:0:
439,272,75530,2,0,P|423:300|389:316,1,53.9999983520508,0|0,3:3|3:3,0:0:0:0:
284,376,75637,5,4,1:3:0:0:
295,341,75690,1,8,0:3:0:0:
298,306,75744,1,0,1:3:0:0:
292,270,75797,1,8,0:3:0:0:
279,237,75851,1,0,1:3:0:0:
258,207,75904,1,8,0:3:0:0:
231,184,75958,1,0,1:3:0:0:
199,167,76012,1,8,0:3:0:0:
164,158,76065,1,0,1:3:0:0:
129,157,76119,1,8,0:3:0:0:
93,164,76172,1,0,1:3:0:0:
61,180,76226,1,8,0:3:0:0:
33,202,76280,6,0,P|49:184|62:141,1,53.9999983520508,0|8,1:3|0:3,0:0:0:0:
26,7,76387,2,0,P|10:25|-2:68,1,53.9999983520508,0|8,1:3|0:3,0:0:0:0:
0,286,76494,5,0,1:3:0:0:
27,308,76547,1,8,0:3:0:0:
62,318,76601,1,0,1:3:0:0:
97,314,76654,1,8,0:3:0:0:
128,297,76708,1,0,1:3:0:0:
150,268,76761,1,8,0:3:0:0:
159,234,76815,1,0,1:3:0:0:
168,199,76869,1,8,0:3:0:0:
189,171,76922,1,0,1:3:0:0:
221,153,76976,1,8,0:3:0:0:
256,149,77029,1,0,1:3:0:0:
290,159,77083,1,8,0:3:0:0:
318,182,77137,70,0,P|348:200|394:198,1,53.9999983520508,0|8,1:3|0:3,0:0:0:0:
495,59,77244,2,0,P|468:64|446:79,1,53.9999983520508,0|8,1:3|0:3,0:0:0:0:
450,258,77351,5,4,1:1:0:0:
460,223,77404,1,8,0:3:0:0:
462,187,77458,1,0,1:3:0:0:
457,152,77511,1,8,0:3:0:0:
444,118,77565,1,0,1:3:0:0:
423,89,77618,1,8,0:3:0:0:
397,64,77672,1,0,1:3:0:0:
366,46,77726,1,8,0:3:0:0:
332,35,77779,1,0,1:3:0:0:
296,32,77833,1,8,0:3:0:0:
261,37,77886,1,0,1:3:0:0:
227,49,77940,1,8,0:3:0:0:
197,69,77994,6,0,L|185:134,1,53.9999983520508,0|8,1:3|0:3,0:0:0:0:
74,181,78101,2,0,L|86:245,1,53.9999983520508,0|8,1:3|0:3,0:0:0:0:
85,361,78209,5,0,1:3:0:0:
99,346,78262,1,8,0:3:0:0:
116,336,78316,1,0,1:3:0:0:
135,328,78369,1,8,0:3:0:0:
155,327,78423,1,0,1:3:0:0:
175,329,78476,1,8,0:3:0:0:
195,310,78530,69,0,1:3:0:0:
209,325,78583,1,8,0:3:0:0:
226,335,78637,1,0,1:3:0:0:
245,343,78690,1,8,0:3:0:0:
265,344,78744,1,0,1:3:0:0:
285,342,78797,1,8,0:3:0:0:
311,348,78851,5,0,1:3:0:0:
295,326,78904,1,8,0:3:0:0:
288,300,78958,1,0,1:3:0:0:
291,273,79011,1,8,0:3:0:0:
302,247,79066,5,4,1:3:0:0:
337,254,79119,1,8,0:3:0:0:
372,252,79173,1,0,1:3:0:0:
406,240,79226,1,8,0:3:0:0:
436,220,79280,1,0,1:3:0:0:
459,192,79333,1,8,0:3:0:0:
473,159,79387,1,0,1:3:0:0:
478,124,79441,1,8,0:3:0:0:
473,88,79494,1,0,1:3:0:0:
459,55,79548,1,8,0:3:0:0:
436,28,79601,1,0,1:3:0:0:
407,7,79655,1,8,0:3:0:0:
373,0,79709,6,0,P|352:17|326:27,1,53.9999983520508,0|8,1:3|0:3,0:0:0:0:
277,135,79816,2,0,P|250:132|225:121,1,53.9999983520508,0|8,1:3|0:3,0:0:0:0:
60,17,79923,69,0,1:3:0:0:
95,18,79976,1,8,0:3:0:0:
127,34,80030,1,0,1:3:0:0:
150,61,80083,1,8,0:3:0:0:
161,95,80137,1,0,1:3:0:0:
156,131,80190,1,8,0:3:0:0:
138,162,80244,1,0,1:3:0:0:
120,193,80298,1,8,0:3:0:0:
115,229,80351,1,0,1:3:0:0:
126,263,80405,1,8,0:3:0:0:
149,290,80458,1,0,1:3:0:0:
181,306,80512,1,8,0:3:0:0:
217,307,80566,6,0,L|201:243,1,53.9999983520508,0|8,1:3|0:3,0:0:0:0:
53,316,80673,2,0,L|66:368,1,53.9999983520508,0|8,1:3|0:3,0:0:0:0:
321,383,80780,5,4,1:1:0:0:
303,351,80833,1,8,0:3:0:0:
297,316,80887,1,0,1:3:0:0:
305,281,80940,1,8,0:3:0:0:
326,252,80994,1,0,1:3:0:0:
355,231,81047,1,8,0:3:0:0:
390,224,81101,1,0,1:3:0:0:
425,216,81155,1,8,0:3:0:0:
454,196,81208,1,0,1:3:0:0:
475,166,81262,1,8,0:3:0:0:
482,131,81315,1,0,1:3:0:0:
477,96,81369,1,8,0:3:0:0:
458,69,81423,1,0,1:3:0:0:
436,54,81476,1,8,0:3:0:0:
410,48,81530,1,0,1:3:0:0:
383,51,81583,1,8,0:3:0:0:
358,64,81637,5,4,3:1:0:0:
344,66,81690,1,0,3:3:0:0:
331,65,81744,1,0,3:3:0:0:
318,62,81797,1,0,3:3:0:0:
306,56,81851,1,0,3:3:0:0:
295,47,81904,1,0,3:3:0:0:
287,37,81958,1,0,3:3:0:0:
281,25,82012,1,0,3:3:0:0:
286,13,82065,69,0,1:3:0:0:
286,13,82119,1,0,1:3:0:0:
286,13,82173,2,0,P|282:48|262:95,1,53.9999983520508,0|0,1:3|1:3,0:0:0:0:
115,123,82280,5,0,3:3:0:0:
115,123,82334,1,0,3:3:0:0:
115,123,82388,2,0,P|119:88|139:41,1,53.9999983520508,0|0,3:3|3:3,0:0:0:0:
46,234,82494,6,0,P|114:230|164:284,1,107.999996704102,4|8,0:0|0:0,0:0:0:0:
285,373,82709,2,0,P|217:377|167:323,1,107.999996704102,0|8,0:0|0:0,0:0:0:0:
247,195,82923,1,0,0:0:0:0:
247,195,82976,1,0,0:0:0:0:
247,195,83030,1,8,0:0:0:0:
335,275,83137,1,0,0:0:0:0:
335,275,83191,1,0,0:0:0:0:
335,275,83244,1,8,0:0:0:0:
489,188,83351,5,0,0:0:0:0:
397,146,83459,2,0,L|422:281,1,107.999996704102,8|0,0:0|0:0,0:0:0:0:
389,371,83673,2,0,P|437:346|499:359,1,107.999996704102,8|0,0:0|0:0,0:0:0:0:
252,269,83887,2,0,P|204:294|142:281,1,107.999996704102,8|0,0:0|0:0,0:0:0:0:
49,172,84101,1,8,0:0:0:0:
95,40,84209,70,0,P|198:118|188:201,1,215.999993408203,4|0,0:1|0:0,0:0:0:0:
252,269,84530,2,0,P|302:242|368:257,1,107.999996704102,8|0,0:0|0:0,0:0:0:0:
135,328,84744,2,0,P|85:301|19:316,1,107.999996704102,8|0,0:0|0:0,0:0:0:0:
270,375,84959,2,0,L|250:262,1,107.999996704102,8|0,0:0|0:0,0:0:0:0:
224,90,85173,5,8,0:0:0:0:
238,96,85226,1,0,0:0:0:0:
254,100,85280,1,0,0:0:0:0:
270,100,85334,1,0,0:0:0:0:
286,97,85387,1,8,0:0:0:0:
301,91,85441,1,0,0:0:0:0:
314,81,85494,1,0,0:0:0:0:
325,69,85548,1,0,0:0:0:0:
334,53,85601,2,0,L|450:22,1,107.999996704102,8|0,0:0|0:0,0:0:0:0:
414,126,85816,1,8,0:0:0:0:
260,15,85923,6,0,B|282:105|282:105|320:121|320:121|347:219,1,215.999993408203,4|0,0:1|0:3,0:0:0:0:
362,380,86244,1,10,0:3:0:0:
416,219,86351,1,0,0:3:0:0:
223,298,86459,1,10,0:3:0:0:
451,339,86566,1,0,0:3:0:0:
331,140,86673,1,10,0:3:0:0:
512,208,86780,6,0,L|391:233,1,107.999996704102,0|10,0:3|0:3,0:0:0:0:
233,13,86994,2,0,L|354:38,1,107.999996704102,0|10,0:3|0:3,0:0:0:0:
511,64,87209,1,0,0:3:0:0:
331,140,87316,1,10,0:3:0:0:
511,80,87423,1,0,0:3:0:0:
272,89,87530,1,10,0:3:0:0:
305,229,87637,70,0,L|420:254,1,90,4|0,0:0|0:0,0:0:0:0:
207,155,87851,2,0,L|92:130,1,90,4|0,0:1|0:0,0:0:0:0:
326,221,88066,6,0,L|440:204,1,99.0000030212403,4|0,0:0|0:0,0:0:0:0:
186,163,88280,2,0,L|72:180,1,99.0000030212403,4|0,0:1|0:0,0:0:0:0:
362,143,88494,6,0,B|409:121|409:121|434:47,1,107.999996704102,4|0,0:0|0:0,0:0:0:0:
150,241,88709,2,0,B|103:263|103:263|78:337,1,107.999996704102,4|0,0:1|0:0,0:0:0:0:
206,38,88923,6,0,B|163:0|163:0|57:7,1,116.999994644165,4|0,0:0|0:0,0:0:0:0:
306,346,89137,2,0,B|349:384|349:384|455:377,1,116.999994644165,4|0,0:1|0:0,0:0:0:0:
503,247,89351,70,0,L|389:272,2,107.999996704102,4|8|0,3:3|0:0|1:0,0:0:0:0:
418,165,89673,2,0,B|434:141|434:141|420:54,1,107.999996704102,8|0,0:0|1:0,0:0:0:0:
251,102,89887,2,0,B|235:78|235:78|249:-9,1,107.999996704102,8|0,0:0|1:0,0:0:0:0:
340,61,90101,1,8,0:0:0:0:
340,61,90209,1,0,1:0:0:0:
218,177,90316,6,0,P|166:206|94:197,1,107.999996704102,8|0,0:0|1:0,0:0:0:0:
54,107,90530,1,8,0:0:0:0:
122,10,90637,2,0,L|147:118,1,107.999996704102,0|8,1:0|0:0,0:0:0:0:
297,292,90851,2,0,L|321:186,1,107.999996704102,0|8,1:0|0:0,0:0:0:0:
442,34,91066,6,0,P|518:146|433:202,1,215.999993408203,4|0,0:1|1:0,0:0:0:0:
389,250,91387,1,8,0:0:0:0:
278,124,91494,2,0,P|329:109|389:141,1,107.999996704102,0|8,1:0|0:0,0:0:0:0:
222,252,91709,2,0,P|171:267|111:235,1,107.999996704102,0|8,1:0|0:0,0:0:0:0:
17,127,91923,5,0,1:0:0:0:
97,68,92030,2,0,B|121:116|121:116|106:183,1,107.999996704102,8|0,0:0|1:0,0:0:0:0:
22,370,92244,2,0,B|-2:322|-2:322|13:255,1,107.999996704102,8|0,0:0|1:0,0:0:0:0:
194,350,92459,1,8,0:0:0:0:
80,315,92566,1,0,1:0:0:0:
179,187,92673,1,8,0:0:0:0:
353,252,92780,70,0,L|200:265,1,107.999996704102,4|8,0:3|0:0,0:0:0:0:
339,170,92994,1,0,1:0:0:0:
428,209,93101,2,0,B|451:247|451:247|434:333,1,107.999996704102,8|0,0:0|1:0,0:0:0:0:
449,112,93316,2,0,B|426:74|426:74|443:-12,1,107.999996704102,8|0,0:0|1:0,0:0:0:0:
512,59,93530,1,8,0:0:0:0:
320,74,93637,6,0,L|197:35,1,107.999996704102,0|8,1:0|0:0,0:0:0:0:
121,103,93851,1,0,1:0:0:0:
121,103,93959,1,8,0:0:0:0:
147,207,94066,2,0,P|95:210|37:167,1,107.999996704102,0|8,1:0|0:0,0:0:0:0:
0,0,94280,2,0,P|52:-3|110:40,1,107.999996704102,0|8,1:0|0:0,0:0:0:0:
247,156,94494,5,4,1:3:0:0:
147,207,94601,2,0,L|130:327,1,107.999996704102,0|0,1:3|1:3,0:0:0:0:
220,380,94816,1,0,0:0:0:0:
338,302,94923,6,0,L|329:242,3,53.9999983520508,0|0|0|0,1:3|1:3|1:3|1:3,0:0:0:0:
464,331,95137,2,0,L|455:384,3,53.9999983520508,0|0|0|0,1:3|0:0|0:0|0:0,0:0:0:0:
416,270,95351,70,0,B|453:244|453:244|528:268,1,107.999996704102,0|0,1:3|1:3,0:0:0:0:
343,149,95566,2,0,B|306:175|306:175|231:151,1,107.999996704102,0|0,1:3|0:0,0:0:0:0:
374,15,95780,5,0,1:3:0:0:
374,15,95834,1,0,1:3:0:0:
374,15,95887,2,0,L|390:98,1,53.9999983520508,0|0,1:3|0:0,0:0:0:0:
502,184,95994,1,0,1:3:0:0:
502,184,96048,1,0,1:3:0:0:
502,184,96101,2,0,L|518:101,1,53.9999983520508,0|0,1:3|0:0,0:0:0:0:
392,217,96209,5,4,1:3:0:0:
381,191,96262,1,8,0:0:0:0:
367,168,96316,1,0,1:0:0:0:
349,149,96369,1,8,0:0:0:0:
325,135,96423,1,0,1:0:0:0:
300,124,96476,1,8,0:0:0:0:
274,120,96530,1,0,1:0:0:0:
247,123,96584,1,8,0:0:0:0:
221,130,96637,1,0,1:0:0:0:
197,142,96691,1,8,0:0:0:0:
176,160,96744,1,0,1:0:0:0:
161,181,96798,1,8,0:0:0:0:
148,205,96851,1,0,1:0:0:0:
142,231,96905,1,8,0:0:0:0:
141,258,96959,1,0,1:0:0:0:
146,285,97012,1,8,0:0:0:0:
157,309,97066,6,0,L|233:281,3,53.9999983520508,0|8|0|8,1:0|0:0|1:0|0:0,0:0:0:0:
56,263,97280,2,0,L|-20:235,3,53.9999983520508,0|8|0|8,1:0|0:0|1:0|0:0,0:0:0:0:
152,208,97494,2,0,L|228:180,3,53.9999983520508,0|8|0|8,1:0|0:0|1:0|0:0,0:0:0:0:
62,151,97709,2,0,L|-14:123,3,53.9999983520508,0|8|0|8,1:0|0:0|1:0|0:0,0:0:0:0:
95,8,97923,69,4,1:0:0:0:
87,33,97976,1,8,0:0:0:0:
88,60,98030,1,0,1:0:0:0:
98,85,98084,1,8,0:0:0:0:
116,105,98137,1,0,1:0:0:0:
139,117,98191,1,8,0:0:0:0:
166,121,98244,1,0,1:0:0:0:
192,116,98298,1,8,0:0:0:0:
215,102,98351,1,0,1:0:0:0:
237,87,98405,1,8,0:0:0:0:
264,82,98459,1,0,1:0:0:0:
290,86,98512,1,8,0:0:0:0:
314,99,98566,1,0,1:0:0:0:
332,118,98619,1,8,0:0:0:0:
342,143,98673,1,0,1:0:0:0:
343,170,98726,1,8,0:0:0:0:
333,196,98780,6,0,L|395:174,3,53.9999983520508,0|8|0|8,1:0|0:0|1:0|0:0,0:0:0:0:
383,267,98994,2,0,L|442:295,3,53.9999983520508,0|8|0|8,1:0|0:0|1:0|0:0,0:0:0:0:
335,334,99209,2,0,L|357:396,3,53.9999983520508,0|8|0|8,1:0|0:0|1:0|0:0,0:0:0:0:
254,334,99423,2,0,L|224:396,3,53.9999983520508,0|8|0|8,1:0|0:0|1:0|0:0,0:0:0:0:
197,195,99637,5,4,1:3:0:0:
187,169,99691,1,8,0:3:0:0:
171,148,99744,1,2,1:3:0:0:
150,131,99798,1,8,0:3:0:0:
125,121,99851,1,2,1:3:0:0:
98,117,99905,1,8,0:3:0:0:
72,121,99959,1,2,1:3:0:0:
47,133,100012,1,8,0:3:0:0:
27,150,100066,1,2,1:3:0:0:
11,172,100119,1,8,0:3:0:0:
3,198,100173,1,2,1:3:0:0:
1,224,100226,1,8,0:3:0:0:
7,251,100280,1,2,1:3:0:0:
20,274,100334,1,8,0:3:0:0:
38,294,100387,1,2,1:3:0:0:
61,308,100441,1,8,0:3:0:0:
87,315,100494,6,0,L|111:256,3,53.9999983520508,2|8|2|8,1:3|0:3|1:3|0:3,0:0:0:0:
141,172,100709,2,0,L|193:194,3,53.9999983520508,2|8|2|8,1:3|0:3|1:3|0:3,0:0:0:0:
272,227,100923,2,0,L|295:167,3,53.9999983520508,2|8|2|8,1:3|0:3|1:3|0:3,0:0:0:0:
326,91,101137,2,0,L|381:114,3,53.9999983520508,2|8|2|8,1:3|0:3|1:3|0:3,0:0:0:0:
483,0,101351,69,4,1:1:0:0:
457,9,101405,1,8,0:3:0:0:
436,26,101459,1,2,1:3:0:0:
421,48,101512,1,8,0:3:0:0:
414,74,101566,1,2,1:3:0:0:
414,101,101619,1,8,0:3:0:0:
422,126,101673,1,2,1:3:0:0:
438,148,101726,1,8,0:3:0:0:
460,164,101780,1,2,1:3:0:0:
481,179,101834,1,8,0:3:0:0:
497,201,101887,1,2,1:3:0:0:
505,226,101941,1,8,0:3:0:0:
504,253,101994,1,2,1:3:0:0:
497,279,102048,1,8,0:3:0:0:
482,301,102101,1,2,1:3:0:0:
461,318,102155,1,8,0:3:0:0:
435,327,102209,5,4,1:3:0:0:
421,297,102262,1,8,0:3:0:0:
400,273,102316,1,2,1:3:0:0:
374,254,102369,1,8,0:3:0:0:
343,242,102423,1,2,1:3:0:0:
311,238,102476,1,8,0:3:0:0:
279,242,102530,1,2,1:3:0:0:
249,255,102584,1,8,0:3:0:0:
223,274,102637,5,0,1:3:0:0:
222,290,102691,1,0,0:3:0:0:
220,305,102744,2,0,L|215:384,1,53.9999983520508,0|0,1:3|0:3,0:0:0:0:
44,283,102851,1,0,1:3:0:0:
42,267,102905,1,0,0:3:0:0:
40,252,102959,2,0,L|35:173,1,53.9999983520508,0|0,1:3|0:3,0:0:0:0:
6,61,103066,6,0,P|23:88|119:97,1,107.999996704102,4|8,0:0|0:0,0:0:0:0:
265,0,103280,2,0,P|212:7|178:47,1,107.999996704102,0|8,0:0|0:0,0:0:0:0:
169,165,103494,1,0,0:0:0:0:
285,212,103601,2,0,L|261:91,1,107.999996704102,8|0,0:0|0:0,0:0:0:0:
436,23,103816,2,0,L|414:128,1,107.999996704102,8|0,0:0|0:0,0:0:0:0:
503,237,104030,70,0,B|462:204|462:204|363:209,1,107.999996704102,8|0,0:0|0:0,0:0:0:0:
370,343,104244,2,0,B|411:376|411:376|510:371,1,107.999996704102,8|0,0:0|0:0,0:0:0:0:
435,283,104459,1,8,0:0:0:0:
313,384,104566,1,0,0:0:0:0:
285,212,104673,1,8,0:0:0:0:
141,365,104780,6,0,B|151:273|151:273|164:257|164:257|171:146,1,215.999993408203,4|0,0:1|0:0,0:0:0:0:
4,46,105101,2,0,B|54:65|54:65|117:40,1,107.999996704102,8|0,0:0|0:0,0:0:0:0:
353,82,105316,2,0,B|303:63|303:63|240:88,1,107.999996704102,8|0,0:0|0:0,0:0:0:0:
11,187,105530,2,0,B|61:206|61:206|124:181,1,107.999996704102,8|0,0:0|0:0,0:0:0:0:
258,164,105744,6,0,B|260:238|297:197|300:278,1,107.999996704102,8|0,0:0|0:0,0:0:0:0:
359,384,105959,2,0,B|363:329|396:353|399:287,1,107.999996704102,8|0,0:0|0:0,0:0:0:0:
403,162,106173,1,8,0:0:0:0:
504,256,106280,1,0,0:0:0:0:
324,282,106387,1,8,0:0:0:0:
244,49,106494,5,4,1:3:0:0:
220,26,106548,1,8,0:0:0:0:
191,10,106601,1,0,1:0:0:0:
160,3,106655,1,8,0:0:0:0:
126,2,106709,1,0,1:0:0:0:
95,9,106762,1,8,0:0:0:0:
67,23,106816,1,0,1:0:0:0:
41,44,106869,1,8,0:0:0:0:
21,70,106923,1,0,1:0:0:0:
9,101,106976,1,8,0:0:0:0:
6,132,107030,1,0,1:0:0:0:
7,164,107084,1,8,0:0:0:0:
18,196,107137,1,0,1:0:0:0:
35,223,107191,1,8,0:0:0:0:
60,245,107244,1,0,1:0:0:0:
87,261,107298,1,8,0:0:0:0:
118,271,107351,69,0,1:0:0:0:
124,239,107405,1,8,0:0:0:0:
138,210,107459,1,0,1:0:0:0:
160,185,107512,1,8,0:0:0:0:
186,166,107566,1,0,1:0:0:0:
216,155,107619,1,8,0:0:0:0:
248,151,107673,1,0,1:0:0:0:
282,156,107726,1,8,0:0:0:0:
310,169,107780,1,0,1:0:0:0:
335,189,107834,1,8,0:0:0:0:
357,217,107887,1,0,1:0:0:0:
369,245,107941,1,8,0:0:0:0:
372,278,107994,1,0,1:0:0:0:
369,311,108048,1,8,0:0:0:0:
357,341,108101,1,0,1:0:0:0:
337,366,108155,1,8,0:0:0:0:
285,383,108209,5,12,0:0:0:0:
298,359,108263,1,8,0:0:0:0:
317,340,108317,1,8,0:0:0:0:
341,328,108371,1,8,0:0:0:0:
367,322,108425,1,8,0:0:0:0:
395,323,108479,1,8,0:0:0:0:
420,333,108533,1,8,0:0:0:0:
487,237,108642,1,0,0:0:0:0:
363,169,108750,5,0,1:0:0:0:
356,147,108804,1,0,1:0:0:0:
350,125,108858,1,0,1:0:0:0:
344,104,108912,1,0,1:0:0:0:
337,82,108967,1,0,1:0:0:0:
331,61,109021,1,0,1:0:0:0:
326,37,109075,6,0,L|422:10,1,90,4|0,0:0|0:0,0:0:0:0:
241,126,109305,2,0,L|145:99,1,90,0|0,0:0|0:0,0:0:0:0:
48,180,109536,69,0,1:0:0:0:
48,180,109624,2,0,L|70:246,1,60,0|0,1:0|1:0,0:0:0:0:
142,306,109800,5,0,1:0:0:0:
142,306,109888,2,0,L|129:374,1,60,0|0,1:0|1:0,0:0:0:0:
205,229,110064,6,0,P|277:245|310:286,1,90,4|0,1:3|0:0,0:0:0:0:
365,346,110416,1,2,0:1:0:0:
365,346,110593,1,0,1:1:0:0:
512,206,110769,2,0,P|462:250|383:246,1,135,10|0,1:1|0:0,0:0:0:0:
360,223,111122,5,2,1:1:0:0:
415,122,111299,1,0,0:0:0:0:
306,0,111475,2,0,P|317:60|309:106,1,90,2|0,0:1|1:1,0:0:0:0:
141,93,111828,2,0,P|225:122|255:185,1,135,10|0,1:1|0:0,0:0:0:0:
223,195,112181,70,0,L|134:221,1,90,4|0,1:3|0:0,0:0:0:0:
27,249,112534,1,2,0:1:0:0:
27,249,112711,1,0,1:1:0:0:
132,344,112887,2,0,P|154:302|116:201,1,135,10|0,1:1|0:0,0:0:0:0:
98,194,113240,6,0,L|105:133,1,45,0|0,1:1|0:0,0:0:0:0:
8,13,113416,2,0,L|13:57,1,45,0|0,1:1|0:0,0:0:0:0:
177,74,113593,2,0,B|194:56|194:56|205:64|205:64|214:47|214:47|232:64|232:64|292:36|350:68,1,202.500007724762,4|0,1:1|0:0,0:0:0:0:
389,84,113946,6,0,B|369:116|369:116|393:185,1,90,4|0,1:3|0:0,0:0:0:0:
472,255,114298,1,2,0:1:0:0:
506,144,114475,1,0,1:1:0:0:
472,255,114651,2,0,L|310:284,1,135,10|0,1:1|0:0,0:0:0:0:
295,289,115004,5,2,0:1:0:0:
370,186,115181,1,0,0:0:0:0:
253,108,115357,2,0,P|206:107|157:133,1,90,2|0,0:1|1:1,0:0:0:0:
67,241,115622,1,0,0:0:0:0:
67,241,115710,2,0,P|95:189|79:79,1,135,10|0,1:1|0:0,0:0:0:0:
78,72,116063,69,4,1:3:0:0:
223,184,116240,1,0,1:1:0:0:
238,0,116416,1,2,1:1:0:0:
342,100,116593,1,0,1:1:0:0:
342,100,116681,1,0,0:0:0:0:
342,100,116769,2,0,P|426:122|461:185,1,135,10|0,1:1|0:0,0:0:0:0:
462,202,117122,5,2,0:1:0:0:
314,272,117298,1,0,1:1:0:0:
435,384,117475,2,0,B|474:345|474:345|437:216,2,180,4|4|4,1:3|0:3|0:1,0:0:0:0:
117,188,118534,5,4,1:3:0:0:
76,328,118710,1,0,0:0:0:0:
117,188,118886,1,2,0:1:0:0:
200,366,119063,1,0,1:1:0:0:
319,251,119239,2,0,L|161:285,1,135,10|0,1:1|0:0,0:0:0:0:
142,287,119592,5,2,1:1:0:0:
226,170,119769,1,0,0:0:0:0:
18,83,119945,2,0,L|51:183,1,90,2|0,0:1|1:1,0:0:0:0:
286,68,120298,2,0,B|236:55|236:55|136:97,1,135,10|0,1:1|0:0,0:0:0:0:
118,107,120651,69,4,1:3:0:0:
196,264,120828,1,0,0:0:0:0:
321,153,121004,1,2,0:1:0:0:
132,213,121181,1,0,1:1:0:0:
277,351,121357,2,0,P|331:296|427:287,1,135,10|0,1:1|0:0,0:0:0:0:
429,293,121710,6,0,L|418:357,1,45,0|0,1:1|0:0,0:0:0:0:
505,214,121886,2,0,L|512:169,1,45,0|0,1:1|0:0,0:0:0:0:
453,44,122063,2,0,B|436:26|436:26|425:34|425:34|416:17|416:17|398:34|398:34|338:6|280:38,1,202.500007724762,4|0,1:1|0:0,0:0:0:0:
250,69,122416,5,4,1:3:0:0:
110,6,122592,1,0,0:0:0:0:
250,69,122768,1,2,0:1:0:0:
70,150,122945,1,0,1:1:0:0:
206,248,123121,2,0,L|176:85,1,135,10|0,1:1|0:0,0:0:0:0:
175,70,123474,5,2,0:1:0:0:
290,160,123651,1,0,0:0:0:0:
122,270,123827,1,2,0:1:0:0:
264,373,124004,1,0,1:1:0:0:
264,373,124092,1,0,0:0:0:0:
264,373,124180,2,0,P|312:349|320:245,1,135,10|0,1:1|0:0,0:0:0:0:
299,243,124533,69,4,1:3:0:0:
481,343,124710,1,0,1:1:0:0:
299,243,124886,1,2,1:1:0:0:
511,177,125063,2,0,L|445:160,1,45,0|0,1:1|0:0,0:0:0:0:
285,0,125239,2,0,P|354:20|391:111,1,135,10|0,1:1|0:0,0:0:0:0:
399,113,125592,6,0,L|458:98,1,45,2|0,0:1|0:0,0:0:0:0:
257,168,125768,2,0,L|198:153,1,45,0|0,1:1|0:0,0:0:0:0:
415,214,125945,5,4,1:3:0:0:
400,236,126033,1,0,0:0:0:0:
396,262,126121,1,0,0:0:0:0:
402,288,126210,1,0,0:0:0:0:
421,330,126298,5,4,0:3:0:0:
398,315,126386,1,0,0:0:0:0:
372,311,126474,1,0,0:0:0:0:
346,317,126563,1,0,0:0:0:0:
307,340,126651,70,0,L|121:311,1,180,4|0,1:3|0:0,0:0:0:0:
7,347,127180,1,0,1:0:0:0:
7,347,127356,2,0,P|68:306|57:177,1,180,8|0,1:0|1:0,0:0:0:0:
13,110,128062,1,8,1:3:0:0:
110,17,128415,5,0,1:3:0:0:
167,102,128592,1,0,0:0:0:0:
246,51,128768,1,0,1:3:0:0:
292,106,128945,1,8,1:3:0:0:
347,90,129121,1,0,0:0:0:0:
378,122,129298,1,0,1:3:0:0:
378,122,129386,1,0,1:3:0:0:
378,122,129474,5,8,1:3:0:0:
414,118,129651,1,0,0:0:0:0:
423,140,129827,1,0,1:3:0:0:
417,161,129915,1,0,1:3:0:0:
411,183,130003,1,0,1:3:0:0:
406,205,130092,1,0,1:3:0:0:
400,227,130180,5,8,1:3:0:0:
503,337,130356,1,0,1:3:0:0:
293,384,130533,70,0,P|282:268|212:223,1,180,4|4,1:3|3:1,0:0:0:0:
81,172,131063,1,0,1:0:0:0:
81,172,131239,2,0,B|132:192|132:192|262:150,1,180,8|0,1:0|1:0,0:0:0:0:
358,119,131945,1,0,1:3:0:0:
358,119,132122,1,0,1:3:0:0:
242,28,132298,1,8,1:3:0:0:
496,13,132651,5,0,1:3:0:0:
430,81,132828,1,8,1:3:0:0:
498,167,133004,1,0,0:0:0:0:
364,222,133181,1,0,1:3:0:0:
364,222,133269,1,0,1:3:0:0:
364,222,133357,1,8,1:3:0:0:
458,367,133534,1,0,0:0:0:0:
298,369,133710,5,0,1:0:0:0:
295,342,133798,1,0,1:0:0:0:
284,317,133886,1,0,1:0:0:0:
265,298,133975,1,0,1:0:0:0:
220,296,134063,5,0,1:0:0:0:
201,276,134151,1,0,1:0:0:0:
189,252,134239,1,0,1:0:0:0:
187,225,134328,1,0,1:0:0:0:
213,187,134416,69,8,0:0:0:0:
211,160,134504,1,0,1:0:0:0:
199,136,134592,1,0,1:0:0:0:
180,116,134681,1,0,1:0:0:0:
121,177,134769,6,0,B|106:108|106:108|80:85|80:85|64:0,1,180,4|4,1:3|0:1,0:0:0:0:
39,161,135298,1,0,1:0:0:0:
181,33,135474,2,0,B|244:9|244:9|287:28|287:28|375:5,1,180,8|0,1:0|1:0,0:0:0:0:
279,161,136180,1,8,1:0:0:0:
468,118,136533,5,0,1:0:0:0:
418,270,136710,2,0,P|382:227|381:165,1,90,8|0,1:0|0:0,0:0:0:0:
395,0,137063,2,0,P|383:43|352:75,1,90,8|0,1:0|1:0,0:0:0:0:
309,64,137327,1,0,1:0:0:0:
309,64,137416,1,8,1:0:0:0:
215,0,137592,1,0,1:0:0:0:
133,114,137769,1,8,1:0:0:0:
0,0,137945,1,0,1:0:0:0:
23,20,138033,1,0,1:0:0:0:
40,47,138121,1,0,1:0:0:0:
48,77,138210,1,0,1:0:0:0:
47,108,138298,5,8,1:0:0:0:
10,269,138474,1,0,1:0:0:0:
149,363,138651,70,0,B|168:256|212:320|231:197,1,180,4|4,1:3|3:1,0:0:0:0:
194,74,139180,1,0,1:0:0:0:
194,74,139357,2,0,P|266:73|316:138,1,135,8|0,1:0|0:0,0:0:0:0:
328,165,139710,2,0,P|314:71|375:0,1,180,0|0,1:0|0:0,0:0:0:0:
234,145,140239,1,0,1:0:0:0:
390,102,140416,5,4,1:0:0:0:
169,6,140592,1,0,1:0:0:0:
258,272,140769,5,4,1:0:0:0:
362,6,140945,1,0,1:0:0:0:
61,139,141121,5,4,1:0:0:0:
344,274,141298,1,0,1:0:0:0:
344,274,141386,1,0,1:0:0:0:
344,274,141474,1,4,3:3:0:0:
344,274,142180,70,0,P|378:232|447:221,1,108,4|0,1:0|0:0,0:0:0:0:
476,244,142533,6,0,P|395:204|351:123,1,180,4|2,1:3|0:1,0:0:0:0:
383,36,143062,1,0,1:1:0:0:
474,18,143238,2,0,P|513:76|501:134,1,90,10|0,1:1|0:0,0:0:0:0:
440,164,143591,5,2,1:1:0:0:
440,164,143768,1,0,0:0:0:0:
295,58,143944,2,0,P|244:58|183:94,1,90,2|0,0:1|1:1,0:0:0:0:
98,227,144297,2,0,P|109:161|50:99,1,135,10|0,1:1|0:0,0:0:0:0:
32,84,144650,6,0,P|110:84|199:17,1,180,2|2,1:1|0:1,0:0:0:0:
263,137,145180,1,0,1:1:0:0:
263,137,145356,2,0,L|251:245,1,90,10|0,1:1|0:0,0:0:0:0:
234,364,145709,69,2,1:1:0:0:
64,224,145885,1,8,1:1:0:0:
189,223,146062,5,2,0:1:0:0:
177,257,146238,1,0,1:1:0:0:
4,365,146415,6,0,P|61:340|113:346,1,90,10|0,1:1|0:0,0:0:0:0:
323,378,146768,6,0,P|302:318|334:197,1,180,4|2,1:3|0:1,0:0:0:0:
228,45,147297,1,0,1:1:0:0:
228,45,147474,2,0,P|276:76|340:86,1,90,10|0,1:1|0:0,0:0:0:0:
498,109,147827,70,0,L|399:137,1,90,2|0,1:1|0:0,0:0:0:0:
326,207,148180,2,0,P|243:166|140:171,1,180,2|10,0:1|1:1,0:0:0:0:
114,291,148885,6,0,B|85:187|40:257|5:135,1,180,4|2,1:3|0:1,0:0:0:0:
91,59,149415,1,0,1:1:0:0:
157,166,149591,2,0,P|220:137|221:47,1,135,10|0,1:1|0:0,0:0:0:0:
213,36,149944,5,2,1:1:0:0:
321,168,150121,1,8,1:1:0:0:
475,99,150297,2,0,L|356:93,1,90,2|0,0:1|1:1,0:0:0:0:
347,321,150650,1,10,1:1:0:0:
487,233,150827,1,8,1:1:0:0:
321,168,151003,6,0,P|248:190|230:300,1,180,4|2,1:3|0:1,0:0:0:0:
272,381,151533,1,0,1:1:0:0:
447,384,151709,2,0,L|410:248,1,135,10|0,1:1|0:0,0:0:0:0:
402,209,152062,70,0,P|470:159|440:61,1,180,2|2,1:1|0:1,0:0:0:0:
333,115,152591,1,0,1:1:0:0:
255,13,152768,2,0,B|167:17|167:17|125:75,1,135,10|0,1:1|0:0,0:0:0:0:
123,97,153121,6,0,P|172:142|155:262,1,180,6|2,1:1|0:1,0:0:0:0:
83,218,153650,1,0,1:1:0:0:
12,321,153827,2,0,L|162:329,1,135,10|0,1:1|0:0,0:0:0:0:
191,333,154180,5,2,1:1:0:0:
332,215,154356,2,0,P|355:257|345:320,1,90,8|2,1:1|0:1,0:0:0:0:
294,361,154709,1,0,1:1:0:0:
224,224,154885,2,0,L|172:100,1,135,10|0,1:1|0:0,0:0:0:0:
159,55,155238,6,0,B|260:-1|234:93|354:36,1,180,4|2,1:3|0:1,0:0:0:0:
470,0,155768,1,0,1:1:0:0:
470,0,155944,2,0,P|435:28|432:146,1,135,10|0,1:1|0:0,0:0:0:0:
447,146,156297,69,2,1:1:0:0:
447,146,156474,1,0,0:0:0:0:
333,231,156650,2,0,P|342:178|308:129,1,90,2|0,0:1|1:1,0:0:0:0:
199,186,157003,2,0,L|175:342,1,135,10|0,1:1|0:0,0:0:0:0:
168,363,157356,6,0,P|241:324|333:356,1,180,6|2,1:1|0:1,0:0:0:0:
419,355,157885,1,0,1:1:0:0:
495,306,158062,2,0,P|496:253|466:198,1,90,10|0,1:1|0:0,0:0:0:0:
494,104,158415,6,0,L|393:138,1,90,6|8,1:1|1:1,0:0:0:0:
299,167,158768,5,2,0:1:0:0:
413,42,158944,1,0,1:1:0:0:
429,233,159121,69,10,1:1:0:0:
223,56,159297,1,8,1:1:0:0:
318,153,159474,6,0,L|299:274,1,90,4|0,1:3|1:3,0:0:0:0:
284,344,159827,1,0,1:3:0:0:
284,344,160003,1,0,1:3:0:0:
191,264,160180,2,0,P|149:263|94:285,1,90,8|0,1:3|1:3,0:0:0:0:
24,355,160533,5,0,1:3:0:0:
24,355,160621,1,0,1:3:0:0:
24,355,160709,1,0,1:3:0:0:
0,227,160885,1,0,1:3:0:0:
0,227,161062,1,0,1:3:0:0:
104,278,161238,2,0,P|129:218|162:189,1,90,8|0,1:3|1:3,0:0:0:0:
288,174,161591,6,0,P|237:174|194:139,1,90,0|0,1:3|1:3,0:0:0:0:
7,98,161944,2,0,P|58:98|101:63,1,90,0|0,1:3|1:3,0:0:0:0:
181,0,162297,1,8,1:3:0:0:
181,0,162474,1,0,1:3:0:0:
261,101,162650,69,0,1:3:0:0:
261,101,162738,1,0,1:3:0:0:
261,101,162827,1,0,1:3:0:0:
359,0,163003,2,0,L|402:110,1,90,0|0,1:0|1:0,0:0:0:0:
439,189,163356,1,8,1:3:0:0:
439,189,163444,1,0,1:3:0:0:
439,189,163533,1,0,1:3:0:0:
451,301,163709,6,0,P|414:284|363:284,1,90,4|0,1:3|1:3,0:0:0:0:
256,341,164062,1,0,1:3:0:0:
256,341,164238,1,0,1:3:0:0:
347,369,164415,1,8,1:3:0:0:
222,250,164591,1,0,1:3:0:0:
371,169,164768,5,4,1:1:0:0:
371,169,164856,1,0,0:0:0:0:
371,169,164944,1,0,1:3:0:0:
125,228,165121,2,0,L|92:117,1,90,0|0,1:3|1:3,0:0:0:0:
173,43,165474,1,8,1:3:0:0:
173,43,165650,1,0,1:3:0:0:
46,5,165827,5,4,1:1:0:0:
176,128,166003,2,0,P|233:102|251:44,1,90,0|0,1:3|1:3,0:0:0:0:
250,0,166356,1,0,1:3:0:0:
368,74,166533,2,0,L|347:165,1,90,8|0,1:3|1:3,0:0:0:0:
415,280,166885,70,0,P|473:272|510:240,1,90,4|0,1:3|1:3,0:0:0:0:
308,366,167238,2,0,P|250:358|213:326,1,90,0|0,1:3|1:3,0:0:0:0:
133,187,167591,1,8,1:3:0:0:
289,259,167768,1,8,1:3:0:0:
129,383,167944,6,0,P|119:338|93:283,1,90,4|0,1:3|1:3,0:0:0:0:
314,167,168297,1,0,1:3:0:0:
289,259,168474,1,0,1:3:0:0:
94,95,168650,2,0,L|198:116,1,90,8|0,1:3|1:3,0:0:0:0:
355,48,169003,5,0,1:3:0:0:
355,48,169091,1,0,1:3:0:0:
355,48,169180,1,0,1:3:0:0:
242,0,169356,1,0,1:3:0:0:
314,167,169532,1,0,1:3:0:0:
486,95,169709,2,0,P|440:95|385:138,1,90,8|0,1:3|1:3,0:0:0:0:
271,244,170062,6,0,P|334:252|376:218,1,90,4|0,1:3|1:3,0:0:0:0:
463,174,170415,1,0,1:3:0:0:
433,324,170591,1,0,1:3:0:0:
325,321,170768,2,0,P|330:276|361:235,1,90,8|0,1:3|1:3,0:0:0:0:
500,263,171121,69,0,1:3:0:0:
500,263,171209,1,0,1:3:0:0:
500,263,171297,1,8,1:3:0:0:
353,161,171474,2,0,L|253:177,1,90,0|0,1:3|1:3,0:0:0:0:
463,37,171827,1,8,1:3:0:0:
463,37,171915,1,0,1:0:0:0:
463,37,172003,1,0,1:0:0:0:
321,1,172180,6,0,P|353:42|347:104,1,90,4|0,1:3|1:3,0:0:0:0:
244,172,172532,1,0,1:3:0:0:
176,70,172709,1,0,1:3:0:0:
353,161,172885,2,0,L|372:282,1,90,8|0,1:3|1:3,0:0:0:0:
173,303,173238,5,0,1:1:0:0:
173,303,173327,1,0,1:0:0:0:
173,303,173415,1,0,1:3:0:0:
56,212,173591,1,0,1:3:0:0:
56,212,173768,1,0,1:3:0:0:
152,154,173944,2,0,P|165:109|153:39,1,90,8|0,1:3|1:3,0:0:0:0:
14,22,174297,6,0,P|53:64|94:78,1,90,4|0,1:1|1:3,0:0:0:0:
235,22,174650,1,0,1:3:0:0:
235,22,174827,1,0,1:3:0:0:
285,161,175003,1,8,1:3:0:0:
285,161,175091,1,0,1:0:0:0:
285,161,175180,1,8,1:3:0:0:
422,85,175356,69,0,1:3:0:0:
326,57,175532,1,0,1:3:0:0:
114,253,175709,5,0,1:3:0:0:
210,225,175885,1,0,1:3:0:0:
408,384,176062,5,8,1:3:0:0:
252,336,176238,1,8,1:3:0:0:
404,209,176415,6,0,L|429:306,1,90,4|0,1:3|1:3,0:0:0:0:
502,226,176768,1,0,1:3:0:0:
502,226,176944,1,0,1:3:0:0:
325,185,177121,1,8,1:3:0:0:
472,71,177297,1,0,1:3:0:0:
333,4,177474,69,0,1:3:0:0:
333,4,177562,1,0,1:3:0:0:
333,4,177650,1,0,1:3:0:0:
459,154,177827,2,0,P|479:100|465:59,1,90,0|0,1:3|1:3,0:0:0:0:
352,139,178180,2,0,P|345:182|364:222,1,90,8|0,1:3|1:3,0:0:0:0:
256,342,178532,5,4,1:1:0:0:
217,332,178621,1,0,0:0:0:0:
193,300,178709,1,0,0:0:0:0:
193,261,178797,1,0,0:0:0:0:
216,227,178885,1,0,0:0:0:0:
217,187,178974,1,0,0:0:0:0:
193,156,179062,1,0,0:0:0:0:
154,146,179150,1,0,0:0:0:0:
113,155,179238,1,8,1:3:0:0:
75,145,179327,1,0,0:0:0:0:
51,114,179415,1,0,0:0:0:0:
51,74,179503,1,0,0:0:0:0:
67,36,179591,6,0,L|136:67,1,45,0|0,1:3|0:0,0:0:0:0:
199,0,179768,2,0,L|225:70,1,45,8|0,1:3|0:0,0:0:0:0:
324,58,179944,2,0,L|293:127,1,45,0|0,0:0|0:0,0:0:0:0:
366,192,180121,2,0,L|295:218,1,45,0|0,0:0|0:0,0:0:0:0:
221,346,180297,5,0,1:3:0:0:
171,108,180474,1,0,1:3:0:0:
16,358,180650,70,0,B|-2:338|-2:338|20:251,1,90,4|0,1:3|1:1,0:0:0:0:
100,213,181003,2,0,B|118:233|118:233|96:320,1,90,2|0,1:1|1:1,0:0:0:0:
221,346,181356,1,10,1:1:0:0:
221,346,181532,1,0,1:1:0:0:
312,248,181709,5,2,1:1:0:0:
312,248,181797,1,0,1:1:0:0:
312,248,181885,1,0,1:1:0:0:
406,324,182062,1,2,1:1:0:0:
487,243,182238,2,0,B|472:126|430:199|408:56,1,180,0|0,1:1|1:1,0:0:0:0:
482,9,182768,5,2,1:1:0:0:
482,9,182856,1,0,1:1:0:0:
482,9,182944,1,0,1:1:0:0:
346,131,183121,1,2,1:1:0:0:
238,28,183297,2,0,P|192:24|120:62,1,90,0|10,1:1|1:1,0:0:0:0:
66,168,183650,1,0,1:1:0:0:
134,333,183827,5,2,1:1:0:0:
174,350,183915,1,0,0:0:0:0:
219,345,184003,1,8,1:1:0:0:
255,320,184091,1,0,0:0:0:0:
274,279,184180,1,2,1:1:0:0:
271,235,184268,1,0,0:0:0:0:
246,197,184356,1,0,0:0:0:0:
242,152,184444,1,0,0:0:0:0:
261,112,184532,1,10,1:1:0:0:
298,86,184621,1,0,0:0:0:0:
342,81,184709,1,0,0:0:0:0:
383,99,184797,1,0,0:0:0:0:
397,141,184885,70,0,L|510:168,1,90,4|0,1:3|1:1,0:0:0:0:
508,76,185238,1,2,1:1:0:0:
373,211,185415,1,0,1:1:0:0:
318,30,185591,1,10,1:1:0:0:
498,231,185768,1,0,1:1:0:0:
282,336,185944,5,2,1:1:0:0:
282,336,186032,1,0,1:1:0:0:
282,336,186121,1,0,1:1:0:0:
180,261,186297,1,2,1:1:0:0:
351,123,186474,2,0,L|383:252,1,90,0|10,1:1|1:1,0:0:0:0:
397,297,186827,1,0,1:1:0:0:
493,237,187003,5,4,1:3:0:0:
493,237,187091,1,0,1:1:0:0:
493,237,187180,1,0,1:1:0:0:
461,368,187356,1,2,1:1:0:0:
397,297,187532,2,0,P|354:283|285:320,1,90,0|10,1:1|1:1,0:0:0:0:
237,372,187885,1,0,1:1:0:0:
129,340,188062,6,0,L|141:401,3,45,2|0|8|0,1:1|0:0|1:1|0:0,0:0:0:0:
28,280,188415,1,2,1:1:0:0:
31,257,188503,1,0,0:0:0:0:
34,235,188591,1,0,0:0:0:0:
137,111,188768,1,10,1:1:0:0:
133,88,188856,1,0,0:0:0:0:
130,66,188944,1,0,0:0:0:0:
124,44,189032,1,0,0:0:0:0:
120,21,189121,70,0,P|74:17|10:48,1,90,4|0,1:3|1:1,0:0:0:0:
150,202,189474,1,2,1:1:0:0:
150,202,189650,1,0,1:1:0:0:
227,46,189827,1,10,1:1:0:0:
59,123,190003,1,0,1:1:0:0:
253,202,190180,5,2,1:1:0:0:
253,202,190268,1,0,1:1:0:0:
253,202,190356,1,0,1:1:0:0:
314,29,190532,1,2,1:1:0:0:
489,133,190709,2,0,P|440:152|395:277,1,180,0|0,1:1|1:1,0:0:0:0:
422,336,191238,5,6,1:1:0:0:
300,186,191415,2,0,L|192:215,1,90,0|2,1:1|1:1,0:0:0:0:
236,356,191768,2,0,P|256:315|248:256,2,90,0|10|0,1:1|1:1|1:1,0:0:0:0:
122,377,192297,5,2,1:1:0:0:
122,377,192385,1,0,0:0:0:0:
122,377,192474,1,8,1:1:0:0:
27,293,192650,2,0,L|80:281,1,45,2|0,1:1|0:0,0:0:0:0:
233,198,192827,2,0,L|180:186,1,45,0|0,0:0|0:0,0:0:0:0:
108,180,193003,1,10,1:1:0:0:
108,180,193091,1,0,0:0:0:0:
108,180,193180,1,0,0:0:0:0:
16,36,193356,70,0,L|37:131,1,90,4|0,1:3|1:1,0:0:0:0:
231,120,193709,1,2,1:1:0:0:
121,77,193885,1,0,1:1:0:0:
222,41,194062,2,0,L|279:19,1,45,10|0,1:1|0:0,0:0:0:0:
337,0,194238,1,0,1:1:0:0:
343,162,194415,5,2,1:1:0:0:
343,162,194503,1,0,1:1:0:0:
343,162,194591,1,0,1:1:0:0:
489,95,194768,2,0,B|461:61|461:61|388:82,1,90,2|0,1:1|1:1,0:0:0:0:
288,227,195121,2,0,B|316:261|316:261|389:240,1,90,10|0,1:1|1:1,0:0:0:0:
493,212,195474,5,4,1:3:0:0:
493,212,195562,1,0,1:1:0:0:
493,212,195650,1,0,1:1:0:0:
343,162,195827,1,2,1:1:0:0:
397,313,196003,2,0,L|312:341,1,90,0|10,1:1|1:1,0:0:0:0:
213,365,196356,1,0,1:1:0:0:
64,265,196532,5,2,1:1:0:0:
44,227,196621,1,0,0:0:0:0:
47,188,196709,1,8,1:1:0:0:
71,157,196797,1,0,0:0:0:0:
108,141,196885,1,2,1:1:0:0:
146,143,196974,1,0,0:0:0:0:
181,163,197062,1,0,0:0:0:0:
214,183,197150,1,0,0:0:0:0:
253,185,197238,1,10,1:1:0:0:
289,169,197327,1,0,0:0:0:0:
313,139,197415,1,0,0:0:0:0:
321,100,197503,1,0,0:0:0:0:
303,65,197591,69,4,0:0:0:0:
276,100,197680,1,0,0:0:0:0:
268,144,197768,1,0,0:0:0:0:
282,187,197856,1,0,0:0:0:0:
269,230,197944,5,4,0:1:0:0:
296,265,198032,1,0,0:0:0:0:
337,283,198121,1,0,0:0:0:0:
381,281,198209,1,0,0:0:0:0:
415,310,198297,5,4,0:1:0:0:
455,292,198385,1,0,0:0:0:0:
483,258,198474,1,0,0:0:0:0:
493,215,198562,1,0,0:0:0:0:
465,178,198650,6,0,L|452:107,3,45,12|0|0|0,0:1|0:0|0:0|0:0,0:0:0:0:
377,51,199003,2,0,L|364:-20,3,45,4|0|0|0,0:1|0:0|0:0|0:0,0:0:0:0:
262,179,199356,2,0,L|249:108,3,45,4|0|0|0,0:1|0:0|0:0|0:0,0:0:0:0:
163,234,199709,69,4,0:0:0:0:
120,248,199797,1,0,0:0:0:0:
77,240,199885,1,0,0:0:0:0:
43,212,199974,1,0,0:0:0:0:
29,170,200062,5,4,0:1:0:0:
62,199,200150,1,0,0:0:0:0:
77,240,200238,1,0,0:0:0:0:
70,284,200327,1,0,0:0:0:0:
52,330,200415,5,4,0:1:0:0:
93,312,200503,1,0,0:0:0:0:
137,314,200591,1,0,0:0:0:0:
176,336,200680,1,0,0:0:0:0:
201,373,200768,6,0,P|226:356|264:349,1,45,12|0,0:1|0:0,0:0:0:0:
317,271,200944,2,0,P|292:254|254:247,1,45,0|0,0:0|0:0,0:0:0:0:
171,123,201121,2,0,P|200:128|232:150,1,45,4|0,0:1|0:0,0:0:0:0:
325,132,201297,2,0,P|319:102|297:70,1,45,0|0,0:0|0:0,0:0:0:0:
512,38,201474,69,4,0:1:0:0:
501,81,201562,1,0,0:0:0:0:
491,125,201650,1,0,0:0:0:0:
481,169,201738,1,0,0:0:0:0:
471,213,201827,5,4,0:0:0:0:
433,189,201915,1,0,0:0:0:0:
388,189,202003,1,0,0:0:0:0:
351,212,202091,1,0,0:0:0:0:
331,252,202180,5,4,0:1:0:0:
353,291,202268,1,0,0:0:0:0:
347,335,202356,1,0,0:0:0:0:
315,366,202444,1,0,0:0:0:0:
271,371,202532,5,4,0:1:0:0:
241,338,202621,1,0,0:0:0:0:
204,312,202709,1,0,0:0:0:0:
162,297,202797,1,0,0:0:0:0:
118,292,202885,70,0,P|140:272|155:236,3,45,12|0|0|0,0:1|0:0|0:0|0:0,0:0:0:0:
35,199,203238,2,0,P|13:178|-1:142,3,45,4|0|0|0,0:1|0:0|0:0|0:0,0:0:0:0:
159,135,203591,2,0,P|180:114|195:78,3,45,4|0|0|0,0:1|0:0|0:0|0:0,0:0:0:0:
32,29,203944,5,4,0:0:0:0:
58,64,204032,1,0,0:0:0:0:
99,83,204121,1,0,0:0:0:0:
143,80,204209,1,0,0:0:0:0:
188,101,204297,5,4,0:1:0:0:
214,65,204385,1,0,0:0:0:0:
255,46,204474,1,0,0:0:0:0:
299,49,204562,1,0,0:0:0:0:
344,28,204650,5,4,0:1:0:0:
370,63,204738,1,0,0:0:0:0:
411,82,204827,1,0,0:0:0:0:
455,79,204915,1,0,0:0:0:0:
501,60,205003,70,0,L|512:6,1,45,12|0,0:1|0:0,0:0:0:0:
487,53,205180,2,0,L|498:-1,1,45,0|0,0:0|0:0,0:0:0:0:
331,210,205356,2,0,L|320:156,1,45,4|0,0:1|0:0,0:0:0:0:
345,203,205532,2,0,L|334:149,1,45,0|0,0:0|0:0,0:0:0:0:
484,181,205709,5,4,0:1:0:0:
477,225,205797,1,0,0:0:0:0:
471,270,205885,1,0,0:0:0:0:
465,314,205974,1,0,0:0:0:0:
459,359,206062,5,4,0:0:0:0:
433,322,206150,1,0,0:0:0:0:
396,298,206238,1,0,0:0:0:0:
352,289,206327,1,0,0:0:0:0:
308,297,206415,5,4,0:1:0:0:
282,333,206503,1,0,0:0:0:0:
245,358,206591,1,0,0:0:0:0:
201,366,206680,1,0,0:0:0:0:
157,358,206768,69,4,0:1:0:0:
187,325,206856,1,0,0:0:0:0:
199,282,206944,1,0,0:0:0:0:
191,239,207032,1,0,0:0:0:0:
163,204,207121,6,0,L|94:220,3,45,12|0|0|0,0:1|0:0|0:0|0:0,0:0:0:0:
126,115,207474,2,0,L|66:77,3,45,4|0|0|0,0:1|0:0|0:0|0:0,0:0:0:0:
193,43,207827,2,0,L|177:-26,3,45,4|0|0|0,0:1|0:0|0:0|0:0,0:0:0:0:
301,139,208180,5,4,0:0:0:0:
345,144,208268,1,0,0:0:0:0:
386,128,208356,1,0,0:0:0:0:
413,93,208444,1,0,0:0:0:0:
420,49,208532,5,4,0:1:0:0:
392,84,208621,1,0,0:0:0:0:
386,128,208709,1,0,0:0:0:0:
403,169,208797,1,0,0:0:0:0:
437,197,208885,69,4,0:1:0:0:
395,212,208974,1,0,0:0:0:0:
363,243,209062,1,0,0:0:0:0:
346,285,209150,1,0,0:0:0:0:
347,329,209238,6,0,L|338:281,1,45,12|0,0:1|0:0,0:0:0:0:
336,339,209415,2,0,L|326:290,1,45,0|0,0:0|0:0,0:0:0:0:
176,375,209591,2,0,L|166:326,1,45,4|0,0:1|0:0,0:0:0:0:
164,384,209768,2,0,L|154:335,1,45,0|0,0:0|0:0,0:0:0:0:
15,200,209944,5,4,0:1:0:0:
58,193,210032,1,0,0:0:0:0:
94,217,210121,1,0,0:0:0:0:
105,260,210209,1,0,0:0:0:0:
83,298,210297,5,4,0:0:0:0:
73,254,210385,1,0,0:0:0:0:
81,210,210474,1,0,0:0:0:0:
106,174,210562,1,0,0:0:0:0:
144,151,210650,69,4,0:1:0:0:
180,177,210738,1,0,0:0:0:0:
223,190,210827,1,0,0:0:0:0:
268,186,210915,1,0,0:0:0:0:
308,167,211003,5,4,0:1:0:0:
281,132,211091,1,0,0:0:0:0:
273,88,211180,1,0,0:0:0:0:
286,46,211268,1,0,0:0:0:0:
316,13,211356,5,12,0:1:0:0:
327,57,211444,1,0,0:0:0:0:
357,89,211532,1,0,0:0:0:0:
400,101,211621,1,0,0:0:0:0:
443,90,211709,5,4,0:1:0:0:
399,88,211797,1,0,0:0:0:0:
358,106,211885,1,0,0:0:0:0:
329,140,211974,1,0,0:0:0:0:
317,183,212062,69,4,0:1:0:0:
350,214,212150,1,0,0:0:0:0:
371,253,212238,1,0,0:0:0:0:
378,298,212327,1,0,0:0:0:0:
370,342,212415,5,4,0:0:0:0:
334,314,212503,1,0,0:0:0:0:
292,299,212591,1,0,0:0:0:0:
247,299,212680,1,0,0:0:0:0:
205,313,212768,5,4,0:1:0:0:
175,345,212856,1,0,0:0:0:0:
132,356,212944,1,0,0:0:0:0:
90,341,213032,1,0,0:0:0:0:
63,305,213121,5,4,0:1:0:0:
94,273,213209,1,0,0:0:0:0:
111,232,213297,1,0,0:0:0:0:
110,187,213385,1,0,0:0:0:0:
92,146,213474,69,12,0:1:0:0:
51,128,213562,1,0,0:0:0:0:
23,93,213650,1,0,0:0:0:0:
12,50,213738,1,0,0:0:0:0:
22,6,213827,6,0,L|103:34,1,45,0|0,0:0|0:0,0:0:0:0:
279,73,214003,2,0,L|359:100,1,45,0|0,0:0|0:0,0:0:0:0:
1,227,214180,6,0,L|73:198,1,45,0|0,1:1|0:0,0:0:0:0:
327,107,214356,2,0,L|369:92,1,45,0|0,1:1|0:0,0:0:0:0:
493,37,214532,6,0,P|461:84|464:215,1,180,4|0,1:3|0:0,0:0:0:0:
504,313,215062,1,0,1:3:0:0:
504,313,215238,2,0,P|448:281|364:284,1,135,8|0,1:3|0:0,0:0:0:0:
340,311,215591,69,0,1:3:0:0:
105,371,215944,1,0,1:3:0:0:
48,289,216121,1,0,1:3:0:0:
123,225,216297,2,0,P|148:154|150:82,1,135,8|0,1:3|0:0,0:0:0:0:
121,54,216650,6,0,P|207:97|301:53,2,180,0|0|8,1:3|0:0|1:3,0:0:0:0:
0,224,217709,5,0,1:3:0:0:
0,224,217797,1,0,1:3:0:0:
0,224,217885,1,0,1:3:0:0:
154,170,218062,1,0,1:3:0:0:
33,104,218238,1,0,1:3:0:0:
142,272,218415,2,0,L|289:242,1,135,8|0,1:3|0:0,0:0:0:0:
323,237,218768,6,0,P|370:179|371:56,1,180,4|0,1:3|0:0,0:0:0:0:
175,0,219297,1,0,1:3:0:0:
175,0,219474,2,0,P|181:68|232:122,1,135,8|0,1:3|0:0,0:0:0:0:
266,140,219827,69,0,1:3:0:0:
509,37,220180,1,0,1:3:0:0:
414,9,220356,1,0,1:3:0:0:
497,61,220532,2,0,L|476:214,1,135,8|0,1:3|0:0,0:0:0:0:
468,239,220885,6,0,P|390:188|302:206,1,180,4|0,1:3|0:0,0:0:0:0:
197,272,221415,1,0,1:3:0:0:
109,253,221591,2,0,P|64:205|64:158,1,90,8|0,1:3|0:0,0:0:0:0:
116,104,221944,5,0,1:3:0:0:
116,104,222032,1,0,1:3:0:0:
116,104,222121,1,0,1:3:0:0:
191,55,222297,1,0,1:3:0:0:
112,11,222474,1,0,1:3:0:0:
195,149,222650,5,8,1:3:0:0:
34,63,222827,1,0,1:3:0:0:
319,0,223003,70,0,L|282:185,1,180,4|0,1:3|0:0,0:0:0:0:
249,282,223532,1,0,1:3:0:0:
336,258,223709,2,0,P|392:279|420:327,1,90,8|0,1:3|0:0,0:0:0:0:
278,355,224062,6,0,B|220:380|177:346|207:341|155:300|98:342,1,180,0|0,1:3|1:3,0:0:0:0:
21,377,224591,1,0,1:3:0:0:
21,377,224768,2,0,P|33:298|12:227,1,135,8|0,1:3|0:0,0:0:0:0:
0,204,225121,5,4,1:3:0:0:
172,35,225474,1,0,0:0:0:0:
254,61,225650,1,0,1:3:0:0:
87,4,225827,2,0,L|111:145,1,135,8|0,1:3|0:0,0:0:0:0:
121,180,226180,6,0,L|179:165,1,45,0|0,1:3|1:3,0:0:0:0:
279,145,226356,1,0,1:3:0:0:
251,285,226532,1,0,1:3:0:0:
251,285,226709,1,0,1:3:0:0:
363,204,226885,2,0,P|419:243|435:327,1,135,8|0,1:3|0:0,0:0:0:0:
446,349,227238,70,0,B|440:293|472:252|483:293|515:246|504:173,1,180,4|0,1:3|0:0,0:0:0:0:
442,123,227768,1,0,1:3:0:0:
471,38,227944,2,0,P|437:71|343:75,1,135,8|0,1:3|0:0,0:0:0:0:
313,56,228297,5,0,1:3:0:0:
97,234,228650,1,0,1:3:0:0:
185,252,228827,1,0,1:3:0:0:
252,193,229003,2,0,L|281:349,1,135,8|0,1:3|0:0,0:0:0:0:
286,370,229356,6,0,P|334:328|453:331,1,180,4|0,1:1|0:0,0:0:0:0:
391,221,229885,1,0,1:3:0:0:
486,169,230062,2,0,L|500:69,1,90,8|0,1:3|0:0,0:0:0:0:
411,13,230415,5,4,1:1:0:0:
411,13,230768,2,0,P|368:16|317:69,1,90,4|0,1:1|1:3,0:0:0:0:
248,156,231121,2,0,P|212:129|167:126,1,90,12|0,1:3|0:0,0:0:0:0:
28,219,231474,69,4,1:3:0:0:
208,384,231827,2,0,L|223:282,1,90,0|0,1:3|1:3,0:0:0:0:
335,164,232180,2,0,L|348:253,1,90,8|0,1:3|0:0,0:0:0:0:
460,321,232532,5,4,1:3:0:0:
500,55,232885,2,0,P|456:67|416:106,1,90,0|0,1:3|1:3,0:0:0:0:
221,51,233238,2,0,P|254:79|298:91,1,90,8|0,1:3|0:0,0:0:0:0:
358,15,233591,5,4,1:3:0:0:
165,169,233944,2,0,B|136:144|136:144|146:80,1,90,0|0,1:3|1:3,0:0:0:0:
52,3,234297,2,0,B|81:28|81:28|71:92,1,90,8|0,1:3|0:0,0:0:0:0:
21,171,234650,5,4,1:3:0:0:
218,114,234827,1,8,1:3:0:0:
88,120,235003,69,0,0:0:0:0:
154,165,235180,1,0,1:3:0:0:
55,343,235356,2,0,L|175:318,1,90,8|0,1:3|0:0,0:0:0:0:
325,288,235709,5,4,1:3:0:0:
436,183,236062,2,0,P|438:233|405:276,1,90,0|0,1:3|1:3,0:0:0:0:
298,136,236415,2,0,P|269:175|270:229,1,90,8|0,1:3|0:0,0:0:0:0:
325,288,236768,5,4,1:3:0:0:
441,162,237121,2,0,P|478:195|485:249,1,90,0|0,1:3|1:3,0:0:0:0:
303,114,237474,2,0,P|252:119|215:158,1,90,8|0,1:3|0:0,0:0:0:0:
85,156,237827,5,4,1:3:0:0:
47,132,237915,1,0,0:0:0:0:
28,92,238003,1,0,0:0:0:0:
33,48,238091,1,0,0:0:0:0:
61,14,238180,1,2,1:1:0:0:
103,0,238268,1,0,0:0:0:0:
146,11,238356,1,0,0:0:0:0:
176,44,238444,1,0,0:0:0:0:
180,89,238532,1,10,1:1:0:0:
170,132,238621,1,0,0:0:0:0:
137,162,238709,1,0,0:0:0:0:
94,169,238797,1,0,0:0:0:0:
51,183,238885,69,2,1:1:0:0:
20,215,238974,1,0,0:0:0:0:
5,258,239062,1,8,1:1:0:0:
8,302,239150,1,0,0:0:0:0:
28,342,239238,1,2,1:1:0:0:
62,371,239327,1,0,0:0:0:0:
105,384,239415,1,8,1:1:0:0:
149,380,239503,1,0,0:0:0:0:
188,359,239591,6,0,L|201:287,1,45,10|0,1:1|0:0,0:0:0:0:
326,315,239768,2,0,L|313:243,1,45,8|0,1:1|0:0,0:0:0:0:
256,192,239944,5,4,1:3:0:0:
505,127,240297,2,0,L|406:147,1,90,0|0,1:3|1:3,0:0:0:0:
505,257,240650,2,0,L|406:237,1,90,8|0,1:3|0:0,0:0:0:0:
256,192,241003,5,4,1:3:0:0:
379,8,241356,2,0,P|356:51|352:109,1,90,0|0,1:3|1:3,0:0:0:0:
379,376,241709,2,0,P|356:333|352:275,1,90,8|0,1:3|0:0,0:0:0:0:
256,192,242062,69,4,1:3:0:0:
275,60,242415,2,0,L|158:40,1,90,0|0,1:3|1:3,0:0:0:0:
275,324,242768,2,0,L|158:344,1,90,8|0,1:3|0:0,0:0:0:0:
256,192,243121,5,4,1:3:0:0:
424,147,243297,1,8,1:3:0:0:
296,116,243474,5,0,0:0:0:0:
346,296,243650,1,0,1:3:0:0:
512,125,243827,2,0,L|410:151,1,90,8|0,1:3|0:0,0:0:0:0:
256,192,244180,5,4,1:3:0:0:
138,105,244532,2,0,P|113:71|112:13,1,90,0|0,1:3|1:3,0:0:0:0:
138,279,244885,2,0,P|113:313|112:371,1,90,8|0,1:3|0:0,0:0:0:0:
256,192,245238,69,4,1:3:0:0:
7,127,245591,2,0,L|106:147,1,90,0|0,1:3|1:3,0:0:0:0:
7,257,245944,2,0,L|106:237,1,90,8|0,1:3|0:0,0:0:0:0:
248,363,246297,6,0,P|225:319|232:256,1,90,4|0,1:3|0:0,0:0:0:0:
293,181,246650,1,0,1:3:0:0:
303,306,246827,2,0,P|326:281|473:296,1,180,0|0,1:3|1:3,0:0:0:0:
486,144,247356,6,0,L|512:52,1,90,4|0,1:3|1:3,0:0:0:0:
401,150,247709,1,0,1:3:0:0:
401,150,247885,1,0,1:3:0:0:
296,68,248062,2,0,P|243:46|187:42,1,90,8|0,1:3|0:0,0:0:0:0:
45,196,248415,5,4,1:3:0:0:
198,145,248591,1,0,0:0:0:0:
80,41,248768,1,0,0:0:0:0:
134,214,248944,69,0,1:3:0:0:
16,110,249121,1,8,1:3:0:0:
169,59,249297,1,0,0:0:0:0:
47,331,249474,5,4,1:3:0:0:
47,331,249650,1,0,0:0:0:0:
134,214,249827,5,0,1:3:0:0:
177,366,250003,1,0,1:3:0:0:
231,108,250180,5,8,1:3:0:0:
305,372,250356,1,8,1:3:0:0:
380,241,250532,70,0,P|331:198|352:86,1,180,4|0,1:3|1:3,0:0:0:0:
510,74,251062,1,0,1:3:0:0:
506,167,251238,2,0,P|466:172|396:126,1,90,8|0,1:3|0:0,0:0:0:0:
320,2,251591,5,4,1:3:0:0:
380,241,251768,1,0,1:3:0:0:
197,156,251944,2,0,P|136:164|85:205,1,90,0|0,1:3|1:3,0:0:0:0:
231,238,252297,2,0,P|280:201|270:109,1,135,8|0,1:3|0:0,0:0:0:0:
260,93,252650,6,0,B|313:89|331:46|331:46|390:25|453:62,1,180,4|0,1:3|0:0,0:0:0:0:
384,135,253180,1,0,1:3:0:0:
480,141,253356,2,0,P|508:180|503:249,1,90,8|0,1:3|0:0,0:0:0:0:
495,363,253709,5,4,1:3:0:0:
436,350,253827,1,0,1:3:0:0:
377,337,253944,1,0,1:3:0:0:
285,377,254062,69,8,1:3:0:0:
253,297,254180,1,8,1:3:0:0:
168,282,254297,1,8,1:3:0:0:
55,267,254415,5,0,1:3:0:0:
69,207,254532,1,0,1:3:0:0:
86,149,254650,1,0,1:3:0:0:
118,54,254768,22,0,B|101:42|101:42|99:28|91:23|77:25|77:25|61:14|61:14|58:36|58:36|44:38|21:70|24:84|24:84|5:95|5:95|21:106|21:106|23:120|31:125|45:123|45:123|61:134|61:134|64:112|64:112|78:110|89:94|89:94|113:111|141:106|124:130|124:130|138:128|138:128|138:146|148:147|148:147|97:220|123:315|208:378|307:367|364:286|364:286|420:197|389:112|309:55|199:74|199:133|199:133|186:162|186:162|218:184|183:201|189:218|179:400|436:310|386:88|177:146|281:195|281:195|315:252|315:252|489:365|489:365|405:296,1,1921.6,4|0,1:3|0:0,0:0:0:0:
451,87,266206,6,0,P|402:81|360:118,1,107.999996704102,8|0,0:0|0:0,0:0:0:0:
304,181,267706,2,0,L|242:173,1,53.9999983520508,8|0,0:0|0:0,0:0:0:0:
176,221,268457,1,0,0:0:0:0:
176,221,268707,1,0,0:0:0:0:
20,44,269208,6,0,P|49:66|64:107,1,80.9999975280763,8|0,0:0|0:0,0:0:0:0:
20,189,270208,1,0,0:0:0:0:
123,369,270709,2,0,P|155:342|222:343,1,107.999996704102,8|0,0:0|0:0,0:0:0:0:
360,384,272209,6,0,P|339:335|352:275,1,107.999996704102,8|0,0:0|0:0,0:0:0:0:
429,230,273710,2,0,P|436:209|435:177,1,53.9999983520508,8|0,0:0|0:0,0:0:0:0:
365,102,274460,1,0,0:0:0:0:
365,102,274710,1,0,0:0:0:0:
475,8,275211,6,0,L|386:24,1,80.9999975280763,8|0,0:0|0:0,0:0:0:0:
306,43,276211,1,0,0:0:0:0:
210,81,276712,2,0,L|196:24,2,53.9999983520508,8|0|0,0:0|0:0|0:0,0:0:0:0:
176,197,278213,70,0,P|223:170|278:181,1,107.999996704102,8|0,0:0|0:0,0:0:0:0:
363,277,279713,2,0,L|369:220,1,53.9999983520508,8|0,0:0|0:0,0:0:0:0:
380,143,280464,1,0,0:0:0:0:
380,143,280714,1,0,0:0:0:0:
495,41,281214,6,0,P|473:61|416:73,1,80.9999975280763,8|0,0:0|0:0,0:0:0:0:
326,28,282215,1,0,0:0:0:0:
215,147,282715,2,0,P|152:123|104:121,1,107.999996704102,8|0,0:0|0:0,0:0:0:0:
10,119,284216,6,0,L|24:181,1,53.9999983520508,8|0,0:0|0:0,0:0:0:0:
45,263,284966,1,0,0:0:0:0:
45,263,285217,1,0,0:0:0:0:
173,361,285717,2,0,P|198:360|227:344,2,53.9999983520508,8|0|0,0:0|0:0|0:0,0:0:0:0:
206,263,287218,6,0,P|247:266|286:293,1,80.9999975280763,8|0,0:0|0:0,0:0:0:0:
340,356,288218,1,0,0:0:0:0:
442,273,288719,2,0,P|458:238|444:168,1,107.999996704102,10|0,0:0|0:0,0:0:0:0:
364,121,289969,1,0,0:0:0:0:
493,15,290200,70,0,P|450:13|411:29,1,80.9999975280763,14|0,0:0|0:0,0:0:0:0:
364,121,291200,1,2,0:0:0:0:
251,119,291700,2,0,P|220:115|200:102,2,53.9999983520508,10|2|0,0:0|0:0|0:0,0:0:0:0:
382,110,293201,6,0,P|363:137|357:157,1,53.9999983520508,8|2,0:0|0:0,0:0:0:0:
370,267,293952,1,0,0:0:0:0:
370,267,294202,1,2,0:0:0:0:
496,225,294702,1,10,0:0:0:0:
268,197,295202,1,2,0:0:0:0:
45,332,296203,6,0,P|32:310|28:280,2,53.9999983520508,10|2|2,0:0|0:0|0:0,0:0:0:0:
114,277,297704,2,0,P|139:276|167:288,2,53.9999983520508,10|0|2,0:0|0:0|0:0,0:0:0:0:
34,102,299205,6,0,P|64:130|112:141,1,80.9999975280763,10|0,0:0|0:0,0:0:0:0:
195,88,300205,1,0,0:0:0:0:
345,204,300706,2,0,P|320:192|288:186,2,53.9999983520508,10|2|2,0:0|0:0|0:0,0:0:0:0:
492,90,302207,70,0,P|464:106|435:113,1,53.9999983520508,2|2,0:0|0:0,0:0:0:0:
357,125,302957,1,0,0:0:0:0:
332,47,303207,1,2,0:0:0:0:
213,64,303707,2,0,P|216:34|206:5,1,53.9999983520508,10|2,0:0|0:0,0:0:0:0:
34,153,305208,6,0,L|40:182,1,26.9999991760254,8|0,0:0|0:0,0:0:0:0:
61,256,305709,1,2,0:0:0:0:
127,164,305959,1,0,0:0:0:0:
168,301,306209,1,2,0:0:0:0:
346,193,306709,2,0,P|379:191|408:199,2,53.9999983520508,10|2|0,0:0|0:0|0:0,0:0:0:0:
274,114,308210,6,0,P|264:93|243:66,2,53.9999983520508,10|0|0,0:0|0:0|0:0,0:0:0:0:
367,46,309711,2,0,P|377:25|398:-2,2,53.9999983520508,10|0|0,0:0|0:0|0:0,0:0:0:0:
505,196,311212,6,0,P|470:156|409:137,1,107.999996704102,10|0,0:0|0:0,0:0:0:0:
306,283,312462,1,0,0:0:0:0:
388,335,312713,2,0,P|436:316|460:264,1,107.999996704102,6|0,0:0|0:0,0:0:0:0:
178,221,314234,70,0,P|147:225|93:244,1,80.9999975280763,2|0,0:0|0:0,0:0:0:0:
34,83,315734,2,0,P|62:107|111:118,1,80.9999975280763,2|0,0:0|0:0,0:0:0:0:
193,76,316735,1,0,0:0:0:0:
281,110,316985,1,0,0:0:0:0:
399,49,317235,6,0,P|382:72|373:104,1,53.9999983520508,2|0,0:0|0:0,0:0:0:0:
491,253,318736,2,0,P|467:238|433:225,2,53.9999983520508,2|0|0,0:0|0:0|0:0,0:0:0:0:
447,351,319987,1,0,0:0:0:0:
447,351,320112,1,0,0:0:0:0:
447,351,320237,6,0,L|364:371,1,80.9999975280763,2|0,0:0|0:0,0:0:0:0:
259,332,321238,1,0,0:0:0:0:
164,372,321488,1,0,0:0:0:0:
91,302,321738,6,0,L|97:269,1,26.9999991760254,2|0,0:0|0:0,0:0:0:0:
25,226,322238,2,0,L|19:193,1,26.9999991760254,0|0,0:0|0:0,0:0:0:0:
116,164,322738,2,0,L|122:131,1,26.9999991760254,0|0,0:0|0:0,0:0:0:0:
69,8,323239,70,0,P|92:42|135:57,1,80.9999975280763,2|0,0:0|0:0,0:0:0:0:
220,21,324239,2,0,L|212:56,1,26.9999991760254,0|0,0:0|0:0,0:0:0:0:
266,128,324740,2,0,P|281:118|327:112,2,53.9999983520508,2|0|0,0:0|0:0|0:0,0:0:0:0:
397,38,326241,6,0,L|395:71,1,26.9999991760254,2|0,0:0|0:0,0:0:0:0:
452,147,326741,2,0,P|476:137|515:132,1,53.9999983520508,0|0,0:0|0:0,0:0:0:0:
449,233,327491,1,0,0:0:0:0:
449,233,327741,2,0,P|422:217|404:214,1,40.4999987640381,2|0,0:0|0:0,0:0:0:0:
320,196,328242,2,0,L|337:259,1,53.9999983520508,0|0,0:0|0:0,0:0:0:0:
302,348,329242,6,0,P|274:362|248:363,1,53.9999983520508,2|0,0:0|0:0,0:0:0:0:
128,262,330243,2,0,L|132:229,1,26.9999991760254,0|0,0:0|0:0,0:0:0:0:
54,105,330743,2,0,P|74:129|89:140,1,40.4999987640381,2|0,0:0|0:0,0:0:0:0:
172,148,331243,2,0,L|232:137,1,53.9999983520508,0|0,0:0|0:0,0:0:0:0:
319,121,331994,1,0,0:0:0:0:
319,121,332119,1,0,0:0:0:0:
261,58,332244,6,0,L|270:21,1,26.9999991760254,2|0,0:0|0:0,0:0:0:0:
278,192,332744,2,0,L|287:229,1,26.9999991760254,0|0,0:0|0:0,0:0:0:0:
398,121,333245,2,0,L|436:122,1,26.9999991760254,0|0,0:0|0:0,0:0:0:0:
498,210,333745,69,2,0:0:0:0:
473,295,333995,1,0,0:0:0:0:
387,318,334245,1,0,0:0:0:0:
301,291,334495,1,0,0:0:0:0:
225,338,334745,2,0,L|176:326,1,40.4999987640381,0|0,0:0|0:0,0:0:0:0:
93,296,335246,6,0,P|106:273|109:244,1,53.9999983520508,2|0,0:0|0:0,0:0:0:0:
54,184,335996,1,0,0:0:0:0:
20,101,336246,1,0,0:0:0:0:
89,45,336497,1,0,0:0:0:0:
171,78,336747,6,0,L|218:93,1,40.4999987640381,2|0,0:0|0:0,0:0:0:0:
281,152,337247,6,0,P|291:103|350:66,1,108,0|0,0:0|0:0,0:0:0:0:
421,0,337688,54,0,B|417:27|417:27|427:40|427:40|422:47|422:47|431:56|431:56|404:114|448:180,1,161.999995056153,2|0,0:2|0:0,0:0:0:0:
494,288,338188,69,4,1:3:0:0:
467,273,338271,1,8,0:3:0:0:
438,266,338354,1,0,1:3:0:0:
409,269,338438,1,8,0:3:0:0:
381,280,338521,1,0,1:3:0:0:
357,299,338604,1,8,0:3:0:0:
341,323,338688,1,0,1:3:0:0:
324,347,338771,1,8,0:3:0:0:
300,366,338854,1,0,1:3:0:0:
273,377,338938,1,8,0:3:0:0:
243,379,339021,1,0,1:3:0:0:
214,373,339104,1,8,0:3:0:0:
188,358,339188,5,0,1:3:0:0:
197,342,339271,1,8,0:3:0:0:
202,325,339354,1,0,1:3:0:0:
203,307,339438,1,8,0:3:0:0:
200,289,339521,1,0,1:3:0:0:
193,273,339604,1,8,0:3:0:0:
182,259,339688,5,4,1:1:0:0:
190,230,339771,1,8,0:3:0:0:
208,207,339854,1,0,1:3:0:0:
234,192,339938,1,8,0:3:0:0:
264,189,340021,1,0,1:3:0:0:
293,197,340104,1,8,0:3:0:0:
316,216,340188,1,0,1:3:0:0:
339,234,340271,1,8,0:3:0:0:
367,242,340354,1,0,1:3:0:0:
397,239,340438,1,8,0:3:0:0:
423,225,340521,2,0,P|452:207|490:198,1,60,0|8,1:3|0:3,0:0:0:0:
506,126,340688,5,0,1:3:0:0:
473,129,340771,1,8,0:3:0:0:
441,122,340854,1,0,1:3:0:0:
412,106,340938,1,8,0:3:0:0:
389,82,341021,1,0,1:3:0:0:
375,53,341104,1,8,0:3:0:0:
370,20,341188,69,4,1:3:0:0:
343,6,341271,1,8,0:3:0:0:
314,0,341354,1,0,1:3:0:0:
284,0,341438,1,8,0:3:0:0:
255,7,341521,1,0,1:3:0:0:
228,21,341604,1,8,0:3:0:0:
206,41,341688,1,0,1:3:0:0:
190,66,341771,1,8,0:3:0:0:
179,94,341854,1,0,1:3:0:0:
176,124,341938,1,8,0:3:0:0:
180,154,342021,2,0,P|184:172|210:209,1,60,0|8,1:3|0:3,0:0:0:0:
308,255,342188,5,0,1:3:0:0:
277,244,342271,1,8,0:3:0:0:
245,244,342354,1,0,1:3:0:0:
215,254,342438,1,8,0:3:0:0:
189,274,342521,1,0,1:3:0:0:
172,301,342604,1,8,0:3:0:0:
164,332,342688,5,4,1:1:0:0:
172,303,342771,1,8,0:3:0:0:
167,274,342854,1,0,1:3:0:0:
152,248,342938,1,8,0:3:0:0:
128,231,343021,1,0,1:3:0:0:
99,224,343104,1,8,0:3:0:0:
69,218,343188,1,4,1:1:0:0:
44,200,343271,1,8,0:3:0:0:
27,175,343354,1,0,1:3:0:0:
21,146,343438,1,8,0:3:0:0:
28,117,343521,1,0,1:3:0:0:
44,92,343604,1,8,0:3:0:0:
70,77,343688,1,0,1:3:0:0:
99,72,343771,1,8,0:3:0:0:
128,79,343854,1,0,1:3:0:0:
151,98,343938,1,8,0:3:0:0:
164,125,344021,1,0,1:3:0:0:
164,155,344104,1,8,0:3:0:0:
153,182,344188,5,4,1:3:0:0:
166,155,344271,1,8,0:3:0:0:
186,133,344354,1,0,1:3:0:0:
211,117,344438,1,8,0:3:0:0:
240,109,344521,1,0,1:3:0:0:
270,110,344604,1,8,0:3:0:0:
298,119,344688,1,0,1:3:0:0:
326,127,344771,1,8,0:3:0:0:
356,128,344854,1,0,1:3:0:0:
385,120,344938,1,8,0:3:0:0:
410,104,345021,1,0,1:3:0:0:
430,82,345104,1,8,0:3:0:0:
443,55,345188,69,0,1:3:0:0:
435,71,345271,1,8,0:3:0:0:
430,88,345354,1,0,1:3:0:0:
428,106,345438,1,8,0:3:0:0:
428,124,345521,1,0,1:3:0:0:
432,141,345604,1,8,0:3:0:0:
439,158,345688,5,4,1:1:0:0:
419,135,345771,1,8,0:3:0:0:
395,117,345854,1,0,1:3:0:0:
367,106,345938,1,8,0:3:0:0:
338,101,346021,1,0,1:3:0:0:
308,104,346104,1,8,0:3:0:0:
279,114,346188,1,0,1:3:0:0:
250,124,346271,1,8,0:3:0:0:
220,127,346354,1,0,1:3:0:0:
191,122,346438,1,8,0:3:0:0:
165,113,346521,2,0,P|175:91|181:50,1,60,0|8,1:3|0:3,0:0:0:0:
30,23,346688,5,0,1:3:0:0:
22,54,346771,1,8,0:3:0:0:
22,86,346854,1,0,1:3:0:0:
28,118,346938,1,8,0:3:0:0:
41,147,347021,1,0,1:3:0:0:
60,173,347104,1,8,0:3:0:0:
85,194,347188,5,4,1:3:0:0:
114,190,347271,1,8,0:3:0:0:
144,194,347354,1,0,1:3:0:0:
171,207,347438,1,8,0:3:0:0:
193,227,347521,1,0,1:3:0:0:
209,252,347604,1,8,0:3:0:0:
217,281,347688,1,0,1:3:0:0:
216,311,347771,1,8,0:3:0:0:
207,339,347854,1,0,1:3:0:0:
190,364,347938,1,8,0:3:0:0:
167,383,348021,2,0,P|157:354|154:309,1,60,0|8,1:3|0:3,0:0:0:0:
317,170,348188,69,0,1:3:0:0:
285,174,348271,1,8,0:3:0:0:
253,167,348354,1,0,1:3:0:0:
225,150,348438,1,8,0:3:0:0:
203,125,348521,1,0,1:3:0:0:
191,95,348604,1,8,0:3:0:0:
189,62,348688,6,0,L|171:10,3,33.7500012874604,4|0|0|0,0:0|0:0|0:0|0:0,0:0:0:0:
297,59,348938,2,0,L|285:90,3,33.7500012874604,0|0|0|0,1:0|1:0|1:0|1:0,0:0:0:0:
407,17,349188,1,0,0:0:0:0:
407,17,349250,1,0,0:0:0:0:
407,17,349313,2,0,L|418:48,1,33.7500012874604,0|0,0:0|0:0,0:0:0:0:
512,128,349438,1,0,1:0:0:0:
512,128,349500,1,0,1:0:0:0:
512,128,349563,2,0,L|500:159,1,33.7500012874604,0|0,1:0|1:0,0:0:0:0:
422,272,349688,6,0,P|450:280|475:300,2,45.0000017166138,4|0|0,0:1|0:0|0:0,0:0:0:0:
329,219,349938,1,0,1:0:0:0:
294,247,350021,1,0,1:0:0:0:
252,263,350104,1,0,1:0:0:0:
207,265,350188,5,4,1:3:0:0:
226,242,350271,1,8,0:3:0:0:
236,214,350354,1,0,1:3:0:0:
234,184,350438,1,8,0:3:0:0:
221,157,350521,1,0,1:3:0:0:
198,138,350604,1,8,0:3:0:0:
170,128,350688,1,0,1:3:0:0:
138,122,350771,1,8,0:3:0:0:
113,106,350854,1,0,1:3:0:0:
97,83,350938,1,8,0:3:0:0:
89,54,351021,1,0,1:3:0:0:
93,25,351104,1,8,0:3:0:0:
109,0,351188,69,0,1:3:0:0:
120,13,351271,1,8,0:3:0:0:
129,29,351354,1,0,1:3:0:0:
136,45,351438,1,8,0:3:0:0:
139,63,351521,1,0,1:3:0:0:
140,81,351604,1,8,0:3:0:0:
137,99,351688,5,4,1:1:0:0:
155,75,351771,1,8,0:3:0:0:
178,56,351854,1,0,1:3:0:0:
206,45,351938,1,8,0:3:0:0:
236,41,352021,1,0,1:3:0:0:
265,45,352104,1,8,0:3:0:0:
293,57,352188,1,0,1:3:0:0:
316,75,352271,1,8,0:3:0:0:
334,99,352354,1,0,1:3:0:0:
345,127,352438,1,8,0:3:0:0:
347,156,352521,2,0,L|329:220,1,60,0|8,1:3|0:3,0:0:0:0:
260,288,352688,5,0,1:3:0:0:
287,270,352771,1,8,0:3:0:0:
319,261,352854,1,0,1:3:0:0:
352,261,352938,1,8,0:3:0:0:
383,270,353021,1,0,1:3:0:0:
411,287,353104,1,8,0:3:0:0:
433,312,353188,5,4,1:3:0:0:
403,311,353271,1,8,0:3:0:0:
374,304,353354,1,0,1:3:0:0:
347,289,353438,1,8,0:3:0:0:
325,269,353521,1,0,1:3:0:0:
308,245,353604,1,8,0:3:0:0:
298,217,353688,1,0,1:3:0:0:
294,187,353771,1,8,0:3:0:0:
298,157,353854,1,0,1:3:0:0:
308,129,353938,1,8,0:3:0:0:
325,105,354021,2,0,L|388:89,1,60,0|8,1:3|0:3,0:0:0:0:
434,0,354188,69,0,1:3:0:0:
460,19,354271,1,8,0:3:0:0:
480,45,354354,1,0,1:3:0:0:
492,76,354438,1,8,0:3:0:0:
494,109,354521,1,0,1:3:0:0:
488,141,354604,1,8,0:3:0:0:
473,170,354688,5,4,1:1:0:0:
444,160,354771,1,8,0:3:0:0:
415,162,354854,1,0,1:3:0:0:
388,175,354938,1,8,0:3:0:0:
368,197,355021,1,0,1:3:0:0:
358,225,355104,1,8,0:3:0:0:
359,255,355188,1,4,1:1:0:0:
360,284,355271,1,8,0:3:0:0:
350,312,355354,1,0,1:3:0:0:
330,335,355438,1,8,0:3:0:0:
303,347,355521,1,0,1:3:0:0:
273,349,355604,1,8,0:3:0:0:
245,340,355688,1,0,1:3:0:0:
221,321,355771,1,8,0:3:0:0:
192,314,355854,1,0,1:3:0:0:
162,316,355938,1,8,0:3:0:0:
136,332,356021,1,0,1:3:0:0:
117,354,356104,1,8,0:3:0:0:
109,382,356188,5,4,1:3:0:0:
138,378,356271,1,8,0:3:0:0:
164,364,356354,1,0,1:3:0:0:
183,342,356438,1,8,0:3:0:0:
192,313,356521,1,0,1:3:0:0:
189,283,356604,1,8,0:3:0:0:
175,257,356688,1,0,1:3:0:0:
152,238,356771,1,8,0:3:0:0:
124,229,356854,1,0,1:3:0:0:
94,232,356938,1,8,0:3:0:0:
68,246,357021,2,0,L|58:308,1,60,0|8,1:3|0:3,0:0:0:0:
274,265,357188,5,0,1:3:0:0:
283,233,357271,1,8,0:3:0:0:
285,200,357354,1,0,1:3:0:0:
281,167,357438,1,8,0:3:0:0:
271,136,357521,1,0,1:3:0:0:
255,107,357604,1,8,0:3:0:0:
234,82,357688,69,4,1:1:0:0:
221,109,357771,1,8,0:3:0:0:
201,131,357854,1,0,1:3:0:0:
175,146,357938,1,8,0:3:0:0:
146,152,358021,1,0,1:3:0:0:
116,149,358104,1,8,0:3:0:0:
65,123,358188,5,0,1:3:0:0:
94,120,358271,1,8,0:3:0:0:
123,126,358354,1,0,1:3:0:0:
149,141,358438,1,8,0:3:0:0:
170,163,358521,1,0,1:3:0:0:
182,190,358604,1,8,0:3:0:0:
210,238,358688,5,0,1:3:0:0:
181,235,358771,1,8,0:3:0:0:
152,241,358854,1,0,1:3:0:0:
126,256,358938,1,8,0:3:0:0:
105,278,359021,1,0,1:3:0:0:
93,305,359104,1,8,0:3:0:0:
105,360,359188,5,4,1:3:0:0:
120,334,359271,1,8,0:3:0:0:
131,306,359354,1,0,1:3:0:0:
137,276,359438,1,8,0:3:0:0:
140,247,359521,1,0,1:3:0:0:
137,217,359604,1,8,0:3:0:0:
131,187,359688,1,0,1:3:0:0:
120,159,359771,1,8,0:3:0:0:
106,133,359854,1,0,1:3:0:0:
87,109,359938,1,8,0:3:0:0:
66,89,360021,2,0,L|50:154,1,60,0|8,1:3|0:3,0:0:0:0:
119,0,360188,69,0,1:3:0:0:
129,31,360271,1,8,0:3:0:0:
149,57,360354,1,0,1:3:0:0:
176,76,360438,1,8,0:3:0:0:
207,86,360521,1,0,1:3:0:0:
240,85,360604,1,8,0:3:0:0:
271,75,360688,6,0,L|277:23,3,33.7500012874604,4|0|0|0,0:0|0:0|0:0|0:0,0:0:0:0:
254,186,360938,2,0,L|250:219,3,33.7500012874604,0|0|0|0,1:0|1:0|1:0|1:0,0:0:0:0:
362,152,361188,1,4,0:0:0:0:
385,155,361250,1,0,0:0:0:0:
407,163,361313,1,0,0:0:0:0:
427,175,361375,1,0,0:0:0:0:
444,191,361438,1,0,1:0:0:0:
457,211,361500,1,0,1:0:0:0:
466,233,361563,1,0,1:0:0:0:
471,256,361625,1,0,1:0:0:0:
470,280,361688,5,0,1:0:0:0:
460,284,361750,1,0,1:0:0:0:
450,287,361813,2,0,L|399:301,1,33.7500012874604,0|0,1:0|1:0,0:0:0:0:
341,384,361938,1,0,1:0:0:0:
331,380,362000,1,0,1:0:0:0:
321,377,362063,2,0,L|270:363,1,33.7500012874604,0|0,1:0|1:0,0:0:0:0:
187,381,362188,6,0,B|212:348|212:348|187:257,1,107.999996704102,4|8,1:3|0:0,0:0:0:0:
166,175,362438,1,2,1:3:0:0:
76,277,362563,1,8,0:0:0:0:
193,177,362688,1,2,1:3:0:0:
0,140,362813,1,8,0:0:0:0:
278,221,362938,2,0,P|289:196|289:155,1,53.9999983520508,2|0,1:3|0:0,0:0:0:0:
346,45,363063,2,0,P|336:19|307:-9,1,53.9999983520508,8|0,0:0|0:0,0:0:0:0:
202,0,363188,2,0,P|181:51|210:132,1,107.999996704102,2|8,1:3|0:0,0:0:0:0:
333,139,363438,1,2,1:3:0:0:
333,139,363563,1,8,0:0:0:0:
446,66,363688,70,0,B|471:95|471:95|457:171,1,107.999996704102,4|8,1:3|0:0,0:0:0:0:
349,313,363938,2,0,B|324:284|324:284|338:208,1,107.999996704102,4|8,1:1|0:0,0:0:0:0:
504,264,364188,6,0,B|516:293|516:293|404:251,1,125.999996154785,4|8,1:3|0:0,0:0:0:0:
236,100,364438,2,0,B|224:71|224:71|336:113,1,125.999996154785,4|8,1:1|0:0,0:0:0:0:
282,372,364688,6,0,B|300:311|300:311|294:297|294:297|309:231,1,144,4|8,1:3|0:0,0:0:0:0:
495,29,364938,2,0,B|476:89|476:89|483:104|483:104|468:170,1,144,4|8,1:1|0:0,0:0:0:0:
389,34,365188,6,0,P|342:7|261:21,1,107.999996704102,4|8,1:3|0:0,0:0:0:0:
221,196,365438,1,2,1:3:0:0:
312,104,365563,1,8,0:0:0:0:
386,264,365688,1,2,1:3:0:0:
308,85,365813,1,8,0:0:0:0:
169,263,365938,2,0,P|145:228|140:197,1,53.9999983520508,2|0,1:3|0:0,0:0:0:0:
61,108,366063,2,0,P|68:66|87:40,1,53.9999983520508,8|0,0:0|0:0,0:0:0:0:
207,0,366188,2,0,P|233:46|233:99,1,107.999996704102,2|8,1:3|0:0,0:0:0:0:
141,109,366438,1,2,1:3:0:0:
141,109,366563,1,8,0:0:0:0:
111,240,366688,70,0,L|220:216,1,107.999996704102,4|8,1:3|0:0,0:0:0:0:
401,144,366938,2,0,L|292:168,1,107.999996704102,4|8,1:1|0:0,0:0:0:0:
54,110,367188,6,0,L|180:137,1,125.999996154785,4|8,1:3|0:0,0:0:0:0:
458,274,367438,2,0,L|331:246,1,125.999996154785,4|8,1:1|0:0,0:0:0:0:
0,271,367688,6,0,L|153:237,1,144,4|8,1:3|0:0,0:0:0:0:
512,113,367938,2,0,L|358:146,1,144,4|8,1:1|0:0,0:0:0:0:
280,34,368188,5,4,1:3:0:0:
328,217,368313,1,8,0:0:0:0:
318,18,368438,69,2,1:3:0:0:
230,234,368563,1,8,0:0:0:0:
118,17,368688,5,2,1:3:0:0:
195,238,368813,1,8,0:0:0:0:
161,8,368938,5,2,1:3:0:0:
68,250,369063,1,8,0:0:0:0:
17,33,369188,5,2,1:3:0:0:
187,314,369313,1,8,0:0:0:0:
277,13,369438,69,2,1:3:0:0:
0,152,369563,1,8,0:0:0:0:
304,335,369688,6,0,P|338:313|364:249,1,107.999996704102,4|8,1:3|0:0,0:0:0:0:
208,49,369938,2,0,P|174:71|148:135,1,107.999996704102,0|8,1:1|0:0,0:0:0:0:
448,268,370188,6,0,B|434:198|434:198|364:141,1,125.999996154785,4|8,1:1|0:0,0:0:0:0:
64,116,370438,2,0,B|78:186|78:186|148:243,1,125.999996154785,0|8,1:1|0:0,0:0:0:0:
474,57,370688,6,0,L|326:83,1,144,4|8,1:3|0:0,0:0:0:0:
38,327,370938,2,0,L|186:301,1,144,0|8,1:1|0:0,0:0:0:0:
472,255,371188,69,0,1:3:0:0:
500,209,371250,1,8,0:0:0:0:
510,156,371313,1,0,1:0:0:0:
501,103,371375,1,8,0:0:0:0:
474,57,371438,1,0,1:0:0:0:
432,23,371500,1,8,0:0:0:0:
381,6,371563,1,0,1:0:0:0:
328,8,371625,1,8,0:0:0:0:
278,29,371688,1,0,1:0:0:0:
239,66,371750,1,8,0:0:0:0:
216,114,371813,1,0,1:0:0:0:
211,167,371875,1,8,0:0:0:0:
225,219,371938,1,0,1:0:0:0:
257,263,372000,1,8,0:0:0:0:
302,292,372063,2,0,L|361:279,1,53.9999983520508,0|8,1:0|0:0,0:0:0:0:
429,192,372188,5,0,1:0:0:0:
434,139,372250,1,8,0:0:0:0:
405,95,372313,1,0,1:0:0:0:
354,80,372375,1,8,0:0:0:0:
305,101,372438,1,0,1:0:0:0:
282,149,372500,1,8,0:0:0:0:
294,200,372563,1,0,1:0:0:0:
337,232,372625,1,8,0:0:0:0:
391,233,372688,6,0,P|406:258|420:306,3,53.9999983520508,0|0|0|0,1:0|0:0|1:0|0:0,0:0:0:0:
299,342,372938,5,8,1:0:0:0:
262,303,373000,1,8,0:0:0:0:
211,290,373063,1,8,1:0:0:0:
160,307,373125,1,8,0:0:0:0:
123,345,373188,5,0,1:0:0:0:
93,333,373250,1,0,1:0:0:0:
72,308,373313,1,0,1:0:0:0:
65,277,373375,1,0,1:0:0:0:
105,241,373438,69,0,1:0:0:0:
114,210,373500,1,0,1:0:0:0:
109,178,373563,1,0,1:0:0:0:
90,153,373625,1,0,1:0:0:0:
42,126,373688,5,0,1:0:0:0:
44,115,373750,1,0,1:0:0:0:
47,105,373813,1,0,1:0:0:0:
50,94,373875,1,0,1:0:0:0:
52,84,373938,5,0,3:0:0:0:
105,75,374000,1,0,3:0:0:0:
158,67,374063,1,0,3:0:0:0:
212,59,374125,1,0,3:0:0:0:
265,50,374188,6,0,L|241:188,1,107.999996704102,4|0,1:3|0:0,0:0:0:0:
405,264,374438,1,2,1:3:0:0:
340,108,374563,1,8,0:0:0:0:
401,284,374688,1,2,1:3:0:0:
488,78,374813,1,8,0:0:0:0:
265,187,374938,2,0,P|293:184|340:204,1,53.9999983520508,2|0,1:3|0:0,0:0:0:0:
512,320,375063,2,0,P|484:317|437:337,1,53.9999983520508,8|0,0:0|0:0,0:0:0:0:
357,384,375188,2,0,P|339:331|303:282,1,107.999996704102,2|8,1:3|0:0,0:0:0:0:
409,193,375438,1,2,1:3:0:0:
409,193,375563,1,8,0:0:0:0:
211,330,375688,70,0,B|177:344|177:344|205:245,1,107.999996704102,4|8,1:3|0:0,0:0:0:0:
301,54,375938,2,0,B|335:40|335:40|307:139,1,107.999996704102,4|8,1:1|0:0,0:0:0:0:
321,360,376188,6,0,B|344:381|344:381|308:257,1,125.999996154785,4|8,1:3|0:0,0:0:0:0:
191,24,376438,2,0,B|168:3|168:3|204:127,1,125.999996154785,4|8,1:1|0:0,0:0:0:0:
475,198,376688,6,0,B|385:180|425:234|325:214,1,144,4|8,1:3|0:0,0:0:0:0:
36,185,376938,2,0,B|126:203|86:149|186:169,1,144,4|8,1:1|0:0,0:0:0:0:
174,359,377188,6,0,L|148:240,1,107.999996704102,4|8,1:3|0:0,0:0:0:0:
86,99,377438,1,2,1:3:0:0:
33,265,377563,1,8,0:0:0:0:
241,187,377688,1,2,1:3:0:0:
8,97,377813,1,8,0:0:0:0:
135,1,377938,2,0,L|156:81,1,53.9999983520508,2|0,1:3|0:0,0:0:0:0:
174,142,378063,2,0,L|195:222,1,53.9999983520508,8|0,0:0|0:0,0:0:0:0:
209,283,378188,2,0,P|210:229|241:186,1,107.999996704102,2|8,1:3|0:0,0:0:0:0:
400,229,378438,1,2,1:3:0:0:
400,229,378563,1,8,0:0:0:0:
355,345,378688,70,0,P|323:319|310:222,1,107.999996704102,4|8,1:3|0:0,0:0:0:0:
478,326,378938,2,0,P|499:292|482:195,1,107.999996704102,4|8,1:1|0:0,0:0:0:0:
122,154,379188,6,0,P|90:97|94:33,1,125.999996154785,4|8,1:3|0:0,0:0:0:0:
272,175,379438,2,0,P|319:130|335:68,1,125.999996154785,4|8,1:1|0:0,0:0:0:0:
208,62,379688,5,4,1:3:0:0:
204,104,379750,1,0,0:0:0:0:
197,151,379813,1,8,0:0:0:0:
192,196,379875,1,0,0:0:0:0:
187,240,379938,5,0,1:1:0:0:
178,243,380000,1,0,1:0:0:0:
169,245,380063,1,0,1:0:0:0:
161,247,380125,1,0,1:0:0:0:
152,250,380188,69,4,1:3:0:0:
187,210,380250,1,8,0:0:0:0:
235,185,380313,1,0,1:0:0:0:
289,179,380375,1,8,0:0:0:0:
341,193,380438,1,0,1:0:0:0:
384,225,380500,1,8,0:0:0:0:
413,270,380563,1,0,1:0:0:0:
425,322,380625,1,8,0:0:0:0:
417,375,380688,5,0,1:0:0:0:
383,334,380750,1,8,0:0:0:0:
374,281,380813,1,0,1:0:0:0:
393,231,380875,1,8,0:0:0:0:
434,197,380938,1,0,1:0:0:0:
467,155,381000,1,8,0:0:0:0:
476,102,381063,1,0,1:0:0:0:
457,52,381125,1,8,0:0:0:0:
416,19,381188,5,0,1:0:0:0:
410,72,381250,1,8,0:0:0:0:
385,119,381313,1,0,1:0:0:0:
344,154,381375,1,8,0:0:0:0:
293,171,381438,1,0,1:0:0:0:
240,167,381500,1,8,0:0:0:0:
191,144,381563,1,0,1:0:0:0:
155,105,381625,1,8,0:0:0:0:
136,54,381688,5,4,1:0:0:0:
188,67,381750,1,8,0:0:0:0:
226,105,381813,1,0,1:0:0:0:
238,156,381875,1,8,0:0:0:0:
221,207,381938,1,0,1:0:0:0:
204,257,382000,1,8,0:0:0:0:
216,309,382063,1,0,1:0:0:0:
254,347,382125,1,8,0:0:0:0:
305,359,382188,69,0,1:0:0:0:
354,339,382250,1,8,0:0:0:0:
387,297,382313,1,0,1:0:0:0:
393,244,382375,1,8,0:0:0:0:
370,195,382438,1,0,1:0:0:0:
326,166,382500,1,8,0:0:0:0:
273,163,382563,1,0,1:0:0:0:
226,188,382625,1,8,0:0:0:0:
201,237,382688,5,0,1:0:0:0:
162,273,382750,1,8,0:0:0:0:
110,286,382813,1,0,1:0:0:0:
59,272,382875,1,8,0:0:0:0:
21,235,382938,1,0,1:0:0:0:
6,184,383000,1,8,0:0:0:0:
18,132,383063,1,0,1:0:0:0:
53,92,383125,1,8,0:0:0:0:
104,75,383188,5,4,1:3:0:0:
108,77,383250,1,8,0:0:0:0:
112,81,383313,1,0,1:0:0:0:
117,84,383375,1,8,0:0:0:0:
121,88,383438,1,0,1:0:0:0:
125,91,383500,1,8,0:0:0:0:
128,95,383563,1,0,1:0:0:0:
132,99,383625,1,8,0:0:0:0:
135,104,383688,1,0,1:0:0:0:
138,108,383750,1,8,0:0:0:0:
141,113,383813,1,0,1:0:0:0:
144,117,383875,1,8,0:0:0:0:
146,122,383938,1,0,1:0:0:0:
148,127,384000,1,8,0:0:0:0:
150,132,384063,1,0,1:0:0:0:
151,137,384125,1,8,0:0:0:0:
153,143,384188,6,0,P|180:133|228:128,3,53.9999983520508,0|8|0|8,1:0|0:0|1:0|0:0,0:0:0:0:
110,254,384438,2,0,P|83:244|35:239,3,53.9999983520508,0|8|0|8,1:0|0:0|1:0|0:0,0:0:0:0:
300,384,384688,69,4,1:0:0:0:
265,342,384750,1,8,0:0:0:0:
256,290,384813,1,0,1:0:0:0:
274,239,384875,1,8,0:0:0:0:
314,204,384938,1,0,1:0:0:0:
367,194,385000,1,8,0:0:0:0:
417,211,385063,1,0,1:0:0:0:
453,250,385125,1,8,0:0:0:0:
458,304,385188,5,0,1:0:0:0:
406,290,385250,1,8,0:0:0:0:
364,257,385313,1,0,1:0:0:0:
341,208,385375,1,8,0:0:0:0:
341,155,385438,1,0,1:0:0:0:
340,101,385500,1,8,0:0:0:0:
317,53,385563,1,0,1:0:0:0:
275,19,385625,1,8,0:0:0:0:
221,12,385688,5,0,1:0:0:0:
217,22,385750,1,0,1:0:0:0:
215,32,385813,1,0,1:0:0:0:
214,43,385875,1,0,1:0:0:0:
213,54,385938,1,8,1:0:0:0:
214,65,386000,1,8,0:0:0:0:
216,75,386063,1,8,1:0:0:0:
220,85,386125,1,8,0:0:0:0:
224,95,386188,5,4,1:3:0:0:
186,57,386250,1,8,0:0:0:0:
135,41,386313,1,0,1:0:0:0:
82,50,386375,1,8,0:0:0:0:
40,83,386438,1,0,1:0:0:0:
18,132,386500,1,8,0:0:0:0:
21,185,386563,1,0,1:0:0:0:
49,231,386625,1,8,0:0:0:0:
95,259,386688,69,0,1:0:0:0:
148,263,386750,1,8,0:0:0:0:
197,242,386813,1,0,1:0:0:0:
230,200,386875,1,8,0:0:0:0:
240,147,386938,1,0,1:0:0:0:
249,94,387001,1,8,0:0:0:0:
282,52,387063,1,0,1:0:0:0:
331,31,387126,1,8,0:0:0:0:
385,35,387188,5,0,1:0:0:0:
432,59,387250,1,8,0:0:0:0:
464,102,387313,1,0,1:0:0:0:
474,155,387375,1,8,0:0:0:0:
461,206,387438,1,0,1:0:0:0:
426,247,387500,1,8,0:0:0:0:
377,269,387563,1,0,1:0:0:0:
323,266,387625,1,8,0:0:0:0:
271,246,387688,5,4,1:0:0:0:
243,200,387750,1,8,0:0:0:0:
196,174,387813,1,0,1:0:0:0:
142,173,387875,1,8,0:0:0:0:
96,200,387938,1,0,1:0:0:0:
68,245,388000,1,8,0:0:0:0:
66,299,388063,1,0,1:0:0:0:
91,346,388125,1,8,0:0:0:0:
135,376,388188,5,0,1:0:0:0:
177,344,388250,1,8,0:0:0:0:
200,296,388313,1,0,1:0:0:0:
197,242,388375,1,8,0:0:0:0:
168,197,388438,1,0,1:0:0:0:
139,151,388501,1,8,0:0:0:0:
135,98,388563,1,0,1:0:0:0:
158,49,388626,1,8,0:0:0:0:
200,18,388688,70,0,P|216:47|220:95,3,53.9999983520508,4|8|0|8,1:3|0:0|1:0|0:0,0:0:0:0:
356,175,388938,2,0,P|338:203|330:251,3,53.9999983520508,4|8|0|8,1:1|0:0|1:0|0:0,0:0:0:0:
494,145,389188,5,4,1:3:0:0:
483,89,389250,1,8,1:3:0:0:
444,49,389313,1,0,1:3:0:0:
390,36,389375,1,8,1:3:0:0:
338,54,389438,1,0,1:3:0:0:
289,82,389500,1,8,1:3:0:0:
233,82,389563,1,0,1:3:0:0:
188,51,389625,1,8,1:3:0:0:
166,0,389688,5,0,1:3:0:0:
206,37,389750,1,8,1:3:0:0:
222,90,389813,1,0,1:3:0:0:
211,146,389875,1,8,1:3:0:0:
173,187,389938,1,0,1:3:0:0:
121,205,390000,1,8,1:3:0:0:
66,196,390063,1,0,1:3:0:0:
23,161,390125,1,8,1:3:0:0:
0,109,390188,5,0,1:3:0:0:
67,87,390250,1,8,1:3:0:0:
137,107,390313,1,0,1:3:0:0:
181,163,390375,1,8,1:3:0:0:
189,233,390438,1,0,1:3:0:0:
194,305,390500,1,8,1:3:0:0:
241,359,390563,1,0,1:3:0:0:
309,379,390625,1,8,1:3:0:0:
377,356,390688,70,0,B|418:339|418:339|440:347|440:347|498:329,1,107.999996704102,4|0,0:0|0:0,0:0:0:0:
121,205,390938,2,0,B|80:188|80:188|58:196|58:196|0:178,1,107.999996704102,4|0,1:1|0:0,0:0:0:0:
335,11,391188,5,0,1:0:0:0:
342,25,391250,1,0,1:0:0:0:
346,40,391313,1,0,1:0:0:0:
347,57,391375,1,0,1:0:0:0:
307,94,391438,5,0,1:0:0:0:
299,108,391500,1,0,1:0:0:0:
295,123,391563,1,0,1:0:0:0:
294,140,391625,1,0,1:0:0:0:
322,186,391688,6,0,P|357:196|392:234,2,71.9999978027344,4|0|0,1:3|0:0|0:0,0:0:0:0:
228,267,391938,1,4,1:3:0:0:
144,302,392021,1,0,1:0:0:0:
63,261,392104,1,0,1:0:0:0:
41,173,392188,69,6,3:3:0:0:
256,192,392250,12,0,401188,0:0:0:0:
