osu file format v14

[General]
AudioFilename: song.mp3
AudioLeadIn: 0
PreviewTime: 0
Countdown: 0
SampleSet: Soft
StackLeniency: 0.2
Mode: 0
LetterboxInBreaks: 1
WidescreenStoryboard: 1

[Editor]
Bookmarks: 6389,7423,8285,10354,11044,43372,54751,55872,56044,57423,66734,72337,72423,74751,77941,80354,83458,85872,85958,86044,114837,115182,118630
DistanceSpacing: 0.8
BeatDivisor: 4
GridSize: 4
TimelineZoom: 1

[Metadata]
Title:YUKARI
TitleUnicode:YUKARI
Artist:Ocelot
ArtistUnicode:Ocelot
Creator:rrtyui
Version:taku
Source:CROSSxBEATS
Tags:Drumstep Oriental kogumano-putaro KogumaX Taeyang taku
BeatmapID:847452
BeatmapSetID:336802

[Difficulty]
HPDrainRate:5.5
CircleSize:4.2
OverallDifficulty:8.5
ApproachRate:9.5
SliderMultiplier:1.7
SliderTickRate:1

[Events]
//Background and Video events
0,0,"BG.png",0,0
//Break Periods
//Storyboard Layer 0 (Background)
//Storyboard Layer 1 (Fail)
//Storyboard Layer 2 (Pass)
//Storyboard Layer 3 (Foreground)
//Storyboard Sound Samples

[TimingPoints]
10,344.827586206897,4,2,0,50,1,0
10,-142.857142857143,4,2,0,50,0,0
2337,-142.857142857143,4,2,0,50,0,0
2423,-142.857142857143,4,2,0,50,0,0
2682,-142.857142857143,4,2,0,50,0,0
2768,-142.857142857143,4,2,0,50,0,0
8544,-142.857142857143,4,2,0,50,0,0
8630,-142.857142857143,4,2,0,50,0,0
8889,-142.857142857143,4,2,0,50,0,0
8975,-142.857142857143,4,2,0,50,0,0
9234,-142.857142857143,4,2,0,50,0,0
9320,-142.857142857143,4,2,0,50,0,0
9578,-142.857142857143,4,2,0,50,0,0
9665,-142.857142857143,4,2,0,50,0,0
11044,-100,4,2,98,50,0,0
13803,-71.4285714285714,4,2,98,50,0,0
14147,-100,4,2,98,50,0,0
15182,-83.3333333333333,4,2,98,50,0,0
15527,-100,4,2,98,50,0,0
16561,-83.3333333333333,4,2,98,50,0,0
17941,-71.4285714285714,4,2,98,50,0,0
18458,-83.3333333333333,4,2,98,50,0,0
20958,-200,4,2,98,50,0,0
21389,-200,4,2,98,60,0,0
22078,-71.4285714285714,4,2,97,60,0,0
22941,-125,4,2,97,60,0,0
24147,-71.4285714285714,4,2,97,60,0,0
24492,-55.5555555555556,4,2,97,60,0,0
25527,-62.5,4,2,97,60,0,0
26216,-55.5555555555556,4,2,97,60,0,0
27251,-50,4,2,97,60,0,0
27596,-71.4285714285714,4,2,97,60,0,0
28458,-62.5,4,2,97,60,0,0
28975,-55.4414784394252,4,2,97,60,0,0
29665,-71.2401055408973,4,2,97,60,0,0
30354,-62.3556581986145,4,2,97,60,0,0
31044,-71.2401055408973,4,2,97,60,0,0
31734,-62.3556581986145,4,2,97,60,0,0
32078,-55.4414784394252,4,2,97,60,0,0
33630,-62.3556581986145,4,2,97,60,0,0
34492,-55.4414784394252,4,2,97,60,0,0
35182,-71.2401055408973,4,2,97,60,0,0
35872,-55.4414784394252,4,2,97,60,0,0
36561,-62.3556581986145,4,2,97,60,0,0
37251,-50,4,2,97,60,0,0
37930,-55.5555555555556,4,2,97,60,0,0
38619,-62.5,4,2,97,60,0,0
39320,-55.5555555555556,4,2,97,60,0,0
40010,-100,4,2,97,60,0,0
41044,-66.6666666666667,4,2,97,60,0,0
41389,-55.5555555555556,4,2,97,60,0,0
42078,-50,4,2,97,60,0,0
42251,-58.8235294117647,4,2,97,60,0,0
42423,-50,4,2,97,60,0,0
42596,-58.8235294117647,4,2,97,60,0,0
44147,-83.3333333333333,4,2,98,60,0,0
47251,-100,4,2,98,60,0,0
47596,-83.3333333333333,4,2,98,60,0,0
49320,-71.4285714285714,4,2,98,60,0,0
49665,-83.3333333333333,4,2,98,60,0,0
51389,-125,4,2,98,60,0,0
51734,-83.3333333333333,4,2,98,60,0,0
52423,-100,4,2,98,60,0,0
54320,-83.3333333333333,4,2,98,60,0,0
54492,-71.4285714285714,4,2,98,60,0,0
55182,-142.857142857143,4,2,99,60,0,0
56475,-142.857142857143,4,2,99,60,0,0
56561,-142.857142857143,4,2,99,60,0,0
57854,-142.857142857143,4,2,99,60,0,0
57941,-142.857142857143,4,2,99,60,0,0
60699,-111.111111111111,4,2,99,60,0,0
62078,-142.857142857143,4,2,99,60,0,0
66216,-66.6666666666667,4,2,98,60,0,0
68630,-50,4,2,98,60,0,0
68975,-55.5555555555556,4,2,98,60,0,0
69665,-71.4285714285714,4,2,98,60,0,0
71734,-71.4285714285714,4,2,98,60,0,0
74492,-55.5555555555556,4,2,98,60,0,0
75872,-83.3333333333333,4,2,98,60,0,0
77251,-71.4285714285714,4,2,98,60,0,0
77941,-71.4285714285714,4,2,98,60,0,0
78285,-83.3333333333333,4,2,98,60,0,0
78630,-62.5,4,2,98,60,0,0
79320,-55.5555555555556,4,2,98,60,0,0
79665,-62.5,4,2,98,60,0,0
79837,-71.4285714285714,4,2,98,60,0,0
81734,-62.5,4,2,98,60,0,0
82078,-71.4285714285714,4,2,98,60,0,0
82768,-62.5,4,2,98,60,0,0
84147,-71.4285714285714,4,2,98,60,0,0
85527,-62.5,4,2,98,60,0,0
87596,-83.3333333333333,4,2,98,60,0,0
88285,-76.9230769230769,4,2,96,60,0,0
92423,-100,4,2,96,60,0,0
93803,-76.9230769230769,4,2,96,60,0,0
97941,-76.9230769230769,4,2,0,60,0,0
98285,-76.9230769230769,4,2,96,60,0,0
99320,-71.4285714285714,4,2,98,60,0,0
103458,-62.5,4,2,98,60,0,0
104837,-71.4285714285714,4,2,98,60,0,0
113113,-58.8235294117647,4,2,98,60,0,0
113803,-71.4285714285714,4,2,98,60,0,0
114492,-71.4285714285714,4,2,99,60,0,0
115872,-105.263157894737,4,2,99,60,0,0
118630,-105.263157894737,4,2,99,10,0,0

[Colours]
Combo1 : 231,227,224
Combo2 : 248,133,136
Combo3 : 236,140,207
Combo4 : 240,208,185

[HitObjects]
89,94,10,6,0,B|127:64|176:75|176:75|131:115|131:168|131:168|169:199|166:245|149:277,1,297.499990921021,4|0,0:0|0:0,0:0:0:0:
76,238,1044,5,2,0:0:0:0:
321,282,1216,1,2,0:0:0:0:
68,229,1389,6,0,B|172:253|172:253|125:262|110:307,1,178.499994552612,8|2,0:0|0:0,0:0:0:0:
242,280,2078,6,0,P|248:241|219:197,1,89.2499972763062,8|0,0:0|0:0,0:0:0:0:
308,47,2423,2,0,P|284:83|289:127,1,89.2499972763062,2|0,0:0|0:0,0:0:0:0:
366,160,2768,6,0,P|357:112|354:91,1,59.4999981842042,8|0,0:0|0:0,0:0:0:0:
470,24,3113,2,0,P|474:53|480:82,1,59.4999981842042,2|2,0:0|0:0,0:0:0:0:
347,334,3458,2,0,B|356:273|356:273|338:216|338:216|356:90,1,237.999992736817,8|8,0:0|0:0,0:0:0:0:
296,151,4320,5,0,0:0:0:0:
219,166,4492,1,2,0:0:0:0:
143,144,4665,1,2,0:0:0:0:
31,150,4837,5,8,0:0:0:0:
107,128,5010,1,0,0:0:0:0:
184,143,5182,1,2,0:0:0:0:
109,101,5354,1,2,0:0:0:0:
205,24,5527,6,0,B|265:17|265:17|348:48|348:48|508:29,1,297.499990921021,4|0,0:0|0:0,0:0:0:0:
435,88,6561,5,2,0:0:0:0:
101,37,6734,5,2,0:0:0:0:
493,141,6906,6,0,B|405:132|405:132|371:146|371:146|302:140,1,178.499994552612,8|2,0:0|0:0,0:0:0:0:
146,295,7596,5,8,0:0:0:0:
316,62,7768,5,2,0:0:0:0:
316,351,7941,5,8,0:0:0:0:
146,117,8113,5,2,0:0:0:0:
420,206,8285,6,0,L|411:106,1,89.2499972763062,8|0,0:0|0:0,0:0:0:0:
350,232,8630,2,0,L|341:132,1,89.2499972763062,8|0,0:0|0:0,0:0:0:0:
203,65,8975,6,0,L|194:153,1,89.2499972763062,8|0,0:0|0:0,0:0:0:0:
133,39,9320,2,0,L|124:127,1,89.2499972763062,8|0,0:0|0:0,0:0:0:0:
25,211,9665,6,0,B|82:191|129:228|129:228|180:267|243:239|243:239|223:272|233:302|255:319|290:330|313:306|320:284|305:260|271:260,1,416.499987289429,8|2,0:0|0:0,0:0:0:0:
17,295,11044,6,0,P|23:229|25:202,1,85,4|8,0:0|0:0,0:0:0:0:
14,138,11303,1,8,0:0:0:0:
17,112,11389,1,8,0:0:0:0:
136,262,11561,1,8,0:0:0:0:
10,87,11734,6,0,L|105:97,1,85,2|2,0:0|0:0,0:0:0:0:
342,38,12078,2,0,L|285:46,1,42.5,8|8,0:0|0:0,0:0:0:0:
247,120,12251,2,0,L|289:114,1,42.5,8|8,0:0|0:0,0:0:0:0:
365,22,12423,6,0,L|377:115,1,85,4|8,0:0|0:0,0:0:0:0:
452,168,12682,5,8,0:0:0:0:
462,155,12768,2,2,L|404:229,1,85,8|8,0:0|0:0,0:0:0:0:
418,324,13027,5,8,0:0:0:0:
434,321,13113,2,0,L|358:331,1,42.5,2|0,0:0|0:0,0:0:0:0:
303,290,13285,2,0,L|260:284,1,42.5,2|0,0:0|0:0,0:0:0:0:
156,300,13458,5,8,0:0:0:0:
1,214,13630,1,8,0:0:0:0:
260,284,13803,6,0,B|244:305|244:305|177:313|177:313|154:296,1,118.999996368408,4|8,0:0|0:0,0:0:0:0:
69,235,14061,5,8,0:0:0:0:
64,252,14147,2,0,P|73:191|25:158,1,85,8|8,0:0|0:0,0:0:0:0:
20,17,14492,5,10,0:0:0:0:
53,21,14578,1,8,0:0:0:0:
84,26,14665,1,10,0:0:0:0:
237,118,14837,6,0,L|175:108,3,42.5,8|8|8|8,0:0|0:0|0:0|0:0,0:0:0:0:
275,181,15182,6,0,B|263:128|263:128|310:116,1,101.999996887207,4|8,0:0|0:0,0:0:0:0:
371,60,15441,5,8,0:0:0:0:
360,44,15527,2,0,P|351:104|343:147,1,85,8|8,0:0|0:0,0:0:0:0:
380,218,15785,5,8,0:0:0:0:
391,204,15872,2,0,P|397:231|391:262,1,42.5,2|0,0:0|0:0,0:0:0:0:
326,347,16044,2,0,P|299:353|268:347,1,42.5,2|0,0:0|0:0,0:0:0:0:
187,282,16216,2,0,P|208:281|228:286,1,42.5,8|8,0:0|0:0,0:0:0:0:
400,332,16389,2,0,P|400:353|395:373,1,42.5,8|8,0:0|0:0,0:0:0:0:
463,193,16561,6,0,P|474:135|384:63,1,152.999995330811,4|8,0:0|0:0,0:0:0:0:
395,217,16906,2,0,L|468:209,1,50.9999984436036,8|0,0:0|0:0,0:0:0:0:
478,44,17078,2,0,L|427:49,1,50.9999984436036,8|0,0:0|0:0,0:0:0:0:
273,242,17251,6,0,L|390:231,2,101.999996887207,2|2|8,0:0|0:0|0:0,0:0:0:0:
36,193,17768,1,8,0:0:0:0:
398,242,17941,6,0,L|268:254,1,118.999996368408,4|0,0:0|0:0,0:0:0:0:
279,252,18199,1,8,0:0:0:0:
279,252,18285,1,8,0:0:0:0:
487,161,18458,5,8,0:0:0:0:
482,196,18544,1,0,0:0:0:0:
477,232,18630,1,2,0:0:0:0:
471,268,18716,1,0,0:0:0:0:
504,315,18803,5,2,0:0:0:0:
398,242,18975,1,8,0:0:0:0:
227,343,19147,2,0,L|176:348,1,50.9999984436036,8|0,0:0|0:0,0:0:0:0:
50,275,19320,6,0,P|110:191|73:103,2,203.999993774414,6|2|6,0:0|0:0|0:0,0:0:0:0:
72,84,20182,1,2,0:0:0:0:
101,354,20354,1,2,0:0:0:0:
144,45,20527,5,2,0:0:0:0:
68,57,20613,1,2,0:0:0:0:
211,295,20958,6,0,L|442:324,1,233.75,8|8,0:0|0:0,0:0:0:0:
287,163,22078,6,0,B|266:194|239:197|239:197|242:235|201:214|201:214|166:244|157:209|157:209|126:214|97:186,1,237.999992736817,4|0,0:0|0:0,0:0:0:0:
152,133,22596,5,2,0:0:0:0:
155,100,22682,1,2,0:0:0:0:
159,66,22768,1,8,0:0:0:0:
212,354,22941,2,0,P|204:260|201:199,1,136,0|8,0:0|0:3,0:0:0:0:
142,54,23458,5,4,0:0:0:0:
247,276,23630,1,8,0:3:0:0:
311,0,23803,1,0,0:0:0:0:
278,273,23975,1,2,0:0:0:0:
491,45,24147,6,0,L|423:40,1,59.4999981842042,8|0,0:0|0:0,0:0:0:0:
345,71,24320,2,0,L|404:75,1,59.4999981842042,2|0,0:0|0:0,0:0:0:0:
344,181,24492,6,0,L|251:196,1,76.4999976654053,8|8,0:3|0:3,0:0:0:0:
173,244,24665,2,0,L|238:234,2,38.2499988327027,4|0|0,0:3|0:0|0:0,0:0:0:0:
269,194,24837,6,0,P|340:100|350:222,1,305.999990661621,4|0,0:0|0:0,0:0:0:0:
353,220,25354,5,2,0:0:0:0:
360,187,25441,1,2,0:0:0:0:
354,86,25527,6,0,B|367:166|367:166|347:245|347:245|374:381,1,272,8|0,0:0|0:0,0:0:0:0:
353,220,26044,5,2,0:0:0:0:
360,187,26130,1,2,0:0:0:0:
354,86,26216,6,0,B|339:37|339:37|325:70,1,76.4999976654053,10|0,0:0|0:0,0:0:0:0:
354,285,26389,6,0,B|384:325|384:325|386:290,1,76.4999976654053,10|0,0:0|0:0,0:0:0:0:
237,124,26561,6,0,B|194:96|194:96|204:130,1,76.4999976654053,8|0,0:0|0:0,0:0:0:0:
426,186,26734,6,0,B|475:197|475:197|454:168,1,76.4999976654053,10|0,0:0|0:0,0:0:0:0:
237,247,26906,6,0,L|80:269,1,152.999995330811,8|0,0:0|0:0,0:0:0:0:
0,246,27165,1,2,0:0:0:0:
110,273,27251,6,0,L|289:248,1,170,8|0,0:0|0:0,0:0:0:0:
479,39,27596,6,0,B|467:126|467:126|484:169|484:169|466:285,1,237.999992736817,6|0,0:0|0:0,0:0:0:0:
406,183,28113,5,2,0:0:0:0:
444,177,28199,1,2,0:0:0:0:
483,170,28285,1,8,0:0:0:0:
255,71,28458,2,0,B|229:53|176:62|174:115|174:115|193:98,1,136,0|0,0:0|0:0,0:0:0:0:
391,351,28803,2,0,P|388:310|376:273,1,68,8|0,0:3|0:0,0:0:0:0:
255,71,28975,2,0,B|231:56|205:58|188:84|191:100|191:100|205:38|155:34|154:33|154:33|86:68|16:40,1,306.629628026708,4|0,0:0|0:0,0:0:0:0:
190,99,29492,1,2,0:0:0:0:
41,78,29665,6,0,P|49:113|46:157,1,59.6574081322758,8|0,0:0|0:0,0:0:0:0:
91,275,29837,1,2,0:0:0:0:
214,93,30010,6,0,L|210:53,1,29.8287040661379,8|0,0:3|0:0,0:0:0:0:
262,105,30096,2,0,L|258:142,1,29.8287040661379,8|0,0:3|0:0,0:0:0:0:
314,73,30182,2,0,L|309:34,1,29.8287040661379,4|0,0:3|0:0,0:0:0:0:
354,85,30268,2,0,L|349:119,1,29.8287040661379,4|0,0:3|0:0,0:0:0:0:
425,49,30354,6,0,P|477:80|359:132,1,272.629624005929,4|0,0:0|0:0,0:0:0:0:
349,114,30872,5,2,0:0:0:0:
362,145,30958,1,2,0:0:0:0:
353,243,31044,6,0,B|363:142|363:142|348:111|348:111|363:7,1,238.629632529103,8|0,0:0|0:0,0:0:0:0:
203,169,31561,5,2,0:0:0:0:
245,163,31647,1,2,0:0:0:0:
289,158,31734,6,0,L|281:232,1,68.1574060014822,8|0,0:3|0:0,0:0:0:0:
127,185,31906,2,0,L|134:117,1,68.1574060014822,4|0,0:3|0:0,0:0:0:0:
391,187,32078,6,0,L|314:179,1,76.6574070066771,8|0,0:3|0:0,0:0:0:0:
22,127,32251,2,0,L|98:134,1,76.6574070066771,4|0,0:3|0:0,0:0:0:0:
477,29,32423,1,8,0:3:0:0:
431,331,32596,1,4,0:3:0:0:
433,295,32682,1,4,0:3:0:0:
436,254,32768,1,8,0:3:0:0:
199,85,32941,1,8,0:3:0:0:
431,331,33113,6,0,B|411:327|411:327|393:318|393:318|379:305|379:305|367:288|367:288|360:269|360:269|358:249|358:249|360:234|360:234|368:215|368:215|380:199|380:199|396:187|396:187|415:179|415:179|437:176|437:176|457:179|457:179|472:184|472:184|490:198|490:198|503:215,1,306.629628026708,4|0,0:0|0:0,0:0:0:0:
297,33,33630,6,0,P|303:68|306:115,1,68.1574060014822,2|2,0:0|0:0,0:0:0:0:
264,359,33803,1,8,0:0:0:0:
333,189,33975,6,0,B|352:157|352:157|482:169|482:169|494:203,1,204.472218004447,0|0,0:0|0:0,0:0:0:0:
436,254,34320,1,8,0:0:0:0:
177,260,34492,6,0,B|85:247|85:247|95:329,1,153.314814013354,6|8,0:0|0:0,0:0:0:0:
246,289,34751,2,0,P|254:250|221:203,1,76.6574070066771,0|2,0:0|0:0,0:0:0:0:
64,30,35010,2,0,P|91:55|129:60,1,76.6574070066771,2|0,0:0|0:0,0:0:0:0:
236,171,35182,6,0,B|285:175|320:147|320:147|360:172|413:160,1,178.972224396827,8|0,0:0|0:0,0:0:0:0:
356,20,35527,2,0,P|371:89|415:32,1,178.972224396827,8|4,0:3|0:3,0:0:0:0:
474,126,35872,6,0,B|498:171|465:217|465:217|431:234|431:234|407:279|417:314|450:341|451:343|450:344|450:344|487:324|498:290,1,306.629628026708,6|0,0:0|0:0,0:0:0:0:
459,219,36389,5,2,0:0:0:0:
431,236,36475,1,2,0:0:0:0:
346,271,36561,6,0,B|280:240|220:278|220:278|156:320|86:276,1,272.629624005929,10|0,0:0|0:0,0:0:0:0:
196,360,37078,5,2,0:0:0:0:
194,327,37165,1,2,0:0:0:0:
156,220,37251,6,0,B|184:185|184:185|171:142,1,85,10|0,0:0|0:0,0:0:0:0:
60,11,37423,6,0,B|88:46|88:46|75:89,1,85,10|0,0:0|0:0,0:0:0:0:
223,311,37596,6,0,B|211:272|211:272|239:237,1,85,10|0,0:0|0:0,0:0:0:0:
156,73,37768,6,0,B|144:111|144:111|172:146,1,85,10|0,0:0|0:0,0:0:0:0:
314,346,37941,6,0,B|303:270|303:270|312:248|312:248|297:167,1,152.999995330811,8|0,0:0|0:0,0:0:0:0:
337,35,38199,1,2,0:0:0:0:
379,280,38285,2,0,L|496:294,2,101.999996887207,8|0|0,0:0|0:0|0:0,0:0:0:0:
190,79,38630,6,0,B|143:18|59:4|-4:55|-4:55|30:48|58:62,1,272,4|0,0:0|0:0,0:0:0:0:
17,129,39147,5,2,0:0:0:0:
9,166,39234,1,2,0:0:0:0:
21,201,39320,1,8,0:0:0:0:
82,350,39492,6,0,B|115:245|115:245|55:267,1,152.999995330811,0|0,0:0|0:0,0:0:0:0:
263,56,39837,2,0,L|179:82,1,76.4999976654053,8|0,0:3|0:0,0:0:0:0:
345,68,40010,2,0,L|452:32,1,85,6|8,0:0|0:3,0:0:0:0:
268,355,40354,5,4,0:3:0:0:
292,143,40527,1,8,0:3:0:0:
268,378,40699,6,0,P|285:315|245:258,1,127.5,8|0,0:0|0:0,0:0:0:0:
244,6,41044,2,0,P|227:69|267:126,1,127.5,8|2,0:0|0:0,0:0:0:0:
361,98,41303,1,2,0:0:0:0:
257,119,41389,6,0,B|184:138|184:138|123:84|123:84|44:102|44:102|115:178,1,305.999990661621,4|0,0:0|0:0,0:0:0:0:
17,308,41906,5,2,0:0:0:0:
64,316,41992,1,2,0:0:0:0:
160,282,42078,6,0,P|166:236|147:205,1,85,10|0,0:0|0:0,0:0:0:0:
84,84,42251,6,0,P|78:130|91:152,1,72.2500013780594,10|0,0:0|0:0,0:0:0:0:
135,243,42423,6,0,P|156:202|149:166,1,85,10|0,0:0|0:0,0:0:0:0:
135,29,42596,6,0,P|113:70|119:99,1,72.2500013780594,10|0,0:0|0:0,0:0:0:0:
257,355,42768,5,2,0:3:0:0:
189,79,42941,1,2,0:3:0:0:
183,362,43113,1,2,0:3:0:0:
111,87,43285,5,2,0:3:0:0:
107,126,43372,1,2,0:3:0:0:
103,168,43458,1,2,0:3:0:0:
330,366,43630,5,2,0:3:0:0:
323,79,43803,1,2,0:3:0:0:
255,354,43975,1,2,0:3:0:0:
429,178,44147,6,0,P|440:143|298:109,1,203.999993774414,6|8,0:0|0:0,0:0:0:0:
367,138,44578,2,0,P|372:166|374:195,1,50.9999984436036,0|0,0:0|0:0,0:0:0:0:
388,331,44751,1,0,0:0:0:0:
392,354,44837,2,0,P|310:341|221:333,1,152.999995330811,2|0,0:0|0:0,0:0:0:0:
167,324,45182,1,8,0:0:0:0:
418,246,45354,1,8,0:0:0:0:
93,313,45527,6,0,P|101:275|103:249,1,50.9999984436036,4|0,0:0|0:0,0:0:0:0:
18,302,45699,1,0,0:0:0:0:
122,75,45872,6,0,P|63:119|70:193,1,152.999995330811,8|0,0:0|0:0,0:0:0:0:
132,149,46216,2,0,P|165:146|195:146,2,50.9999984436036,10|8|8,0:0|0:0|0:0,0:0:0:0:
211,59,46475,1,0,0:0:0:0:
235,60,46561,2,0,P|260:60|285:63,2,50.9999984436036,2|0|8,0:0|0:0|0:0,0:0:0:0:
371,113,46820,5,0,0:0:0:0:
397,112,46906,2,0,B|499:103|499:103|461:154,1,152.999995330811,4|0,0:0|0:0,0:0:0:0:
337,188,47251,2,0,P|311:235|326:280,1,85,8|0,0:0|0:0,0:0:0:0:
482,355,47596,5,2,0:0:0:0:
325,280,47768,1,0,0:0:0:0:
477,159,47941,1,8,0:0:0:0:
253,301,48113,1,8,0:0:0:0:
445,204,48285,6,0,L|455:74,1,101.999996887207,4|8,0:0|0:0,0:0:0:0:
436,69,48544,1,8,0:0:0:0:
439,38,48630,1,8,0:0:0:0:
466,281,48803,1,8,0:0:0:0:
231,136,48975,5,10,0:0:0:0:
268,132,49061,1,8,0:0:0:0:
306,128,49147,1,8,0:0:0:0:
343,124,49233,1,8,0:0:0:0:
381,121,49320,6,0,P|347:111|311:120,1,59.4999981842042,10|0,0:0|0:0,0:0:0:0:
210,211,49492,2,0,P|200:245|209:281,1,59.4999981842042,10|0,0:0|0:0,0:0:0:0:
195,139,49665,6,0,P|203:85|148:0,1,152.999995330811,4|0,0:0|0:0,0:0:0:0:
68,100,50010,2,0,L|4:94,1,50.9999984436036,8|0,0:0|0:0,0:0:0:0:
17,95,50182,1,0,0:0:0:0:
423,183,50354,6,0,L|271:193,1,152.999995330811,2|0,0:0|0:0,0:0:0:0:
244,195,50699,5,8,0:0:0:0:
501,217,50872,5,8,0:0:0:0:
229,309,51044,6,0,B|265:255|243:194|243:194|215:245,1,152.999995330811,4|0,0:0|0:0,0:0:0:0:
170,359,51389,2,0,P|210:385|272:373,1,102,8|0,0:0|0:0,0:0:0:0:
155,282,51734,6,0,L|80:291,1,50.9999984436036,10|0,0:0|0:0,0:0:0:0:
31,272,51906,2,0,L|81:265,1,50.9999984436036,8|0,0:0|0:0,0:0:0:0:
352,319,52078,6,0,L|427:328,1,50.9999984436036,10|0,0:0|0:0,0:0:0:0:
477,312,52250,2,0,L|426:305,1,50.9999984436036,8|0,0:0|0:0,0:0:0:0:
256,216,52423,6,0,B|251:261|251:261|261:294|261:294|253:365,1,127.5,4|0,0:0|0:0,0:0:0:0:
200,165,52768,2,0,P|237:142|320:178,1,127.5,8|0,0:0|0:0,0:0:0:0:
395,122,53113,2,0,P|380:217|375:267,1,127.5,2|0,0:0|0:0,0:0:0:0:
312,166,53458,2,0,P|322:103|330:39,1,127.5,8|0,0:0|0:0,0:0:0:0:
372,35,53803,5,10,0:0:0:0:
330,39,53889,1,8,0:0:0:0:
263,79,53975,5,8,0:0:0:0:
304,74,54061,1,8,0:0:0:0:
343,85,54147,6,0,L|335:142,1,42.5,8|8,0:0|0:0,0:0:0:0:
405,234,54320,2,0,L|480:245,1,50.9999984436036,10|8,0:0|0:0,0:0:0:0:
437,70,54492,6,0,L|241:47,1,178.499994552612,10|8,0:0|0:0,0:0:0:0:
12,63,54837,6,0,L|57:68,1,29.7499990921021,8|0,0:3|0:0,0:0:0:0:
337,127,55010,6,0,L|307:123,1,29.7499990921021,4|0,0:3|0:0,0:0:0:0:
29,246,55182,6,0,B|68:190|153:202|198:249|201:288|174:319|174:319|151:297|100:291,1,297.499990921021,4|2,0:1|0:0,0:0:0:0:
276,367,56216,2,0,P|266:318|262:257,1,89.2499972763062,10|2,0:0|0:0,0:0:0:0:
353,221,56561,6,0,B|381:282|329:350|265:365|230:348|217:310|217:310|247:301|278:259,1,297.499990921021,6|0,0:0|0:0,0:0:0:0:
426,193,57596,2,0,P|432:131|441:90,1,89.2499972763062,8|0,0:0|0:0,0:0:0:0:
405,23,57941,6,0,B|425:137|425:137|428:168,1,118.999996368408,6|8,0:0|0:0,0:0:0:0:
146,81,58458,1,2,0:0:0:0:
345,124,58630,6,0,B|365:238|365:238|368:269,1,118.999996368408,8|8,0:0|0:0,0:0:0:0:
394,258,59320,6,0,B|274:244|274:244|215:275,1,178.499994552612,12|2,0:0|0:0,0:0:0:0:
25,215,60010,1,8,0:0:0:0:
291,322,60182,1,2,0:0:0:0:
80,334,60354,2,0,L|88:256,1,59.4999981842042,8|2,0:0|0:0,0:0:0:0:
122,36,60699,6,0,L|107:189,1,152.999995330811,4|8,0:1|0:0,0:0:0:0:
397,57,61389,1,8,0:0:0:0:
158,90,61734,5,8,0:0:0:0:
414,64,61906,1,2,0:0:0:0:
144,104,62078,6,0,L|285:118,1,118.999996368408,6|8,0:0|0:0,0:0:0:0:
488,34,62768,5,8,0:0:0:0:
470,305,63113,5,8,0:0:0:0:
475,20,63285,1,2,0:0:0:0:
452,320,63458,6,0,P|474:276|447:207,1,118.999996368408,6|8,0:0|0:0,0:0:0:0:
257,237,63975,1,2,0:0:0:0:
57,262,64147,2,0,P|35:218|62:149,1,118.999996368408,12|10,0:0|0:0,0:0:0:0:
18,31,64665,1,2,0:0:0:0:
33,335,64837,69,0,0:0:0:0:
39,304,64923,1,2,0:0:0:0:
87,252,65010,5,2,0:0:0:0:
114,259,65096,1,2,0:0:0:0:
188,284,65182,69,2,0:0:0:0:
195,314,65268,1,2,0:0:0:0:
243,374,65354,21,2,0:0:0:0:
275,368,65441,1,2,0:0:0:0:
306,296,65527,69,2,0:3:0:0:
314,263,65613,1,2,0:3:0:0:
386,230,65699,53,2,0:3:0:0:
418,224,65785,1,2,0:3:0:0:
468,287,65872,69,10,0:3:0:0:
477,319,65958,1,10,0:3:0:0:
464,347,66044,1,6,0:3:0:0:
394,331,66130,1,6,0:3:0:0:
409,327,66216,6,0,B|379:271|410:224|410:224|370:200|359:138|409:111|448:126|448:126|427:144|426:195,1,318.750012159348,4|0,0:0|0:0,0:0:0:0:
500,183,66734,1,2,0:0:0:0:
192,194,66906,6,0,L|245:190,1,31.8750012159348,12|0,0:1|0:0,0:0:0:0:
472,27,67078,2,0,L|474:58,1,31.8750012159348,2|0,0:0|0:0,0:0:0:0:
214,265,67251,5,2,0:0:0:0:
172,280,67337,5,2,0:0:0:0:
220,271,67423,5,2,0:0:0:0:
178,286,67509,5,2,0:0:0:0:
221,282,67596,6,0,P|207:311|212:357,1,63.7500024318696,6|0,0:0|0:0,0:0:0:0:
437,266,67768,2,0,P|451:237|446:191,1,63.7500024318696,2|0,0:0|0:0,0:0:0:0:
206,271,67941,5,2,0:0:0:0:
183,240,68027,5,2,0:0:0:0:
205,164,68113,5,2,0:0:0:0:
232,131,68199,5,2,0:0:0:0:
210,44,68285,6,0,B|184:24|154:34|154:34|172:52,1,63.7500024318696,8|0,0:1|0:0,0:0:0:0:
75,187,68458,2,0,B|71:190|71:190|101:200|127:180,1,63.7500024318696,2|0,0:0|0:0,0:0:0:0:
253,99,68630,6,0,P|244:48|241:1,1,85,2|0,0:0|0:0,0:0:0:0:
473,33,68803,2,0,P|482:84|485:131,1,85,2|0,0:0|0:0,0:0:0:0:
219,179,68975,6,0,B|294:200|326:140|326:140|298:192|307:228|321:259,1,229.499992996216,4|0,0:0|0:0,0:0:0:0:
370,367,69320,2,0,L|420:377,1,38.2499988327027,2|0,0:3|0:0,0:0:0:0:
402,159,69492,2,0,L|310:137,1,76.4999976654053,2|0,0:0|0:0,0:0:0:0:
252,97,69665,6,0,L|280:-34,1,118.999996368408,8|2,0:1|0:0,0:0:0:0:
10,195,70010,6,0,L|63:208,1,29.7499990921021,2|0,0:3|0:0,0:0:0:0:
178,53,70182,2,0,L|95:34,1,59.4999981842042,2|0,0:0|0:0,0:0:0:0:
122,294,70354,5,4,0:0:0:0:
89,33,70527,1,2,0:0:0:0:
50,343,70699,1,2,0:0:0:0:
242,90,70872,5,2,0:0:0:0:
189,96,70958,1,0,0:0:0:0:
139,104,71044,6,0,B|113:126|85:124|85:124|117:137|127:188,1,118.999996368408,8|8,0:1|0:0,0:0:0:0:
44,197,71303,1,8,0:0:0:0:
30,40,71389,2,0,L|99:51,1,59.4999981842042,8|0,0:0|0:0,0:0:0:0:
196,175,71561,2,0,L|265:186,1,59.4999981842042,8|0,0:0|0:0,0:0:0:0:
391,94,71734,6,0,B|440:38|440:38|422:117|422:117|448:148|448:148|400:368,1,416.499987289429,4|0,0:0|0:0,0:0:0:0:
336,308,72423,1,12,0:1:0:0:
428,120,72596,1,2,0:0:0:0:
279,372,72768,5,2,0:0:0:0:
238,375,72854,1,2,0:0:0:0:
194,320,72941,5,2,0:0:0:0:
153,313,73027,1,2,0:0:0:0:
104,261,73113,6,0,L|38:269,1,59.4999981842042,6|0,0:0|0:0,0:0:0:0:
7,241,73285,2,0,L|66:233,1,59.4999981842042,2|0,0:0|0:0,0:0:0:0:
414,288,73458,6,0,L|480:296,1,59.4999981842042,2|0,0:0|0:0,0:0:0:0:
511,268,73630,2,0,L|451:260,1,59.4999981842042,2|0,0:0|0:0,0:0:0:0:
183,182,73803,6,0,P|178:148|197:115,1,59.4999981842042,8|0,0:1|0:0,0:0:0:0:
225,51,73975,2,0,L|216:109,1,59.4999981842042,2|0,0:0|0:0,0:0:0:0:
331,356,74147,6,0,P|336:322|317:289,1,59.4999981842042,2|0,0:0|0:0,0:0:0:0:
289,225,74319,2,0,L|297:283,1,59.4999981842042,2|0,0:0|0:0,0:0:0:0:
449,317,74492,6,0,B|483:342|483:342|466:270|466:270|505:211|505:211|454:220,1,229.499992996216,4|0,0:0|0:0,0:0:0:0:
474,143,74837,5,2,0:0:0:0:
458,34,74952,1,2,0:0:0:0:
448,141,75067,1,2,0:0:0:0:
434,43,75182,6,0,B|392:35|392:35|431:94|431:94|414:166|414:166|448:141,1,229.499992996216,8|0,0:1|0:0,0:0:0:0:
347,111,75527,6,0,L|297:117,1,38.2499988327027,2|0,0:0|0:0,0:0:0:0:
130,46,75699,2,0,L|80:52,1,38.2499988327027,2|0,0:0|0:0,0:0:0:0:
34,357,75872,5,4,0:1:0:0:
78,124,76044,1,2,0:0:0:0:
168,336,76216,1,2,0:3:0:0:
50,168,76389,5,0,0:0:0:0:
273,171,76561,1,2,0:3:0:0:
68,73,76734,1,2,0:3:0:0:
188,357,76906,5,2,0:3:0:0:
139,138,77078,1,2,0:3:0:0:
106,361,77251,6,0,B|181:303|274:348|274:348|368:389|443:333|443:333|418:289|356:302,1,416.499987289429,4|0,0:0|0:0,0:0:0:0:
475,227,77941,6,0,P|469:253|462:301,1,59.4999981842042,8|0,0:1|0:0,0:0:0:0:
201,249,78113,2,0,P|195:275|188:323,1,59.4999981842042,2|0,0:0|0:0,0:0:0:0:
412,145,78285,6,0,L|420:188,1,25.4999992218018,2|0,0:0|0:0,0:0:0:0:
138,126,78458,2,0,L|154:197,1,50.9999984436036,2|0,0:0|0:0,0:0:0:0:
501,18,78630,6,0,L|489:93,1,68,6|0,0:0|0:0,0:0:0:0:
224,39,78803,2,0,L|212:114,1,68,2|0,0:0|0:0,0:0:0:0:
483,238,78975,6,0,L|475:282,1,34,2|0,0:0|0:0,0:0:0:0:
121,271,79147,2,0,L|100:350,1,68,2|0,0:0|0:0,0:0:0:0:
406,246,79320,6,0,L|388:330,1,76.4999976654053,8|0,0:1|0:0,0:0:0:0:
75,204,79492,1,8,0:3:0:0:
115,187,79578,1,8,0:3:0:0:
156,197,79665,6,0,L|165:250,1,34,8|0,0:3|0:0,0:0:0:0:
435,174,79837,2,0,L|422:115,1,59.4999981842042,4|0,0:3|0:0,0:0:0:0:
271,50,80010,6,0,B|149:18|149:18|201:90,1,178.499994552612,4|0,0:0|0:0,0:0:0:0:
241,185,80354,2,0,L|290:197,1,29.7499990921021,2|0,0:3|0:0,0:0:0:0:
489,202,80527,2,0,L|431:186,1,59.4999981842042,2|0,0:0|0:0,0:0:0:0:
482,267,80699,6,0,L|468:213,1,39.6666654561361,8|0,0:1|0:0,0:0:0:0:
403,126,80814,2,0,L|412:164,1,39.6666654561361,2|0,0:3|0:0,0:0:0:0:
465,305,80929,6,0,L|461:249,1,39.6666654561361,2|0,0:3|0:0,0:0:0:0:
412,152,81044,2,0,L|415:192,1,39.6666654561361,2|0,0:0|0:0,0:0:0:0:
442,339,81159,6,0,L|448:284,1,39.6666654561361,2|0,0:3|0:0,0:0:0:0:
416,180,81274,2,0,L|412:219,1,39.6666654561361,2|0,0:3|0:0,0:0:0:0:
414,369,81389,6,0,L|429:316,1,39.6666654561361,2|0,0:0|0:0,0:0:0:0:
416,208,81504,2,0,L|405:246,1,39.6666654561361,2|0,0:3|0:0,0:0:0:0:
380,394,81619,6,0,L|404:344,1,39.6666654561361,2|0,0:3|0:0,0:0:0:0:
410,237,81734,6,0,B|379:297|379:297|312:315|312:315|274:371|274:371|269:331,1,204,2|0,0:0|0:0,0:0:0:0:
212,326,82078,6,0,L|81:315,1,118.999996368408,8|0,0:1|0:0,0:0:0:0:
160,250,82337,2,0,L|29:239,1,118.999996368408,8|0,0:1|0:0,0:0:0:0:
108,174,82596,2,0,L|188:181,1,59.4999981842042,8|2,0:1|0:0,0:0:0:0:
230,140,82768,6,0,B|189:67|189:67|335:8|335:8|482:54|482:54|443:135,1,476,4|0,0:0|0:0,0:0:0:0:
419,196,83458,5,4,0:1:0:0:
492,186,83544,1,2,0:0:0:0:
412,218,83630,2,0,L|399:260,1,34,2|0,0:0|0:0,0:0:0:0:
486,206,83716,1,2,0:0:0:0:
479,231,83803,6,0,L|454:314,1,68,2|0,0:0|0:0,0:0:0:0:
415,381,83975,2,0,L|434:315,1,68,2|0,0:0|0:0,0:0:0:0:
300,339,84147,6,0,L|237:344,1,59.4999981842042,4|0,0:0|0:0,0:0:0:0:
145,334,84320,2,0,L|204:329,1,59.4999981842042,2|0,0:0|0:0,0:0:0:0:
357,235,84492,6,0,L|420:240,1,59.4999981842042,2|0,0:0|0:0,0:0:0:0:
512,230,84665,2,0,L|452:225,1,59.4999981842042,2|0,0:0|0:0,0:0:0:0:
255,62,84837,6,0,P|259:89|238:128,1,59.4999981842042,0|0,0:0|0:0,0:0:0:0:
58,94,85010,2,0,P|54:67|75:28,1,59.4999981842042,2|0,0:0|0:0,0:0:0:0:
213,203,85182,6,0,P|209:230|230:269,1,59.4999981842042,2|0,0:0|0:0,0:0:0:0:
410,235,85355,2,0,P|414:208|393:169,1,59.4999981842042,2|0,0:0|0:0,0:0:0:0:
312,321,85527,6,0,B|394:359|452:301|452:301|425:319|370:312,1,204,6|0,0:0|0:0,0:0:0:0:
486,215,85872,2,0,P|474:306|473:358,1,136,2|2,0:3|0:0,0:0:0:0:
384,93,86216,5,8,0:1:0:0:
348,80,86303,1,0,0:0:0:0:
303,85,86389,1,2,0:0:0:0:
261,120,86475,1,0,0:0:0:0:
205,143,86561,1,2,0:0:0:0:
136,133,86647,1,0,0:0:0:0:
74,79,86734,1,2,0:0:0:0:
61,1,86820,1,0,0:0:0:0:
93,8,86906,5,2,0:0:0:0:
45,207,87078,1,2,0:0:0:0:
297,49,87251,1,2,0:0:0:0:
245,245,87423,1,2,0:0:0:0:
101,71,87596,5,10,0:0:0:0:
329,45,87768,1,10,0:0:0:0:
150,190,87941,1,10,0:0:0:0:
303,173,88113,1,10,0:0:0:0:
214,336,88285,6,0,L|327:348,1,110.499994941712,4|2,0:0|0:0,0:0:0:0:
323,347,88544,1,2,0:0:0:0:
323,347,88630,1,10,0:0:0:0:
477,46,88803,2,0,L|363:58,1,110.499994941712,2|0,0:0|0:0,0:0:0:0:
367,57,89062,1,0,0:0:0:0:
367,57,89148,1,8,0:0:0:0:
96,38,89320,5,2,0:0:0:0:
117,64,89406,1,0,0:0:0:0:
126,98,89492,1,8,0:0:0:0:
119,133,89578,1,0,0:0:0:0:
76,195,89665,5,8,0:0:0:0:
41,216,89751,1,0,0:0:0:0:
20,250,89837,1,2,0:0:0:0:
17,291,89923,1,8,0:0:0:0:
32,328,90009,1,2,0:0:0:0:
282,170,90182,5,2,0:0:0:0:
281,129,90268,1,8,0:0:0:0:
262,94,90354,1,2,0:0:0:0:
228,70,90440,1,8,0:0:0:0:
188,65,90526,1,2,0:0:0:0:
208,363,90699,5,2,0:0:0:0:
244,382,90785,1,2,0:0:0:0:
283,383,90871,1,8,0:0:0:0:
479,166,91044,6,0,P|467:95|461:47,1,110.499994941712,2|8,0:0|0:0,0:0:0:0:
462,56,91303,1,2,0:0:0:0:
462,56,91389,1,8,0:0:0:0:
238,191,91561,2,0,P|250:262|256:310,1,110.499994941712,2|2,0:0|0:0,0:0:0:0:
254,300,91820,1,2,0:0:0:0:
254,300,91906,1,8,0:0:0:0:
464,241,92078,5,8,0:0:0:0:
431,226,92165,1,2,0:0:0:0:
396,232,92251,1,8,0:0:0:0:
363,218,92337,1,2,0:0:0:0:
323,224,92423,6,0,P|314:177|345:137,1,85,8|2,0:0|0:0,0:0:0:0:
358,70,92682,1,8,0:0:0:0:
350,59,92768,2,0,P|395:74|414:121,1,85,2|2,0:0|0:0,0:0:0:0:
464,167,93027,1,8,0:0:0:0:
477,165,93113,2,0,P|440:196|410:194,1,42.5,2|2,0:0|0:0,0:0:0:0:
363,181,93285,5,8,0:0:0:0:
326,161,93372,1,2,0:0:0:0:
286,160,93458,1,8,0:0:0:0:
249,171,93544,1,2,0:0:0:0:
219,198,93630,1,8,0:0:0:0:
150,348,93803,6,0,P|147:280|135:225,1,110.499994941712,2|8,0:0|0:0,0:0:0:0:
74,284,94061,1,2,0:0:0:0:
74,284,94147,1,8,0:0:0:0:
21,130,94320,2,0,P|24:62|36:7,1,110.499994941712,2|2,0:0|0:0,0:0:0:0:
97,66,94578,1,2,0:0:0:0:
97,66,94664,1,8,0:0:0:0:
254,170,94837,5,8,0:0:0:0:
283,156,94923,1,2,0:0:0:0:
316,153,95010,1,8,0:0:0:0:
348,160,95096,1,2,0:0:0:0:
372,176,95182,5,8,0:0:0:0:
349,139,95268,1,0,0:0:0:0:
351,99,95354,1,2,0:0:0:0:
376,60,95441,1,8,0:0:0:0:
417,48,95527,1,2,0:0:0:0:
473,280,95699,5,8,0:0:0:0:
468,321,95785,1,2,0:0:0:0:
463,362,95872,6,0,P|435:349|403:349,1,55.2499974708558,8|0,0:0|0:0,0:0:0:0:
337,360,96044,2,0,P|309:373|277:373,1,55.2499974708558,8|0,0:0|0:0,0:0:0:0:
224,294,96216,6,0,P|196:281|164:281,1,55.2499974708558,8|0,0:0|0:0,0:0:0:0:
98,292,96388,2,0,P|70:305|38:305,1,55.2499974708558,8|0,0:0|0:0,0:0:0:0:
70,121,96561,6,0,L|55:240,1,110.499994941712,2|2,0:3|0:0,0:0:0:0:
182,37,96820,5,2,0:3:0:0:
192,50,96906,2,0,L|177:169,1,110.499994941712,2|2,0:3|0:3,0:0:0:0:
272,132,97165,5,0,0:0:0:0:
282,143,97251,2,0,L|267:262,1,110.499994941712,2|2,0:0|0:3,0:0:0:0:
394,60,97510,5,0,0:0:0:0:
404,72,97596,2,0,L|389:191,1,110.499994941712,2|2,0:3|0:0,0:0:0:0:
483,354,97854,5,0,0:0:0:0:
439,361,97941,1,2,0:0:0:0:
256,192,98027,12,2,98975,0:3:0:0:
102,131,99147,5,6,0:0:0:0:
102,131,99320,6,0,P|68:198|151:274,1,178.499994552612,6|0,0:0|0:0,0:0:0:0:
147,195,99665,1,8,0:1:0:0:
210,51,99837,6,0,B|163:47|163:47|137:58|137:58|62:50,1,118.999996368408,2|2,0:0|0:0,0:0:0:0:
299,104,100096,2,0,P|324:99|363:95,1,59.4999981842042,2|2,0:0|0:0,0:0:0:0:
10,65,100354,6,0,P|39:68|68:73,1,59.4999981842042,8|0,0:1|0:0,0:0:0:0:
492,95,100527,2,0,P|462:100|433:102,1,59.4999981842042,2|0,0:0|0:0,0:0:0:0:
217,55,100699,6,0,P|150:112|192:226,1,178.499994552612,4|0,0:0|0:0,0:0:0:0:
174,220,101044,1,8,0:1:0:0:
483,289,101216,1,2,0:0:0:0:
475,329,101303,1,2,0:0:0:0:
470,360,101389,6,0,P|437:373|389:362,1,59.4999981842042,2|0,0:0|0:0,0:0:0:0:
47,229,101561,2,0,P|80:216|128:227,1,59.4999981842042,2|0,0:0|0:0,0:0:0:0:
342,356,101734,6,0,P|309:341|283:300,1,59.4999981842042,8|0,0:1|0:0,0:0:0:0:
175,232,101906,2,0,P|207:246|233:287,1,59.4999981842042,2|0,0:0|0:0,0:0:0:0:
258,362,102078,6,0,L|239:176,1,178.499994552612,6|0,0:0|0:0,0:0:0:0:
170,155,102423,1,8,0:1:0:0:
499,206,102596,1,0,0:0:0:0:
273,170,102768,1,2,0:0:0:0:
317,166,102854,1,2,0:0:0:0:
360,162,102941,1,2,0:0:0:0:
84,43,103113,5,8,0:1:0:0:
75,88,103199,1,2,0:0:0:0:
65,132,103285,1,2,0:0:0:0:
55,177,103372,1,2,0:0:0:0:
41,224,103458,6,0,B|55:294|55:294|37:322|45:362,1,136,6|2,0:0|0:0,0:0:0:0:
117,341,103716,2,0,L|150:346,1,34,2|8,0:0|0:0,0:0:0:0:
170,334,103803,6,0,P|228:304|317:340,1,136,0|2,0:0|0:0,0:0:0:0:
358,365,104061,1,2,0:0:0:0:
366,285,104147,2,0,P|424:315|513:279,1,136,6|2,0:0|0:0,0:0:0:0:
485,35,104492,5,2,0:0:0:0:
417,41,104578,1,2,0:0:0:0:
346,49,104665,1,2,0:0:0:0:
273,57,104751,1,2,0:0:0:0:
202,64,104837,6,0,B|186:55|163:35|163:35|175:106|181:180,1,178.499994552612,6|0,0:0|0:0,0:0:0:0:
36,72,105182,2,0,L|108:84,1,59.4999981842042,8|0,0:1|0:0,0:0:0:0:
315,145,105354,2,0,L|243:157,1,59.4999981842042,2|0,0:0|0:0,0:0:0:0:
29,246,105527,5,2,0:0:0:0:
52,250,105613,2,0,L|123:264,1,59.4999981842042,2|2,0:0|0:0,0:0:0:0:
488,255,105872,5,8,0:1:0:0:
168,331,106044,1,2,0:0:0:0:
469,360,106216,6,0,P|455:228|452:163,1,178.499994552612,6|0,0:0|0:0,0:0:0:0:
450,150,106561,1,8,0:1:0:0:
120,64,106734,5,2,0:0:0:0:
152,44,106820,1,0,0:0:0:0:
230,45,106906,6,0,P|223:80|218:120,1,59.4999981842042,4|0,0:1|0:0,0:0:0:0:
163,166,107078,2,0,P|133:170|104:176,1,59.4999981842042,2|0,0:0|0:0,0:0:0:0:
345,230,107251,2,0,P|374:234|403:240,1,59.4999981842042,8|0,0:1|0:0,0:0:0:0:
255,364,107423,1,2,0:0:0:0:
272,361,107596,5,4,1:1:0:0:
272,101,107768,1,0,1:0:0:0:
119,311,107941,1,0,1:0:0:0:
366,231,108113,1,0,1:0:0:0:
39,194,108285,5,8,1:1:0:0:
74,175,108372,1,0,1:0:0:0:
114,168,108458,1,0,1:0:0:0:
152,172,108544,1,0,1:0:0:0:
188,187,108630,5,0,1:0:0:0:
217,212,108716,1,0,1:0:0:0:
252,231,108803,1,0,1:0:0:0:
292,238,108889,1,0,1:0:0:0:
330,234,108975,6,0,L|342:271,1,29.7499990921021,6|0,0:0|0:0,0:0:0:0:
301,258,109061,2,0,L|339:280,1,29.7499990921021,2|0,0:3|0:0,0:0:0:0:
291,294,109147,2,0,L|330:284,1,29.7499990921021,2|0,0:3|0:0,0:0:0:0:
304,330,109234,2,0,L|336:307,1,29.7499990921021,2|0,0:3|0:0,0:0:0:0:
333,355,109320,2,0,L|347:316,1,29.7499990921021,2|0,0:3|0:0,0:0:0:0:
377,358,109406,2,0,L|369:315,1,29.7499990921021,2|0,0:3|0:0,0:0:0:0:
414,337,109492,2,0,L|383:311,1,29.7499990921021,2|0,0:3|0:0,0:0:0:0:
428,302,109578,2,0,L|381:298,1,29.7499990921021,2|0,0:3|0:0,0:0:0:0:
422,265,109665,5,2,0:3:0:0:
119,311,109837,1,2,0:3:0:0:
487,347,110010,5,2,0:3:0:0:
440,42,110182,1,2,0:3:0:0:
413,370,110354,5,6,0:0:0:0:
490,104,110527,1,0,0:0:0:0:
386,301,110699,1,0,0:0:0:0:
495,186,110872,2,0,P|470:198|428:216,1,59.4999981842042,2|0,0:0|0:0,0:0:0:0:
198,344,111044,5,2,0:0:0:0:
440,210,111217,1,0,0:0:0:0:
227,276,111389,1,0,0:0:0:0:
386,271,111562,2,0,P|359:261|317:244,1,59.4999981842042,2|0,0:0|0:0,0:0:0:0:
65,174,111734,5,6,0:0:0:0:
330,250,111907,1,0,0:0:0:0:
133,146,112079,1,0,0:0:0:0:
249,255,112252,2,0,P|237:230|219:188,1,59.4999981842042,2|0,0:0|0:0,0:0:0:0:
156,24,112423,6,0,P|167:51|180:78,1,59.4999981842042,2|0,0:0|0:0,0:0:0:0:
180,309,112596,1,0,0:0:0:0:
253,116,112768,6,0,L|317:129,1,59.4999981842042,2|0,0:0|0:0,0:0:0:0:
54,333,112941,6,0,L|118:346,1,59.4999981842042,2|0,0:0|0:0,0:0:0:0:
386,122,113113,6,0,L|461:137,1,72.2500013780594,6|0,0:0|0:0,0:0:0:0:
252,31,113285,5,0,0:0:0:0:
405,282,113458,1,0,0:0:0:0:
339,55,113630,1,0,0:0:0:0:
306,328,113803,2,0,L|296:257,1,59.4999981842042,6|0,0:0|0:0,0:0:0:0:
252,31,113975,5,0,0:0:0:0:
205,302,114147,1,0,0:0:0:0:
292,125,114320,1,0,0:0:0:0:
95,342,114492,2,0,L|14:351,1,59.4999981842042,4|2,0:0|0:0,0:0:0:0:
90,266,114665,5,2,0:0:0:0:
108,234,114751,1,2,0:0:0:0:
112,202,114837,1,2,0:0:0:0:
102,171,114923,1,2,0:0:0:0:
81,144,115010,1,2,0:0:0:0:
51,131,115096,1,2,0:0:0:0:
18,128,115182,5,10,0:0:0:0:
62,111,115268,1,2,0:0:0:0:
83,70,115354,1,2,0:0:0:0:
68,24,115441,1,2,0:0:0:0:
26,0,115527,6,0,P|30:35|32:67,1,59.4999981842042,10|2,0:0|0:0,0:0:0:0:
71,206,115699,2,0,P|75:241|77:273,1,59.4999981842042,10|2,0:0|0:0,0:0:0:0:
51,131,115872,6,0,B|142:95|231:138|282:188|282:188|271:143|244:89|244:89|294:114|334:119|334:119|376:88|413:41|413:41|411:105|421:152|421:152|458:179|508:200|508:200|436:222|399:242|399:242|382:274|388:339|388:339|358:279|327:249|327:249|285:256|225:281|225:281|264:244|284:201,1,1291.99996549988,14|2,0:0|0:0,0:0:0:0:
