osu file format v14

[General]
AudioFilename: song.mp3
AudioLeadIn: 0
PreviewTime: -1
Countdown: 1
SampleSet: Soft
StackLeniency: 0.7
Mode: 0
LetterboxInBreaks: 1
WidescreenStoryboard: 0

[Editor]
DistanceSpacing: 1.3
BeatDivisor: 4
GridSize: 16
TimelineZoom: 2.7

[Metadata]
Title:YUKARI
TitleUnicode:YUKARI
Artist:Ocelot
ArtistUnicode:Ocelot
Creator:lsahi
Version:Ultimate
Source:
Tags:
BeatmapID:1166999
BeatmapSetID:550897

[Difficulty]
HPDrainRate:6
CircleSize:4
OverallDifficulty:8
ApproachRate:9.4
SliderMultiplier:2.2
SliderTickRate:1

[Events]
//Background and Video events
0,0,"weng.jpg",0,0
//Break Periods
//Storyboard Layer 0 (Background)
//Storyboard Layer 1 (Fail)
//Storyboard Layer 2 (Pass)
//Storyboard Layer 3 (Foreground)
//Storyboard Sound Samples

[TimingPoints]
10,344.827586206897,4,2,0,70,1,0
10,-200,4,2,0,70,0,0
16561,-133.333333333333,4,2,0,70,0,0
19665,-125,4,2,0,70,0,0
20010,-100,4,2,0,70,0,0
20354,-80,4,2,0,70,0,0
20699,-133.333333333333,4,2,0,70,0,0
22078,-100,4,2,0,70,0,0
24837,-200,4,2,0,70,0,0
26216,-100,4,2,0,70,0,0
29665,-66.6666666666667,4,2,0,70,0,0
30354,-100,4,2,0,70,0,0
35872,-200,4,2,0,70,0,0
37165,-100,4,2,0,70,0,0
40699,-66.6666666666667,4,2,0,70,0,0
41389,-100,4,2,0,70,0,0
44147,-125,4,2,0,70,0,0
55182,-200,4,2,0,70,0,0
63458,-133.333333333333,4,2,0,70,0,0
66216,-133.333333333333,4,2,0,70,0,0
68285,-100,4,2,0,70,0,0
68975,-133.333333333333,4,2,0,70,0,0
70354,-100,4,2,0,70,0,0
71044,-133.333333333333,4,2,0,70,0,0
74492,-100,4,2,0,70,0,0
77251,-133.333333333333,4,2,0,70,0,0
77941,-100,4,2,0,70,0,0
88285,-133.333333333333,4,2,0,70,0,0
96561,-100,4,2,0,70,0,0
96906,-90.9090909090909,4,2,0,70,0,0
97251,-83.3333333333333,4,2,0,70,0,0
97596,-76.9230769230769,4,2,0,70,0,0
97941,-133.333333333333,4,2,0,70,0,0
99320,-100,4,2,0,70,0,0
100010,-66.6666666666667,4,2,0,70,0,0
100354,-100,4,2,0,70,0,0
101044,-66.6666666666667,4,2,0,70,0,0
101303,-100,4,2,0,70,0,0
103803,-83.3333333333333,4,2,0,70,0,0
104147,-71.4285714285714,4,2,0,70,0,0
104837,-100,4,2,0,70,0,0
105527,-66.6666666666667,4,2,0,70,0,0
105872,-100,4,2,0,70,0,0
106216,-66.6666666666667,4,2,0,70,0,0
107596,-100,4,2,0,70,0,0
110354,-100,4,2,0,70,0,0

[HitObjects]
148,147,10,6,0,B|179:159|210:137|210:137|246:193|307:189|307:189|300:162|308:145,1,220
161,69,1044,1,0,0:0:0:0:
383,159,1216,1,0,0:0:0:0:
366,359,1389,2,0,P|367:278|451:232,1,165
453,322,2078,1,0,0:0:0:0:
366,359,2423,1,0,0:0:0:0:
279,317,2768,2,0,P|231:291|169:291,1,110
67,313,3458,2,0,B|110:149|60:51|60:51|47:170|175:176,1,440
382,140,5527,6,0,B|364:223|387:310|387:310|336:323|305:295|305:295|324:275|325:241,1,302.5
244,236,6561,1,0,0:0:0:0:
466,169,6734,1,0,0:0:0:0:
329,68,6906,2,0,B|273:95|222:76|222:76|206:107|166:116,1,165
178,312,7596,1,0,0:0:0:0:
151,38,7768,1,0,0:0:0:0:
244,236,7941,1,0,0:0:0:0:
84,123,8113,1,0,0:0:0:0:
277,328,8285,6,0,B|325:353|362:333|362:333|350:299,1,110
242,127,8975,2,0,P|257:176|241:244,1,110
158,195,9665,2,0,P|273:232|319:54,1,330
83,121,11044,5,0,0:0:0:0:
418,179,11389,1,0,0:0:0:0:
83,121,11734,1,0,0:0:0:0:
418,179,11906,1,0,0:0:0:0:
81,313,12251,1,0,0:0:0:0:
81,313,12337,1,0,0:0:0:0:
81,313,12423,6,0,P|86:272|76:239,1,55
166,31,12768,2,0,P|161:72|171:105,1,55
249,258,13027,1,0,0:0:0:0:
249,258,13113,1,0,0:0:0:0:
254,64,13285,1,0,0:0:0:0:
243,203,13458,2,0,L|249:263,1,55
424,139,13803,5,0,0:0:0:0:
67,179,14147,1,0,0:0:0:0:
361,287,14492,1,0,0:0:0:0:
120,80,14665,1,0,0:0:0:0:
456,232,14837,1,0,0:0:0:0:
113,277,15010,1,0,0:0:0:0:
237,338,15182,5,0,0:0:0:0:
101,251,15354,2,0,P|112:229|115:218,1,27.5
114,53,15527,2,0,P|101:77|93:113,1,55
271,170,15872,1,0,0:0:0:0:
40,183,16044,1,0,0:0:0:0:
271,170,16216,2,0,L|193:176,1,55
212,268,16561,6,0,L|312:252,1,82.5000031471254
304,70,16906,2,0,L|203:61,1,82.5000031471254
117,168,17251,1,0,0:0:0:0:
385,121,17423,2,0,P|378:164|388:221,2,82.5000031471254
474,261,17941,6,0,P|480:308|475:359,1,82.5000031471254
208,349,18285,2,0,P|206:307|211:267,1,82.5000031471254
329,188,18544,1,0,0:0:0:0:
329,188,18630,2,0,P|369:202|417:201,1,82.5000031471254
294,104,18975,1,0,0:0:0:0:
474,261,19147,1,0,0:0:0:0:
115,274,19320,6,0,P|143:233|141:139,1,123.750004720688
240,72,19665,6,0,P|286:99|383:87,1,132
456,162,20010,6,0,B|435:213|435:213|436:279,1,110
325,348,20354,6,0,B|269:314|269:314|194:319,1,137.5
115,275,20613,1,0,0:0:0:0:
115,275,20699,6,0,B|185:231|219:198|219:198|231:181|237:160|231:138|215:118|193:110|170:111|151:125|141:142|140:161|145:182|159:196|177:206|201:205|219:198|219:198|346:159|366:33,1,577.500022029878
176,77,22078,5,0,0:0:0:0:
302,117,22251,1,0,0:0:0:0:
430,90,22423,1,0,0:0:0:0:
176,77,22596,1,0,0:0:0:0:
302,117,22769,1,0,0:0:0:0:
430,90,22941,1,0,0:0:0:0:
430,90,23027,1,0,0:0:0:0:
430,90,23113,2,0,P|425:162|401:201,1,110
176,325,23372,1,0,0:0:0:0:
176,325,23458,6,0,B|201:303|215:285|215:285|243:282|274:272,1,110
122,240,23803,1,0,0:0:0:0:
213,72,23975,1,0,0:0:0:0:
213,72,24032,1,0,0:0:0:0:
213,72,24090,1,0,0:0:0:0:
213,72,24147,2,0,P|203:130|217:189,1,110
366,278,24492,2,0,P|350:215|300:173,1,110
147,269,24837,6,0,B|127:282|156:315|180:285|180:285|209:251|279:264,1,165
306,335,25441,1,0,0:0:0:0:
367,279,25527,2,0,B|396:223|387:150|387:150|379:181|366:190,1,165
308,136,26130,1,0,0:0:0:0:
214,73,26216,6,0,P|168:65|148:67,1,55
96,293,26389,2,0,P|141:285|158:276,1,55
44,103,26561,2,0,L|109:114,1,55
237,328,26734,2,0,L|272:275,1,55
23,346,26906,5,0,0:0:0:0:
159,350,27078,1,0,0:0:0:0:
120,51,27251,1,0,0:0:0:0:
97,215,27423,1,0,0:0:0:0:
295,63,27596,5,0,0:0:0:0:
328,190,27768,1,0,0:0:0:0:
412,292,27941,1,0,0:0:0:0:
295,63,28113,1,0,0:0:0:0:
328,190,28285,1,0,0:0:0:0:
412,292,28458,1,0,0:0:0:0:
412,292,28544,1,0,0:0:0:0:
412,292,28630,2,0,P|399:225|416:189,1,110
259,138,28889,1,0,0:0:0:0:
259,138,28975,2,0,P|190:149|137:137,1,110
61,327,29320,1,0,0:0:0:0:
61,327,29406,1,0,0:0:0:0:
61,327,29492,2,0,P|111:319|136:325,1,55
232,334,29665,2,0,B|201:264|217:216|217:216|246:229|284:223,1,165.000006294251
340,191,29923,1,0,0:0:0:0:
166,148,30010,2,0,P|93:164|76:75,1,165.000006294251
198,62,30354,6,0,B|264:22|328:69|328:69|360:26|413:16,1,220
349,284,30872,1,0,0:0:0:0:
392,271,30958,1,0,0:0:0:0:
429,242,31044,2,0,P|436:171|407:103,1,110
131,218,31389,1,0,0:0:0:0:
340,191,31561,1,0,0:0:0:0:
145,108,31734,5,0,0:0:0:0:
131,218,31906,1,0,0:0:0:0:
349,284,32078,1,0,0:0:0:0:
340,191,32251,1,0,0:0:0:0:
106,326,32423,1,0,0:0:0:0:
326,94,32596,1,0,0:0:0:0:
333,142,32682,1,0,0:0:0:0:
340,191,32768,1,0,0:0:0:0:
106,326,32941,1,0,0:0:0:0:
42,86,33113,5,0,0:0:0:0:
209,286,33285,1,0,0:0:0:0:
183,143,33458,1,0,0:0:0:0:
67,71,33630,5,0,0:0:0:0:
196,296,33802,1,0,0:0:0:0:
195,151,33975,1,0,0:0:0:0:
210,168,34061,1,0,0:0:0:0:
217,191,34147,2,0,P|230:125|207:71,1,110
60,145,34492,5,0,0:0:0:0:
335,78,34665,1,0,0:0:0:0:
261,328,34837,1,0,0:0:0:0:
261,328,34895,1,0,0:0:0:0:
261,328,34952,1,0,0:0:0:0:
261,328,35010,1,0,0:0:0:0:
400,319,35182,2,0,P|407:269|394:188,1,110
189,161,35441,1,0,0:0:0:0:
217,191,35527,2,0,P|281:198|339:176,1,110
145,222,35872,6,0,B|163:296|141:336|141:336|124:306|142:276,1,165
231,324,36475,1,0,0:0:0:0:
60,351,36561,2,0,B|44:291|72:245|72:245|64:208|77:174,1,165
141,136,37165,1,0,0:0:0:0:
231,167,37251,6,0,L|229:98,1,55
431,199,37423,2,0,L|436:128,1,55
231,324,37596,2,0,L|155:320,1,55
448,350,37768,2,0,L|388:348,1,55
82,225,37941,5,0,0:0:0:0:
318,346,38113,1,0,0:0:0:0:
214,247,38285,1,0,0:0:0:0:
186,110,38458,1,0,0:0:0:0:
356,38,38630,5,0,0:0:0:0:
318,346,38803,1,0,0:0:0:0:
238,175,38975,1,0,0:0:0:0:
326,31,39147,5,0,0:0:0:0:
342,341,39320,1,0,0:0:0:0:
234,187,39492,1,0,0:0:0:0:
240,207,39578,1,0,0:0:0:0:
255,222,39665,2,0,P|313:228|366:217,1,110
230,54,39924,1,0,0:0:0:0:
247,94,40010,2,0,P|198:142|150:151,1,110
415,76,40354,1,0,0:0:0:0:
415,76,40441,1,0,0:0:0:0:
415,76,40527,1,0,0:0:0:0:
218,85,40699,2,0,P|244:150|186:233,1,165.000006294251
328,252,40958,1,0,0:0:0:0:
362,236,41044,2,0,B|426:274|482:238|482:238|466:190,1,165.000006294251
307,46,41389,6,0,P|326:125|190:140,1,220
77,257,41906,1,0,0:0:0:0:
110,228,41992,1,0,0:0:0:0:
153,224,42078,2,0,B|190:256|243:242|243:242|235:260|236:278,1,110
458,352,42423,2,0,P|425:287|431:237,1,110
463,75,42768,5,0,0:0:0:0:
390,125,42941,1,0,0:0:0:0:
311,86,43113,1,0,0:0:0:0:
225,64,43285,1,0,0:0:0:0:
139,84,43458,1,0,0:0:0:0:
59,46,43630,1,0,0:0:0:0:
54,56,43716,1,0,0:0:0:0:
52,67,43803,1,0,0:0:0:0:
77,150,43975,1,0,0:0:0:0:
57,241,44147,6,0,B|121:235|121:235|161:255|206:242|206:242|255:248|255:248|294:229|336:238,1,264
308,332,44837,2,0,P|273:346|206:330,1,88
170,166,45182,1,0,0:0:0:0:
97,336,45354,1,0,0:0:0:0:
243,219,45527,2,0,P|262:157|109:101,1,264
170,166,46216,6,0,P|227:133|296:146,1,132
340,216,46561,2,0,P|326:148|360:94,1,132
441,79,46906,6,0,P|493:112|467:230,1,176
368,341,47596,2,0,B|344:308|360:257|360:257|352:216|352:216|368:177|411:161|411:161|362:160|351:131,1,264
100,114,48285,6,0,L|194:104,1,88
257,157,48544,1,0,0:0:0:0:
257,157,48630,2,0,L|347:164,1,88
252,333,48975,2,0,B|189:291|189:291|174:177,1,176
63,327,49492,1,0,0:0:0:0:
346,353,49665,6,0,B|353:316|341:288|341:288|355:256|355:256|337:210|347:166|347:166|359:125|359:125|345:75,1,264
444,149,50354,2,0,P|427:197|444:243,1,88
264,251,50699,1,0,0:0:0:0:
512,196,50872,1,0,0:0:0:0:
269,120,51044,2,0,P|207:115|71:137,1,176
57,331,51734,5,0,0:0:0:0:
94,129,51906,1,0,0:0:0:0:
264,251,52078,1,0,0:0:0:0:
94,129,52251,1,0,0:0:0:0:
193,334,52423,6,0,P|159:273|191:169,1,176
438,261,53113,2,0,B|397:269|397:269|257:250,1,176
369,76,53630,1,0,0:0:0:0:
194,162,53803,2,0,B|242:172|242:172|264:153|298:147|298:147|339:173|386:170|386:170|421:187|451:183,1,264
441,94,54492,1,0,0:0:0:0:
298,271,54837,5,0,0:0:0:0:
441,94,55009,1,0,0:0:0:0:
261,109,55182,2,0,B|202:152|121:148|121:148|96:113|104:67,1,220
189,50,56216,1,0,0:0:0:0:
130,238,56561,2,0,B|190:252|301:200|301:200|286:228|292:249,1,220
189,50,57596,1,0,0:0:0:0:
376,241,57941,5,0,0:0:0:0:
189,50,58285,1,0,0:0:0:0:
216,201,58458,1,0,0:0:0:0:
376,241,58630,1,0,0:0:0:0:
136,328,58975,1,0,0:0:0:0:
426,324,59320,2,0,P|459:288|463:209,1,110
397,46,60010,5,0,0:0:0:0:
376,241,60354,1,0,0:0:0:0:
193,140,60699,2,0,B|167:147|142:172|142:172|59:145|-14:199,1,220
222,241,61734,1,0,0:0:0:0:
62,331,62078,2,0,P|39:282|111:325,1,220
218,247,63113,1,0,0:0:0:0:
131,76,63285,1,0,0:0:0:0:
311,145,63458,6,0,P|355:166|428:156,1,123.750004720688
476,86,63803,1,0,0:0:0:0:
387,281,63975,1,0,0:0:0:0:
150,325,64147,2,0,L|160:217,1,82.5000031471254
178,50,64492,2,0,L|197:158,1,82.5000031471254
278,170,64837,5,0,0:0:0:0:
310,165,64923,1,0,0:0:0:0:
373,101,65010,1,0,0:0:0:0:
407,103,65096,1,0,0:0:0:0:
469,165,65182,1,0,0:0:0:0:
466,197,65268,1,0,0:0:0:0:
401,254,65354,1,0,0:0:0:0:
405,286,65440,1,0,0:0:0:0:
463,340,65527,5,0,0:0:0:0:
431,348,65613,1,0,0:0:0:0:
394,350,65699,1,0,0:0:0:0:
353,344,65785,1,0,0:0:0:0:
310,327,65872,1,0,0:0:0:0:
270,297,65958,1,0,0:0:0:0:
243,250,66044,1,0,0:0:0:0:
235,192,66130,1,0,0:0:0:0:
242,130,66216,6,0,L|250:102,1,20.6250007867813
331,66,66346,2,0,L|351:54,1,20.6250007867813
435,106,66475,2,0,P|450:162|420:249,1,123.750004720688
121,157,66906,1,0,0:0:0:0:
355,168,67078,1,0,0:0:0:0:
99,334,67251,1,0,0:0:0:0:
81,287,67337,1,0,0:0:0:0:
81,237,67423,1,0,0:0:0:0:
111,197,67510,1,0,0:0:0:0:
159,186,67596,2,0,P|181:146|184:83,1,82.5000031471254
429,307,67941,2,0,L|379:302,1,41.2500015735627
304,257,68113,2,0,L|259:261,1,41.2500015735627
168,268,68285,6,0,P|158:221|167:183,1,82.5
164,187,68458,2,0,L|254:190,1,82.5
247,189,68630,2,0,P|309:173|334:174,1,82.5
327,173,68803,2,0,B|388:163|388:163|366:143,1,82.5
351,123,68975,6,0,L|359:259,1,123.750004720688
348,328,69320,2,0,L|423:309,2,55.0000020980836
242,321,69665,2,0,P|183:302|88:303,1,123.750004720688
30,344,70010,2,0,L|40:251,1,82.5000031471254
76,183,70354,6,0,P|115:192|176:183,1,82.5
186,110,70527,2,0,B|192:50|192:50|215:78,1,82.5
278,108,70699,2,0,P|305:102|365:109,1,82.5
433,139,70872,2,0,L|422:232,1,82.5
451,296,71044,1,0,0:0:0:0:
283,209,71216,1,0,0:0:0:0:
282,159,71303,1,0,0:0:0:0:
281,109,71389,1,0,0:0:0:0:
141,328,71561,1,0,0:0:0:0:
39,91,71734,5,0,0:0:0:0:
39,91,71906,1,0,0:0:0:0:
102,195,72078,6,0,P|154:197|120:166,1,123.750004720688
27,259,72423,1,0,0:0:0:0:
27,259,72596,1,0,0:0:0:0:
201,328,72768,2,0,L|231:318,1,20.6250007867813
245,319,72854,2,0,L|278:316,1,20.6250007867813
290,320,72941,2,0,L|322:324,1,20.6250007867813
333,331,73027,2,0,L|357:341,1,20.6250007867813
372,354,73113,6,0,L|369:296,1,41.2500015735627
391,83,73285,2,0,L|397:139,1,41.2500015735627
244,225,73458,2,0,L|237:165,1,41.2500015735627
183,29,73630,2,0,L|191:94,1,41.2500015735627
33,189,73803,6,0,L|90:182,1,41.2500015735627
341,287,73975,2,0,L|273:297,1,41.2500015735627
25,306,74147,2,0,L|96:294,1,41.2500015735627
187,71,74320,2,0,L|123:83,1,41.2500015735627
350,122,74492,6,0,P|349:169|415:124,1,165
301,191,74837,2,0,P|274:206|212:209,2,73.3333333333333
381,247,75182,6,0,P|391:295|315:270,1,165
435,315,75527,2,0,P|452:283|489:261,2,73.3333333333333
372,123,75872,6,0,P|300:166|242:157,1,110
58,71,76216,1,0,0:0:0:0:
166,264,76389,1,0,0:0:0:0:
209,271,76475,1,0,0:0:0:0:
249,254,76561,1,0,0:0:0:0:
68,193,76734,1,0,0:0:0:0:
314,157,76906,2,0,B|348:204|348:204|364:269,1,110
95,328,77165,1,0,0:0:0:0:
95,328,77251,6,0,B|144:318|144:318|206:336|206:336|312:314|312:314|234:285,1,288.750011014939
188,232,77941,5,0,0:0:0:0:
249,35,78113,1,0,0:0:0:0:
250,291,78285,1,0,0:0:0:0:
43,201,78458,1,0,0:0:0:0:
83,183,78544,1,0,0:0:0:0:
126,185,78630,2,0,B|180:192|180:192|241:185,1,110
387,49,78975,1,0,0:0:0:0:
421,296,79147,1,0,0:0:0:0:
383,319,79234,1,0,0:0:0:0:
339,320,79320,2,0,P|300:270|303:208,1,110
137,82,79578,1,0,0:0:0:0:
162,117,79665,2,0,P|155:176|97:223,1,110
40,220,80010,6,0,B|122:212|122:212|168:227|218:205,1,165
279,298,80354,2,0,P|294:240|348:193,1,110
456,326,80699,1,0,0:0:0:0:
369,288,80872,1,0,0:0:0:0:
321,94,81044,2,0,L|328:222,1,110
90,263,81389,6,0,P|148:240|159:123,1,165
275,275,81734,2,0,P|217:296|186:336,1,110
75,169,82078,1,0,0:0:0:0:
257,97,82251,2,0,P|285:103|311:99,1,55
351,29,82423,2,0,L|362:151,1,110
208,324,82768,5,0,0:0:0:0:
469,249,82941,1,0,0:0:0:0:
235,200,83113,1,0,0:0:0:0:
195,181,83199,1,0,0:0:0:0:
152,171,83285,1,0,0:0:0:0:
107,171,83372,1,0,0:0:0:0:
34,222,83458,6,0,L|35:280,1,55
199,345,83630,2,0,L|202:279,1,55
477,254,83803,2,0,L|386:249,1,55
225,84,83975,2,0,L|298:91,1,55
291,226,84147,6,0,L|208:232,1,82.5
213,190,84320,2,0,L|221:102,1,82.5
203,87,84492,2,0,P|248:99|305:86,1,82.5
306,78,84665,2,0,P|351:68|394:83,1,82.5
446,134,84837,6,0,B|451:185|451:185|447:227,1,82.5
421,292,85010,2,0,P|376:286|327:291,1,82.5
272,233,85182,2,0,L|182:235,1,82.5
160,155,85354,2,0,L|221:154,1,55
304,179,85527,6,0,P|296:269|376:313,1,165
169,342,85872,2,0,L|192:218,1,110
54,105,86216,1,0,0:0:0:0:
57,149,86303,1,0,0:0:0:0:
76,194,86389,1,0,0:0:0:0:
118,228,86475,1,0,0:0:0:0:
173,251,86561,5,0,0:0:0:0:
238,256,86647,1,0,0:0:0:0:
306,232,86734,1,0,0:0:0:0:
358,175,86820,1,0,0:0:0:0:
379,95,86906,5,0,0:0:0:0:
154,67,87078,1,0,0:0:0:0:
63,330,87251,5,0,0:0:0:0:
363,315,87423,1,0,0:0:0:0:
247,79,87596,6,0,B|229:137|268:176|268:176|321:219|300:300|258:308|221:278|222:222|268:176,1,330
322,114,88285,6,0,B|363:122|363:122|413:118,1,82.5000031471254
474,50,88630,1,0,0:0:0:0:
294,100,88803,1,0,0:0:0:0:
294,100,88889,1,0,0:0:0:0:
294,100,88975,2,0,B|335:108|335:108|385:104,1,82.5000031471254
463,226,89320,2,0,L|401:216,1,41.2500015735627
316,303,89492,2,0,L|370:294,1,41.2500015735627
216,240,89665,6,0,P|155:259|117:254,1,82.5000031471254
53,136,90010,1,0,0:0:0:0:
210,196,90182,1,0,0:0:0:0:
210,196,90268,1,0,0:0:0:0:
210,196,90354,2,0,P|149:215|111:210,1,82.5000031471254
53,136,90613,1,0,0:0:0:0:
53,136,90699,2,0,P|114:117|152:122,1,82.5000031471254
128,317,91044,5,0,0:0:0:0:
294,98,91216,1,0,0:0:0:0:
294,98,91303,1,0,0:0:0:0:
294,98,91389,2,0,L|302:198,1,82.5000031471254
158,301,91734,1,0,0:0:0:0:
335,171,91906,1,0,0:0:0:0:
456,335,92078,1,0,0:0:0:0:
414,337,92165,1,0,0:0:0:0:
373,329,92251,1,0,0:0:0:0:
339,304,92337,1,0,0:0:0:0:
317,268,92423,2,0,B|324:224|324:224|309:165,1,82.5000031471254
227,137,92682,1,0,0:0:0:0:
227,137,92768,1,0,0:0:0:0:
442,175,92941,1,0,0:0:0:0:
482,154,93027,1,0,0:0:0:0:
512,130,93113,5,0,0:0:0:0:
454,129,93199,1,0,0:0:0:0:
396,130,93285,1,0,0:0:0:0:
337,132,93372,1,0,0:0:0:0:
279,133,93458,2,0,P|244:165|185:167,1,82.5000031471254
111,40,93803,5,0,0:0:0:0:
107,293,93975,1,0,0:0:0:0:
210,83,94147,2,0,L|304:75,1,82.5000031471254
318,108,94406,1,0,0:0:0:0:
343,140,94492,1,0,0:0:0:0:
111,40,94665,1,0,0:0:0:0:
241,236,94837,2,0,L|251:168,1,41.2500015735627
444,90,95010,2,0,L|456:139,1,41.2500015735627
484,217,95182,6,0,L|387:201,1,82.5000031471254
326,93,95441,1,0,0:0:0:0:
326,93,95527,2,0,L|210:108,1,82.5000031471254
140,202,95785,1,0,0:0:0:0:
140,202,95872,2,0,L|153:264,1,41.2500015735627
304,338,96044,2,0,L|314:281,1,41.2500015735627
419,84,96216,2,0,L|409:130,1,41.2500015735627
241,212,96389,2,0,L|227:149,1,41.2500015735627
326,190,96561,6,0,P|381:232|454:219,1,110
428,116,96820,1,0,0:0:0:0:
428,116,96906,6,0,B|409:129|401:148|401:148|375:108|319:105,1,121.000003692627
200,201,97165,1,0,0:0:0:0:
200,201,97251,6,0,B|227:191|262:200|262:200|270:190|270:190|305:197|330:188,1,131.99999597168
227,281,97510,1,0,0:0:0:0:
227,281,97596,6,0,P|151:274|113:203,1,142.99999345398
274,72,97941,6,0,B|265:103|242:122|242:122|267:139|277:157|277:157|317:158|325:192|325:192|297:233|321:266|321:266|358:240,1,288.750011014939
307,243,98630,5,0,0:0:0:0:
265,240,98716,1,0,0:0:0:0:
223,237,98803,1,0,0:0:0:0:
181,235,98889,1,0,0:0:0:0:
98,230,98975,5,0,0:0:0:0:
157,53,99147,1,0,0:0:0:0:
299,181,99320,6,0,P|377:199|461:150,1,165.000006294251
462,38,99665,1,0,0:0:0:0:
250,64,99837,1,0,0:0:0:0:
247,109,99923,1,0,0:0:0:0:
299,181,100010,2,0,P|351:199|396:195,2,82.5000031471254
455,140,100354,1,0,0:0:0:0:
455,140,100441,2,0,P|474:201|458:256,1,110
379,293,100699,6,0,B|345:292|319:276|319:276|284:316|223:319,1,165
144,259,101044,2,0,P|149:199|64:128,1,165.000006294251
54,223,101303,1,0,0:0:0:0:
54,223,101389,2,0,P|81:217|116:222,1,55
219,156,101561,2,0,P|246:162|281:157,1,55
361,238,101734,2,0,B|412:223|452:239|452:239|413:247,1,110
255,330,102078,6,0,P|199:297|276:268,1,165
338,290,102423,2,0,B|361:215|299:177|299:177|328:170|355:145,1,165
276,93,102768,2,0,B|224:107|209:156|209:156|160:142|160:142|136:197|74:206|74:206|84:166|63:128,1,330
361,128,103458,6,0,P|352:197|365:251,1,110
177,169,103716,1,0,0:0:0:0:
201,200,103803,2,0,P|211:257|170:330,1,131.99999597168
318,304,104061,1,0,0:0:0:0:
360,331,104147,2,0,B|473:323|473:323|420:305,1,153.999995300293
256,257,104492,1,0,0:0:0:0:
202,265,104578,1,0,0:0:0:0:
148,273,104665,1,0,0:0:0:0:
94,281,104751,1,0,0:0:0:0:
58,248,104837,6,0,P|88:188|33:88,1,165
111,33,105182,2,0,B|162:43|162:43|222:41,1,110
199,256,105441,1,0,0:0:0:0:
174,207,105527,2,0,L|191:108,2,82.5000031471254
292,267,105872,2,0,P|315:196|406:186,1,165
288,283,106216,6,0,P|292:177|419:195,1,247.500009441376
348,345,106561,1,0,0:0:0:0:
223,66,106734,1,0,0:0:0:0:
237,73,106820,1,0,0:0:0:0:
250,84,106906,2,0,P|266:130|259:177,1,82.5000031471254
333,247,107078,2,0,P|321:299|287:339,1,82.5000031471254
45,247,107251,2,0,P|80:278|93:321,1,82.5000031471254
124,100,107423,2,0,P|130:145|120:190,1,82.5000031471254
41,140,107596,5,0,0:0:0:0:
79,141,107682,1,0,0:0:0:0:
117,142,107768,1,0,0:0:0:0:
155,143,107854,1,0,0:0:0:0:
193,144,107941,2,0,P|257:161|312:150,1,110
447,285,108285,2,0,L|414:344,1,55
185,279,108458,2,0,L|256:265,1,55
454,102,108630,2,0,P|396:118|334:88,1,110
121,46,108975,5,0,0:0:0:0:
85,61,109061,1,0,0:0:0:0:
59,89,109147,1,0,0:0:0:0:
45,125,109234,1,0,0:0:0:0:
43,163,109320,1,0,0:0:0:0:
53,200,109406,1,0,0:0:0:0:
78,228,109492,1,0,0:0:0:0:
113,242,109578,1,0,0:0:0:0:
164,245,109665,5,0,0:0:0:0:
216,230,109837,1,0,0:0:0:0:
248,185,110010,1,0,0:0:0:0:
250,130,110182,1,0,0:0:0:0:
146,156,110354,6,0,L|135:283,2,110
259,42,110872,1,0,0:0:0:0:
259,42,111044,2,0,B|294:46|320:69|320:69|383:40|479:70,1,220
424,284,111561,1,0,0:0:0:0:
424,284,111734,2,0,P|391:208|401:150,2,110
191,308,112251,1,0,0:0:0:0:
191,308,112423,2,0,B|185:260|210:228|210:228|188:181|188:181|217:144|209:79,1,220
289,288,112941,1,0,0:0:0:0:
4,113,113113,6,0,B|62:105|62:105|117:114,2,110
293,186,113630,1,0,0:0:0:0:
49,314,113803,2,0,L|56:191,1,110
293,186,114147,1,0,0:0:0:0:
173,134,114320,1,0,0:0:0:0:
188,264,114492,5,0,0:0:0:0:
404,263,114665,1,0,0:0:0:0:
441,208,114751,1,0,0:0:0:0:
431,142,114837,1,0,0:0:0:0:
389,90,114923,1,0,0:0:0:0:
324,72,115010,1,0,0:0:0:0:
263,97,115096,1,0,0:0:0:0:
235,156,115182,1,0,0:0:0:0:
178,190,115268,1,0,0:0:0:0:
112,187,115354,1,0,0:0:0:0:
60,144,115441,5,0,0:0:0:0:
83,211,115527,1,0,0:0:0:0:
140,252,115613,1,0,0:0:0:0:
211,254,115699,1,0,0:0:0:0:
271,216,115785,1,0,0:0:0:0:
256,192,115872,12,0,120010,0:0:0:0:
