osu file format v14

[General]
AudioFilename: YUKARI.mp3
AudioLeadIn: 0
PreviewTime: 66048
Countdown: 0
SampleSet: Soft
StackLeniency: 0.7
Mode: 3
LetterboxInBreaks: 0
SpecialStyle: 0
WidescreenStoryboard: 0

[Editor]
DistanceSpacing: 0.8
BeatDivisor: 4
GridSize: 4
TimelineZoom: 0.9000001

[Metadata]
Title:YUKARI
TitleUnicode:YUKARI
Artist:Ocelot
ArtistUnicode:Ocelot
Creator:liaoxingyao
Version:Normal
Source:CROSS×BEATS
Tags:Drumstep biemote
BeatmapID:901285
BeatmapSetID:416020

[Difficulty]
HPDrainRate:7
CircleSize:4
OverallDifficulty:7
ApproachRate:5
SliderMultiplier:1.4
SliderTickRate:1

[Events]
//Background and Video events
0,0,"BG.png",0,0
//Break Periods
//Storyboard Layer 0 (Background)
//Storyboard Layer 1 (Fail)
//Storyboard Layer 2 (Pass)
//Storyboard Layer 3 (Foreground)
//Storyboard Sound Samples

[TimingPoints]
1221,344.827586206897,4,2,1,15,1,0
12255,-100,4,2,1,25,0,0
23289,-100,4,2,1,35,0,0
67427,-100,4,2,1,35,0,1
89496,-100,4,2,1,25,0,0

[HitObjects]
448,192,1221,128,0,2083:0:0:0:0:
192,192,2255,1,0,0:0:0:0:
320,192,2427,1,0,0:0:0:0:
448,192,2600,128,0,3289:0:0:0:0:
320,192,3289,1,0,0:0:0:0:
192,192,3634,1,0,0:0:0:0:
64,192,3979,1,0,0:0:0:0:
192,192,4324,1,0,0:0:0:0:
448,192,4669,128,0,6048:0:0:0:0:
64,192,6738,128,0,7600:0:0:0:0:
192,192,7772,1,0,0:0:0:0:
320,192,7945,1,0,0:0:0:0:
64,192,8117,128,0,8634:0:0:0:0:
448,192,8807,1,0,0:0:0:0:
320,192,8979,1,0,0:0:0:0:
192,192,9152,1,0,0:0:0:0:
320,192,9324,1,0,0:0:0:0:
64,192,9496,1,0,0:0:0:0:
192,192,9841,1,0,0:0:0:0:
448,192,10186,1,0,0:0:0:0:
320,192,10531,1,0,0:0:0:0:
448,192,10876,128,0,11738:0:0:0:0:
192,192,11738,128,0,12255:0:0:0:0:
64,192,12255,1,2,0:0:0:0:
448,192,12255,1,0,0:0:0:0:
320,192,12427,1,0,0:0:0:0:
192,192,12600,1,0,0:0:0:0:
64,192,12772,1,0,0:0:0:0:
192,192,12945,1,2,0:0:0:0:
64,192,13289,1,0,0:0:0:0:
320,192,13462,1,0,0:0:0:0:
448,192,13634,1,2,0:0:0:0:
192,192,13979,1,0,0:0:0:0:
320,192,14324,1,2,0:0:0:0:
192,192,14496,1,0,0:0:0:0:
64,192,14669,1,0,0:0:0:0:
192,192,14841,1,0,0:0:0:0:
320,192,15014,1,2,0:0:0:0:
64,192,15186,1,0,0:0:0:0:
448,192,15358,1,0,0:0:0:0:
192,192,15531,1,0,0:0:0:0:
64,192,15703,1,2,0:0:0:0:
320,192,16048,1,0,0:0:0:0:
192,192,16221,1,0,0:0:0:0:
448,192,16393,1,2,0:0:0:0:
320,192,16738,1,0,0:0:0:0:
64,192,17083,1,2,0:0:0:0:
192,192,17427,1,0,0:0:0:0:
320,192,17600,1,0,0:0:0:0:
192,192,17772,1,2,0:0:0:0:
64,192,17945,1,0,0:0:0:0:
320,192,18117,1,0,0:0:0:0:
448,192,18289,1,2,0:0:0:0:
192,192,18462,1,2,0:0:0:0:
320,192,18807,1,0,0:0:0:0:
192,192,18979,1,2,0:0:0:0:
448,192,19152,1,2,0:0:0:0:
64,192,19496,1,0,0:0:0:0:
192,192,19669,1,2,0:0:0:0:
320,192,19841,1,2,0:0:0:0:
192,192,20186,1,0,0:0:0:0:
320,192,20358,1,2,0:0:0:0:
64,192,20531,1,2,0:0:0:0:
448,192,20703,1,0,0:0:0:0:
320,192,20876,1,2,0:0:0:0:
192,192,21048,1,0,0:0:0:0:
64,192,21221,1,2,0:0:0:0:
192,192,21393,1,2,0:0:0:0:
320,192,21565,1,2,0:0:0:0:
192,192,21738,1,2,0:0:0:0:
320,192,21824,1,2,0:0:0:0:
448,192,21910,128,0,23289:0:0:0:0:
320,192,23289,1,6,0:0:0:0:
64,192,23289,1,0,0:0:0:0:
192,192,23462,1,0,0:0:0:0:
64,192,23634,1,0,0:0:0:0:
320,192,23807,1,2,0:0:0:0:
192,192,23979,1,8,0:0:0:0:
320,192,24152,128,0,24496:0:0:0:0:
64,192,24496,1,8,0:0:0:0:
192,192,24669,1,2,0:0:0:0:
448,192,24841,1,8,0:0:0:0:
64,192,25014,1,0,0:0:0:0:
320,192,25186,1,2,0:0:0:0:
192,192,25358,128,8,25703:0:0:0:0:
320,192,25703,128,0,26048:0:0:0:0:
192,192,26048,128,2,27427:0:0:0:0:
64,192,27427,1,2,0:0:0:0:
320,192,27600,1,8,0:0:0:0:
64,192,27772,1,2,0:0:0:0:
320,192,27945,1,2,0:0:0:0:
448,192,28117,1,8,0:0:0:0:
448,192,28462,1,8,0:0:0:0:
448,192,28807,1,2,0:0:0:0:
320,192,28979,1,0,0:0:0:0:
192,192,29152,1,0,0:0:0:0:
320,192,29324,1,2,0:0:0:0:
192,192,29496,1,8,0:0:0:0:
64,192,29669,128,0,30014:0:0:0:0:
192,192,30014,1,8,0:0:0:0:
320,192,30186,1,2,0:0:0:0:
448,192,30358,1,8,0:0:0:0:
192,192,30531,1,0,0:0:0:0:
64,192,30703,1,2,0:0:0:0:
192,192,30876,128,8,31221:0:0:0:0:
320,192,31221,128,8,31565:0:0:0:0:
448,192,31565,128,2,32945:0:0:0:0:
64,192,32945,1,2,0:0:0:0:
192,192,33117,1,8,0:0:0:0:
320,192,33289,1,2,0:0:0:0:
448,192,33462,1,2,0:0:0:0:
64,192,33634,1,8,0:0:0:0:
448,192,33807,1,8,0:0:0:0:
320,192,33893,1,8,0:0:0:0:
192,192,33979,1,8,0:0:0:0:
320,192,34152,1,2,0:0:0:0:
64,192,34324,1,6,0:0:0:0:
192,192,34324,1,0,0:0:0:0:
320,192,34496,1,0,0:0:0:0:
448,192,34669,1,0,0:0:0:0:
192,192,34841,1,2,0:0:0:0:
320,192,35014,1,8,0:0:0:0:
192,192,35186,128,0,35531:0:0:0:0:
448,192,35531,1,8,0:0:0:0:
320,192,35703,1,2,0:0:0:0:
64,192,35876,1,8,0:0:0:0:
448,192,36048,1,0,0:0:0:0:
192,192,36221,1,2,0:0:0:0:
320,192,36393,128,8,36738:0:0:0:0:
64,192,36738,128,0,37083:0:0:0:0:
320,192,37083,128,2,38462:0:0:0:0:
64,192,38462,1,2,0:0:0:0:
448,192,38634,1,8,0:0:0:0:
64,192,38807,1,2,0:0:0:0:
448,192,38979,1,2,0:0:0:0:
320,192,39152,1,8,0:0:0:0:
192,192,39324,1,0,0:0:0:0:
320,192,39496,1,8,0:0:0:0:
192,192,39669,1,0,0:0:0:0:
64,192,39841,1,2,0:0:0:0:
192,192,40014,1,0,0:0:0:0:
320,192,40186,1,0,0:0:0:0:
192,192,40358,1,2,0:0:0:0:
320,192,40531,1,8,0:0:0:0:
448,192,40703,128,0,41048:0:0:0:0:
320,192,41048,1,8,0:0:0:0:
192,192,41221,1,2,0:0:0:0:
64,192,41393,1,0,0:0:0:0:
320,192,41565,1,2,0:0:0:0:
448,192,41738,1,2,0:0:0:0:
192,192,41910,128,8,42255:0:0:0:0:
320,192,42255,128,8,42600:0:0:0:0:
64,192,42600,128,2,43979:0:0:0:0:
448,192,43979,1,14,0:0:0:0:
192,192,44152,1,8,0:0:0:0:
448,192,44324,1,8,0:0:0:0:
64,192,44496,1,8,0:0:0:0:
192,192,44583,1,8,0:0:0:0:
320,192,44669,1,8,0:0:0:0:
64,192,44841,1,8,0:0:0:0:
320,192,45014,1,8,0:0:0:0:
64,192,45186,1,8,0:0:0:0:
192,192,45358,128,0,46221:0:0:0:0:
448,192,45358,1,6,0:0:0:0:
448,192,46393,1,0,0:0:0:0:
320,192,46565,1,0,0:0:0:0:
64,192,46738,128,2,47427:0:0:0:0:
448,192,47427,1,2,0:0:0:0:
320,192,47772,1,2,0:0:0:0:
64,192,48117,1,2,0:0:0:0:
320,192,48462,1,0,0:0:0:0:
192,192,48807,128,2,50186:0:0:0:0:
448,192,50876,128,2,51738:0:0:0:0:
192,192,51910,1,0,0:0:0:0:
320,192,52083,1,0,0:0:0:0:
448,192,52255,128,2,52945:0:0:0:0:
64,192,52945,1,2,0:0:0:0:
192,192,53117,1,0,0:0:0:0:
320,192,53289,1,2,0:0:0:0:
192,192,53462,1,0,0:0:0:0:
64,192,53634,1,2,0:0:0:0:
320,192,53979,1,0,0:0:0:0:
192,192,54324,1,2,0:0:0:0:
448,192,54669,1,0,0:0:0:0:
64,192,55014,128,2,56048:0:0:0:0:
192,192,56048,1,0,0:0:0:0:
320,192,56221,1,0,0:0:0:0:
448,192,56393,128,0,57427:0:0:0:0:
64,192,56393,1,4,0:0:0:0:
192,192,57427,1,0,0:0:0:0:
64,192,57772,128,0,58807:0:0:0:0:
320,192,58807,1,0,0:0:0:0:
192,192,59152,128,0,59496:0:0:0:0:
448,192,59496,1,0,0:0:0:0:
320,192,59669,1,0,0:0:0:0:
64,192,59841,128,0,60186:0:0:0:0:
320,192,60186,128,0,60531:0:0:0:0:
64,192,60531,128,0,61221:0:0:0:0:
192,192,61221,1,0,0:0:0:0:
320,192,61565,1,0,0:0:0:0:
64,192,61910,128,0,62945:0:0:0:0:
448,192,61910,1,4,0:0:0:0:
320,192,62945,128,0,63289:0:0:0:0:
448,192,63289,128,0,64324:0:0:0:0:
192,192,64324,128,0,64669:0:0:0:0:
64,192,64669,128,0,65014:0:0:0:0:
448,192,65014,1,0,0:0:0:0:
320,192,65186,1,0,0:0:0:0:
192,192,65358,128,0,65703:0:0:0:0:
448,192,65703,128,0,66048:0:0:0:0:
192,192,66048,128,0,66738:0:0:0:0:
64,192,66738,128,0,67427:0:0:0:0:
320,192,67427,128,0,68117:0:0:0:0:
192,192,67427,1,2,0:0:0:0:
448,192,68117,1,12,0:0:0:0:
192,192,68289,1,0,0:0:0:0:
64,192,68462,128,0,68807:0:0:0:0:
448,192,68807,1,2,0:0:0:0:
320,192,68979,1,0,0:0:0:0:
192,192,69152,128,0,69496:0:0:0:0:
64,192,69496,1,8,0:0:0:0:
320,192,69669,1,0,0:0:0:0:
448,192,69841,1,0,0:0:0:0:
192,192,70014,1,0,0:0:0:0:
320,192,70186,128,2,70531:0:0:0:0:
64,192,70531,1,0,0:0:0:0:
192,192,70703,1,2,0:0:0:0:
448,192,70876,1,8,0:0:0:0:
64,192,71048,1,0,0:0:0:0:
320,192,71221,1,0,0:0:0:0:
192,192,71393,1,0,0:0:0:0:
64,192,71565,1,2,0:0:0:0:
448,192,71738,1,8,0:0:0:0:
192,192,71910,1,0,0:0:0:0:
320,192,72083,1,2,0:0:0:0:
64,192,72255,1,8,0:0:0:0:
192,192,72427,1,0,0:0:0:0:
448,192,72600,1,8,0:0:0:0:
320,192,72772,1,0,0:0:0:0:
192,192,72945,1,2,0:0:0:0:
64,192,72945,128,0,73634:0:0:0:0:
320,192,73634,1,12,0:0:0:0:
192,192,73807,1,0,0:0:0:0:
448,192,73979,128,0,74324:0:0:0:0:
64,192,74324,1,2,0:0:0:0:
320,192,74496,1,0,0:0:0:0:
192,192,74669,1,0,0:0:0:0:
320,192,74841,1,0,0:0:0:0:
64,192,75014,1,8,0:0:0:0:
192,192,75186,1,0,0:0:0:0:
448,192,75358,1,0,0:0:0:0:
320,192,75531,1,0,0:0:0:0:
64,192,75703,128,2,76048:0:0:0:0:
320,192,76048,128,0,76393:0:0:0:0:
192,192,76393,128,8,76738:0:0:0:0:
320,192,76738,1,0,0:0:0:0:
64,192,76910,1,2,0:0:0:0:
448,192,77083,1,6,0:0:0:0:
192,192,77083,1,0,0:0:0:0:
320,192,77255,1,0,0:0:0:0:
64,192,77427,1,8,0:0:0:0:
192,192,77600,1,0,0:0:0:0:
64,192,77772,1,0,0:0:0:0:
448,192,77945,1,8,0:0:0:0:
320,192,78117,1,8,0:0:0:0:
192,192,78289,1,8,0:0:0:0:
448,192,78462,128,0,79152:0:0:0:0:
64,192,78462,1,2,0:0:0:0:
192,192,79152,1,12,0:0:0:0:
320,192,79324,1,0,0:0:0:0:
64,192,79496,1,0,0:0:0:0:
192,192,79669,1,0,0:0:0:0:
320,192,79841,1,2,0:0:0:0:
192,192,80014,1,0,0:0:0:0:
448,192,80186,1,0,0:0:0:0:
320,192,80358,1,0,0:0:0:0:
192,192,80531,128,8,80876:0:0:0:0:
448,192,80876,128,0,81221:0:0:0:0:
64,192,81221,128,2,81565:0:0:0:0:
192,192,81565,1,0,0:0:0:0:
320,192,81738,1,2,0:0:0:0:
448,192,81910,128,8,82255:0:0:0:0:
64,192,82255,128,0,82600:0:0:0:0:
448,192,82600,128,0,82945:0:0:0:0:
192,192,82945,128,2,83289:0:0:0:0:
64,192,83289,1,8,0:0:0:0:
320,192,83548,1,8,0:0:0:0:
192,192,83807,1,8,0:0:0:0:
64,192,83979,1,2,0:0:0:0:
448,192,83979,128,0,84669:0:0:0:0:
64,192,84669,128,12,85014:0:0:0:0:
192,192,84669,1,0,0:0:0:0:
320,192,85014,1,0,0:0:0:0:
192,192,85186,1,0,0:0:0:0:
448,192,85358,1,2,0:0:0:0:
64,192,85531,1,0,0:0:0:0:
320,192,85703,1,0,0:0:0:0:
192,192,85876,1,0,0:0:0:0:
448,192,86048,1,8,0:0:0:0:
320,192,86221,1,0,0:0:0:0:
64,192,86393,1,0,0:0:0:0:
320,192,86565,1,0,0:0:0:0:
192,192,86738,128,2,87427:0:0:0:0:
64,192,87427,1,8,0:0:0:0:
448,192,87686,1,8,0:0:0:0:
192,192,87945,1,8,0:0:0:0:
320,192,88031,1,8,0:0:0:0:
64,192,88117,1,2,0:0:0:0:
192,192,88289,1,2,0:0:0:0:
320,192,88462,1,2,0:0:0:0:
448,192,88634,1,2,0:0:0:0:
64,192,88807,1,2,0:0:0:0:
320,192,88979,1,0,0:0:0:0:
192,192,89152,1,0,0:0:0:0:
448,192,89324,1,0,0:0:0:0:
320,192,89496,128,4,90358:0:0:0:0:
64,192,89496,1,0,0:0:0:0:
64,192,90531,1,0,0:0:0:0:
192,192,90703,1,0,0:0:0:0:
320,192,90876,128,0,91565:0:0:0:0:
448,192,91565,1,0,0:0:0:0:
192,192,91910,1,0,0:0:0:0:
64,192,92255,1,0,0:0:0:0:
320,192,92600,1,0,0:0:0:0:
448,192,92945,128,0,94324:0:0:0:0:
192,192,95014,128,0,95876:0:0:0:0:
448,192,96048,1,0,0:0:0:0:
320,192,96221,1,0,0:0:0:0:
192,192,96393,128,0,96910:0:0:0:0:
448,192,97083,1,0,0:0:0:0:
64,192,97255,1,0,0:0:0:0:
320,192,97427,1,0,0:0:0:0:
192,192,97600,1,0,0:0:0:0:
64,192,97772,128,0,98117:0:0:0:0:
192,192,98117,128,0,98462:0:0:0:0:
448,192,98462,128,0,98807:0:0:0:0:
320,192,98807,128,0,99152:0:0:0:0:
192,192,99152,128,0,99841:0:0:0:0:
320,192,99841,128,0,100531:0:0:0:0:
448,192,100531,128,0,101565:0:0:0:0:
64,192,100531,1,6,0:0:0:0:
192,192,100876,1,8,0:0:0:0:
192,192,101565,1,8,0:0:0:0:
320,192,101738,1,0,0:0:0:0:
448,192,101910,128,2,102600:0:0:0:0:
192,192,102255,1,8,0:0:0:0:
64,192,102600,1,0,0:0:0:0:
320,192,102772,1,2,0:0:0:0:
192,192,102945,1,8,0:0:0:0:
320,192,103117,1,0,0:0:0:0:
64,192,103289,128,2,103634:0:0:0:0:
448,192,103634,128,8,103979:0:0:0:0:
320,192,103979,128,0,104669:0:0:0:0:
192,192,104324,1,8,0:0:0:0:
448,192,104669,1,6,0:0:0:0:
64,192,104669,1,0,0:0:0:0:
192,192,104841,1,2,0:0:0:0:
320,192,105014,1,8,0:0:0:0:
192,192,105186,1,2,0:0:0:0:
448,192,105358,1,0,0:0:0:0:
64,192,105358,128,6,106048:0:0:0:0:
320,192,105703,1,2,0:0:0:0:
448,192,106048,128,0,107083:0:0:0:0:
192,192,106048,1,6,0:0:0:0:
64,192,106393,1,8,0:0:0:0:
64,192,107083,1,8,0:0:0:0:
192,192,107255,1,0,0:0:0:0:
448,192,107427,128,2,108117:0:0:0:0:
64,192,107772,1,8,0:0:0:0:
320,192,108117,1,0,0:0:0:0:
192,192,108289,1,2,0:0:0:0:
64,192,108462,1,8,0:0:0:0:
320,192,108634,1,0,0:0:0:0:
448,192,108807,1,6,0:0:0:0:
64,192,108807,128,0,109152:0:0:0:0:
320,192,109152,128,10,109496:0:0:0:0:
448,192,109496,128,14,109841:0:0:0:0:
64,192,109496,1,0,0:0:0:0:
192,192,109841,128,10,110186:0:0:0:0:
64,192,110186,128,10,111565:0:0:0:0:
448,192,110186,1,0,0:0:0:0:
448,192,110876,1,8,0:0:0:0:
448,192,111221,1,8,0:0:0:0:
320,192,111565,1,0,0:0:0:0:
448,192,111565,1,6,0:0:0:0:
192,192,112083,1,2,0:0:0:0:
320,192,112255,1,2,0:0:0:0:
64,192,112772,1,2,0:0:0:0:
192,192,112945,1,6,0:0:0:0:
448,192,112945,1,0,0:0:0:0:
320,192,113462,1,2,0:0:0:0:
192,192,113634,1,2,0:0:0:0:
320,192,113979,1,2,0:0:0:0:
192,192,114152,1,2,0:0:0:0:
64,192,114324,1,6,0:0:0:0:
448,192,114324,1,0,0:0:0:0:
192,192,115014,1,6,0:0:0:0:
320,192,115014,1,0,0:0:0:0:
64,192,115703,128,0,117083:0:0:0:0:
448,192,115703,1,6,0:0:0:0:
320,192,117083,128,0,119841:0:0:0:0:
