osu file format v14

[General]
AudioFilename: YUKARI.mp3
AudioLeadIn: 0
PreviewTime: 66048
Countdown: 0
SampleSet: Soft
StackLeniency: 0.7
Mode: 3
LetterboxInBreaks: 0
SpecialStyle: 0
WidescreenStoryboard: 0

[Editor]
DistanceSpacing: 0.8
BeatDivisor: 4
GridSize: 4
TimelineZoom: 1.2

[Metadata]
Title:YUKARI
TitleUnicode:YUKARI
Artist:Ocelot
ArtistUnicode:Ocelot
Creator:liaoxingyao
Version:Insane
Source:CROSS×BEATS
Tags:Drumstep biemote
BeatmapID:901284
BeatmapSetID:416020

[Difficulty]
HPDrainRate:8
CircleSize:4
OverallDifficulty:8
ApproachRate:5
SliderMultiplier:1.4
SliderTickRate:1

[Events]
//Background and Video events
0,0,"BG.png",0,0
//Break Periods
//Storyboard Layer 0 (Background)
//Storyboard Layer 1 (Fail)
//Storyboard Layer 2 (Pass)
//Storyboard Layer 3 (Foreground)
//Storyboard Sound Samples

[TimingPoints]
1221,344.827586206897,4,2,1,15,1,0
12255,-100,4,2,1,25,0,0
23289,-100,4,2,1,35,0,0
67427,-100,4,2,1,35,0,1
89496,-100,4,2,1,25,0,0

[HitObjects]
448,192,1221,128,0,2083:0:0:0:0:
192,192,2255,1,0,0:0:0:0:
320,192,2427,1,0,0:0:0:0:
448,192,2600,128,0,3289:0:0:0:0:
320,192,3289,1,0,0:0:0:0:
192,192,3634,1,0,0:0:0:0:
64,192,3979,1,0,0:0:0:0:
192,192,4324,1,0,0:0:0:0:
320,192,4669,128,0,6048:0:0:0:0:
320,192,6738,128,0,7600:0:0:0:0:
64,192,7772,1,0,0:0:0:0:
192,192,7945,1,0,0:0:0:0:
320,192,8117,128,0,8807:0:0:0:0:
448,192,8807,1,0,0:0:0:0:
320,192,8979,1,0,0:0:0:0:
192,192,9152,1,0,0:0:0:0:
64,192,9324,1,0,0:0:0:0:
192,192,9496,1,0,0:0:0:0:
64,192,9841,1,0,0:0:0:0:
448,192,10186,1,0,0:0:0:0:
320,192,10531,1,0,0:0:0:0:
64,192,10876,128,0,12255:0:0:0:0:
192,192,11738,128,0,12255:0:0:0:0:
320,192,12255,1,2,0:0:0:0:
448,192,12255,1,0,0:0:0:0:
64,192,12427,1,0,0:0:0:0:
320,192,12514,1,0,0:0:0:0:
192,192,12600,1,0,0:0:0:0:
448,192,12600,1,0,0:0:0:0:
320,192,12772,1,0,0:0:0:0:
64,192,12945,1,2,0:0:0:0:
448,192,12945,1,0,0:0:0:0:
192,192,13031,1,0,0:0:0:0:
320,192,13117,1,0,0:0:0:0:
448,192,13117,1,0,0:0:0:0:
64,192,13289,1,0,0:0:0:0:
320,192,13376,1,0,0:0:0:0:
64,192,13462,1,0,0:0:0:0:
320,192,13548,1,0,0:0:0:0:
64,192,13634,1,0,0:0:0:0:
192,192,13634,1,0,0:0:0:0:
448,192,13634,1,2,0:0:0:0:
320,192,13807,1,0,0:0:0:0:
192,192,13893,1,0,0:0:0:0:
320,192,13979,1,0,0:0:0:0:
448,192,13979,1,0,0:0:0:0:
192,192,14152,1,0,0:0:0:0:
320,192,14238,1,0,0:0:0:0:
64,192,14324,1,0,0:0:0:0:
448,192,14324,1,2,0:0:0:0:
192,192,14410,1,0,0:0:0:0:
320,192,14496,1,0,0:0:0:0:
448,192,14583,1,0,0:0:0:0:
192,192,14669,1,0,0:0:0:0:
64,192,14755,1,0,0:0:0:0:
320,192,14841,1,0,0:0:0:0:
448,192,14841,1,0,0:0:0:0:
448,192,15014,1,0,0:0:0:0:
192,192,15014,1,2,0:0:0:0:
320,192,15014,1,0,0:0:0:0:
64,192,15186,1,0,0:0:0:0:
192,192,15272,1,0,0:0:0:0:
320,192,15358,1,0,0:0:0:0:
448,192,15358,1,0,0:0:0:0:
192,192,15531,1,0,0:0:0:0:
64,192,15703,1,2,0:0:0:0:
448,192,15703,1,0,0:0:0:0:
320,192,15789,1,0,0:0:0:0:
192,192,15876,1,0,0:0:0:0:
64,192,15876,1,0,0:0:0:0:
448,192,16048,1,0,0:0:0:0:
320,192,16134,1,0,0:0:0:0:
448,192,16221,1,0,0:0:0:0:
320,192,16307,1,0,0:0:0:0:
192,192,16393,1,0,0:0:0:0:
64,192,16393,1,2,0:0:0:0:
448,192,16393,1,0,0:0:0:0:
320,192,16565,1,0,0:0:0:0:
192,192,16652,1,0,0:0:0:0:
64,192,16738,1,0,0:0:0:0:
448,192,16738,1,0,0:0:0:0:
192,192,16910,1,0,0:0:0:0:
320,192,16996,1,0,0:0:0:0:
64,192,17083,1,2,0:0:0:0:
448,192,17083,1,0,0:0:0:0:
320,192,17169,1,0,0:0:0:0:
192,192,17255,1,0,0:0:0:0:
448,192,17255,128,0,17772:0:0:0:0:
64,192,17341,1,0,0:0:0:0:
192,192,17427,1,0,0:0:0:0:
64,192,17600,1,0,0:0:0:0:
320,192,17600,1,0,0:0:0:0:
192,192,17772,1,0,0:0:0:0:
64,192,17772,1,2,0:0:0:0:
320,192,17772,1,0,0:0:0:0:
192,192,18117,1,0,0:0:0:0:
64,192,18289,1,2,0:0:0:0:
320,192,18289,1,0,0:0:0:0:
64,192,18462,1,2,0:0:0:0:
320,192,18462,1,0,0:0:0:0:
192,192,18634,1,0,0:0:0:0:
320,192,18807,1,0,0:0:0:0:
64,192,18979,1,2,0:0:0:0:
192,192,18979,1,0,0:0:0:0:
320,192,19152,1,0,0:0:0:0:
64,192,19152,1,2,0:0:0:0:
448,192,19152,128,0,19496:0:0:0:0:
64,192,19496,128,0,19841:0:0:0:0:
320,192,19669,1,0,0:0:0:0:
448,192,19669,1,2,0:0:0:0:
448,192,19841,128,0,20186:0:0:0:0:
192,192,19841,1,2,0:0:0:0:
320,192,20014,1,0,0:0:0:0:
64,192,20186,1,0,0:0:0:0:
192,192,20358,1,0,0:0:0:0:
448,192,20358,1,2,0:0:0:0:
320,192,20531,1,0,0:0:0:0:
448,192,20531,1,2,0:0:0:0:
192,192,20703,1,0,0:0:0:0:
64,192,20876,1,0,0:0:0:0:
448,192,20876,1,2,0:0:0:0:
320,192,21048,1,0,0:0:0:0:
192,192,21221,1,0,0:0:0:0:
448,192,21221,1,2,0:0:0:0:
64,192,21393,1,0,0:0:0:0:
448,192,21393,1,2,0:0:0:0:
192,192,21565,1,0,0:0:0:0:
448,192,21565,1,2,0:0:0:0:
448,192,21738,1,2,0:0:0:0:
320,192,21738,1,0,0:0:0:0:
64,192,21824,1,2,0:0:0:0:
192,192,21824,1,0,0:0:0:0:
320,192,21910,1,0,0:0:0:0:
192,192,21996,1,0,0:0:0:0:
64,192,22083,1,0,0:0:0:0:
192,192,22169,1,0,0:0:0:0:
448,192,22255,1,0,0:0:0:0:
320,192,22341,1,0,0:0:0:0:
192,192,22427,1,0,0:0:0:0:
320,192,22514,1,0,0:0:0:0:
64,192,22600,1,0,0:0:0:0:
192,192,22686,1,0,0:0:0:0:
320,192,22772,1,0,0:0:0:0:
192,192,22858,1,0,0:0:0:0:
64,192,22945,1,0,0:0:0:0:
448,192,23031,1,0,0:0:0:0:
320,192,23117,1,0,0:0:0:0:
192,192,23203,1,0,0:0:0:0:
320,192,23289,1,2,0:0:0:0:
448,192,23289,1,4,0:0:0:0:
64,192,23289,128,0,23634:0:0:0:0:
192,192,23462,1,0,0:0:0:0:
320,192,23634,1,0,0:0:0:0:
448,192,23807,1,2,0:0:0:0:
64,192,23807,1,0,0:0:0:0:
320,192,23893,1,2,0:0:0:0:
64,192,23979,1,0,0:0:0:0:
448,192,23979,1,0,0:0:0:0:
192,192,23979,1,8,0:0:0:0:
448,192,24152,128,0,24496:0:0:0:0:
192,192,24496,1,8,0:0:0:0:
64,192,24496,1,0,0:0:0:0:
64,192,24669,1,0,0:0:0:0:
448,192,24669,1,2,0:0:0:0:
448,192,24841,1,8,0:0:0:0:
192,192,24841,1,0,0:0:0:0:
192,192,25014,1,0,0:0:0:0:
64,192,25071,1,0,0:0:0:0:
192,192,25129,1,0,0:0:0:0:
320,192,25186,1,2,0:0:0:0:
448,192,25186,1,0,0:0:0:0:
320,192,25358,1,8,0:0:0:0:
448,192,25358,1,0,0:0:0:0:
64,192,25358,128,0,25703:0:0:0:0:
192,192,25531,1,2,0:0:0:0:
320,192,25703,128,0,26048:0:0:0:0:
448,192,25703,1,0,0:0:0:0:
192,192,25876,1,8,0:0:0:0:
192,192,25962,1,8,0:0:0:0:
448,192,26048,1,2,0:0:0:0:
64,192,26048,128,0,26393:0:0:0:0:
192,192,26393,1,0,0:0:0:0:
320,192,26565,1,2,0:0:0:0:
64,192,26565,1,0,0:0:0:0:
192,192,26652,1,2,0:0:0:0:
448,192,26738,128,0,27083:0:0:0:0:
320,192,26738,1,8,0:0:0:0:
192,192,27083,1,0,0:0:0:0:
192,192,27255,1,2,0:0:0:0:
64,192,27255,1,0,0:0:0:0:
320,192,27341,1,2,0:0:0:0:
64,192,27427,1,2,0:0:0:0:
448,192,27427,1,0,0:0:0:0:
64,192,27600,1,8,0:0:0:0:
448,192,27600,1,0,0:0:0:0:
192,192,27600,1,0,0:0:0:0:
64,192,27772,1,2,0:0:0:0:
448,192,27772,1,0,0:0:0:0:
64,192,27945,1,2,0:0:0:0:
448,192,27945,1,0,0:0:0:0:
64,192,28117,1,8,0:0:0:0:
320,192,28117,1,0,0:0:0:0:
448,192,28117,1,0,0:0:0:0:
320,192,28232,1,0,0:0:0:0:
320,192,28347,1,0,0:0:0:0:
192,192,28462,1,0,0:0:0:0:
64,192,28462,1,8,0:0:0:0:
448,192,28462,1,0,0:0:0:0:
192,192,28577,1,0,0:0:0:0:
192,192,28692,1,0,0:0:0:0:
320,192,28807,1,0,0:0:0:0:
448,192,28807,1,2,0:0:0:0:
64,192,28807,128,0,29152:0:0:0:0:
192,192,28979,1,0,0:0:0:0:
320,192,29152,1,0,0:0:0:0:
192,192,29324,1,2,0:0:0:0:
448,192,29324,1,0,0:0:0:0:
64,192,29410,1,2,0:0:0:0:
320,192,29496,1,8,0:0:0:0:
448,192,29496,128,0,29841:0:0:0:0:
192,192,29669,1,0,0:0:0:0:
320,192,29841,1,0,0:0:0:0:
64,192,29841,128,0,30014:0:0:0:0:
192,192,30014,1,8,0:0:0:0:
448,192,30014,1,0,0:0:0:0:
320,192,30186,1,0,0:0:0:0:
64,192,30186,1,2,0:0:0:0:
192,192,30358,128,8,30531:0:0:0:0:
320,192,30358,1,0,0:0:0:0:
64,192,30531,1,0,0:0:0:0:
448,192,30531,1,0,0:0:0:0:
320,192,30588,1,0,0:0:0:0:
192,192,30646,1,0,0:0:0:0:
64,192,30703,1,2,0:0:0:0:
448,192,30703,1,0,0:0:0:0:
64,192,30876,1,8,0:0:0:0:
320,192,30876,1,0,0:0:0:0:
448,192,30876,1,0,0:0:0:0:
192,192,31048,1,2,0:0:0:0:
448,192,31048,1,0,0:0:0:0:
448,192,31221,128,0,31565:0:0:0:0:
320,192,31221,1,8,0:0:0:0:
192,192,31393,1,8,0:0:0:0:
192,192,31479,1,8,0:0:0:0:
320,192,31565,1,2,0:0:0:0:
64,192,31565,128,0,31910:0:0:0:0:
192,192,31910,1,0,0:0:0:0:
320,192,32083,1,2,0:0:0:0:
448,192,32083,1,0,0:0:0:0:
192,192,32169,1,2,0:0:0:0:
64,192,32255,1,8,0:0:0:0:
320,192,32255,128,0,32600:0:0:0:0:
448,192,32255,1,0,0:0:0:0:
448,192,32600,1,0,0:0:0:0:
192,192,32772,1,2,0:0:0:0:
64,192,32772,1,0,0:0:0:0:
320,192,32858,1,2,0:0:0:0:
192,192,32945,1,0,0:0:0:0:
448,192,32945,1,2,0:0:0:0:
64,192,33117,1,0,0:0:0:0:
320,192,33117,1,0,0:0:0:0:
448,192,33117,1,8,0:0:0:0:
320,192,33289,1,2,0:0:0:0:
192,192,33289,1,0,0:0:0:0:
64,192,33462,1,0,0:0:0:0:
448,192,33462,1,2,0:0:0:0:
320,192,33634,1,8,0:0:0:0:
192,192,33634,1,0,0:0:0:0:
448,192,33634,1,0,0:0:0:0:
64,192,33807,1,8,0:0:0:0:
320,192,33807,1,0,0:0:0:0:
192,192,33893,1,8,0:0:0:0:
448,192,33893,1,0,0:0:0:0:
64,192,33979,1,8,0:0:0:0:
320,192,33979,1,0,0:0:0:0:
192,192,34152,1,2,0:0:0:0:
448,192,34152,1,0,0:0:0:0:
320,192,34324,1,2,0:0:0:0:
448,192,34324,1,4,0:0:0:0:
64,192,34324,128,0,34669:0:0:0:0:
192,192,34496,1,0,0:0:0:0:
320,192,34669,1,0,0:0:0:0:
448,192,34841,1,0,0:0:0:0:
64,192,34841,1,2,0:0:0:0:
192,192,34927,1,2,0:0:0:0:
64,192,35014,1,0,0:0:0:0:
320,192,35014,1,0,0:0:0:0:
448,192,35014,1,8,0:0:0:0:
320,192,35186,1,0,0:0:0:0:
192,192,35186,128,0,35531:0:0:0:0:
448,192,35531,1,8,0:0:0:0:
64,192,35531,1,0,0:0:0:0:
320,192,35703,1,0,0:0:0:0:
192,192,35703,1,2,0:0:0:0:
192,192,35876,1,0,0:0:0:0:
64,192,35876,1,8,0:0:0:0:
448,192,35876,1,0,0:0:0:0:
64,192,36048,1,0,0:0:0:0:
192,192,36106,1,0,0:0:0:0:
320,192,36163,1,0,0:0:0:0:
64,192,36221,1,2,0:0:0:0:
448,192,36221,1,0,0:0:0:0:
320,192,36393,1,8,0:0:0:0:
192,192,36393,1,0,0:0:0:0:
448,192,36393,128,0,36565:0:0:0:0:
64,192,36565,1,2,0:0:0:0:
192,192,36738,128,0,37083:0:0:0:0:
320,192,36738,1,0,0:0:0:0:
448,192,36910,1,8,0:0:0:0:
448,192,36996,1,8,0:0:0:0:
320,192,37083,1,2,0:0:0:0:
64,192,37083,128,0,37427:0:0:0:0:
448,192,37427,1,0,0:0:0:0:
192,192,37600,1,2,0:0:0:0:
448,192,37600,1,0,0:0:0:0:
320,192,37686,1,2,0:0:0:0:
192,192,37772,1,8,0:0:0:0:
64,192,37772,128,0,38117:0:0:0:0:
448,192,37772,1,0,0:0:0:0:
320,192,38117,1,0,0:0:0:0:
448,192,38289,1,0,0:0:0:0:
64,192,38289,1,2,0:0:0:0:
320,192,38376,1,2,0:0:0:0:
448,192,38462,1,0,0:0:0:0:
192,192,38462,1,2,0:0:0:0:
448,192,38634,1,0,0:0:0:0:
192,192,38634,1,8,0:0:0:0:
64,192,38634,1,0,0:0:0:0:
192,192,38807,1,2,0:0:0:0:
448,192,38807,1,0,0:0:0:0:
192,192,38979,1,2,0:0:0:0:
448,192,38979,1,0,0:0:0:0:
448,192,39152,1,0,0:0:0:0:
64,192,39152,1,8,0:0:0:0:
320,192,39152,1,0,0:0:0:0:
64,192,39266,1,0,0:0:0:0:
64,192,39381,1,0,0:0:0:0:
320,192,39496,1,8,0:0:0:0:
448,192,39496,1,0,0:0:0:0:
192,192,39496,1,0,0:0:0:0:
448,192,39611,1,0,0:0:0:0:
448,192,39726,1,0,0:0:0:0:
320,192,39841,1,2,0:0:0:0:
64,192,39841,128,0,40186:0:0:0:0:
192,192,40014,1,0,0:0:0:0:
320,192,40186,1,0,0:0:0:0:
448,192,40358,1,0,0:0:0:0:
192,192,40358,1,2,0:0:0:0:
320,192,40445,1,2,0:0:0:0:
64,192,40531,1,0,0:0:0:0:
192,192,40531,1,8,0:0:0:0:
448,192,40531,1,0,0:0:0:0:
320,192,40703,128,0,41048:0:0:0:0:
192,192,40876,1,0,0:0:0:0:
64,192,41048,1,8,0:0:0:0:
448,192,41048,1,0,0:0:0:0:
192,192,41221,1,2,0:0:0:0:
448,192,41221,1,0,0:0:0:0:
320,192,41393,1,0,0:0:0:0:
64,192,41565,1,2,0:0:0:0:
448,192,41565,1,0,0:0:0:0:
192,192,41623,1,0,0:0:0:0:
320,192,41680,1,0,0:0:0:0:
192,192,41738,1,0,0:0:0:0:
64,192,41738,1,2,0:0:0:0:
64,192,41910,1,8,0:0:0:0:
320,192,41910,128,0,42255:0:0:0:0:
448,192,41910,1,0,0:0:0:0:
192,192,42083,1,0,0:0:0:0:
192,192,42255,128,0,42600:0:0:0:0:
64,192,42255,1,8,0:0:0:0:
320,192,42427,1,0,0:0:0:0:
64,192,42514,1,8,0:0:0:0:
320,192,42600,1,2,0:0:0:0:
448,192,42600,128,0,42945:0:0:0:0:
192,192,42945,1,0,0:0:0:0:
64,192,43117,1,0,0:0:0:0:
320,192,43117,1,2,0:0:0:0:
192,192,43203,1,2,0:0:0:0:
448,192,43289,1,8,0:0:0:0:
320,192,43289,1,0,0:0:0:0:
64,192,43462,1,0,0:0:0:0:
192,192,43548,1,2,0:0:0:0:
320,192,43548,1,0,0:0:0:0:
64,192,43634,1,8,0:0:0:0:
448,192,43634,1,0,0:0:0:0:
320,192,43807,1,0,0:0:0:0:
192,192,43807,1,2,0:0:0:0:
320,192,43979,1,2,0:0:0:0:
448,192,43979,1,4,0:0:0:0:
64,192,43979,1,8,0:0:0:0:
320,192,44152,1,0,0:0:0:0:
192,192,44152,1,8,0:0:0:0:
64,192,44324,1,0,0:0:0:0:
192,192,44324,1,8,0:0:0:0:
448,192,44496,1,8,0:0:0:0:
64,192,44496,1,0,0:0:0:0:
192,192,44583,1,8,0:0:0:0:
320,192,44583,1,0,0:0:0:0:
64,192,44669,1,8,0:0:0:0:
448,192,44669,1,0,0:0:0:0:
64,192,44841,1,0,0:0:0:0:
448,192,44841,1,8,0:0:0:0:
320,192,45014,1,8,0:0:0:0:
192,192,45014,1,0,0:0:0:0:
192,192,45186,1,0,0:0:0:0:
320,192,45186,1,8,0:0:0:0:
192,192,45358,1,2,0:0:0:0:
320,192,45358,1,4,0:0:0:0:
448,192,45358,1,0,0:0:0:0:
64,192,45358,128,0,46221:0:0:0:0:
448,192,45703,1,0,0:0:0:0:
448,192,46048,1,0,0:0:0:0:
320,192,46048,1,2,0:0:0:0:
192,192,46393,1,0,0:0:0:0:
320,192,46565,1,0,0:0:0:0:
64,192,46738,128,0,47427:0:0:0:0:
448,192,46738,1,2,0:0:0:0:
320,192,47083,1,0,0:0:0:0:
192,192,47427,1,2,0:0:0:0:
448,192,47427,1,0,0:0:0:0:
320,192,47514,1,0,0:0:0:0:
192,192,47600,1,0,0:0:0:0:
448,192,47772,1,2,0:0:0:0:
64,192,47772,128,0,48117:0:0:0:0:
192,192,47945,1,0,0:0:0:0:
448,192,48117,1,2,0:0:0:0:
320,192,48117,128,0,48462:0:0:0:0:
192,192,48462,128,0,48807:0:0:0:0:
448,192,48807,128,0,50186:0:0:0:0:
64,192,48807,1,2,0:0:0:0:
192,192,48979,1,0,0:0:0:0:
320,192,49152,1,0,0:0:0:0:
320,192,49324,1,0,0:0:0:0:
64,192,49496,1,2,0:0:0:0:
192,192,49496,1,0,0:0:0:0:
320,192,49669,1,0,0:0:0:0:
192,192,49755,1,0,0:0:0:0:
64,192,49841,1,0,0:0:0:0:
192,192,50014,1,0,0:0:0:0:
64,192,50186,1,0,0:0:0:0:
320,192,50186,1,2,0:0:0:0:
192,192,50272,1,0,0:0:0:0:
320,192,50358,1,0,0:0:0:0:
448,192,50445,1,0,0:0:0:0:
64,192,50531,1,0,0:0:0:0:
192,192,50531,1,2,0:0:0:0:
320,192,50617,1,0,0:0:0:0:
448,192,50703,1,2,0:0:0:0:
64,192,50703,1,0,0:0:0:0:
192,192,50789,1,0,0:0:0:0:
320,192,50876,1,2,0:0:0:0:
448,192,50876,128,0,51738:0:0:0:0:
192,192,51221,1,0,0:0:0:0:
64,192,51565,1,2,0:0:0:0:
320,192,51565,1,0,0:0:0:0:
64,192,51910,1,0,0:0:0:0:
192,192,52083,1,0,0:0:0:0:
448,192,52255,128,0,52945:0:0:0:0:
320,192,52255,1,2,0:0:0:0:
64,192,52600,1,0,0:0:0:0:
192,192,52945,1,0,0:0:0:0:
320,192,52945,1,2,0:0:0:0:
64,192,53031,1,0,0:0:0:0:
192,192,53117,1,0,0:0:0:0:
64,192,53289,1,2,0:0:0:0:
320,192,53289,1,0,0:0:0:0:
448,192,53462,1,0,0:0:0:0:
192,192,53634,128,0,53979:0:0:0:0:
64,192,53634,1,2,0:0:0:0:
320,192,53979,128,0,54324:0:0:0:0:
448,192,54324,128,0,54669:0:0:0:0:
64,192,54324,1,2,0:0:0:0:
192,192,54669,128,0,55014:0:0:0:0:
320,192,54669,1,0,0:0:0:0:
320,192,54841,1,0,0:0:0:0:
64,192,55014,1,2,0:0:0:0:
448,192,55014,1,0,0:0:0:0:
320,192,55100,1,0,0:0:0:0:
64,192,55186,1,0,0:0:0:0:
320,192,55272,1,0,0:0:0:0:
192,192,55358,1,0,0:0:0:0:
320,192,55445,1,0,0:0:0:0:
448,192,55531,1,0,0:0:0:0:
64,192,55531,1,2,0:0:0:0:
192,192,55617,1,0,0:0:0:0:
448,192,55703,1,0,0:0:0:0:
320,192,55703,1,2,0:0:0:0:
192,192,55789,1,0,0:0:0:0:
64,192,55876,1,0,0:0:0:0:
192,192,55962,1,0,0:0:0:0:
320,192,56048,128,0,56221:0:0:0:0:
192,192,56221,128,0,56393:0:0:0:0:
448,192,56393,1,4,0:0:0:0:
64,192,56393,128,0,57427:0:0:0:0:
448,192,56738,1,0,0:0:0:0:
448,192,57083,1,0,0:0:0:0:
320,192,57427,128,0,57772:0:0:0:0:
448,192,57427,1,0,0:0:0:0:
64,192,57772,128,0,58807:0:0:0:0:
192,192,57772,1,0,0:0:0:0:
192,192,58117,1,0,0:0:0:0:
192,192,58462,1,0,0:0:0:0:
192,192,58807,1,0,0:0:0:0:
320,192,58807,128,0,59152:0:0:0:0:
64,192,59152,128,0,59496:0:0:0:0:
192,192,59152,1,0,0:0:0:0:
448,192,59496,128,0,59669:0:0:0:0:
320,192,59496,1,0,0:0:0:0:
192,192,59669,128,0,59841:0:0:0:0:
64,192,59841,128,0,60186:0:0:0:0:
320,192,59841,1,0,0:0:0:0:
320,192,60186,128,0,60531:0:0:0:0:
192,192,60186,1,0,0:0:0:0:
64,192,60531,128,0,61048:0:0:0:0:
192,192,60531,1,0,0:0:0:0:
448,192,60876,1,0,0:0:0:0:
320,192,61221,128,0,61565:0:0:0:0:
64,192,61221,1,0,0:0:0:0:
192,192,61565,128,0,61910:0:0:0:0:
448,192,61565,1,0,0:0:0:0:
448,192,61910,128,0,62945:0:0:0:0:
64,192,61910,1,4,0:0:0:0:
320,192,61910,1,0,0:0:0:0:
64,192,62255,1,0,0:0:0:0:
64,192,62600,1,0,0:0:0:0:
64,192,62945,1,0,0:0:0:0:
192,192,62945,128,0,63289:0:0:0:0:
320,192,63289,1,0,0:0:0:0:
448,192,63289,128,0,64324:0:0:0:0:
320,192,63634,1,0,0:0:0:0:
320,192,63979,1,0,0:0:0:0:
192,192,64324,128,0,64669:0:0:0:0:
320,192,64324,1,0,0:0:0:0:
448,192,64669,128,0,65014:0:0:0:0:
320,192,64669,1,0,0:0:0:0:
192,192,65014,1,0,0:0:0:0:
64,192,65014,128,0,65186:0:0:0:0:
320,192,65186,128,0,65358:0:0:0:0:
192,192,65358,128,0,65703:0:0:0:0:
448,192,65358,1,0,0:0:0:0:
64,192,65703,1,0,0:0:0:0:
448,192,65703,128,0,66048:0:0:0:0:
192,192,65876,1,0,0:0:0:0:
64,192,66048,1,0,0:0:0:0:
192,192,66134,1,0,0:0:0:0:
320,192,66221,1,0,0:0:0:0:
192,192,66307,1,0,0:0:0:0:
448,192,66393,1,0,0:0:0:0:
320,192,66479,1,0,0:0:0:0:
192,192,66565,1,0,0:0:0:0:
320,192,66652,1,0,0:0:0:0:
64,192,66738,1,0,0:0:0:0:
448,192,66824,1,0,0:0:0:0:
192,192,66910,1,0,0:0:0:0:
320,192,66996,1,0,0:0:0:0:
448,192,67083,1,0,0:0:0:0:
64,192,67083,1,0,0:0:0:0:
192,192,67255,1,0,0:0:0:0:
320,192,67255,1,0,0:0:0:0:
64,192,67427,1,0,0:0:0:0:
320,192,67427,1,2,0:0:0:0:
448,192,67427,128,0,68117:0:0:0:0:
192,192,67945,128,2,68117:0:0:0:0:
320,192,68117,1,12,0:0:0:0:
64,192,68117,1,0,0:0:0:0:
64,192,68289,1,0,0:0:0:0:
448,192,68462,1,0,0:0:0:0:
320,192,68462,1,0,0:0:0:0:
192,192,68548,1,0,0:0:0:0:
448,192,68634,1,0,0:0:0:0:
320,192,68634,1,0,0:0:0:0:
192,192,68721,1,0,0:0:0:0:
64,192,68807,128,0,68893:0:0:0:0:
448,192,68807,1,2,0:0:0:0:
64,192,68979,128,0,69065:0:0:0:0:
192,192,69152,1,0,0:0:0:0:
64,192,69152,1,0,0:0:0:0:
320,192,69238,1,0,0:0:0:0:
192,192,69324,1,0,0:0:0:0:
64,192,69324,1,0,0:0:0:0:
320,192,69410,1,0,0:0:0:0:
64,192,69496,128,8,69669:0:0:0:0:
448,192,69496,1,0,0:0:0:0:
320,192,69669,128,0,69841:0:0:0:0:
448,192,69841,128,0,70014:0:0:0:0:
64,192,70014,128,0,70186:0:0:0:0:
192,192,70186,1,2,0:0:0:0:
320,192,70186,128,0,70876:0:0:0:0:
64,192,70531,1,0,0:0:0:0:
448,192,70703,1,2,0:0:0:0:
192,192,70703,1,0,0:0:0:0:
64,192,70876,1,0,0:0:0:0:
192,192,70876,1,8,0:0:0:0:
64,192,71048,128,0,71221:0:0:0:0:
448,192,71221,1,0,0:0:0:0:
192,192,71393,128,0,71565:0:0:0:0:
320,192,71565,1,2,0:0:0:0:
448,192,71565,1,0,0:0:0:0:
64,192,71738,128,8,71910:0:0:0:0:
320,192,71910,1,0,0:0:0:0:
448,192,71910,1,0,0:0:0:0:
64,192,72083,1,2,0:0:0:0:
192,192,72169,1,2,0:0:0:0:
64,192,72255,1,8,0:0:0:0:
448,192,72255,1,8,0:0:0:0:
320,192,72255,128,0,72427:0:0:0:0:
192,192,72427,1,0,0:0:0:0:
320,192,72514,1,2,0:0:0:0:
64,192,72600,1,8,0:0:0:0:
448,192,72600,128,0,72772:0:0:0:0:
192,192,72772,128,0,72945:0:0:0:0:
64,192,72945,1,0,0:0:0:0:
448,192,72945,1,2,0:0:0:0:
320,192,72945,128,0,73634:0:0:0:0:
64,192,73462,128,0,73634:0:0:0:0:
192,192,73634,1,12,0:0:0:0:
448,192,73634,1,0,0:0:0:0:
448,192,73807,1,0,0:0:0:0:
448,192,73979,1,0,0:0:0:0:
64,192,73979,1,0,0:0:0:0:
320,192,74065,1,0,0:0:0:0:
64,192,74152,1,0,0:0:0:0:
448,192,74152,1,0,0:0:0:0:
320,192,74238,1,0,0:0:0:0:
192,192,74324,1,2,0:0:0:0:
64,192,74324,128,0,74496:0:0:0:0:
320,192,74496,128,0,74669:0:0:0:0:
192,192,74669,128,0,74841:0:0:0:0:
448,192,74841,128,0,75014:0:0:0:0:
320,192,75014,1,8,0:0:0:0:
64,192,75014,128,0,75100:0:0:0:0:
64,192,75186,128,0,75358:0:0:0:0:
320,192,75358,128,0,75445:0:0:0:0:
192,192,75531,1,0,0:0:0:0:
320,192,75531,128,0,75703:0:0:0:0:
64,192,75617,1,0,0:0:0:0:
192,192,75703,1,2,0:0:0:0:
448,192,75703,128,0,76048:0:0:0:0:
320,192,76048,1,0,0:0:0:0:
64,192,76048,1,0,0:0:0:0:
320,192,76163,1,0,0:0:0:0:
64,192,76163,1,0,0:0:0:0:
320,192,76278,1,0,0:0:0:0:
64,192,76278,1,0,0:0:0:0:
192,192,76393,128,0,76738:0:0:0:0:
448,192,76393,1,8,0:0:0:0:
64,192,76738,1,0,0:0:0:0:
320,192,76738,1,0,0:0:0:0:
192,192,76910,1,2,0:0:0:0:
320,192,76910,1,0,0:0:0:0:
64,192,77083,1,2,0:0:0:0:
192,192,77083,1,0,0:0:0:0:
320,192,77083,1,4,0:0:0:0:
448,192,77083,1,0,0:0:0:0:
64,192,77255,1,0,0:0:0:0:
320,192,77255,1,0,0:0:0:0:
192,192,77427,1,8,0:0:0:0:
448,192,77427,1,0,0:0:0:0:
64,192,77600,1,0,0:0:0:0:
320,192,77686,1,8,0:0:0:0:
448,192,77686,1,0,0:0:0:0:
192,192,77772,1,0,0:0:0:0:
320,192,77945,1,8,0:0:0:0:
448,192,77945,1,0,0:0:0:0:
192,192,78117,1,8,0:0:0:0:
64,192,78117,1,0,0:0:0:0:
448,192,78117,1,0,0:0:0:0:
320,192,78289,1,0,0:0:0:0:
64,192,78289,1,8,0:0:0:0:
192,192,78376,1,8,0:0:0:0:
64,192,78462,1,0,0:0:0:0:
448,192,78462,1,2,0:0:0:0:
320,192,78462,128,0,79152:0:0:0:0:
192,192,79152,1,4,0:0:0:0:
64,192,79152,1,8,0:0:0:0:
448,192,79152,1,0,0:0:0:0:
320,192,79324,1,0,0:0:0:0:
192,192,79410,1,0,0:0:0:0:
320,192,79496,1,0,0:0:0:0:
448,192,79496,128,0,79669:0:0:0:0:
192,192,79669,1,0,0:0:0:0:
64,192,79669,128,0,79841:0:0:0:0:
320,192,79841,1,2,0:0:0:0:
448,192,79841,1,0,0:0:0:0:
192,192,80014,1,0,0:0:0:0:
320,192,80100,1,0,0:0:0:0:
192,192,80186,1,0,0:0:0:0:
64,192,80186,128,0,80358:0:0:0:0:
320,192,80358,1,0,0:0:0:0:
448,192,80358,128,0,80531:0:0:0:0:
320,192,80531,1,0,0:0:0:0:
64,192,80531,1,0,0:0:0:0:
192,192,80531,1,8,0:0:0:0:
64,192,80703,1,0,0:0:0:0:
448,192,80703,1,0,0:0:0:0:
192,192,80789,1,0,0:0:0:0:
320,192,80789,1,0,0:0:0:0:
448,192,80876,1,0,0:0:0:0:
64,192,80876,128,0,81048:0:0:0:0:
192,192,81048,128,0,81221:0:0:0:0:
448,192,81221,128,0,81565:0:0:0:0:
320,192,81221,1,2,0:0:0:0:
64,192,81565,1,0,0:0:0:0:
192,192,81738,1,2,0:0:0:0:
320,192,81738,1,0,0:0:0:0:
320,192,81910,1,8,0:0:0:0:
448,192,81910,1,0,0:0:0:0:
320,192,82025,1,0,0:0:0:0:
448,192,82025,1,0,0:0:0:0:
320,192,82140,1,0,0:0:0:0:
448,192,82140,1,0,0:0:0:0:
192,192,82255,1,0,0:0:0:0:
64,192,82255,1,0,0:0:0:0:
192,192,82370,1,0,0:0:0:0:
64,192,82370,1,0,0:0:0:0:
192,192,82485,1,0,0:0:0:0:
64,192,82485,1,0,0:0:0:0:
320,192,82600,1,0,0:0:0:0:
448,192,82600,1,0,0:0:0:0:
320,192,82715,1,0,0:0:0:0:
448,192,82715,1,0,0:0:0:0:
448,192,82830,1,0,0:0:0:0:
320,192,82830,1,0,0:0:0:0:
64,192,82945,128,0,83289:0:0:0:0:
192,192,82945,128,2,83289:0:0:0:0:
320,192,83289,1,8,0:0:0:0:
448,192,83289,128,0,83462:0:0:0:0:
192,192,83548,1,8,0:0:0:0:
64,192,83548,128,0,83721:0:0:0:0:
320,192,83807,128,0,83979:0:0:0:0:
192,192,83807,1,8,0:0:0:0:
192,192,83979,128,0,84669:0:0:0:0:
64,192,83979,1,0,0:0:0:0:
448,192,83979,1,2,0:0:0:0:
64,192,84496,128,0,84669:0:0:0:0:
320,192,84669,1,12,0:0:0:0:
448,192,84669,1,0,0:0:0:0:
192,192,84755,1,0,0:0:0:0:
320,192,84841,1,0,0:0:0:0:
448,192,84841,1,0,0:0:0:0:
192,192,84927,1,0,0:0:0:0:
64,192,85014,128,0,85100:0:0:0:0:
448,192,85014,1,0,0:0:0:0:
64,192,85186,128,0,85272:0:0:0:0:
320,192,85358,1,2,0:0:0:0:
448,192,85358,128,0,85531:0:0:0:0:
192,192,85531,128,0,85703:0:0:0:0:
320,192,85703,128,0,85876:0:0:0:0:
64,192,85876,128,0,86048:0:0:0:0:
192,192,86048,1,8,0:0:0:0:
448,192,86048,128,0,86134:0:0:0:0:
448,192,86221,128,0,86307:0:0:0:0:
64,192,86393,128,0,86479:0:0:0:0:
64,192,86565,128,0,86652:0:0:0:0:
320,192,86565,1,0,0:0:0:0:
192,192,86652,1,0,0:0:0:0:
448,192,86738,128,0,87427:0:0:0:0:
320,192,86738,1,0,0:0:0:0:
64,192,86738,1,0,0:0:0:0:
320,192,87083,1,0,0:0:0:0:
192,192,87255,1,0,0:0:0:0:
64,192,87255,1,2,0:0:0:0:
320,192,87427,1,0,0:0:0:0:
64,192,87427,1,8,0:0:0:0:
192,192,87514,1,0,0:0:0:0:
320,192,87600,1,0,0:0:0:0:
192,192,87686,1,0,0:0:0:0:
64,192,87686,1,8,0:0:0:0:
448,192,87772,1,0,0:0:0:0:
64,192,87858,1,0,0:0:0:0:
320,192,87945,1,8,0:0:0:0:
448,192,87945,1,0,0:0:0:0:
64,192,88031,1,0,0:0:0:0:
192,192,88031,1,8,0:0:0:0:
448,192,88117,128,0,88289:0:0:0:0:
320,192,88117,1,2,0:0:0:0:
192,192,88289,128,0,88462:0:0:0:0:
64,192,88289,1,2,0:0:0:0:
448,192,88462,1,2,0:0:0:0:
320,192,88462,128,0,88634:0:0:0:0:
192,192,88634,1,2,0:0:0:0:
64,192,88634,128,0,88807:0:0:0:0:
448,192,88807,1,0,0:0:0:0:
192,192,88807,1,0,0:0:0:0:
320,192,88979,1,0,0:0:0:0:
192,192,89152,1,0,0:0:0:0:
64,192,89324,1,0,0:0:0:0:
64,192,89496,1,4,0:0:0:0:
448,192,89496,1,0,0:0:0:0:
320,192,89669,1,0,0:0:0:0:
192,192,89755,1,0,0:0:0:0:
320,192,89841,1,0,0:0:0:0:
448,192,89841,1,0,0:0:0:0:
192,192,90014,1,0,0:0:0:0:
320,192,90186,1,0,0:0:0:0:
192,192,90272,1,0,0:0:0:0:
320,192,90358,1,0,0:0:0:0:
448,192,90358,1,0,0:0:0:0:
64,192,90531,1,0,0:0:0:0:
192,192,90617,1,0,0:0:0:0:
320,192,90703,1,0,0:0:0:0:
192,192,90789,1,0,0:0:0:0:
448,192,90876,1,0,0:0:0:0:
64,192,90876,1,0,0:0:0:0:
192,192,91048,1,0,0:0:0:0:
320,192,91134,1,0,0:0:0:0:
192,192,91221,1,0,0:0:0:0:
64,192,91221,1,0,0:0:0:0:
320,192,91393,1,0,0:0:0:0:
448,192,91479,1,0,0:0:0:0:
192,192,91565,1,0,0:0:0:0:
64,192,91652,1,0,0:0:0:0:
192,192,91738,1,0,0:0:0:0:
320,192,91824,1,0,0:0:0:0:
448,192,91910,1,0,0:0:0:0:
320,192,91996,1,0,0:0:0:0:
64,192,92083,1,0,0:0:0:0:
192,192,92083,1,0,0:0:0:0:
64,192,92255,1,0,0:0:0:0:
448,192,92255,1,0,0:0:0:0:
192,192,92427,1,0,0:0:0:0:
320,192,92514,1,0,0:0:0:0:
64,192,92600,1,0,0:0:0:0:
448,192,92600,1,0,0:0:0:0:
192,192,92772,1,0,0:0:0:0:
320,192,92945,1,0,0:0:0:0:
192,192,93031,1,0,0:0:0:0:
448,192,93117,1,0,0:0:0:0:
64,192,93117,1,0,0:0:0:0:
320,192,93289,1,0,0:0:0:0:
192,192,93376,1,0,0:0:0:0:
320,192,93462,1,0,0:0:0:0:
192,192,93548,1,0,0:0:0:0:
448,192,93634,128,0,93893:0:0:0:0:
320,192,93634,1,0,0:0:0:0:
192,192,93807,1,0,0:0:0:0:
64,192,93893,1,0,0:0:0:0:
320,192,93979,128,0,94238:0:0:0:0:
448,192,93979,1,0,0:0:0:0:
192,192,94152,1,0,0:0:0:0:
64,192,94238,1,0,0:0:0:0:
448,192,94324,1,0,0:0:0:0:
192,192,94410,1,0,0:0:0:0:
448,192,94496,1,0,0:0:0:0:
192,192,94583,1,0,0:0:0:0:
448,192,94669,1,0,0:0:0:0:
192,192,94755,1,0,0:0:0:0:
320,192,94841,1,0,0:0:0:0:
448,192,94841,1,0,0:0:0:0:
192,192,95014,1,0,0:0:0:0:
64,192,95014,1,0,0:0:0:0:
448,192,95186,1,0,0:0:0:0:
320,192,95272,1,0,0:0:0:0:
192,192,95358,1,0,0:0:0:0:
64,192,95358,1,0,0:0:0:0:
320,192,95531,1,0,0:0:0:0:
448,192,95531,1,0,0:0:0:0:
64,192,95703,1,0,0:0:0:0:
192,192,95789,1,0,0:0:0:0:
320,192,95876,1,0,0:0:0:0:
448,192,95876,1,0,0:0:0:0:
192,192,96048,1,0,0:0:0:0:
64,192,96221,1,0,0:0:0:0:
320,192,96393,1,0,0:0:0:0:
448,192,96393,1,0,0:0:0:0:
64,192,96565,1,0,0:0:0:0:
192,192,96652,1,0,0:0:0:0:
320,192,96738,1,0,0:0:0:0:
448,192,96738,1,0,0:0:0:0:
192,192,96910,1,0,0:0:0:0:
320,192,96996,1,0,0:0:0:0:
448,192,97083,1,0,0:0:0:0:
320,192,97169,1,0,0:0:0:0:
64,192,97255,1,0,0:0:0:0:
192,192,97255,1,0,0:0:0:0:
320,192,97427,1,0,0:0:0:0:
192,192,97600,1,0,0:0:0:0:
64,192,97772,128,0,98117:0:0:0:0:
320,192,98117,128,0,98462:0:0:0:0:
448,192,98462,128,0,98807:0:0:0:0:
192,192,98807,128,0,99152:0:0:0:0:
64,192,99152,128,0,99841:0:0:0:0:
320,192,99841,1,8,0:0:0:0:
448,192,99841,1,0,0:0:0:0:
192,192,99927,1,8,0:0:0:0:
64,192,99927,1,0,0:0:0:0:
320,192,100014,1,8,0:0:0:0:
448,192,100014,1,0,0:0:0:0:
192,192,100100,1,8,0:0:0:0:
64,192,100100,1,0,0:0:0:0:
448,192,100186,1,0,0:0:0:0:
320,192,100186,1,8,0:0:0:0:
192,192,100272,1,0,0:0:0:0:
320,192,100358,1,8,0:0:0:0:
64,192,100358,1,0,0:0:0:0:
192,192,100445,1,0,0:0:0:0:
320,192,100531,1,2,0:0:0:0:
448,192,100531,1,4,0:0:0:0:
64,192,100531,128,0,100876:0:0:0:0:
192,192,100876,1,0,0:0:0:0:
320,192,100876,1,2,0:0:0:0:
448,192,101048,1,8,0:0:0:0:
64,192,101048,1,0,0:0:0:0:
320,192,101221,1,0,0:0:0:0:
192,192,101307,1,2,0:0:0:0:
64,192,101307,1,0,0:0:0:0:
320,192,101393,1,0,0:0:0:0:
192,192,101565,1,8,0:0:0:0:
64,192,101565,1,8,0:0:0:0:
448,192,101565,1,0,0:0:0:0:
320,192,101738,1,0,0:0:0:0:
192,192,101824,1,0,0:0:0:0:
64,192,101910,128,0,102255:0:0:0:0:
448,192,101910,1,2,0:0:0:0:
192,192,102255,1,8,0:0:0:0:
320,192,102255,1,0,0:0:0:0:
448,192,102255,1,0,0:0:0:0:
448,192,102427,1,0,0:0:0:0:
64,192,102427,1,2,0:0:0:0:
320,192,102600,1,0,0:0:0:0:
192,192,102772,1,2,0:0:0:0:
448,192,102772,1,0,0:0:0:0:
448,192,102945,1,8,0:0:0:0:
64,192,102945,1,0,0:0:0:0:
320,192,102945,1,0,0:0:0:0:
192,192,103117,1,0,0:0:0:0:
448,192,103289,1,2,0:0:0:0:
320,192,103289,128,0,103634:0:0:0:0:
192,192,103634,1,8,0:0:0:0:
64,192,103634,1,0,0:0:0:0:
448,192,103634,1,0,0:0:0:0:
320,192,103807,1,0,0:0:0:0:
192,192,103807,1,2,0:0:0:0:
64,192,103979,1,0,0:0:0:0:
192,192,104065,1,2,0:0:0:0:
320,192,104065,1,0,0:0:0:0:
448,192,104152,1,0,0:0:0:0:
320,192,104324,1,8,0:0:0:0:
192,192,104324,1,0,0:0:0:0:
64,192,104324,1,0,0:0:0:0:
192,192,104496,1,0,0:0:0:0:
448,192,104496,1,2,0:0:0:0:
64,192,104669,1,0,0:0:0:0:
320,192,104669,1,2,0:0:0:0:
448,192,104669,1,4,0:0:0:0:
64,192,104841,1,2,0:0:0:0:
448,192,104841,1,0,0:0:0:0:
320,192,104899,1,2,0:0:0:0:
192,192,104956,1,2,0:0:0:0:
64,192,105014,1,8,0:0:0:0:
448,192,105014,1,0,0:0:0:0:
192,192,105186,1,2,0:0:0:0:
320,192,105186,1,0,0:0:0:0:
192,192,105358,1,4,0:0:0:0:
64,192,105358,1,2,0:0:0:0:
448,192,105358,1,0,0:0:0:0:
64,192,105531,1,10,0:0:0:0:
448,192,105531,1,0,0:0:0:0:
64,192,105703,1,2,0:0:0:0:
448,192,105703,1,0,0:0:0:0:
320,192,105789,1,0,0:0:0:0:
192,192,105876,1,0,0:0:0:0:
64,192,105876,1,2,0:0:0:0:
320,192,105962,1,0,0:0:0:0:
192,192,106048,1,2,0:0:0:0:
448,192,106048,1,4,0:0:0:0:
64,192,106048,128,0,106393:0:0:0:0:
320,192,106393,1,8,0:0:0:0:
448,192,106393,1,0,0:0:0:0:
192,192,106565,1,0,0:0:0:0:
64,192,106565,1,2,0:0:0:0:
320,192,106738,1,0,0:0:0:0:
192,192,106824,1,2,0:0:0:0:
64,192,106824,1,0,0:0:0:0:
320,192,106910,1,0,0:0:0:0:
192,192,107083,1,0,0:0:0:0:
64,192,107083,1,0,0:0:0:0:
448,192,107083,1,8,0:0:0:0:
320,192,107255,1,0,0:0:0:0:
448,192,107427,128,0,107772:0:0:0:0:
192,192,107427,1,2,0:0:0:0:
320,192,107772,1,8,0:0:0:0:
64,192,107772,1,0,0:0:0:0:
192,192,107945,1,2,0:0:0:0:
64,192,107945,1,0,0:0:0:0:
448,192,108117,1,0,0:0:0:0:
320,192,108289,1,0,0:0:0:0:
192,192,108289,1,2,0:0:0:0:
64,192,108462,1,8,0:0:0:0:
448,192,108462,1,0,0:0:0:0:
192,192,108462,1,0,0:0:0:0:
320,192,108634,1,0,0:0:0:0:
192,192,108807,1,4,0:0:0:0:
64,192,108807,1,2,0:0:0:0:
448,192,108807,1,0,0:0:0:0:
320,192,109152,1,10,0:0:0:0:
64,192,109152,1,0,0:0:0:0:
192,192,109324,1,0,0:0:0:0:
320,192,109324,1,8,0:0:0:0:
192,192,109496,1,12,0:0:0:0:
64,192,109496,1,2,0:0:0:0:
448,192,109496,1,0,0:0:0:0:
320,192,109669,1,10,0:0:0:0:
448,192,109669,1,0,0:0:0:0:
64,192,109841,1,0,0:0:0:0:
320,192,109841,1,10,0:0:0:0:
320,192,110014,1,10,0:0:0:0:
192,192,110014,1,0,0:0:0:0:
64,192,110186,1,10,0:0:0:0:
448,192,110186,1,0,0:0:0:0:
192,192,110272,1,8,0:0:0:0:
320,192,110358,1,8,0:0:0:0:
448,192,110358,1,0,0:0:0:0:
192,192,110445,1,8,0:0:0:0:
448,192,110531,1,0,0:0:0:0:
64,192,110531,1,8,0:0:0:0:
192,192,110617,1,8,0:0:0:0:
320,192,110617,1,0,0:0:0:0:
448,192,110703,1,0,0:0:0:0:
64,192,110703,1,8,0:0:0:0:
192,192,110789,1,8,0:0:0:0:
320,192,110789,1,0,0:0:0:0:
64,192,110876,1,8,0:0:0:0:
448,192,110876,1,0,0:0:0:0:
64,192,111048,1,8,0:0:0:0:
448,192,111048,1,0,0:0:0:0:
320,192,111221,1,0,0:0:0:0:
192,192,111221,1,8,0:0:0:0:
320,192,111393,1,0,0:0:0:0:
192,192,111393,1,8,0:0:0:0:
192,192,111565,1,4,0:0:0:0:
64,192,111565,1,2,0:0:0:0:
448,192,111565,1,0,0:0:0:0:
320,192,111738,1,0,0:0:0:0:
448,192,111910,1,0,0:0:0:0:
192,192,112083,1,2,0:0:0:0:
64,192,112083,1,0,0:0:0:0:
448,192,112255,1,2,0:0:0:0:
64,192,112255,1,0,0:0:0:0:
320,192,112427,1,0,0:0:0:0:
192,192,112600,1,0,0:0:0:0:
192,192,112772,1,0,0:0:0:0:
64,192,112772,1,2,0:0:0:0:
320,192,112945,1,0,0:0:0:0:
64,192,112945,1,6,0:0:0:0:
448,192,112945,1,0,0:0:0:0:
320,192,113117,1,0,0:0:0:0:
192,192,113289,1,0,0:0:0:0:
64,192,113462,1,2,0:0:0:0:
320,192,113462,1,0,0:0:0:0:
192,192,113634,1,0,0:0:0:0:
64,192,113634,1,2,0:0:0:0:
320,192,113807,1,0,0:0:0:0:
192,192,113979,1,0,0:0:0:0:
448,192,113979,1,2,0:0:0:0:
192,192,114152,1,0,0:0:0:0:
448,192,114152,1,2,0:0:0:0:
320,192,114324,1,2,0:0:0:0:
448,192,114324,1,4,0:0:0:0:
64,192,114324,1,0,0:0:0:0:
192,192,114496,1,0,0:0:0:0:
320,192,114669,1,0,0:0:0:0:
192,192,114841,1,0,0:0:0:0:
64,192,115014,1,0,0:0:0:0:
448,192,115014,1,4,0:0:0:0:
320,192,115014,1,2,0:0:0:0:
192,192,115186,1,0,0:0:0:0:
448,192,115358,1,0,0:0:0:0:
192,192,115531,1,0,0:0:0:0:
64,192,115703,1,2,0:0:0:0:
448,192,115703,1,0,0:0:0:0:
320,192,115703,1,4,0:0:0:0:
192,192,115789,1,0,0:0:0:0:
320,192,115876,1,0,0:0:0:0:
448,192,115962,1,0,0:0:0:0:
64,192,116048,1,0,0:0:0:0:
192,192,116134,1,0,0:0:0:0:
320,192,116221,1,0,0:0:0:0:
448,192,116307,1,0,0:0:0:0:
64,192,116393,1,0,0:0:0:0:
448,192,116479,1,0,0:0:0:0:
192,192,116565,1,0,0:0:0:0:
320,192,116652,1,0,0:0:0:0:
64,192,116738,1,0,0:0:0:0:
448,192,116824,1,0,0:0:0:0:
320,192,116910,1,0,0:0:0:0:
192,192,116996,1,0,0:0:0:0:
448,192,117083,128,0,119841:0:0:0:0:
64,192,117083,1,0,0:0:0:0:
