osu file format v14

[General]
AudioFilename: T.mp3
AudioLeadIn: 0
PreviewTime: 65206
Countdown: 0
SampleSet: Soft
StackLeniency: 0.7
Mode: 0
LetterboxInBreaks: 0
WidescreenStoryboard: 0

[Editor]
DistanceSpacing: 1.5
BeatDivisor: 4
GridSize: 4
TimelineZoom: 1.4

[Metadata]
Title:TSUBAKI
TitleUnicode:TSUBAKI
Artist:Ocelot
ArtistUnicode:Ocelot
Creator:kiddly
Version:Standard
Source:
Tags:dubstep Diverse System AD:DUBSTEP M3-32 tsunamayo ArzatoRx Skystar Megurine Luka Callionet Intensity
BeatmapID:757342
BeatmapSetID:336772

[Difficulty]
HPDrainRate:1
CircleSize:3
OverallDifficulty:1
ApproachRate:2
SliderMultiplier:0.6
SliderTickRate:1

[Events]
//Background and Video events
0,0,"Konachan.com+-+198755+sample.jpg",0,0
//Break Periods
2,55758,63646
2,103396,111887
2,123296,131184
//Storyboard Layer 0 (Background)
//Storyboard Layer 1 (Fail)
//Storyboard Layer 2 (Pass)
//Storyboard Layer 3 (Foreground)
//Storyboard Sound Samples
Sample,5741,0,"soft-sliderslide.wav",70

[TimingPoints]
304,375,4,2,1,50,1,0
25811,352.941176470588,4,2,1,50,1,0
28634,333.333333333333,4,2,1,50,1,0
31300,315.789473684211,4,2,1,50,1,0
33826,307.692307692308,4,2,1,50,1,0
35056,301.507537688442,4,1,0,50,1,0
36262,-100,4,2,0,50,0,0
45910,-100,4,1,0,50,0,0
132744,-100,4,3,0,60,0,0
152040,-100,4,1,0,50,0,0

[Colours]
Combo1 : 255,150,0
Combo2 : 255,128,128
Combo3 : 255,128,255
Combo4 : 255,255,128

[HitObjects]
40,196,35659,6,0,L|36:268,1,60,0|0,2:0|2:0,2:0:0:0:
104,316,36262,2,0,P|156:288|228:296,1,120,0|2,1:0|2:0,0:0:0:0:
384,228,37468,2,0,P|324:230|272:202,1,120
184,48,38674,6,0,L|192:116,1,60,0|2,0:0|0:0,0:0:0:0:
144,184,39277,2,0,L|152:252,1,60
204,316,39880,1,2,0:0:0:0:
380,348,40483,6,0,L|440:336,1,60
496,264,41086,2,0,P|464:216|472:148,1,120,0|2,0:0|0:0,0:0:0:0:
336,32,42292,2,0,P|372:88|364:144,1,120
252,280,43498,6,0,L|184:272,1,60,0|2,0:0|0:0,0:0:0:0:
144,196,44101,2,0,L|76:188,1,60
24,120,44704,1,2,0:0:0:0:
52,296,45307,6,0,P|80:280|116:284,1,60
188,316,45910,2,0,B|232:308|232:308|280:320,2,90,0|0|8,0:0|0:0|0:0,0:0:0:0:
112,364,47116,5,0,0:0:0:0:
152,236,47568,2,0,P|156:188|136:144,1,90,0|8,0:0|0:0,0:0:0:0:
68,96,48322,5,0,0:0:0:0:
196,56,48774,2,0,B|224:48|224:48|292:56,1,90,0|8,0:0|0:0,0:0:0:0:
300,144,49528,2,0,P|392:164|376:56,1,240
242,36,51186,6,0,P|215:70|222:117,1,90,0|8,0:0|0:0,0:0:0:0:
228,204,51940,2,0,B|199:243|199:243|151:253,2,90,0|0|8,0:0|0:0|0:0,0:0:0:0:
308,160,53146,6,0,L|376:154,1,60
416,232,53749,2,0,L|356:237,1,60,0|8,0:0|0:0,0:0:0:0:
296,304,54352,2,0,B|261:312|261:312|239:353|239:353|201:362,2,120,0|0|4,0:0|0:0|0:0,0:0:0:0:
75,296,65206,6,2,P|47:209|163:200,1,240,2|0,0:0|0:0,0:0:0:0:
165,288,66714,1,0,0:0:0:0:
250,317,67015,2,2,L|311:309,1,60
385,260,67618,6,0,B|432:273|432:273|466:231|470:180|422:141|422:141|372:151,1,240,4|2,0:0|0:0,0:0:0:0:
237,43,69427,2,2,L|231:112,1,60,2|0,0:0|0:0,0:0:0:0:
182,178,70030,6,0,B|169:209|169:209|209:189|272:214|273:309|188:327|163:282,1,240
90,250,71538,1,0,0:0:0:0:
64,163,71839,2,2,P|63:134|85:102,1,60,0|2,0:0|0:0,0:0:0:0:
143,46,72442,2,0,P|169:35|211:39,2,60,2|0|0,0:0|0:0|0:0,0:0:0:0:
317,89,73648,5,0,0:0:0:0:
405,104,73950,1,8,0:0:0:0:
490,75,74251,2,0,P|488:53|481:39,1,30,0|8,0:0|0:0,0:0:0:0:
476,180,74854,6,0,L|463:251,1,60
401,303,75458,2,2,P|345:272|283:282,1,120,2|0,0:0|0:0,0:0:0:0:
216,327,76362,1,0,0:0:0:0:
128,348,76664,2,2,L|59:339,1,60,0|2,0:0|0:0,0:0:0:0:
37,255,77267,6,0,B|59:208|59:208|40:130,1,120
221,162,78473,2,0,L|152:151,1,60
106,81,79076,2,2,L|90:19,1,60,2|0,0:0|0:0,0:0:0:0:
181,18,79679,6,0,B|242:28|242:28|283:79|283:79,1,120,0|8,0:0|0:0,0:0:0:0:
329,245,80885,2,0,B|390:235|390:235|431:184|431:184,1,120,0|8,0:0|0:0,0:0:0:0:
459,106,81789,1,0,0:0:0:0:
394,42,82091,6,4,L|271:61,1,120,4|0,0:0|0:0,0:0:0:0:
103,114,83297,2,0,P|91:79|99:52,2,60
40,282,84503,6,0,L|105:273,1,60,0|8,0:0|0:0,0:0:0:0:
181,310,85106,2,0,L|246:301,1,60,0|8,0:0|0:0,0:0:0:0:
319,257,85709,2,0,P|353:302|420:301,1,120,4|0,0:0|0:0,0:0:0:0:
487,254,86613,1,2,0:0:0:0:
457,168,86915,6,0,L|393:177,1,60,0|8,0:0|0:0,0:0:0:0:
322,126,87518,2,0,L|258:135,1,60,0|8,0:0|0:0,0:0:0:0:
199,198,88121,2,0,B|219:236|219:236|203:334|203:334|177:294,1,180,4|0,0:0|0:0,0:0:0:0:
114,244,89327,6,2,P|108:157|236:114,1,240,2|4,0:0|0:0,0:0:0:0:
276,191,90834,1,8,0:0:0:0:
246,276,91136,2,0,B|304:292|304:292|370:281,1,120,0|4,0:0|0:0,0:0:0:0:
198,355,92342,2,0,B|140:339|140:339|74:350,1,120,0|4,0:0|0:0,0:0:0:0:
51,107,94151,6,0,P|73:93|111:89,1,60,0|8,0:0|0:0,0:0:0:0:
185,46,94754,2,0,P|210:51|240:75,1,60,0|8,0:0|0:0,0:0:0:0:
296,140,95357,2,0,B|332:156|332:156|424:144,1,120
504,300,96563,6,0,P|482:314|444:318,1,60,0|8,0:0|0:0,0:0:0:0:
370,361,97166,2,0,P|345:356|315:332,1,60,0|8,0:0|0:0,0:0:0:0:
244,284,97769,2,0,B|228:248|228:248|240:156,1,120,4|0,0:0|0:0,0:0:0:0:
388,64,98975,6,2,P|428:104|424:172,1,120,2|0,0:0|0:0,0:0:0:0:
256,220,100181,2,0,P|216:180|220:112,1,120,4|0,0:0|0:0,0:0:0:0:
388,64,101387,5,2,0:0:0:0:
352,240,101990,1,0,0:0:0:0:
216,120,102593,1,2,0:0:0:0:
128,140,102895,1,0,0:0:0:0:
40,160,103196,1,2,0:0:0:0:
408,334,113447,6,0,P|448:286|448:226,1,120,0|8,0:0|0:0,0:0:0:0:
288,152,114653,2,0,B|220:164|220:164|184:204,1,120,0|8,0:0|0:0,0:0:0:0:
128,268,115558,1,0,0:0:0:0:
56,320,115860,6,0,P|40:276|64:208,1,120,0|8,0:0|0:0,0:0:0:0:
108,36,117066,2,0,B|136:80|136:80|208:96,1,120,0|8,0:0|0:0,0:0:0:0:
292,80,117970,1,0,0:0:0:0:
368,28,118272,6,0,P|384:92|360:144,1,120,0|8,0:0|0:0,0:0:0:0:
240,272,119478,2,0,B|256:200|256:200|236:156,1,120,0|8,0:0|0:0,0:0:0:0:
156,120,120382,1,0,0:0:0:0:
68,148,120684,6,0,L|60:216,1,60,8|0,0:0|0:0,0:0:0:0:
32,292,121287,2,0,L|24:360,1,60,8|0,0:0|0:0,0:0:0:0:
112,332,121890,6,0,B|137:311|137:311|160:328|160:328|196:278|275:289,1,180,4|0,0:0|0:0,0:0:0:0:
352,320,123096,1,4,0:0:0:0:
392,264,132744,5,4,0:0:0:0:
424,88,133347,1,8,0:0:0:0:
308,224,133950,1,4,0:0:0:0:
340,48,134553,1,8,0:0:0:0:
160,52,135156,5,4,0:0:0:0:
192,228,135759,1,8,0:0:0:0:
76,92,136362,1,4,0:0:0:0:
108,268,136965,1,8,0:0:0:0:
284,300,137568,6,0,P|344:272|404:280,1,120,4|8,0:0|0:0,0:0:0:0:
224,220,138774,2,0,P|152:248|104:244,1,120,4|8,0:0|0:0,0:0:0:0:
80,68,139980,6,0,P|133:42|193:42,1,120,4|8,0:0|0:0,0:0:0:0:
372,76,141186,2,0,P|318:101|258:101,1,120,4|8,0:0|0:0,0:0:0:0:
84,140,142392,6,0,B|60:172|60:172|76:256,1,120,4|2,0:0|3:1,0:0:0:0:
172,100,143598,1,4,0:0:0:0:
164,280,144201,1,2,0:1:0:0:
344,300,144804,6,0,B|368:268|368:268|352:184,1,120,6|2,0:0|0:1,0:0:0:0:
256,340,146010,1,8,0:0:0:0:
264,160,146613,1,2,0:1:0:0:
432,96,147216,5,8,0:0:0:0:
252,72,147819,1,2,0:1:0:0:
400,176,148422,1,8,0:0:0:0:
220,152,149025,1,2,0:1:0:0:
248,328,149628,5,8,0:0:0:0:
68,352,150231,1,2,0:1:0:0:
216,248,150834,1,8,0:0:0:0:
36,272,151437,1,0,0:1:0:0:
75,88,152040,6,2,P|47:175|163:184,1,240,2|0,0:0|0:0,0:0:0:0:
165,96,153548,1,0,0:0:0:0:
250,67,153849,2,2,L|311:75,1,60
385,124,154452,6,0,B|432:111|432:111|466:153|470:204|422:243|422:243|372:233,1,240,4|2,0:0|0:0,0:0:0:0:
237,341,156261,2,2,L|231:272,1,60,2|0,0:0|0:0,0:0:0:0:
182,206,156864,6,0,B|169:175|169:175|209:195|272:170|273:75|188:57|163:102,1,240
90,134,158372,1,0,0:0:0:0:
64,221,158673,2,2,P|63:250|85:282,1,60,0|2,0:0|0:0,0:0:0:0:
143,338,159276,2,0,P|169:349|211:345,2,60,2|0|0,0:0|0:0|0:0,0:0:0:0:
317,295,160482,5,0,0:0:0:0:
405,280,160784,1,8,0:0:0:0:
490,309,161085,2,0,P|488:331|481:345,1,30,0|8,0:0|0:0,0:0:0:0:
476,204,161688,6,0,L|463:133,1,60
401,81,162292,2,2,P|345:112|283:102,1,120,2|0,0:0|0:0,0:0:0:0:
216,57,163196,5,0,0:0:0:0:
128,36,163498,2,2,L|59:45,1,60,0|2,0:0|0:0,0:0:0:0:
36,128,164101,6,0,L|48:184,1,45,4|0,0:2|0:0,0:0:0:0:
32,236,164553,2,0,L|44:292,1,45,4|0,0:2|0:0,0:0:0:0:
24,344,165005,1,6,0:2:0:0:
112,324,165307,6,0,L|171:314,1,60
256,344,165910,2,0,L|270:285,1,60,2|0,0:0|0:0,0:0:0:0:
356,260,166513,6,2,B|417:270|417:270|458:321|458:321,1,120,2|0,0:0|0:0,0:0:0:0:
336,176,167719,2,2,B|275:166|275:166|234:115|234:115,1,120
196,44,168623,1,0,0:0:0:0:
120,92,168925,6,2,L|-3:73,1,120
96,228,170131,2,2,P|84:263|92:290,2,60,2|0|2,0:0|0:0|0:0,0:0:0:0:
260,296,171337,6,0,L|356:284,1,90,0|8,0:0|0:0,0:0:0:0:
240,204,172241,2,0,L|150:215,1,90,0|8,0:0|0:0,0:0:0:0:
24,172,173146,2,0,P|20:136|44:112,1,60,0|8,0:0|0:0,0:0:0:0:
116,84,173749,6,0,L|212:96,1,90,0|8,0:0|0:0,0:0:0:0:
296,196,174653,2,0,L|206:184,1,90,0|8,0:0|0:0,0:0:0:0:
84,240,175558,2,0,P|76:280|92:300,1,60,0|8,0:0|0:0,0:0:0:0:
164,340,176161,5,0,0:0:0:0:
248,308,176463,2,0,L|288:312,1,30,0|8,0:0|0:0,0:0:0:0:
396,248,177066,5,0,0:0:0:0:
312,216,177368,2,0,L|272:220,1,30,0|8,0:0|0:0,0:0:0:0:
148,240,177970,2,0,P|136:212|144:180,1,60,0|8,0:0|0:0,0:0:0:0:
204,116,178573,6,4,B|236:132|236:132|292:124,4,90
