osu file format v14

[General]
AudioFilename: wubwub.mp3
AudioLeadIn: 0
PreviewTime: 65206
Countdown: 0
SampleSet: Normal
StackLeniency: 0.4
Mode: 0
LetterboxInBreaks: 0
WidescreenStoryboard: 1

[Editor]
Bookmarks: 103799,113447,132744,152040,171337,180381
DistanceSpacing: 0.1
BeatDivisor: 4
GridSize: 16
TimelineZoom: 3.199998

[Metadata]
Title:TSUBAKI
TitleUnicode:TSUBAKI
Artist:Ocelot
ArtistUnicode:Ocelot
Creator:burntcedar13
Version:Easy V2 AR9.5
Source:
Tags:
BeatmapID:1279473
BeatmapSetID:591655

[Difficulty]
HPDrainRate:3
CircleSize:4.1
OverallDifficulty:8
ApproachRate:9.5
SliderMultiplier:1.8
SliderTickRate:1

[Events]
//Background and Video events
0,0,"tsubakibg.png",0,0
//Break Periods
//Storyboard Layer 0 (Background)
//Storyboard Layer 1 (Fail)
//Storyboard Layer 2 (Pass)
//Storyboard Layer 3 (Foreground)
//Storyboard Sound Samples
Sample,5741,0,"soft-sliderslide.wav",70

[TimingPoints]
304,375,4,1,0,72,1,0
25811,352.941176470588,4,1,0,72,1,0
28634,333.333333333333,4,1,0,72,1,0
31300,315.789473684211,4,1,0,72,1,0
33826,307.692307692308,4,1,0,72,1,0
35056,301.507537688442,4,1,0,72,1,0
65206,-50,4,1,0,72,0,0
84955,-66.6666666666667,4,1,0,72,0,0
86010,-50,4,1,0,72,0,0
87518,-66.6666666666667,4,1,0,72,0,0
90834,-50,4,1,0,72,0,0
103799,-100,4,1,0,72,0,0
113447,-66.6666666666667,4,1,0,72,0,0
117216,-50,4,1,0,75,0,0
117518,-66.6666666666667,4,1,0,72,0,0
120382,-50,4,1,0,72,0,0
151739,2412.06030150754,4,1,0,72,1,0
151739,-1000,4,1,0,72,0,0
152040,301.507537688442,4,1,0,72,1,0
152040,-47.6190476190476,4,1,0,72,0,0
182115,-50,4,1,0,5,0,0

[HitObjects]
61,97,55558,6,0,L|134:115,1,45
278,188,56010,2,0,L|205:206,1,45
61,294,56463,2,0,L|134:312,1,45
111,81,56764,6,0,L|184:99,1,45
328,172,57216,2,0,L|255:190,1,45
111,278,57669,2,0,L|184:296,1,45
161,65,57970,6,0,L|234:83,1,45
378,156,58422,2,0,L|305:174,1,45
161,262,58875,2,0,L|234:280,1,45
211,49,59176,6,0,L|284:67,1,45
428,140,59628,2,0,L|355:158,1,45
211,246,60081,2,0,L|284:264,1,45
476,299,60382,5,0,0:0:0:0:
293,345,60533,1,0,0:0:0:0:
476,299,60684,1,0,0:0:0:0:
293,345,60835,1,0,0:0:0:0:
476,299,60985,1,0,0:0:0:0:
476,299,61287,5,0,0:0:0:0:
293,345,61438,1,0,0:0:0:0:
359,225,61588,1,0,0:0:0:0:
262,35,61739,1,0,0:0:0:0:
359,225,61890,1,0,0:0:0:0:
262,35,62041,1,0,0:0:0:0:
359,225,62191,1,0,0:0:0:0:
359,225,62493,5,0,0:0:0:0:
210,110,62794,5,0,0:0:0:0:
32,263,62945,1,0,0:0:0:0:
299,260,63096,1,0,0:0:0:0:
66,154,63246,1,0,0:0:0:0:
88,158,63322,1,0,0:0:0:0:
200,115,63397,5,0,0:0:0:0:
26,269,63548,1,0,0:0:0:0:
248,183,63699,5,0,0:0:0:0:
270,188,63775,1,0,0:0:0:0:
370,150,63849,1,0,0:0:0:0:
392,155,63925,1,0,0:0:0:0:
416,255,64000,6,0,B|414:254|404:253|404:253|415:254|415:254|405:254|405:254|416:255|416:255|406:253|406:253|416:255|416:255|407:254|407:254|416:255|416:255|416:255|416:255|407:254|407:254|416:255|416:255|407:254|407:254|416:254|416:254|407:254|407:254|416:254|416:254|407:254|407:254|414:254|414:254|407:254|407:254|415:254|415:254|406:254|406:254|416:255|416:255|407:254|407:254|415:254|415:254|405:254|405:254|415:254|415:254|406:253|406:253|416:254|416:254|308:236|169:278|169:278|239:231|294:156,1,630
470,8,65206,6,0,B|455:70|463:107|463:107|432:164|432:164|462:231|462:231|430:281|431:345|431:345|386:286|394:217|394:217|372:165,1,540,0|0,0:0|0:0,0:0:0:0:
62,189,65809,6,0,B|102:158|170:160,1,90,0|0,0:0|0:0,0:0:0:0:
359,263,65960,2,0,B|343:215|285:179,1,90
31,203,66111,2,0,B|51:156|113:127,1,90
376,291,66262,2,0,B|384:241|350:182,1,90
0,301,66412,6,0,B|96:309|96:309|161:355|161:355|266:361,1,270,0|0,0:0|0:0,0:0:0:0:
367,369,66714,6,0,P|292:270|151:320,1,270,0|0,0:0|0:0,0:0:0:0:
91,202,67015,2,0,P|166:301|315:284,1,270,0|0,0:0|0:0,0:0:0:0:
442,327,67317,2,0,P|374:227|225:183,1,270
123,83,67618,6,0,B|154:221|56:341|56:341|51:297|17:273|17:273|54:252|69:199|69:199|77:251|139:284,1,540,0|0,0:0|0:0,0:0:0:0:
251,366,68221,6,0,L|262:242,1,90,0|0,0:0|0:0,0:0:0:0:
261,18,68372,2,0,L|250:142,1,90
38,212,68523,2,0,B|239:194|239:194|147:149,1,270
74,124,68824,5,0,0:0:0:0:
451,235,69050,5,0,0:0:0:0:
86,282,69277,5,0,0:0:0:0:
86,282,69352,1,0,0:0:0:0:
169,89,69427,2,0,B|211:93|211:93|256:121|256:121|310:115|310:115|357:135|357:135,1,180,0|0,0:0|0:0,0:0:0:0:
389,123,69729,2,0,B|407:131|360:111|360:111|306:117|306:117|261:89|261:89|219:85,1,180
23,149,70030,6,0,B|129:181|148:276|148:276|168:367|279:372|279:372|259:257|151:238,1,540,0|0,0:0|0:0,0:0:0:0:
57,212,70633,6,0,P|88:217|110:216,1,45,0|0,0:0|0:0,0:0:0:0:
81,231,70709,2,0,P|123:213|140:212,1,45
136,161,70784,6,0,P|167:166|189:165,1,45
160,190,70860,2,0,P|202:172|219:171,1,45
249,117,70935,6,0,P|280:122|302:121,1,45
271,160,71010,2,0,P|313:142|330:141,1,45
415,89,71086,6,0,P|446:94|468:93,1,45
433,154,71161,2,0,P|475:136|492:135,1,45
319,22,71236,6,0,B|269:37|226:37|226:37|186:15|120:17,1,180,0|0,0:0|0:0,0:0:0:0:
31,107,71538,2,0,B|33:181|33:181|61:215|61:215|63:285,1,180,0|0,0:0|0:0,0:0:0:0:
66,375,71839,2,0,L|92:266,1,90,0|0,0:0|0:0,0:0:0:0:
253,104,71990,2,0,L|227:213,1,90
6,299,72141,2,0,L|88:223,1,90
312,179,72292,2,0,L|230:255,1,90
31,106,72442,6,0,L|99:184,1,90,0|0,0:0|0:0,0:0:0:0:
109,175,72593,6,0,L|50:108,1,90
74,114,72744,6,0,B|133:183|133:183|224:244,1,180
412,267,73045,6,0,L|325:200,1,90,0|0,0:0|0:0,0:0:0:0:
333,41,73196,2,0,L|420:108,1,90
364,231,73347,6,0,L|277:164,1,90
285,5,73498,2,0,L|372:72,1,90
488,154,73648,5,0,0:0:0:0:
218,261,73799,1,0,0:0:0:0:
209,259,73875,1,0,0:0:0:0:
161,232,73950,5,0,0:0:0:0:
440,140,74101,1,0,0:0:0:0:
398,172,74251,5,0,0:0:0:0:
112,229,74402,1,0,0:0:0:0:
63,243,74553,5,0,0:0:0:0:
347,180,74704,1,0,0:0:0:0:
90,41,74854,6,0,B|184:83|268:57|268:57|292:77|292:77|324:55|362:61|362:61|456:41|456:41|375:77|351:158,1,540
127,362,75458,5,0,0:0:0:0:
266,340,75533,1,0,0:0:0:0:
120,245,75608,1,0,0:0:0:0:
275,309,75684,1,0,0:0:0:0:
197,369,75759,2,0,P|194:309|207:256,1,90
242,183,75910,2,0,P|278:135|322:102,1,90
469,63,76061,6,0,P|432:151|331:194,1,180,0|0,0:0|0:0,0:0:0:0:
183,0,76362,6,0,B|88:99|88:99|75:249,1,270,0|0,0:0|0:0,0:0:0:0:
10,273,76664,2,0,B|133:201|133:201|205:85,1,270,0|0,0:0|0:0,0:0:0:0:
276,76,76965,2,0,B|140:105|140:105|22:172,1,270
189,341,77267,6,0,B|338:366|441:295|460:174|460:174|391:200|346:201|346:201|378:240|385:277|385:277|400:295,1,540,0|0,0:0|0:0,0:0:0:0:
481,363,77870,6,0,L|388:319,1,90,0|0,0:0|0:0,0:0:0:0:
116,231,78020,2,0,L|209:275,1,90
382,199,78171,2,0,B|288:308|288:308|301:206,1,180
272,83,78473,5,0,0:0:0:0:
179,55,78548,1,0,0:0:0:0:
246,152,78623,1,0,0:0:0:0:
110,140,78698,1,0,0:0:0:0:
5,234,78774,1,0,0:0:0:0:
148,288,78925,5,0,0:0:0:0:
148,288,79000,1,0,0:0:0:0:
267,165,79076,1,0,0:0:0:0:
248,238,79226,5,0,0:0:0:0:
248,238,79302,1,0,0:0:0:0:
379,342,79377,2,0,B|382:275|382:275|404:237|404:237|406:145,1,180,0|0,0:0|0:0,0:0:0:0:
319,18,79679,6,0,P|230:44|190:148,1,180,0|0,0:0|0:0,0:0:0:0:
250,275,79980,2,0,P|339:249|379:145,1,180,0|0,0:0|0:0,0:0:0:0:
272,64,80282,6,0,B|247:91|247:91|239:157,1,90,0|0,0:0|0:0,0:0:0:0:
230,346,80432,2,0,B|255:319|255:319|263:253,1,90
361,56,80583,2,0,B|323:57|289:6|289:6|235:30|186:11,1,180,0|0,0:0|0:0,0:0:0:0:
361,56,80885,6,0,B|336:83|336:83|328:149,1,90,0|0,0:0|0:0,0:0:0:0:
319,338,81035,2,0,B|344:311|344:311|352:245,1,90
450,48,81186,2,0,B|412:49|378:-2|378:-2|324:22|275:3,1,180,0|0,0:0|0:0,0:0:0:0:
71,25,81488,6,0,L|100:308,1,270,0|0,0:0|0:0,0:0:0:0:
173,361,81789,6,0,L|202:78,1,270,0|0,0:0|0:0,0:0:0:0:
270,13,82091,6,0,L|320:389,1,360,0|0,0:0|0:0,0:0:0:0:
381,54,82543,5,0,0:0:0:0:
192,107,82694,1,0,0:0:0:0:
182,295,82844,1,0,0:0:0:0:
387,243,82995,5,0,0:0:0:0:
83,191,83146,1,0,0:0:0:0:
372,198,83297,6,0,P|458:233|369:212,1,270,0|0,0:0|0:0,0:0:0:0:
360,167,83598,2,0,P|482:212|385:281,1,270
337,147,83900,2,0,P|515:222|311:241,1,540
37,32,84503,6,0,B|100:198|14:378|14:378|87:296|189:326,1,540,0|0,0:0|0:0,0:0:0:0:
399,337,85106,6,0,L|369:252,1,67.5000025749208,0|0,0:0|0:0,0:0:0:0:
225,113,85257,2,0,L|255:198,1,67.5000025749208,0|0,0:0|0:0,0:0:0:0:
425,286,85407,2,0,L|395:201,1,67.5000025749208,0|0,0:0|0:0,0:0:0:0:
199,164,85558,2,0,L|229:249,1,67.5000025749208,0|0,0:0|0:0,0:0:0:0:
512,54,85709,6,0,B|457:31|457:31|419:44|419:44|354:40,1,135.000005149842,0|0,0:0|0:0,0:0:0:0:
174,49,86010,6,0,P|281:90|247:245,1,270,0|0,0:0|0:0,0:0:0:0:
383,225,86312,2,0,P|268:229|207:84,1,270,0|0,0:0|0:0,0:0:0:0:
125,151,86613,2,0,P|228:102|355:195,1,270,0|0,0:0|0:0,0:0:0:0:
69,273,86915,6,0,B|202:283|202:283|277:339|277:339|409:350|409:350|301:326|238:260,1,540,0|0,0:0|0:0,0:0:0:0:
303,110,87518,6,0,L|216:85,1,67.5000025749208
63,32,87669,2,0,L|150:57,1,67.5000025749208
366,103,87819,2,0,L|282:75,1,67.5000025749208,0|0,0:0|0:0,0:0:0:0:
0,39,87970,2,0,L|84:67,1,67.5000025749208
341,161,88121,5,0,0:0:0:0:
155,329,88347,1,0,0:0:0:0:
415,150,88573,1,0,0:0:0:0:
415,150,88648,1,0,0:0:0:0:
271,134,88724,6,0,B|309:139|309:139|339:128|339:128|369:136|369:136|415:128,1,135.000005149842,0|0,0:0|0:0,0:0:0:0:
503,131,89025,2,0,B|465:126|465:126|435:137|435:137|405:129|405:129|359:137,1,135.000005149842,0|0,0:0|0:0,0:0:0:0:
166,83,89327,6,0,P|356:57|310:251,1,405.000015449525,0|0,0:0|0:0,0:0:0:0:
232,337,89930,5,0,0:0:0:0:
195,354,90005,1,0,0:0:0:0:
171,274,90081,5,0,0:0:0:0:
118,275,90156,1,0,0:0:0:0:
139,183,90231,5,0,0:0:0:0:
80,160,90306,1,0,0:0:0:0:
166,89,90382,5,0,0:0:0:0:
106,31,90457,1,0,0:0:0:0:
252,76,90533,6,0,B|267:152|194:176|194:176|202:137|202:137,1,135.000005149842,0|0,0:0|0:0,0:0:0:0:
205,256,90834,6,0,P|265:170|336:121,1,180,0|0,0:0|0:0,0:0:0:0:
512,201,91136,6,0,L|408:235,1,90,0|0,0:0|0:0,0:0:0:0:
225,282,91287,2,0,L|328:247,1,90
501,107,91437,2,0,L|431:176,1,90,0|0,0:0|0:0,0:0:0:0:
236,376,91588,2,0,L|305:306,1,90
372,71,91739,6,0,L|355:180,1,90,0|0,0:0|0:0,0:0:0:0:
335,172,91890,6,0,L|352:63,1,90
324,95,92040,6,0,B|309:200|309:200|293:161|256:147,1,180,0|0,0:0|0:0,0:0:0:0:
56,80,92342,6,0,L|40:196,1,90
196,274,92493,2,0,L|212:158,1,90,0|0,0:0|0:0,0:0:0:0:
43,169,92643,6,0,L|27:285,1,90,0|0,0:0|0:0,0:0:0:0:
183,363,92794,2,0,L|199:247,1,90
66,136,92945,5,0,0:0:0:0:
336,243,93096,1,0,0:0:0:0:
347,266,93171,1,0,0:0:0:0:
393,214,93247,5,0,0:0:0:0:
114,122,93398,1,0,0:0:0:0:
116,95,93473,1,0,0:0:0:0:
156,154,93548,5,0,0:0:0:0:
442,211,93699,1,0,0:0:0:0:
491,225,93850,5,0,0:0:0:0:
207,162,94001,1,0,0:0:0:0:
40,344,94151,6,0,B|83:303|146:328|146:328|197:312|197:312|255:349|255:349|306:332|376:352|376:352|280:332|199:250,1,540
80,128,94754,5,0,0:0:0:0:
164,21,94829,1,0,0:0:0:0:
203,164,94905,1,0,0:0:0:0:
215,24,94980,1,0,0:0:0:0:
78,43,95055,2,0,P|124:77|194:96,1,90
274,97,95206,2,0,P|330:89|394:54,1,90
510,10,95357,6,0,P|504:108|458:208,1,180
363,295,95659,2,0,B|251:363|251:363|104:300,1,270
79,358,95960,2,0,B|163:262|163:262|315:252,1,270
337,189,96262,2,0,B|283:301|283:301|160:378,1,270
19,370,96563,6,0,B|1:155|164:33|164:33|202:121|164:221,1,540
148,305,97166,6,0,L|277:319,1,90
512,346,97317,2,0,L|383:332,1,90
312,186,97468,2,0,B|317:320|317:320|372:235,1,180
512,68,97769,5,0,0:0:0:0:
448,166,97844,1,0,0:0:0:0:
463,8,97920,1,0,0:0:0:0:
380,90,97995,1,0,0:0:0:0:
249,123,98071,1,0,0:0:0:0:
117,21,98221,5,0,0:0:0:0:
117,21,98297,1,0,0:0:0:0:
40,148,98372,2,0,L|88:251,1,90
279,311,98523,2,0,L|231:208,1,90
13,146,98674,2,0,B|60:244|60:244|148:300,1,180
459,185,98975,6,0,B|449:311|449:311|403:260,1,180
209,125,99277,2,0,B|219:-1|219:-1|265:50,1,180
430,256,99578,6,0,B|386:241|386:241|340:246,1,90
92,266,99729,2,0,B|136:281|136:281|182:276,1,90
458,332,99880,2,0,P|515:268|437:181,1,180
402,180,100181,6,0,B|358:165|358:165|312:170,1,90
64,190,100332,2,0,B|108:205|108:205|154:200,1,90
430,256,100483,2,0,P|487:192|409:105,1,180
106,31,100784,6,0,L|418:68,1,270
450,116,101086,6,0,L|138:153,1,270
50,213,101387,6,0,L|422:256,1,360
238,339,101839,5,0,0:0:0:0:
115,153,101990,1,0,0:0:0:0:
311,23,102141,1,0,0:0:0:0:
325,220,102292,5,0,0:0:0:0:
83,307,102442,1,0,0:0:0:0:
354,236,102593,6,0,P|360:143|340:232,1,270
376,260,102894,2,0,P|389:130|284:187,1,270
384,289,103196,2,0,P|394:96|288:271,1,540
405,234,103799,5,0,0:0:0:0:
418,246,104402,5,0,0:0:0:0:
293,224,104704,1,0,0:0:0:0:
210,318,105005,1,0,0:0:0:0:
83,356,105307,5,0,0:0:0:0:
29,242,105608,1,0,0:0:0:0:
71,360,105910,1,0,0:0:0:0:
163,262,106211,5,0,0:0:0:0:
149,136,106513,1,0,0:0:0:0:
261,191,106814,1,0,0:0:0:0:
387,195,107116,5,0,0:0:0:0:
501,143,107417,1,0,0:0:0:0:
510,69,108020,5,0,0:0:0:0:
386,44,108322,1,0,0:0:0:0:
279,111,108623,1,0,0:0:0:0:
292,119,109226,5,0,0:0:0:0:
174,165,109528,1,0,0:0:0:0:
52,130,109829,1,0,0:0:0:0:
168,81,110131,5,0,0:0:0:0:
261,165,110432,1,0,0:0:0:0:
268,290,110734,1,0,0:0:0:0:
175,205,111035,5,0,0:0:0:0:
205,82,111337,1,0,0:0:0:0:
313,19,111638,1,0,0:0:0:0:
282,159,111940,5,0,0:0:0:0:
170,68,112241,1,0,0:0:0:0:
459,77,112844,5,0,0:0:0:0:
404,138,113146,1,0,0:0:0:0:
459,77,113447,6,0,B|460:57|480:44|480:44|502:86|473:164,1,135.000005149842
460,262,113749,1,0,0:0:0:0:
428,301,113824,1,0,0:0:0:0:
384,324,113899,1,0,0:0:0:0:
334,328,113975,1,0,0:0:0:0:
287,310,114050,1,0,0:0:0:0:
247,295,114126,1,0,0:0:0:0:
206,297,114202,1,0,0:0:0:0:
169,317,114277,1,0,0:0:0:0:
123,357,114352,6,0,L|98:277,1,67.5000025749208
8,114,114503,1,0,0:0:0:0:
28,74,114578,1,0,0:0:0:0:
63,47,114653,1,0,0:0:0:0:
107,38,114729,1,0,0:0:0:0:
150,49,114804,1,0,0:0:0:0:
184,78,114879,1,0,0:0:0:0:
201,119,114955,5,0,0:0:0:0:
218,160,115030,1,0,0:0:0:0:
252,189,115106,2,0,B|270:204|297:210|297:210|272:179,1,67.5000025749208
401,198,115257,5,0,0:0:0:0:
434,168,115332,1,0,0:0:0:0:
452,127,115408,1,0,0:0:0:0:
450,83,115483,1,0,0:0:0:0:
428,44,115558,6,0,P|393:80|383:117,1,67.5000025749208
342,228,115709,2,0,P|342:278|361:311,1,67.5000025749208
510,373,115860,2,0,P|501:323|477:293,1,67.5000025749208
321,214,116010,6,0,B|250:197|215:211|215:211|253:235,1,135.000005149842
487,201,116312,2,0,L|415:179,1,67.5000025749208
205,140,116463,1,0,0:0:0:0:
155,184,116538,1,0,0:0:0:0:
149,249,116613,1,0,0:0:0:0:
187,303,116689,1,0,0:0:0:0:
252,316,116764,6,0,L|337:313,1,67.5000025749208
37,329,116915,2,0,L|121:325,1,67.5000025749208
319,313,117066,1,0,0:0:0:0:
308,179,117216,6,0,B|320:222|320:222|312:244|312:244|320:267|320:267|319:314|319:314|299:294|291:267,1,180
275,89,117518,1,0,0:0:0:0:
341,91,117593,1,0,0:0:0:0:
390,135,117668,1,0,0:0:0:0:
400,200,117744,1,0,0:0:0:0:
366,257,117819,1,0,0:0:0:0:
180,315,117970,1,0,0:0:0:0:
57,86,118121,5,0,0:0:0:0:
43,91,118196,1,0,0:0:0:0:
32,197,118272,1,0,0:0:0:0:
212,153,118422,2,0,B|106:178|106:178|133:197,1,135.000005149842
64,256,118648,1,0,0:0:0:0:
125,280,118723,1,0,0:0:0:0:
186,256,118798,1,0,0:0:0:0:
216,197,118874,5,0,0:0:0:0:
245,138,118950,1,0,0:0:0:0:
307,114,119026,1,0,0:0:0:0:
362,115,119101,1,0,0:0:0:0:
407,147,119176,1,0,0:0:0:0:
427,199,119252,1,0,0:0:0:0:
414,253,119327,1,0,0:0:0:0:
374,291,119402,1,0,0:0:0:0:
319,300,119478,5,0,0:0:0:0:
311,251,119553,1,0,0:0:0:0:
329,204,119628,1,0,0:0:0:0:
368,173,119704,1,0,0:0:0:0:
417,165,119779,1,0,0:0:0:0:
463,184,119854,1,0,0:0:0:0:
494,223,119930,2,0,B|496:257|483:283|483:283|465:263,1,67.5000025749208
388,353,120081,6,0,L|305:361,1,67.5000025749208
206,372,120231,2,0,L|123:380,1,67.5000025749208
437,156,120382,6,0,B|438:196|438:196|430:233|430:233|454:265|454:265|465:327,1,157.500001502037
477,224,120608,1,0,0:0:0:0:
477,224,120684,1,0,0:0:0:0:
191,333,120834,5,0,0:0:0:0:
428,128,120985,1,0,0:0:0:0:
140,159,121136,5,0,0:0:0:0:
140,252,121211,1,0,0:0:0:0:
191,333,121287,1,0,0:0:0:0:
110,50,121437,5,0,0:0:0:0:
110,50,121513,1,0,0:0:0:0:
243,24,121588,1,0,0:0:0:0:
286,45,121663,1,0,0:0:0:0:
314,84,121738,1,0,0:0:0:0:
321,131,121814,1,0,0:0:0:0:
286,207,121890,2,0,L|320:236,1,45
270,243,121966,2,0,L|312:254,1,45
276,297,122041,2,0,L|318:282,1,45
308,334,122116,2,0,L|337:299,1,45
367,259,122191,1,0,0:0:0:0:
412,191,122342,5,0,0:0:0:0:
370,67,122493,5,0,0:0:0:0:
360,334,122719,1,0,0:0:0:0:
391,59,122945,1,0,0:0:0:0:
111,211,123096,6,0,L|126:297,1,60
293,161,123548,2,0,L|278:247,1,60
155,54,124000,2,0,L|167:118,1,60
127,223,124302,6,0,L|142:309,1,60
309,173,124754,2,0,L|294:259,1,60
171,66,125206,2,0,L|183:130,1,60
143,235,125508,6,0,L|158:321,1,60
325,185,125960,2,0,L|310:271,1,60
187,78,126412,2,0,L|199:142,1,60
159,247,126714,6,0,L|174:333,1,60
341,197,127166,2,0,L|326:283,1,60
203,90,127618,2,0,L|215:154,1,60
497,214,127920,6,0,L|482:300,1,60
315,164,128372,2,0,L|330:250,1,60
453,57,128824,2,0,L|441:121,1,60
481,226,129126,6,0,L|466:312,1,60
299,176,129578,2,0,L|314:262,1,60
437,69,130030,2,0,L|425:133,1,60
465,238,130332,6,0,L|450:324,1,60
283,188,130784,2,0,L|298:274,1,60
421,81,131236,2,0,L|409:145,1,60
449,250,131538,6,0,L|434:336,1,60
267,200,131990,2,0,L|282:286,1,60
405,93,132442,2,0,L|393:157,1,60
112,102,132744,6,0,B|125:269|125:269|208:184,1,240
351,61,133045,2,0,B|338:228|338:228|255:143,1,240
89,93,133347,6,0,B|74:177|102:260|102:260|185:175,1,240
374,52,133648,2,0,B|389:136|361:219|361:219|278:134,1,240
0,335,133950,6,0,B|55:315|55:315|96:336|96:336|137:318|137:318|221:343,1,240
360,219,134251,2,0,B|284:239|284:239|243:218|243:218|202:236|202:236|118:211,1,240
9,366,134553,6,0,B|82:339|82:339|125:356|125:356|173:330|250:352,1,240
330,188,134854,2,0,B|256:214|256:214|213:197|213:197|165:223|88:201,1,240
318,112,135156,6,0,B|377:115|377:115|423:172|423:172|398:237|398:237|339:268,1,240
172,187,135458,2,0,B|113:190|113:190|67:247|67:247|92:312|92:312|151:343,1,240
322,81,135759,6,0,B|378:83|378:83|388:112|425:132|425:132|405:165|406:205|406:205|340:236,1,240
168,156,136061,2,0,B|112:158|112:158|102:187|65:207|65:207|85:240|84:280|84:280|150:311,1,240
387,362,136362,5,0,0:0:0:0:
445,260,136463,1,0,0:0:0:0:
407,152,136563,1,0,0:0:0:0:
424,337,136664,1,0,0:0:0:0:
474,91,136865,5,0,0:0:0:0:
428,271,136965,1,0,0:0:0:0:
384,49,137166,5,0,0:0:0:0:
443,282,137267,1,0,0:0:0:0:
379,105,137568,6,0,B|366:272|366:272|283:187,1,240
140,64,137869,2,0,B|153:231|153:231|236:146,1,240
402,96,138171,6,0,B|417:180|389:263|389:263|306:178,1,240
117,55,138472,2,0,B|102:139|130:222|130:222|213:137,1,240
512,338,138774,6,0,B|436:318|436:318|395:339|395:339|354:321|354:321|270:346,1,240
131,222,139075,2,0,B|207:242|207:242|248:221|248:221|289:239|289:239|373:214,1,240
482,369,139377,6,0,B|408:342|408:342|365:359|365:359|317:333|240:355,1,240
161,191,139678,2,0,B|234:217|234:217|277:200|277:200|325:226|402:204,1,240
173,115,139980,6,0,B|114:118|114:118|68:175|68:175|93:240|93:240|152:271,1,240
319,190,140282,2,0,B|378:193|378:193|424:250|424:250|399:315|399:315|340:346,1,240
169,84,140583,6,0,B|113:86|113:86|103:115|66:135|66:135|86:168|85:208|85:208|151:239,1,240
323,159,140885,2,0,B|379:161|379:161|389:190|426:210|426:210|406:243|407:283|407:283|341:314,1,240
174,339,141186,1,0,0:0:0:0:
20,171,141387,5,0,0:0:0:0:
250,212,141488,1,0,0:0:0:0:
9,138,141689,5,0,0:0:0:0:
260,216,141789,1,0,0:0:0:0:
17,85,141990,5,0,0:0:0:0:
270,224,142091,1,0,0:0:0:0:
418,16,142292,5,0,0:0:0:0:
152,178,142694,6,0,L|106:219,1,60
159,155,142995,2,0,L|113:196,1,60
166,132,143297,2,0,L|120:173,1,60
308,62,143598,5,0,0:0:0:0:
263,220,143799,5,0,0:0:0:0:
36,107,143900,1,0,0:0:0:0:
28,74,144101,5,0,0:0:0:0:
272,221,144201,1,0,0:0:0:0:
282,221,144402,5,0,0:0:0:0:
35,35,144503,1,0,0:0:0:0:
68,7,144704,5,0,0:0:0:0:
329,164,144804,6,0,P|352:247|213:251,1,240
237,181,145106,6,0,L|283:222,1,60
230,158,145407,2,0,L|276:199,1,60
223,135,145709,2,0,L|269:176,1,60
81,65,146010,5,0,0:0:0:0:
126,223,146211,5,0,0:0:0:0:
353,110,146312,1,0,0:0:0:0:
361,77,146513,5,0,0:0:0:0:
117,224,146613,1,0,0:0:0:0:
107,224,146814,5,0,0:0:0:0:
354,38,146915,1,0,0:0:0:0:
192,222,147216,6,0,B|182:172|142:149|142:149|186:180|234:155|234:155|248:221|300:258,1,300
351,329,147518,6,0,L|306:368,1,60
358,306,147819,2,0,L|313:345,1,60
365,283,148121,2,0,L|320:322,1,60
512,189,148422,5,0,0:0:0:0:
467,347,148623,5,0,0:0:0:0:
240,234,148724,1,0,0:0:0:0:
232,201,148925,5,0,0:0:0:0:
476,348,149025,1,0,0:0:0:0:
486,348,149226,5,0,0:0:0:0:
239,162,149327,1,0,0:0:0:0:
272,134,149528,5,0,0:0:0:0:
486,348,149628,6,0,P|393:269|389:366,1,240
268,296,149930,6,0,L|281:354,1,60
250,279,150231,2,0,L|263:337,1,60
233,262,150533,2,0,L|246:320,1,60
85,134,150834,5,0,0:0:0:0:
159,280,151035,5,0,0:0:0:0:
360,126,151136,1,0,0:0:0:0:
362,92,151337,5,0,0:0:0:0:
150,283,151437,1,0,0:0:0:0:
140,285,151638,5,0,0:0:0:0:
347,55,151739,2,0,L|346:55,1,1.5
85,16,152040,6,0,B|127:92|79:175|79:175|22:264|90:371|90:371|102:235|238:213,1,566.999982696534
466,172,152643,6,0,P|464:221|445:268,1,94.499997116089
193,224,152793,2,0,P|165:264|153:314,1,94.499997116089
498,229,152944,2,0,P|477:273|441:309,1,94.499997116089
133,251,153094,2,0,P|123:299|131:349,1,94.499997116089
325,367,153246,6,0,B|329:271|329:271|312:198|312:198|317:77,1,283.499991348267
123,17,153547,2,0,P|23:95|40:261,1,283.499991348267
12,326,153849,2,0,P|130:277|183:133,1,283.499991348267
245,31,154150,2,0,P|119:45|-5:146,1,283.499991348267
94,336,154452,6,0,B|191:313|263:345|263:345|313:312|313:312|369:342|465:297|465:297|395:223|266:253,1,566.999982696534
117,132,155055,6,0,L|232:152,1,94.499997116089
507,210,155205,2,0,L|392:190,1,94.499997116089
311,2,155356,2,0,B|328:197|328:197|271:118,1,283.499991348267
221,43,155658,5,0,0:0:0:0:
189,363,155884,1,0,0:0:0:0:
454,165,156110,5,0,0:0:0:0:
454,165,156185,1,0,0:0:0:0:
506,337,156261,2,0,B|497:298|497:298|501:264|501:264|489:234|492:180|492:180|466:203,1,188.999994232178
401,0,156562,2,0,B|410:39|410:39|406:73|406:73|418:103|415:157|415:157|441:134,1,188.999994232178
392,278,156864,6,0,B|295:319|201:287|201:287|104:251|16:290|16:290|89:361|89:361|133:363|184:351,1,566.999982696534
274,243,157467,6,0,P|268:220|254:195,1,47.2499985580445
349,229,157542,2,0,P|323:210|305:181,1,47.2499985580445
220,188,157617,6,0,P|214:165|200:140,1,47.2499985580445
298,155,157693,2,0,P|272:136|254:107,1,47.2499985580445
145,141,157768,6,0,P|139:118|125:93,1,47.2499985580445
221,87,157844,2,0,P|195:68|177:39,1,47.2499985580445
47,105,157919,6,0,P|41:82|27:57,1,47.2499985580445
117,31,157994,2,0,P|91:12|73:-17,1,47.2499985580445
51,172,158070,6,0,B|82:211|79:264|79:264|50:310|69:374,1,188.999994232178
178,327,158371,2,0,B|280:342|280:342|371:324,1,188.999994232178
468,155,158673,2,0,L|364:175,1,94.499997116089
165,211,158823,2,0,L|269:191,1,94.499997116089
512,114,158974,2,0,L|408:91,1,94.499997116089
121,252,159124,2,0,L|224:274,1,94.499997116089
511,328,159276,6,0,L|445:245,1,94.499997116089
419,259,159426,6,0,L|485:342,1,94.499997116089
444,337,159577,6,0,B|382:261|382:261|340:155,1,188.999994232178
111,18,159879,6,0,L|91:134,1,94.499997116089
310,242,160029,2,0,L|330:126,1,94.499997116089
94,111,160180,6,0,L|74:227,1,94.499997116089
293,335,160330,2,0,L|313:219,1,94.499997116089
399,0,160482,5,0,0:0:0:0:
510,281,160632,1,0,0:0:0:0:
399,348,160783,5,0,0:0:0:0:
321,47,160934,1,0,0:0:0:0:
223,52,161085,5,0,0:0:0:0:
249,358,161235,1,0,0:0:0:0:
99,337,161386,5,0,0:0:0:0:
131,9,161537,1,0,0:0:0:0:
21,226,161688,6,0,B|82:210|136:229|136:229|178:217|178:217|239:250|239:250|292:221|371:235|371:235|332:188|291:163|291:163|243:172|188:151,1,566.999982696534
188,25,162291,5,0,0:0:0:0:
384,44,162366,1,0,0:0:0:0:
222,122,162442,1,0,0:0:0:0:
390,78,162517,1,0,0:0:0:0:
287,4,162592,2,0,P|292:68|325:128,1,94.499997116089
387,194,162743,2,0,P|436:234|502:252,1,94.499997116089
512,362,162894,6,0,B|436:300|318:329,1,188.999994232178
148,353,163195,6,0,B|65:243|65:243|93:86,1,283.499991348267
158,0,163497,2,0,B|267:80|267:80|312:224,1,283.499991348267
327,371,163798,2,0,B|197:326|197:326|95:218,1,283.499991348267
22,54,164100,5,0,0:0:0:0:
462,114,164326,5,0,0:0:0:0:
26,269,164552,5,0,0:0:0:0:
466,299,164778,5,0,0:0:0:0:
256,192,165004,6,0,L|256:232,1,23.6249992790222
152,55,165306,5,0,0:0:0:0:
34,138,165381,1,0,0:0:0:0:
171,135,165457,1,0,0:0:0:0:
47,228,165532,1,0,0:0:0:0:
223,196,165607,2,0,L|158:271,1,94.499997116089
251,198,165758,2,0,L|186:273,1,94.499997116089
454,364,165909,6,0,B|468:327|468:327|452:259,1,94.499997116089
393,58,166060,2,0,B|379:95|379:95|395:163,1,94.499997116089
361,320,166210,2,0,B|308:113,1,188.999994232178
40,61,166512,6,0,B|37:118|12:154|12:154|45:184|56:236,1,188.999994232178
286,229,166813,2,0,B|289:172|314:136|314:136|281:106|270:54,1,188.999994232178
77,314,167115,6,0,B|113:324|113:324|137:314|137:314|181:321,1,94.499997116089
453,356,167266,2,0,B|417:346|417:346|393:356|393:356|349:349,1,94.499997116089
22,367,167416,2,0,B|-19:317|22:257|22:257|62:244|75:198,1,188.999994232178
125,157,167718,6,0,B|161:167|161:167|185:157|185:157|229:164,1,94.499997116089
501,199,167869,2,0,B|465:189|465:189|441:199|441:199|397:192,1,94.499997116089
70,210,168019,2,0,B|29:160|70:100|70:100|110:87|123:41,1,188.999994232178
481,27,168321,6,0,L|443:338,1,283.499991348267
381,370,168622,6,0,L|343:59,1,283.499991348267
243,5,168924,6,0,L|196:384,1,377.999988464356
85,262,169376,5,0,0:0:0:0:
271,101,169527,1,0,0:0:0:0:
504,212,169678,1,0,0:0:0:0:
323,290,169828,5,0,0:0:0:0:
460,44,169979,1,0,0:0:0:0:
117,100,170130,6,0,B|115:148|93:181|93:181|121:215|136:266|136:266|151:216|195:177,1,283.499991348267
96,85,170431,2,0,B|94:133|72:166|72:166|100:200|115:251|115:251|130:201|174:162,1,283.499991348267
223,36,170733,2,0,B|262:76|270:132|270:132|326:124|376:151|376:151|336:111|328:55|328:55|272:63|223:36|223:36|262:76|270:132|270:132|326:124,1,566.999982696534
377,152,171336,5,0,0:0:0:0:
350,190,171411,1,0,0:0:0:0:
339,236,171486,1,0,0:0:0:0:
345,283,171562,1,0,0:0:0:0:
366,325,171637,2,0,P|397:295|408:243,1,94.499997116089
343,52,171788,5,0,0:0:0:0:
296,52,171863,1,0,0:0:0:0:
252,70,171938,1,0,0:0:0:0:
219,104,172014,1,0,0:0:0:0:
200,147,172089,1,0,0:0:0:0:
199,194,172164,1,0,0:0:0:0:
216,238,172241,1,0,0:0:0:0:
259,198,172316,1,0,0:0:0:0:
276,142,172391,1,0,0:0:0:0:
263,86,172467,1,0,0:0:0:0:
222,44,172542,2,0,P|172:41|107:64,1,94.499997116089
35,210,172693,5,0,0:0:0:0:
57,251,172768,1,0,0:0:0:0:
93,281,172843,1,0,0:0:0:0:
138,295,172919,1,0,0:0:0:0:
185,291,172995,1,0,0:0:0:0:
231,287,173070,1,0,0:0:0:0:
276,301,173146,1,0,0:0:0:0:
272,248,173221,1,0,0:0:0:0:
294,200,173296,2,0,P|332:160|380:144,1,94.499997116089
306,323,173447,5,0,0:0:0:0:
259,316,173522,1,0,0:0:0:0:
218,293,173597,1,0,0:0:0:0:
189,256,173673,1,0,0:0:0:0:
176,211,173748,1,0,0:0:0:0:
169,263,173824,1,0,0:0:0:0:
135,303,173899,1,0,0:0:0:0:
85,319,173975,1,0,0:0:0:0:
34,306,174050,2,0,P|14:276|21:179,1,94.499997116089
174,54,174200,5,0,0:0:0:0:
220,53,174275,1,0,0:0:0:0:
264,72,174350,1,0,0:0:0:0:
296,106,174426,1,0,0:0:0:0:
312,150,174501,1,0,0:0:0:0:
309,197,174576,1,0,0:0:0:0:
289,239,174653,5,0,0:0:0:0:
260,195,174728,1,0,0:0:0:0:
267,143,174803,1,0,0:0:0:0:
306,109,174879,1,0,0:0:0:0:
358,107,174954,2,0,P|403:130|437:184,1,94.499997116089
301,355,175105,5,0,0:0:0:0:
258,356,175180,1,0,0:0:0:0:
216,344,175255,1,0,0:0:0:0:
180,320,175331,1,0,0:0:0:0:
153,286,175406,1,0,0:0:0:0:
137,246,175481,1,0,0:0:0:0:
133,203,175557,1,0,0:0:0:0:
168,229,175632,1,0,0:0:0:0:
208,241,175708,2,0,P|247:241|308:210,1,94.499997116089,0|0,0:0|0:0,0:0:0:0:
345,26,175859,5,0,0:0:0:0:
295,8,175934,1,0,0:0:0:0:
242,11,176009,1,0,0:0:0:0:
194,35,176085,1,0,0:0:0:0:
160,75,176160,2,0,P|150:117|162:168,1,94.499997116089,0|0,0:0|0:0,0:0:0:0:
292,298,176311,5,0,0:0:0:0:
292,298,176386,1,0,0:0:0:0:
292,298,176462,2,0,L|407:268,1,94.499997116089,0|0,0:0|0:0,0:0:0:0:
507,133,176612,1,0,0:0:0:0:
476,137,176687,1,0,0:0:0:0:
445,129,176762,1,0,0:0:0:0:
421,109,176838,1,0,0:0:0:0:
484,60,176914,1,0,0:0:0:0:
484,60,176989,1,0,0:0:0:0:
484,60,177065,2,0,L|369:30,1,94.499997116089,0|0,0:0|0:0,0:0:0:0:
145,46,177215,5,0,0:0:0:0:
145,46,177291,1,0,0:0:0:0:
145,46,177366,2,0,L|152:153,1,94.499997116089,0|0,0:0|0:0,0:0:0:0:
207,355,177517,1,0,0:0:0:0:
235,367,177592,1,0,0:0:0:0:
267,368,177667,1,0,0:0:0:0:
296,355,177743,1,0,0:0:0:0:
249,291,177819,1,0,0:0:0:0:
249,291,177894,1,0,0:0:0:0:
249,291,177970,2,0,L|367:293,1,94.499997116089,0|0,0:0|0:0,0:0:0:0:
150,216,178120,2,0,L|31:218,1,94.499997116089,0|0,0:0|0:0,0:0:0:0:
284,26,178271,1,0,0:0:0:0:
314,27,178346,1,0,0:0:0:0:
343,40,178421,1,0,0:0:0:0:
363,65,178497,1,0,0:0:0:0:
413,122,178572,6,0,B|214:146|214:146|503:161,1,472.499985580445
345,130,179024,6,0,B|146:154|146:154|435:169,1,472.499985580445
277,138,179477,6,0,B|78:162|78:162|367:177,1,472.499985580445
209,146,179929,6,0,B|10:170|10:170|299:185,1,472.499985580445
512,162,180381,1,0,0:0:0:0:
256,192,180400,12,0,182190,0:0:0:0:
