osu file format v14

[General]
AudioFilename: audio.mp3
AudioLeadIn: 0
PreviewTime: 112620
Countdown: 0
SampleSet: Normal
StackLeniency: 0.7
Mode: 1
LetterboxInBreaks: 0
WidescreenStoryboard: 0

[Editor]
Bookmarks: 35369,45620,64916,74564,84213,93861,103509,113157,132454,151750,161399,171047
DistanceSpacing: 0.8
BeatDivisor: 4
GridSize: 32
TimelineZoom: 2.2

[Metadata]
Title:TSUBAKI
TitleUnicode:TSUBAKI
Artist:Ocelot
ArtistUnicode:Ocelot
Creator:Faputa
Version:BLOOM
Source:
Tags:Hivie CallMeLyra ad:dubstep dvsp-0099 aste- diverse system dubstep electronic instrumental Japanese
BeatmapID:3594671
BeatmapSetID:1756584

[Difficulty]
HPDrainRate:6
CircleSize:2
OverallDifficulty:6.5
ApproachRate:10
SliderMultiplier:1.4
SliderTickRate:1

[Events]
//Background and Video events
0,0,"tsubai.jpg",0,80
//Break Periods
//Storyboard Layer 0 (Background)
//Storyboard Layer 1 (Fail)
//Storyboard Layer 2 (Pass)
//Storyboard Layer 3 (Foreground)
//Storyboard Layer 4 (Overlay)
//Storyboard Sound Samples

[TimingPoints]
143,375,4,1,0,60,1,0
143,-235.294117647059,4,1,0,60,0,0
11111,-222.222222222222,4,1,0,70,0,0
11252,-219.78021978022,4,1,0,70,0,0
11346,-217.391304347826,4,1,0,70,0,0
11486,-212.765957446809,4,1,0,70,0,0
11674,-208.333333333333,4,1,0,70,0,0
11861,-204.081632653061,4,1,0,70,0,0
12049,-199.587651911152,4,1,0,70,0,0
24189,-33.3333333333333,4,1,0,50,0,0
25643,352.941176470588,4,1,0,47,1,0
25643,-133.333333333333,4,1,0,47,0,0
27054,-125,4,1,0,44,0,0
28466,333.333333333333,4,1,0,41,1,0
28466,-125,4,1,0,41,0,0
29799,-117.647058823529,4,1,0,38,0,0
31132,324.324324324324,4,1,0,36,1,0
31132,-117.647058823529,4,1,0,36,0,0
32429,-114.285714285714,4,1,0,33,0,0
33726,-111.111111111111,4,1,0,30,0,0
35348,-111.111111111111,4,1,0,70,0,0
35510,301.507537688442,4,1,0,70,1,8
35510,-111.111111111111,4,1,0,70,0,0
36113,301.507537688442,4,1,0,70,1,0
36113,-111.111111111111,4,1,0,70,0,0
44705,-108.108108108108,4,1,0,70,0,0
45007,-105.263157894737,4,1,0,70,0,0
45308,-102.564102564103,4,1,0,70,0,0
45610,-100,4,1,0,75,0,0
60233,-100,4,1,0,75,0,0
60384,-99.3788819875776,4,1,0,75,0,0
60535,-98.7654320987654,4,1,0,75,0,0
60685,-98.159509202454,4,1,0,75,0,0
60836,-97.5609756097561,4,1,0,75,0,0
60987,-96.969696969697,4,1,0,75,0,0
61062,-96.6767371601208,4,1,0,75,0,0
61138,-96.3855421686747,4,1,0,75,0,0
61288,-95.8083832335329,4,1,0,75,0,0
61439,-95.2380952380952,4,1,0,75,0,0
61590,-94.6745562130178,4,1,0,75,0,0
61665,-94.3952802359882,4,1,0,75,0,0
61741,-94.1176470588235,4,1,0,75,0,0
61891,-93.5672514619883,4,1,0,75,0,0
62042,-93.0232558139535,4,1,0,75,0,0
62193,-92.485549132948,4,1,0,75,0,0
62268,-92.2190201729107,4,1,0,75,0,0
62344,-91.9540229885058,4,1,0,75,0,0
62419,-91.6905444126075,4,1,0,75,0,0
62494,-91.4285714285714,4,1,0,75,0,0
62645,-90.9090909090909,4,1,0,75,0,0
62796,-90.3954802259887,4,1,0,75,0,0
62947,-89.8876404494382,4,1,0,75,0,0
63022,-89.6358543417367,4,1,0,75,0,0
63097,-89.3854748603352,4,1,0,75,0,0
63173,-89.1364902506964,4,1,0,75,0,0
63248,-88.8888888888889,4,1,0,75,0,0
63399,-88.3977900552486,4,1,0,75,0,0
63550,-87.9120879120879,4,1,0,75,0,0
63625,-87.6712328767123,4,1,0,75,0,0
63700,-87.431693989071,4,1,0,75,0,0
63776,-87.1934604904632,4,1,0,75,0,0
63851,-86.9565217391304,4,1,0,75,0,0
63889,-33.3333333333333,4,1,0,75,0,0
64379,-50,4,1,0,75,0,0
64906,-86.9565217391304,4,1,0,85,0,0
73499,-86.9565217391304,4,1,0,85,0,0
73650,-88.5976585410801,4,1,0,85,0,0
73726,-89.4416782120966,4,1,0,85,0,0
73801,-90.3019335450011,4,1,0,85,0,0
73876,-91.1788144201119,4,1,0,85,0,0
73952,-92.0729770416032,4,1,0,85,0,0
74027,-92.9848509080901,4,1,0,85,0,0
74102,-93.914967510117,4,1,0,85,0,0
74178,-94.8638798188479,4,1,0,85,0,0
74253,-95.8321633823387,4,1,0,85,0,0
74329,-96.8204174896402,4,1,0,85,0,0
74404,-97.82926640768,4,1,0,85,0,0
74555,-99.9112787844394,4,1,0,85,0,0
74630,-86.9565217391304,4,1,0,85,0,0
84203,-83.3333333333333,4,1,0,90,0,0
84354,-83.3333333333333,4,1,0,90,0,1
92796,-83.3333333333333,4,1,0,90,0,0
92947,-85.3658224271381,4,1,0,90,0,0
93022,-86.4197424173157,4,1,0,90,0,0
93097,-87.5000109375014,4,1,0,90,0,0
93173,-88.6076285851754,4,1,0,90,0,0
93248,-89.7435667324188,4,1,0,90,0,0
93324,-90.9090909090909,4,1,0,90,0,0
93399,-92.1052873961283,4,1,0,90,0,0
93625,-95.8904240945786,4,1,0,90,0,0
93851,-100,4,1,0,90,0,0
93927,-83.3333333333333,4,1,0,90,0,1
102444,-83.3333333333333,4,1,0,90,0,1
102746,-86.9565217391304,4,1,0,90,0,1
103047,-90.9090909090909,4,1,0,90,0,1
103349,-95.2380952380952,4,1,0,90,0,1
103499,-95.2380952380952,4,1,0,80,0,1
103650,-100,4,1,0,80,0,0
113148,-83.3333333333333,4,1,0,90,0,0
113298,-83.3333333333333,4,1,0,90,0,1
120535,-83.3333333333333,4,1,0,90,0,1
120610,-83.1168831168831,4,1,0,90,0,1
120685,-82.9015544041451,4,1,0,90,0,1
120761,-82.687338501292,4,1,0,90,0,1
120836,-82.4742268041237,4,1,0,90,0,1
120911,-82.2622107969152,4,1,0,90,0,1
120987,-82.0512820512821,4,1,0,90,0,1
121062,-81.8414322250639,4,1,0,90,0,1
121138,-81.6326530612245,4,1,0,90,0,1
121213,-81.4249363867685,4,1,0,90,0,1
121288,-81.2182741116751,4,1,0,90,0,1
121364,-81.0126582278481,4,1,0,90,0,1
121439,-80.8080808080808,4,1,0,90,0,1
121515,-80.6045340050378,4,1,0,90,0,1
121590,-80.4020100502513,4,1,0,90,0,1
121665,-80.2005012531328,4,1,0,90,0,1
121741,-80,4,1,0,90,0,1
121791,-79.86690978154,4,1,0,90,0,1
121841,-79.7341980772895,4,1,0,90,0,1
121891,-79.6019900497512,4,1,0,90,0,1
121942,-79.4702197272105,4,1,0,90,0,1
121992,-79.3388219930388,4,1,0,90,0,1
122042,-79.2079207920792,4,1,0,90,0,1
122193,-78.8177339901478,4,1,0,90,0,1
122344,-78.4313725490196,4,1,0,90,0,1
122570,-77.8588807785888,4,1,0,90,0,1
122796,-77.2946859903382,4,1,0,90,0,1
122947,-76.9230769230769,4,1,0,90,0,0
123097,-100,4,1,0,75,0,0
123399,-101.22451293295,4,1,0,75,0,0
123550,-101.639340929858,4,1,0,75,0,0
123851,-102.479386271452,4,1,0,75,0,0
124153,-103.333326444445,4,1,0,75,0,0
124454,-104.201726205796,4,1,0,75,0,0
124605,-104.641367871961,4,1,0,75,0,0
124756,-105.084735076129,4,1,0,75,0,0
125057,-105.98294946309,4,1,0,75,0,0
125359,-106.896536979788,4,1,0,75,0,0
125660,-107.826128211736,4,1,0,75,0,0
125811,-108.29695458134,4,1,0,75,0,0
125962,-108.77191074177,4,1,0,75,0,0
126263,-109.734552118426,4,1,0,75,0,0
126565,-110.714261989801,4,1,0,75,0,0
126866,-111.711747942549,4,1,0,75,0,0
127017,-112.217198632297,4,1,0,75,0,0
127168,-112.727244033065,4,1,0,75,0,0
127319,-113.241947082038,4,1,0,75,0,0
127469,-113.76150128778,4,1,0,75,0,0
127620,-114.285714285714,4,1,0,75,0,0
127771,-114.814780795621,4,1,0,75,0,0
128072,-115.88788079309,4,1,0,75,0,0
128223,-116.431920509599,4,1,0,75,0,0
128374,-116.981092346044,4,1,0,75,0,0
128525,-117.535607412266,4,1,0,75,0,0
128675,-118.095265088442,4,1,0,75,0,0
128826,-118.660277997299,4,1,0,75,0,0
128977,-119.230723372799,4,1,0,75,0,0
129278,-120.388372890946,4,1,0,75,0,0
129429,-120.975595593101,4,1,0,75,0,0
129580,-121.568575009634,4,1,0,75,0,0
129731,-122.167545458544,4,1,0,75,0,0
129881,-122.772296676799,4,1,0,75,0,0
130032,-123.383064934039,4,1,0,75,0,0
130183,-123.999940480029,4,1,0,75,0,0
130334,-124.623170687633,4,1,0,75,0,0
130484,-125.252540434651,4,1,0,75,0,0
130635,-125.88829931202,4,1,0,75,0,0
130786,-126.530545106241,4,1,0,75,0,0
130937,-127.179539355708,4,1,0,75,0,0
131087,-127.83506208949,4,1,0,75,0,0
131238,-128.497377368528,4,1,0,75,0,0
131389,-129.166591319488,4,1,0,75,0,0
131540,-129.842980883218,4,1,0,75,0,0
131690,-130.526321285319,4,1,0,75,0,0
131841,-131.216892337852,4,1,0,75,0,0
131992,-131.914809416079,4,1,0,75,0,0
132143,-132.620366244403,4,1,0,75,0,0
132293,-133.333333333333,4,1,0,75,0,0
132444,-133.333333333333,4,1,0,80,0,0
141238,-129.032258064516,4,1,0,80,0,0
141339,-126.984126984127,4,1,0,80,0,0
141540,-123.076923076923,4,1,0,80,0,0
141640,-121.212121212121,4,1,0,80,0,0
141841,-117.647058823529,4,1,0,80,0,0
141942,-115.942028985507,4,1,0,80,0,0
142042,-114.285714285714,4,1,0,80,0,0
142143,-112.676056338028,4,1,0,80,0,0
142193,-111.111111111111,4,1,0,85,0,0
150710,-33.3333333333333,4,1,0,50,0,0
151816,-86.9565217391304,4,1,0,85,0,0
160334,-86.9565217391304,4,1,0,85,0,0
160484,-88.6076285851754,4,1,0,85,0,0
160560,-89.4568804417738,4,1,0,85,0,0
160635,-90.3225689906363,4,1,0,85,0,0
160710,-91.2051760761527,4,1,0,85,0,0
160786,-92.1052873961283,4,1,0,85,0,0
160861,-93.0232558139535,4,1,0,85,0,0
160937,-93.9597063195419,4,1,0,85,0,0
161012,-94.9152928468988,4,1,0,85,0,0
161087,-95.8904240945786,4,1,0,85,0,0
161163,-96.8857997389896,4,1,0,85,0,0
161238,-97.9020568243118,4,1,0,85,0,0
161389,-100,4,1,0,85,0,0
161464,-86.9565217391304,4,1,0,85,0,0
163952,-66.6666666666667,4,1,0,85,0,0
164178,-72.7272727272727,4,1,0,85,0,0
164404,-80,4,1,0,85,0,0
164630,-88.8888888888889,4,1,0,85,0,0
164856,-100,4,1,0,85,0,0
165007,-86.9565217391304,4,1,0,85,0,0
169982,-86.9565217391304,4,1,0,85,0,0
170283,-89.8876404494382,4,1,0,85,0,0
170585,-93.0232558139535,4,1,0,85,0,0
171037,-100,4,1,0,75,0,0
180271,-33.3333333333333,4,1,0,50,0,0
180535,-33.3333333333333,4,1,0,45,0,0
180836,-33.3333333333333,4,1,0,40,0,0
181138,-33.3333333333333,4,1,0,35,0,0
181439,-33.3333333333333,4,1,0,30,0,0

[HitObjects]
256,192,143,5,8,0:0:0:0:
256,192,1643,1,0,0:0:0:0:
256,192,2393,1,0,0:0:0:0:
256,192,3143,1,8,0:0:0:0:
256,192,4268,1,8,0:0:0:0:
256,192,4643,1,4,0:0:0:0:
256,192,5018,1,0,0:0:0:0:
256,192,5205,1,8,0:0:0:0:
256,192,5299,1,8,0:0:0:0:
256,192,5393,1,0,0:0:0:0:
256,192,5580,1,0,0:0:0:0:
256,192,6143,1,8,0:0:0:0:
256,192,7643,1,0,0:0:0:0:
256,192,8393,1,8,0:0:0:0:
256,192,9143,1,0,0:0:0:0:
256,192,10268,1,8,0:0:0:0:
256,192,10643,1,8,0:0:0:0:
256,192,11205,1,0,0:0:0:0:
256,192,11299,1,0,0:0:0:0:
256,192,11393,1,0,0:0:0:0:
256,192,11580,1,0,0:0:0:0:
256,192,11768,1,8,0:0:0:0:
256,192,11955,1,0,0:0:0:0:
256,192,12143,1,8,0:0:0:0:
256,192,12330,1,8,0:0:0:0:
256,192,12518,1,0,0:0:0:0:
256,192,12705,1,8,0:0:0:0:
256,192,12893,1,8,0:0:0:0:
256,192,13080,1,0,0:0:0:0:
256,192,13268,1,8,0:0:0:0:
256,192,13455,1,0,0:0:0:0:
256,192,13643,1,8,0:0:0:0:
256,192,13830,1,0,0:0:0:0:
256,192,14018,1,0,0:0:0:0:
256,192,14205,1,0,0:0:0:0:
256,192,14393,1,8,0:0:0:0:
256,192,14580,1,8,0:0:0:0:
256,192,14768,1,8,0:0:0:0:
256,192,14955,1,0,0:0:0:0:
256,192,15143,1,8,0:0:0:0:
256,192,15330,1,0,0:0:0:0:
256,192,15518,1,8,0:0:0:0:
256,192,15705,1,8,0:0:0:0:
256,192,15893,1,0,0:0:0:0:
256,192,16080,1,8,0:0:0:0:
256,192,16268,1,0,0:0:0:0:
256,192,16455,1,0,0:0:0:0:
256,192,16643,1,8,0:0:0:0:
256,192,16830,1,0,0:0:0:0:
256,192,17018,1,8,0:0:0:0:
256,192,17393,1,0,0:0:0:0:
256,192,17580,1,8,0:0:0:0:
256,192,17955,1,0,0:0:0:0:
256,192,18143,1,8,0:0:0:0:
256,192,18330,1,0,0:0:0:0:
256,192,18518,1,0,0:0:0:0:
256,192,18705,1,8,0:0:0:0:
256,192,18893,1,8,0:0:0:0:
256,192,19080,1,0,0:0:0:0:
256,192,19268,1,8,0:0:0:0:
256,192,19455,1,0,0:0:0:0:
256,192,19643,1,8,0:0:0:0:
256,192,19830,1,8,0:0:0:0:
256,192,20018,1,8,0:0:0:0:
256,192,20205,1,0,0:0:0:0:
256,192,20393,1,8,0:0:0:0:
256,192,20580,1,8,0:0:0:0:
256,192,20768,1,0,0:0:0:0:
256,192,20955,1,0,0:0:0:0:
256,192,21143,1,8,0:0:0:0:
256,192,21330,1,0,0:0:0:0:
256,192,21518,1,8,0:0:0:0:
256,192,21705,1,8,0:0:0:0:
256,192,21893,1,0,0:0:0:0:
256,192,22080,1,8,0:0:0:0:
256,192,22268,1,0,0:0:0:0:
256,192,22455,1,0,0:0:0:0:
256,192,22643,1,8,0:0:0:0:
256,192,23205,1,0,0:0:0:0:
256,192,23299,1,0,0:0:0:0:
256,192,23393,1,8,0:0:0:0:
256,192,23580,1,0,0:0:0:0:
256,192,23768,1,8,0:0:0:0:
256,192,23955,1,0,0:0:0:0:
256,192,24143,1,12,0:0:0:0:
256,192,24236,12,12,33726,0:0:0:0:
256,192,35510,5,8,0:0:0:0:
256,192,35811,1,8,0:0:0:0:
256,192,36113,1,4,0:0:0:0:
256,192,36565,1,8,0:0:0:0:
256,192,36716,1,8,0:0:0:0:
256,192,37017,1,0,0:0:0:0:
256,192,37319,1,8,0:0:0:0:
256,192,37620,1,8,0:0:0:0:
256,192,37771,1,0,0:0:0:0:
256,192,37922,1,8,0:0:0:0:
256,192,38072,1,8,0:0:0:0:
256,192,38223,1,0,0:0:0:0:
256,192,38374,1,0,0:0:0:0:
256,192,38525,1,8,0:0:0:0:
256,192,38675,1,0,0:0:0:0:
256,192,38751,1,0,0:0:0:0:
256,192,38826,1,8,0:0:0:0:
256,192,38977,1,0,0:0:0:0:
256,192,39128,1,8,0:0:0:0:
256,192,39278,1,8,0:0:0:0:
256,192,39429,1,0,0:0:0:0:
256,192,39731,1,8,0:0:0:0:
256,192,39881,1,8,0:0:0:0:
256,192,39957,1,8,0:0:0:0:
256,192,40032,1,8,0:0:0:0:
256,192,40183,1,0,0:0:0:0:
256,192,40334,1,8,0:0:0:0:
256,192,40409,1,8,0:0:0:0:
256,192,40484,1,0,0:0:0:0:
256,192,40635,1,8,0:0:0:0:
256,192,40937,1,8,0:0:0:0:
256,192,41238,1,0,0:0:0:0:
256,192,41389,1,8,0:0:0:0:
256,192,41540,1,8,0:0:0:0:
256,192,41690,1,0,0:0:0:0:
256,192,41841,1,8,0:0:0:0:
256,192,42143,1,8,0:0:0:0:
256,192,42218,1,8,0:0:0:0:
256,192,42293,1,0,0:0:0:0:
256,192,42444,1,8,0:0:0:0:
256,192,42595,1,8,0:0:0:0:
256,192,42746,1,0,0:0:0:0:
256,192,42896,1,0,0:0:0:0:
256,192,43047,1,8,0:0:0:0:
256,192,43198,1,0,0:0:0:0:
256,192,43349,1,8,0:0:0:0:
256,192,43650,1,8,0:0:0:0:
256,192,43801,1,8,0:0:0:0:
256,192,43952,1,0,0:0:0:0:
256,192,44102,1,0,0:0:0:0:
256,192,44253,1,8,0:0:0:0:
256,192,44404,1,8,0:0:0:0:
256,192,44555,1,0,0:0:0:0:
256,192,44856,1,0,0:0:0:0:
256,192,45158,1,8,0:0:0:0:
256,192,45459,1,8,0:0:0:0:
256,192,45761,1,4,0:0:0:0:
256,192,46062,1,0,0:0:0:0:
256,192,46213,1,8,0:0:0:0:
256,192,46364,1,8,0:0:0:0:
256,192,46515,1,0,0:0:0:0:
256,192,46590,1,0,0:0:0:0:
256,192,46665,1,8,0:0:0:0:
256,192,46816,1,0,0:0:0:0:
256,192,46967,1,8,0:0:0:0:
256,192,47268,1,8,0:0:0:0:
256,192,47419,1,8,0:0:0:0:
256,192,47570,1,0,0:0:0:0:
256,192,47721,1,8,0:0:0:0:
256,192,47796,1,8,0:0:0:0:
256,192,47871,1,0,0:0:0:0:
256,192,48022,1,8,0:0:0:0:
256,192,48173,1,0,0:0:0:0:
256,192,48324,1,0,0:0:0:0:
256,192,48474,1,8,0:0:0:0:
256,192,48625,1,0,0:0:0:0:
256,192,48776,1,8,0:0:0:0:
256,192,48927,1,0,0:0:0:0:
256,192,49002,1,0,0:0:0:0:
256,192,49077,1,8,0:0:0:0:
256,192,49228,1,8,0:0:0:0:
256,192,49379,1,0,0:0:0:0:
256,192,49530,1,8,0:0:0:0:
256,192,49605,1,8,0:0:0:0:
256,192,49680,1,8,0:0:0:0:
256,192,49831,1,0,0:0:0:0:
256,192,49906,1,0,0:0:0:0:
256,192,49982,1,8,0:0:0:0:
256,192,50057,1,8,0:0:0:0:
256,192,50133,1,0,0:0:0:0:
256,192,50283,1,8,0:0:0:0:
256,192,50585,1,8,0:0:0:0:
256,192,50886,1,0,0:0:0:0:
256,192,51037,1,8,0:0:0:0:
256,192,51188,1,8,0:0:0:0:
256,192,51339,1,0,0:0:0:0:
256,192,51414,1,0,0:0:0:0:
256,192,51489,1,8,0:0:0:0:
256,192,51640,1,0,0:0:0:0:
256,192,51791,1,8,0:0:0:0:
256,192,51866,1,8,0:0:0:0:
256,192,51942,1,0,0:0:0:0:
256,192,52017,1,0,0:0:0:0:
256,192,52092,1,8,0:0:0:0:
256,192,52243,1,0,0:0:0:0:
256,192,52394,1,8,0:0:0:0:
256,192,52545,1,8,0:0:0:0:
256,192,52620,1,8,0:0:0:0:
256,192,52695,1,0,0:0:0:0:
256,192,52846,1,0,0:0:0:0:
256,192,52997,1,8,0:0:0:0:
256,192,53298,1,8,0:0:0:0:
256,192,53449,1,0,0:0:0:0:
256,192,53600,1,8,0:0:0:0:
256,192,53751,1,0,0:0:0:0:
256,192,53826,1,0,0:0:0:0:
256,192,53901,1,8,0:0:0:0:
256,192,54052,1,8,0:0:0:0:
256,192,54203,1,0,0:0:0:0:
256,192,54278,1,8,0:0:0:0:
256,192,54354,1,8,0:0:0:0:
256,192,54429,1,0,0:0:0:0:
256,192,54504,1,8,0:0:0:0:
256,192,54655,1,0,0:0:0:0:
256,192,54731,1,0,0:0:0:0:
256,192,54806,1,8,0:0:0:0:
256,192,54906,1,8,0:0:0:0:
256,192,55007,1,0,0:0:0:0:
256,192,55107,1,8,0:0:0:0:
256,192,55208,1,0,0:0:0:0:
256,192,55308,1,0,0:0:0:0:
256,192,55409,1,8,0:0:0:0:
256,192,55560,1,0,0:0:0:0:
256,192,55861,1,8,0:0:0:0:
256,192,56012,1,8,0:0:0:0:
256,192,56314,1,0,0:0:0:0:
256,192,56464,1,8,0:0:0:0:
256,192,56615,1,0,0:0:0:0:
256,192,56766,1,0,0:0:0:0:
256,192,57067,1,8,0:0:0:0:
256,192,57218,1,0,0:0:0:0:
256,192,57369,1,0,0:0:0:0:
256,192,57520,1,8,0:0:0:0:
256,192,57821,1,0,0:0:0:0:
256,192,57972,1,0,0:0:0:0:
256,192,58273,1,8,0:0:0:0:
256,192,58424,1,0,0:0:0:0:
256,192,58575,1,8,0:0:0:0:
256,192,58726,1,0,0:0:0:0:
256,192,59027,1,8,0:0:0:0:
256,192,59178,1,8,0:0:0:0:
256,192,59479,1,0,0:0:0:0:
256,192,59555,1,0,0:0:0:0:
256,192,59630,1,8,0:0:0:0:
256,192,59781,1,8,0:0:0:0:
256,192,59932,1,0,0:0:0:0:
256,192,60007,1,0,0:0:0:0:
256,192,60082,1,0,0:0:0:0:
256,192,60158,1,0,0:0:0:0:
256,192,60233,1,8,0:0:0:0:
256,192,60384,1,8,0:0:0:0:
256,192,60535,1,0,0:0:0:0:
256,192,60685,1,8,0:0:0:0:
256,192,60836,1,0,0:0:0:0:
256,192,60987,1,0,0:0:0:0:
256,192,61062,1,0,0:0:0:0:
256,192,61138,1,8,0:0:0:0:
256,192,61288,1,8,0:0:0:0:
256,192,61439,1,0,0:0:0:0:
256,192,61590,1,8,0:0:0:0:
256,192,61665,1,8,0:0:0:0:
256,192,61741,1,0,0:0:0:0:
256,192,61891,1,0,0:0:0:0:
256,192,62042,1,8,0:0:0:0:
256,192,62193,1,0,0:0:0:0:
256,192,62268,1,8,0:0:0:0:
256,192,62344,1,0,0:0:0:0:
256,192,62419,1,0,0:0:0:0:
256,192,62494,1,8,0:0:0:0:
256,192,62645,1,0,0:0:0:0:
256,192,62796,1,0,0:0:0:0:
256,192,62947,1,8,0:0:0:0:
256,192,63022,1,8,0:0:0:0:
256,192,63097,1,0,0:0:0:0:
256,192,63173,1,8,0:0:0:0:
256,192,63248,1,0,0:0:0:0:
256,192,63399,1,0,0:0:0:0:
256,192,63550,1,8,0:0:0:0:
256,192,63625,1,8,0:0:0:0:
256,192,63700,1,0,0:0:0:0:
256,192,63776,1,0,0:0:0:0:
256,192,63851,1,12,0:0:0:0:
256,192,63927,2,4,L|401:161,6,105.000004005432
256,192,64454,2,0,L|339:201,4,70
256,192,65057,1,4,0:0:0:0:
256,192,65208,1,8,0:0:0:0:
256,192,65258,1,8,0:0:0:0:
256,192,65308,1,8,0:0:0:0:
256,192,65359,1,0,0:0:0:0:
256,192,65509,1,8,0:0:0:0:
256,192,65560,1,0,0:0:0:0:
256,192,65610,1,0,0:0:0:0:
256,192,65660,1,8,0:0:0:0:
256,192,65811,1,8,0:0:0:0:
256,192,65861,1,8,0:0:0:0:
256,192,65962,1,0,0:0:0:0:
256,192,66012,1,0,0:0:0:0:
256,192,66112,1,8,0:0:0:0:
256,192,66163,1,8,0:0:0:0:
256,192,66263,1,0,0:0:0:0:
256,192,66314,1,0,0:0:0:0:
256,192,66364,1,0,0:0:0:0:
256,192,66414,1,0,0:0:0:0:
256,192,66489,1,0,0:0:0:0:
256,192,66565,1,8,0:0:0:0:
256,192,66640,1,0,0:0:0:0:
256,192,66716,1,0,0:0:0:0:
256,192,66866,1,8,0:0:0:0:
256,192,66942,1,8,0:0:0:0:
256,192,67017,1,0,0:0:0:0:
256,192,67168,1,8,0:0:0:0:
256,192,67243,1,8,0:0:0:0:
256,192,67319,1,8,0:0:0:0:
256,192,67469,1,0,0:0:0:0:
256,192,67620,1,8,0:0:0:0:
256,192,67670,1,8,0:0:0:0:
256,192,67721,1,8,0:0:0:0:
256,192,67771,1,0,0:0:0:0:
256,192,67922,1,8,0:0:0:0:
256,192,67972,1,0,0:0:0:0:
256,192,68022,1,0,0:0:0:0:
256,192,68072,1,8,0:0:0:0:
256,192,68223,1,0,0:0:0:0:
256,192,68273,1,0,0:0:0:0:
256,192,68374,1,0,0:0:0:0:
256,192,68424,1,0,0:0:0:0:
256,192,68675,1,0,0:0:0:0:
256,192,68901,1,0,0:0:0:0:
256,192,69128,1,0,0:0:0:0:
256,192,69203,1,0,0:0:0:0:
256,192,69278,1,8,0:0:0:0:
256,192,69354,1,8,0:0:0:0:
256,192,69429,1,8,0:0:0:0:
256,192,69504,1,0,0:0:0:0:
256,192,69580,1,8,0:0:0:0:
256,192,69655,1,8,0:0:0:0:
256,192,69731,1,0,0:0:0:0:
256,192,69806,1,0,0:0:0:0:
256,192,69881,1,8,0:0:0:0:
256,192,69932,1,8,0:0:0:0:
256,192,70183,1,0,0:0:0:0:
256,192,70233,1,0,0:0:0:0:
256,192,70283,1,0,0:0:0:0:
256,192,70334,1,8,0:0:0:0:
256,192,70484,1,8,0:0:0:0:
256,192,70560,1,0,0:0:0:0:
256,192,70635,1,8,0:0:0:0:
256,192,70710,1,0,0:0:0:0:
256,192,70786,1,8,0:0:0:0:
256,192,70861,1,8,0:0:0:0:
256,192,70937,1,8,0:0:0:0:
256,192,71012,1,8,0:0:0:0:
256,192,71087,1,0,0:0:0:0:
256,192,71138,1,8,0:0:0:0:
256,192,71188,1,8,0:0:0:0:
256,192,71238,1,0,0:0:0:0:
256,192,71389,1,8,0:0:0:0:
256,192,71439,1,8,0:0:0:0:
256,192,71489,1,8,0:0:0:0:
256,192,71540,1,0,0:0:0:0:
256,192,71615,1,0,0:0:0:0:
256,192,71690,1,8,0:0:0:0:
256,192,71766,1,8,0:0:0:0:
256,192,71841,1,0,0:0:0:0:
256,192,71917,1,8,0:0:0:0:
256,192,71992,1,0,0:0:0:0:
256,192,72067,1,0,0:0:0:0:
256,192,72143,1,8,0:0:0:0:
256,192,72218,1,8,0:0:0:0:
256,192,72293,1,0,0:0:0:0:
256,192,72369,1,8,0:0:0:0:
256,192,72444,1,0,0:0:0:0:
256,192,72595,1,0,0:0:0:0:
256,192,72896,1,8,0:0:0:0:
256,192,73047,1,8,0:0:0:0:
256,192,73123,1,0,0:0:0:0:
256,192,73198,1,8,0:0:0:0:
256,192,73349,1,8,0:0:0:0:
256,192,73499,1,4,0:0:0:0:
256,192,73650,1,8,0:0:0:0:
256,192,73726,1,0,0:0:0:0:
256,192,73801,1,8,0:0:0:0:
256,192,73876,1,8,0:0:0:0:
256,192,73952,1,0,0:0:0:0:
256,192,74027,1,0,0:0:0:0:
256,192,74102,1,8,0:0:0:0:
256,192,74178,1,0,0:0:0:0:
256,192,74253,1,8,0:0:0:0:
256,192,74329,1,8,0:0:0:0:
256,192,74404,1,0,0:0:0:0:
256,192,74555,1,8,0:0:0:0:
256,192,74705,1,4,0:0:0:0:
256,192,74856,1,8,0:0:0:0:
256,192,74906,1,8,0:0:0:0:
256,192,74957,1,8,0:0:0:0:
256,192,75007,1,0,0:0:0:0:
256,192,75158,1,8,0:0:0:0:
256,192,75208,1,0,0:0:0:0:
256,192,75258,1,0,0:0:0:0:
256,192,75308,1,8,0:0:0:0:
256,192,75384,1,0,0:0:0:0:
256,192,75459,1,8,0:0:0:0:
256,192,75535,1,0,0:0:0:0:
256,192,75610,1,8,0:0:0:0:
256,192,75660,1,8,0:0:0:0:
256,192,75761,1,8,0:0:0:0:
256,192,75811,1,8,0:0:0:0:
256,192,75911,1,0,0:0:0:0:
256,192,76213,1,8,0:0:0:0:
256,192,76288,1,0,0:0:0:0:
256,192,76364,1,0,0:0:0:0:
256,192,76515,1,8,0:0:0:0:
256,192,76590,1,8,0:0:0:0:
256,192,76665,1,0,0:0:0:0:
256,192,76816,1,8,0:0:0:0:
256,192,76891,1,8,0:0:0:0:
256,192,76967,1,8,0:0:0:0:
256,192,77118,1,0,0:0:0:0:
256,192,77268,1,8,0:0:0:0:
256,192,77319,1,8,0:0:0:0:
256,192,77369,1,8,0:0:0:0:
256,192,77419,1,0,0:0:0:0:
256,192,77570,1,8,0:0:0:0:
256,192,77620,1,0,0:0:0:0:
256,192,77670,1,0,0:0:0:0:
256,192,77721,1,8,0:0:0:0:
256,192,77871,1,0,0:0:0:0:
256,192,77922,1,0,0:0:0:0:
256,192,78022,1,0,0:0:0:0:
256,192,78072,1,0,0:0:0:0:
256,192,78324,1,8,0:0:0:0:
256,192,78399,1,0,0:0:0:0:
256,192,78474,1,8,0:0:0:0:
256,192,78550,1,0,0:0:0:0:
256,192,78625,1,8,0:0:0:0:
256,192,78776,1,8,0:0:0:0:
256,192,78851,1,8,0:0:0:0:
256,192,78927,1,0,0:0:0:0:
256,192,79002,1,8,0:0:0:0:
256,192,79077,1,0,0:0:0:0:
256,192,79153,1,0,0:0:0:0:
256,192,79228,1,8,0:0:0:0:
256,192,79530,1,0,0:0:0:0:
256,192,79680,1,8,0:0:0:0:
256,192,79831,1,0,0:0:0:0:
256,192,79906,1,0,0:0:0:0:
256,192,79982,1,8,0:0:0:0:
256,192,80133,1,8,0:0:0:0:
256,192,80183,1,8,0:0:0:0:
256,192,80283,1,0,0:0:0:0:
256,192,80334,1,0,0:0:0:0:
256,192,80434,1,8,0:0:0:0:
256,192,80484,1,8,0:0:0:0:
256,192,80535,1,8,0:0:0:0:
256,192,80585,1,0,0:0:0:0:
256,192,80736,1,8,0:0:0:0:
256,192,80786,1,8,0:0:0:0:
256,192,80886,1,0,0:0:0:0:
256,192,80937,1,0,0:0:0:0:
256,192,81037,1,8,0:0:0:0:
256,192,81087,1,8,0:0:0:0:
256,192,81138,1,8,0:0:0:0:
256,192,81188,1,0,0:0:0:0:
256,192,81339,1,8,0:0:0:0:
256,192,81414,1,8,0:0:0:0:
256,192,81489,1,8,0:0:0:0:
256,192,81565,1,8,0:0:0:0:
256,192,81640,1,0,0:0:0:0:
256,192,81716,1,0,0:0:0:0:
256,192,81791,1,8,0:0:0:0:
256,192,81866,1,0,0:0:0:0:
256,192,81942,1,12,0:0:0:0:
256,192,82243,1,8,0:0:0:0:
256,192,82394,1,4,0:0:0:0:
256,192,82545,1,12,0:0:0:0:
256,192,82695,1,0,0:0:0:0:
256,192,82771,1,0,0:0:0:0:
256,192,82846,1,8,0:0:0:0:
256,192,82922,1,8,0:0:0:0:
256,192,82997,1,0,0:0:0:0:
256,192,83148,1,12,0:0:0:0:
256,192,83449,1,12,0:0:0:0:
256,192,83751,1,4,0:0:0:0:
256,192,84354,1,0,0:0:0:0:
256,192,84404,1,0,0:0:0:0:
256,192,84454,1,0,0:0:0:0:
256,192,84504,1,0,0:0:0:0:
256,192,84555,1,0,0:0:0:0:
256,192,84605,1,0,0:0:0:0:
256,192,84655,1,8,0:0:0:0:
256,192,84806,1,8,0:0:0:0:
256,192,84881,1,0,0:0:0:0:
256,192,84957,1,8,0:0:0:0:
256,192,85007,1,8,0:0:0:0:
256,192,85107,1,0,0:0:0:0:
256,192,85158,1,0,0:0:0:0:
256,192,85258,1,8,0:0:0:0:
256,192,85308,1,8,0:0:0:0:
256,192,85409,1,8,0:0:0:0:
256,192,85459,1,8,0:0:0:0:
256,192,85560,1,0,0:0:0:0:
256,192,85610,1,0,0:0:0:0:
256,192,85660,1,0,0:0:0:0:
256,192,85710,1,8,0:0:0:0:
256,192,85861,1,8,0:0:0:0:
256,192,85937,1,0,0:0:0:0:
256,192,86012,1,0,0:0:0:0:
256,192,86087,1,0,0:0:0:0:
256,192,86163,1,8,0:0:0:0:
256,192,86238,1,8,0:0:0:0:
256,192,86314,1,0,0:0:0:0:
256,192,86389,1,0,0:0:0:0:
256,192,86464,1,8,0:0:0:0:
256,192,86615,1,8,0:0:0:0:
256,192,86766,1,0,0:0:0:0:
256,192,86816,1,0,0:0:0:0:
256,192,86866,1,0,0:0:0:0:
256,192,86917,1,8,0:0:0:0:
256,192,86967,1,8,0:0:0:0:
256,192,87017,1,8,0:0:0:0:
256,192,87067,1,0,0:0:0:0:
256,192,87218,1,8,0:0:0:0:
256,192,87268,1,0,0:0:0:0:
256,192,87319,1,0,0:0:0:0:
256,192,87369,1,8,0:0:0:0:
256,192,87520,1,8,0:0:0:0:
256,192,87570,1,8,0:0:0:0:
256,192,87670,1,0,0:0:0:0:
256,192,87721,1,0,0:0:0:0:
256,192,87821,1,8,0:0:0:0:
256,192,87871,1,8,0:0:0:0:
256,192,87972,1,0,0:0:0:0:
256,192,88198,1,0,0:0:0:0:
256,192,88273,1,8,0:0:0:0:
256,192,88424,1,8,0:0:0:0:
256,192,88499,1,0,0:0:0:0:
256,192,88575,1,8,0:0:0:0:
256,192,88650,1,8,0:0:0:0:
256,192,88726,1,8,0:0:0:0:
256,192,88801,1,0,0:0:0:0:
256,192,88876,1,8,0:0:0:0:
256,192,88952,1,8,0:0:0:0:
256,192,89027,1,0,0:0:0:0:
256,192,89178,1,8,0:0:0:0:
256,192,89329,1,8,0:0:0:0:
256,192,89404,1,8,0:0:0:0:
256,192,89479,1,0,0:0:0:0:
256,192,89630,1,8,0:0:0:0:
256,192,89705,1,0,0:0:0:0:
256,192,89781,1,8,0:0:0:0:
256,192,89831,1,8,0:0:0:0:
256,192,89932,1,8,0:0:0:0:
256,192,89982,1,8,0:0:0:0:
256,192,90082,1,0,0:0:0:0:
256,192,90133,1,0,0:0:0:0:
256,192,90233,1,0,0:0:0:0:
256,192,90283,1,0,0:0:0:0:
256,192,90384,1,8,0:0:0:0:
256,192,90434,1,8,0:0:0:0:
256,192,90484,1,8,0:0:0:0:
256,192,90535,1,0,0:0:0:0:
256,192,90610,1,0,0:0:0:0:
256,192,90685,1,8,0:0:0:0:
256,192,90761,1,8,0:0:0:0:
256,192,90836,1,8,0:0:0:0:
256,192,90911,1,0,0:0:0:0:
256,192,90987,1,8,0:0:0:0:
256,192,91062,1,0,0:0:0:0:
256,192,91138,1,8,0:0:0:0:
256,192,91213,1,0,0:0:0:0:
256,192,91288,1,8,0:0:0:0:
256,192,91364,1,0,0:0:0:0:
256,192,91439,1,8,0:0:0:0:
256,192,91515,1,8,0:0:0:0:
256,192,91590,1,0,0:0:0:0:
256,192,91741,1,8,0:0:0:0:
256,192,91816,1,0,0:0:0:0:
256,192,91891,1,8,0:0:0:0:
256,192,92193,1,8,0:0:0:0:
256,192,92344,1,0,0:0:0:0:
256,192,92419,1,0,0:0:0:0:
256,192,92494,1,8,0:0:0:0:
256,192,92645,1,0,0:0:0:0:
256,192,92796,1,12,0:0:0:0:
256,192,92947,1,0,0:0:0:0:
256,192,93022,1,0,0:0:0:0:
256,192,93097,1,8,0:0:0:0:
256,192,93173,1,0,0:0:0:0:
256,192,93248,1,0,0:0:0:0:
256,192,93324,1,0,0:0:0:0:
256,192,93399,1,8,0:0:0:0:
256,192,93625,1,8,0:0:0:0:
256,192,93851,1,0,0:0:0:0:
256,192,94002,1,8,0:0:0:0:
256,192,94052,1,8,0:0:0:0:
256,192,94102,1,8,0:0:0:0:
256,192,94153,1,8,0:0:0:0:
256,192,94203,1,8,0:0:0:0:
256,192,94253,1,8,0:0:0:0:
256,192,94303,1,0,0:0:0:0:
256,192,94454,1,8,0:0:0:0:
256,192,94504,1,0,0:0:0:0:
256,192,94555,1,0,0:0:0:0:
256,192,94605,1,8,0:0:0:0:
256,192,94680,1,0,0:0:0:0:
256,192,94756,1,8,0:0:0:0:
256,192,94831,1,0,0:0:0:0:
256,192,94906,1,8,0:0:0:0:
256,192,94957,1,8,0:0:0:0:
256,192,95057,1,8,0:0:0:0:
256,192,95107,1,8,0:0:0:0:
256,192,95208,1,0,0:0:0:0:
256,192,95359,1,0,0:0:0:0:
256,192,95509,1,8,0:0:0:0:
256,192,95585,1,0,0:0:0:0:
256,192,95660,1,0,0:0:0:0:
256,192,95736,1,0,0:0:0:0:
256,192,95811,1,8,0:0:0:0:
256,192,95886,1,8,0:0:0:0:
256,192,95962,1,0,0:0:0:0:
256,192,96037,1,0,0:0:0:0:
256,192,96112,1,8,0:0:0:0:
256,192,96188,1,8,0:0:0:0:
256,192,96263,1,8,0:0:0:0:
256,192,96414,1,0,0:0:0:0:
256,192,96464,1,0,0:0:0:0:
256,192,96515,1,0,0:0:0:0:
256,192,96565,1,8,0:0:0:0:
256,192,96615,1,8,0:0:0:0:
256,192,96665,1,8,0:0:0:0:
256,192,96716,1,0,0:0:0:0:
256,192,96866,1,8,0:0:0:0:
256,192,96917,1,0,0:0:0:0:
256,192,96967,1,0,0:0:0:0:
256,192,97017,1,8,0:0:0:0:
256,192,97168,1,0,0:0:0:0:
256,192,97218,1,0,0:0:0:0:
256,192,97319,1,8,0:0:0:0:
256,192,97369,1,8,0:0:0:0:
256,192,97469,1,0,0:0:0:0:
256,192,97520,1,0,0:0:0:0:
256,192,97620,1,8,0:0:0:0:
256,192,97695,1,0,0:0:0:0:
256,192,97771,1,8,0:0:0:0:
256,192,97846,1,0,0:0:0:0:
256,192,97922,1,8,0:0:0:0:
256,192,98072,1,8,0:0:0:0:
256,192,98123,1,8,0:0:0:0:
256,192,98223,1,0,0:0:0:0:
256,192,98298,1,8,0:0:0:0:
256,192,98374,1,0,0:0:0:0:
256,192,98449,1,0,0:0:0:0:
256,192,98525,1,8,0:0:0:0:
256,192,98826,1,0,0:0:0:0:
256,192,98977,1,8,0:0:0:0:
256,192,99128,1,0,0:0:0:0:
256,192,99203,1,0,0:0:0:0:
256,192,99278,1,8,0:0:0:0:
256,192,99429,1,8,0:0:0:0:
256,192,99479,1,8,0:0:0:0:
256,192,99580,1,0,0:0:0:0:
256,192,99630,1,0,0:0:0:0:
256,192,99731,1,8,0:0:0:0:
256,192,99781,1,8,0:0:0:0:
256,192,99831,1,8,0:0:0:0:
256,192,99881,1,0,0:0:0:0:
256,192,100032,1,8,0:0:0:0:
256,192,100082,1,8,0:0:0:0:
256,192,100183,1,0,0:0:0:0:
256,192,100233,1,0,0:0:0:0:
256,192,100334,1,8,0:0:0:0:
256,192,100384,1,8,0:0:0:0:
256,192,100434,1,8,0:0:0:0:
256,192,100484,1,0,0:0:0:0:
256,192,100635,1,8,0:0:0:0:
256,192,100710,1,8,0:0:0:0:
256,192,100786,1,8,0:0:0:0:
256,192,100861,1,8,0:0:0:0:
256,192,100937,1,0,0:0:0:0:
256,192,101012,1,0,0:0:0:0:
256,192,101087,1,8,0:0:0:0:
256,192,101163,1,0,0:0:0:0:
256,192,101238,1,12,0:0:0:0:
256,192,101540,1,8,0:0:0:0:
256,192,101690,1,4,0:0:0:0:
256,192,101841,1,12,0:0:0:0:
256,192,101992,1,0,0:0:0:0:
256,192,102067,1,0,0:0:0:0:
256,192,102143,1,8,0:0:0:0:
256,192,102218,1,8,0:0:0:0:
256,192,102293,1,0,0:0:0:0:
256,192,102444,1,12,0:0:0:0:
256,192,102746,1,12,0:0:0:0:
256,192,103047,1,4,0:0:0:0:
256,192,103349,1,0,0:0:0:0:
256,192,103650,1,12,0:0:0:0:
256,192,103801,1,0,0:0:0:0:
256,192,103952,1,8,0:0:0:0:
256,192,104102,1,8,0:0:0:0:
256,192,104253,1,8,0:0:0:0:
256,192,104404,1,0,0:0:0:0:
256,192,104479,1,0,0:0:0:0:
256,192,104555,1,8,0:0:0:0:
256,192,104705,1,0,0:0:0:0:
256,192,104856,1,8,0:0:0:0:
256,192,105007,1,0,0:0:0:0:
256,192,105158,1,8,0:0:0:0:
256,192,105308,1,8,0:0:0:0:
256,192,105459,1,0,0:0:0:0:
256,192,105535,1,0,0:0:0:0:
256,192,105610,1,8,0:0:0:0:
256,192,105685,1,8,0:0:0:0:
256,192,105761,1,8,0:0:0:0:
256,192,105911,1,0,0:0:0:0:
256,192,106062,1,8,0:0:0:0:
256,192,106213,1,0,0:0:0:0:
256,192,106364,1,8,0:0:0:0:
256,192,106515,1,8,0:0:0:0:
256,192,106665,1,0,0:0:0:0:
256,192,106816,1,0,0:0:0:0:
256,192,106967,1,8,0:0:0:0:
256,192,107042,1,8,0:0:0:0:
256,192,107118,1,0,0:0:0:0:
256,192,107268,1,8,0:0:0:0:
256,192,107419,1,8,0:0:0:0:
256,192,107494,1,8,0:0:0:0:
256,192,107570,1,8,0:0:0:0:
256,192,107721,1,0,0:0:0:0:
256,192,107796,1,0,0:0:0:0:
256,192,107871,1,8,0:0:0:0:
256,192,108022,1,0,0:0:0:0:
256,192,108173,1,8,0:0:0:0:
256,192,108324,1,8,0:0:0:0:
256,192,108399,1,8,0:0:0:0:
256,192,108474,1,0,0:0:0:0:
256,192,108625,1,0,0:0:0:0:
256,192,108776,1,8,0:0:0:0:
256,192,108927,1,8,0:0:0:0:
256,192,109077,1,8,0:0:0:0:
256,192,109228,1,0,0:0:0:0:
256,192,109303,1,0,0:0:0:0:
256,192,109379,1,8,0:0:0:0:
256,192,109530,1,0,0:0:0:0:
256,192,109680,1,8,0:0:0:0:
256,192,109831,1,8,0:0:0:0:
256,192,109982,1,0,0:0:0:0:
256,192,110133,1,8,0:0:0:0:
256,192,110283,1,0,0:0:0:0:
256,192,110359,1,0,0:0:0:0:
256,192,110434,1,8,0:0:0:0:
256,192,110509,1,8,0:0:0:0:
256,192,110585,1,8,0:0:0:0:
256,192,110736,1,0,0:0:0:0:
256,192,110886,1,8,0:0:0:0:
256,192,111037,1,8,0:0:0:0:
256,192,111188,1,0,0:0:0:0:
256,192,111339,1,8,0:0:0:0:
256,192,111489,1,0,0:0:0:0:
256,192,111640,1,0,0:0:0:0:
256,192,111791,1,8,0:0:0:0:
256,192,111866,1,8,0:0:0:0:
256,192,111942,1,0,0:0:0:0:
256,192,112092,1,12,0:0:0:0:
256,192,112695,1,4,0:0:0:0:
256,192,112997,1,0,0:0:0:0:
256,192,113298,1,12,0:0:0:0:
256,192,113449,1,0,0:0:0:0:
256,192,113499,1,0,0:0:0:0:
256,192,113550,1,0,0:0:0:0:
256,192,113600,1,8,0:0:0:0:
256,192,113675,1,8,0:0:0:0:
256,192,113751,1,0,0:0:0:0:
256,192,113826,1,0,0:0:0:0:
256,192,113901,1,8,0:0:0:0:
256,192,113977,1,0,0:0:0:0:
256,192,114052,1,8,0:0:0:0:
256,192,114102,1,8,0:0:0:0:
256,192,114153,1,8,0:0:0:0:
256,192,114203,1,0,0:0:0:0:
256,192,114354,1,8,0:0:0:0:
256,192,114504,1,0,0:0:0:0:
256,192,114580,1,8,0:0:0:0:
256,192,114655,1,0,0:0:0:0:
256,192,114705,1,0,0:0:0:0:
256,192,114756,1,0,0:0:0:0:
256,192,114806,1,8,0:0:0:0:
256,192,114881,1,8,0:0:0:0:
256,192,114957,1,0,0:0:0:0:
256,192,115032,1,0,0:0:0:0:
256,192,115107,1,8,0:0:0:0:
256,192,115158,1,8,0:0:0:0:
256,192,115208,1,8,0:0:0:0:
256,192,115258,1,0,0:0:0:0:
256,192,115334,1,0,0:0:0:0:
256,192,115409,1,8,0:0:0:0:
256,192,115484,1,0,0:0:0:0:
256,192,115560,1,8,0:0:0:0:
256,192,115635,1,0,0:0:0:0:
256,192,115710,1,8,0:0:0:0:
256,192,115861,1,0,0:0:0:0:
256,192,115911,1,0,0:0:0:0:
256,192,115962,1,0,0:0:0:0:
256,192,116012,1,8,0:0:0:0:
256,192,116087,1,0,0:0:0:0:
256,192,116163,1,8,0:0:0:0:
256,192,116213,1,8,0:0:0:0:
256,192,116263,1,8,0:0:0:0:
256,192,116314,1,0,0:0:0:0:
256,192,116389,1,8,0:0:0:0:
256,192,116464,1,8,0:0:0:0:
256,192,116540,1,8,0:0:0:0:
256,192,116615,1,0,0:0:0:0:
256,192,116766,1,0,0:0:0:0:
256,192,116917,1,8,0:0:0:0:
256,192,117067,1,0,0:0:0:0:
256,192,117118,1,8,0:0:0:0:
256,192,117168,1,8,0:0:0:0:
256,192,117218,1,0,0:0:0:0:
256,192,117293,1,0,0:0:0:0:
256,192,117369,1,8,0:0:0:0:
256,192,117444,1,8,0:0:0:0:
256,192,117520,1,0,0:0:0:0:
256,192,117595,1,8,0:0:0:0:
256,192,117670,1,0,0:0:0:0:
256,192,117746,1,0,0:0:0:0:
256,192,117821,1,8,0:0:0:0:
256,192,117972,1,0,0:0:0:0:
256,192,118047,1,0,0:0:0:0:
256,192,118123,1,0,0:0:0:0:
256,192,118273,1,8,0:0:0:0:
256,192,118324,1,8,0:0:0:0:
256,192,118374,1,8,0:0:0:0:
256,192,118424,1,0,0:0:0:0:
256,192,118499,1,0,0:0:0:0:
256,192,118575,1,8,0:0:0:0:
256,192,118650,1,0,0:0:0:0:
256,192,118726,1,8,0:0:0:0:
256,192,118801,1,8,0:0:0:0:
256,192,118876,1,0,0:0:0:0:
256,192,118927,1,0,0:0:0:0:
256,192,118977,1,0,0:0:0:0:
256,192,119027,1,8,0:0:0:0:
256,192,119102,1,8,0:0:0:0:
256,192,119178,1,0,0:0:0:0:
256,192,119329,1,8,0:0:0:0:
256,192,119404,1,0,0:0:0:0:
256,192,119479,1,8,0:0:0:0:
256,192,119530,1,8,0:0:0:0:
256,192,119580,1,8,0:0:0:0:
256,192,119630,1,0,0:0:0:0:
256,192,119705,1,0,0:0:0:0:
256,192,119781,1,8,0:0:0:0:
256,192,119856,1,8,0:0:0:0:
256,192,119932,1,0,0:0:0:0:
256,192,119982,1,0,0:0:0:0:
256,192,120032,1,0,0:0:0:0:
256,192,120082,1,8,0:0:0:0:
256,192,120158,1,0,0:0:0:0:
256,192,120233,1,8,0:0:0:0:
256,192,120308,1,8,0:0:0:0:
256,192,120384,1,0,0:0:0:0:
256,192,120459,1,0,0:0:0:0:
256,192,120535,1,8,0:0:0:0:
256,192,120610,1,8,0:0:0:0:
256,192,120685,1,0,0:0:0:0:
256,192,120761,1,0,0:0:0:0:
256,192,120836,1,8,0:0:0:0:
256,192,120911,1,8,0:0:0:0:
256,192,120987,1,0,0:0:0:0:
256,192,121062,1,0,0:0:0:0:
256,192,121138,1,8,0:0:0:0:
256,192,121213,1,8,0:0:0:0:
256,192,121288,1,8,0:0:0:0:
256,192,121364,1,0,0:0:0:0:
256,192,121439,1,8,0:0:0:0:
256,192,121515,1,8,0:0:0:0:
256,192,121590,1,8,0:0:0:0:
256,192,121665,1,0,0:0:0:0:
256,192,121741,1,8,0:0:0:0:
256,192,121791,1,8,0:0:0:0:
256,192,121841,1,0,0:0:0:0:
256,192,121891,1,8,0:0:0:0:
256,192,121942,1,8,0:0:0:0:
256,192,121992,1,0,0:0:0:0:
256,192,122042,1,8,0:0:0:0:
256,192,122193,1,0,0:0:0:0:
256,192,122344,1,12,0:0:0:0:
256,192,122570,1,12,0:0:0:0:
256,192,122796,1,12,0:0:0:0:
256,192,122947,1,4,0:0:0:0:
256,192,123399,1,8,0:0:0:0:
256,192,123550,1,0,0:0:0:0:
256,192,123851,1,8,0:0:0:0:
256,192,124153,1,8,0:0:0:0:
256,192,124454,1,0,0:0:0:0:
256,192,124605,1,8,0:0:0:0:
256,192,124756,1,0,0:0:0:0:
256,192,125057,1,8,0:0:0:0:
256,192,125359,1,8,0:0:0:0:
256,192,125660,1,0,0:0:0:0:
256,192,125811,1,8,0:0:0:0:
256,192,125962,1,0,0:0:0:0:
256,192,126263,1,8,0:0:0:0:
256,192,126565,1,8,0:0:0:0:
256,192,126866,1,0,0:0:0:0:
256,192,127017,1,8,0:0:0:0:
256,192,127168,1,0,0:0:0:0:
256,192,127319,1,0,0:0:0:0:
256,192,127469,1,8,0:0:0:0:
256,192,127620,1,0,0:0:0:0:
256,192,127771,1,8,0:0:0:0:
256,192,128072,1,0,0:0:0:0:
256,192,128223,1,8,0:0:0:0:
256,192,128374,1,0,0:0:0:0:
256,192,128525,1,0,0:0:0:0:
256,192,128675,1,8,0:0:0:0:
256,192,128826,1,0,0:0:0:0:
256,192,128977,1,8,0:0:0:0:
256,192,129278,1,0,0:0:0:0:
256,192,129429,1,8,0:0:0:0:
256,192,129580,1,0,0:0:0:0:
256,192,129731,1,0,0:0:0:0:
256,192,129881,1,8,0:0:0:0:
256,192,130032,1,0,0:0:0:0:
256,192,130183,1,8,0:0:0:0:
256,192,130334,1,0,0:0:0:0:
256,192,130484,1,0,0:0:0:0:
256,192,130635,1,8,0:0:0:0:
256,192,130786,1,0,0:0:0:0:
256,192,130937,1,0,0:0:0:0:
256,192,131087,1,8,0:0:0:0:
256,192,131238,1,0,0:0:0:0:
256,192,131389,1,8,0:0:0:0:
256,192,131540,1,0,0:0:0:0:
256,192,131690,1,0,0:0:0:0:
256,192,131841,1,8,0:0:0:0:
256,192,131992,1,8,0:0:0:0:
256,192,132143,1,0,0:0:0:0:
256,192,132293,1,8,0:0:0:0:
256,192,132595,1,4,0:0:0:0:
256,192,132796,1,8,0:0:0:0:
256,192,132896,1,8,0:0:0:0:
256,192,133097,1,8,0:0:0:0:
256,192,133198,1,0,0:0:0:0:
256,192,133399,1,8,0:0:0:0:
256,192,133499,1,8,0:0:0:0:
256,192,133700,1,0,0:0:0:0:
256,192,133801,1,8,0:0:0:0:
256,192,134002,1,0,0:0:0:0:
256,192,134102,1,0,0:0:0:0:
256,192,134303,1,8,0:0:0:0:
256,192,134404,1,8,0:0:0:0:
256,192,134605,1,0,0:0:0:0:
256,192,134705,1,8,0:0:0:0:
256,192,134906,1,8,0:0:0:0:
256,192,135007,1,0,0:0:0:0:
256,192,135107,1,0,0:0:0:0:
256,192,135208,1,8,0:0:0:0:
256,192,135308,1,8,0:0:0:0:
256,192,135509,1,0,0:0:0:0:
256,192,135610,1,8,0:0:0:0:
256,192,135811,1,8,0:0:0:0:
256,192,135911,1,0,0:0:0:0:
256,192,136112,1,8,0:0:0:0:
256,192,136213,1,4,0:0:0:0:
256,192,136414,1,0,0:0:0:0:
256,192,136515,1,8,0:0:0:0:
256,192,136716,1,0,0:0:0:0:
256,192,136816,1,8,0:0:0:0:
256,192,136917,1,8,0:0:0:0:
256,192,137017,1,0,0:0:0:0:
256,192,137118,1,8,0:0:0:0:
256,192,137319,1,0,0:0:0:0:
256,192,137419,1,12,0:0:0:0:
256,192,137620,1,0,0:0:0:0:
256,192,137721,1,8,0:0:0:0:
256,192,137922,1,8,0:0:0:0:
256,192,138022,1,8,0:0:0:0:
256,192,138223,1,0,0:0:0:0:
256,192,138324,1,0,0:0:0:0:
256,192,138525,1,8,0:0:0:0:
256,192,138625,1,0,0:0:0:0:
256,192,138826,1,8,0:0:0:0:
256,192,138927,1,8,0:0:0:0:
256,192,139128,1,0,0:0:0:0:
256,192,139228,1,8,0:0:0:0:
256,192,139429,1,0,0:0:0:0:
256,192,139530,1,8,0:0:0:0:
256,192,139731,1,8,0:0:0:0:
256,192,139831,1,0,0:0:0:0:
256,192,139932,1,8,0:0:0:0:
256,192,140032,1,0,0:0:0:0:
256,192,140133,1,0,0:0:0:0:
256,192,140334,1,0,0:0:0:0:
256,192,140434,1,8,0:0:0:0:
256,192,140635,1,0,0:0:0:0:
256,192,140736,1,0,0:0:0:0:
256,192,140937,1,0,0:0:0:0:
256,192,141037,1,8,0:0:0:0:
256,192,141238,1,8,0:0:0:0:
256,192,141339,1,8,0:0:0:0:
256,192,141540,1,8,0:0:0:0:
256,192,141640,1,0,0:0:0:0:
256,192,141841,1,8,0:0:0:0:
256,192,141942,1,8,0:0:0:0:
256,192,142042,1,0,0:0:0:0:
256,192,142143,1,0,0:0:0:0:
256,192,142243,1,12,0:0:0:0:
256,192,142444,1,0,0:0:0:0:
256,192,142545,1,8,0:0:0:0:
256,192,142746,1,0,0:0:0:0:
256,192,142846,1,8,0:0:0:0:
256,192,142947,1,0,0:0:0:0:
256,192,143047,1,0,0:0:0:0:
256,192,143148,1,8,0:0:0:0:
256,192,143349,1,8,0:0:0:0:
256,192,143449,1,0,0:0:0:0:
256,192,143650,1,8,0:0:0:0:
256,192,143751,1,8,0:0:0:0:
256,192,143851,1,0,0:0:0:0:
256,192,143952,1,0,0:0:0:0:
256,192,144052,1,8,0:0:0:0:
256,192,144153,1,0,0:0:0:0:
256,192,144253,1,8,0:0:0:0:
256,192,144354,1,0,0:0:0:0:
256,192,144555,1,0,0:0:0:0:
256,192,144655,1,8,0:0:0:0:
256,192,144856,1,0,0:0:0:0:
256,192,144957,1,8,0:0:0:0:
256,192,145158,1,8,0:0:0:0:
256,192,145258,1,0,0:0:0:0:
256,192,145359,1,0,0:0:0:0:
256,192,145459,1,8,0:0:0:0:
256,192,145560,1,8,0:0:0:0:
256,192,145761,1,0,0:0:0:0:
256,192,145861,1,8,0:0:0:0:
256,192,146062,1,8,0:0:0:0:
256,192,146163,1,0,0:0:0:0:
256,192,146263,1,8,0:0:0:0:
256,192,146364,1,0,0:0:0:0:
256,192,146464,1,8,0:0:0:0:
256,192,146565,1,8,0:0:0:0:
256,192,146665,1,0,0:0:0:0:
256,192,146766,1,8,0:0:0:0:
256,192,146967,1,8,0:0:0:0:
256,192,147067,1,4,0:0:0:0:
256,192,147268,1,0,0:0:0:0:
256,192,147369,1,8,0:0:0:0:
256,192,147570,1,8,0:0:0:0:
256,192,147670,1,0,0:0:0:0:
256,192,147771,1,8,0:0:0:0:
256,192,147871,1,0,0:0:0:0:
256,192,147972,1,8,0:0:0:0:
256,192,148173,1,8,0:0:0:0:
256,192,148273,1,0,0:0:0:0:
256,192,148474,1,8,0:0:0:0:
256,192,148575,1,8,0:0:0:0:
256,192,148776,1,0,0:0:0:0:
256,192,148876,1,8,0:0:0:0:
256,192,148977,1,8,0:0:0:0:
256,192,149077,1,0,0:0:0:0:
256,192,149178,1,8,0:0:0:0:
256,192,149379,1,8,0:0:0:0:
256,192,149479,1,4,0:0:0:0:
256,192,149680,1,8,0:0:0:0:
256,192,149781,1,8,0:0:0:0:
256,192,149881,1,0,0:0:0:0:
256,192,149982,1,0,0:0:0:0:
256,192,150082,1,12,0:0:0:0:
256,192,150283,1,0,0:0:0:0:
256,192,150384,1,0,0:0:0:0:
256,192,150484,1,8,0:0:0:0:
256,192,150585,1,8,0:0:0:0:
256,192,150685,1,4,0:0:0:0:
256,192,150736,12,0,151590,0:0:0:0:
256,192,151891,5,4,0:0:0:0:
256,192,152042,1,8,0:0:0:0:
256,192,152092,1,8,0:0:0:0:
256,192,152143,1,8,0:0:0:0:
256,192,152193,1,0,0:0:0:0:
256,192,152344,1,8,0:0:0:0:
256,192,152394,1,0,0:0:0:0:
256,192,152444,1,0,0:0:0:0:
256,192,152494,1,8,0:0:0:0:
256,192,152645,1,8,0:0:0:0:
256,192,152695,1,8,0:0:0:0:
256,192,152796,1,0,0:0:0:0:
256,192,152846,1,0,0:0:0:0:
256,192,152947,1,8,0:0:0:0:
256,192,152997,1,8,0:0:0:0:
256,192,153097,1,0,0:0:0:0:
256,192,153148,1,0,0:0:0:0:
256,192,153198,1,0,0:0:0:0:
256,192,153248,1,0,0:0:0:0:
256,192,153324,1,0,0:0:0:0:
256,192,153399,1,8,0:0:0:0:
256,192,153474,1,0,0:0:0:0:
256,192,153550,1,0,0:0:0:0:
256,192,153700,1,8,0:0:0:0:
256,192,153776,1,8,0:0:0:0:
256,192,153851,1,0,0:0:0:0:
256,192,154002,1,8,0:0:0:0:
256,192,154077,1,8,0:0:0:0:
256,192,154153,1,8,0:0:0:0:
256,192,154303,1,0,0:0:0:0:
256,192,154454,1,8,0:0:0:0:
256,192,154504,1,8,0:0:0:0:
256,192,154555,1,8,0:0:0:0:
256,192,154605,1,0,0:0:0:0:
256,192,154756,1,8,0:0:0:0:
256,192,154806,1,0,0:0:0:0:
256,192,154856,1,0,0:0:0:0:
256,192,154906,1,8,0:0:0:0:
256,192,155057,1,0,0:0:0:0:
256,192,155107,1,0,0:0:0:0:
256,192,155208,1,0,0:0:0:0:
256,192,155258,1,0,0:0:0:0:
256,192,155509,1,0,0:0:0:0:
256,192,155736,1,0,0:0:0:0:
256,192,155962,1,0,0:0:0:0:
256,192,156037,1,0,0:0:0:0:
256,192,156112,1,8,0:0:0:0:
256,192,156188,1,8,0:0:0:0:
256,192,156263,1,8,0:0:0:0:
256,192,156339,1,0,0:0:0:0:
256,192,156414,1,8,0:0:0:0:
256,192,156489,1,8,0:0:0:0:
256,192,156565,1,0,0:0:0:0:
256,192,156640,1,0,0:0:0:0:
256,192,156716,1,8,0:0:0:0:
256,192,156766,1,8,0:0:0:0:
256,192,157017,1,0,0:0:0:0:
256,192,157067,1,0,0:0:0:0:
256,192,157118,1,0,0:0:0:0:
256,192,157168,1,8,0:0:0:0:
256,192,157319,1,8,0:0:0:0:
256,192,157394,1,0,0:0:0:0:
256,192,157469,1,8,0:0:0:0:
256,192,157545,1,0,0:0:0:0:
256,192,157620,1,8,0:0:0:0:
256,192,157695,1,8,0:0:0:0:
256,192,157771,1,8,0:0:0:0:
256,192,157846,1,8,0:0:0:0:
256,192,157922,1,0,0:0:0:0:
256,192,157972,1,8,0:0:0:0:
256,192,158022,1,8,0:0:0:0:
256,192,158072,1,0,0:0:0:0:
256,192,158223,1,8,0:0:0:0:
256,192,158273,1,8,0:0:0:0:
256,192,158324,1,8,0:0:0:0:
256,192,158374,1,0,0:0:0:0:
256,192,158449,1,0,0:0:0:0:
256,192,158525,1,8,0:0:0:0:
256,192,158600,1,8,0:0:0:0:
256,192,158675,1,0,0:0:0:0:
256,192,158751,1,8,0:0:0:0:
256,192,158826,1,0,0:0:0:0:
256,192,158901,1,0,0:0:0:0:
256,192,158977,1,8,0:0:0:0:
256,192,159052,1,8,0:0:0:0:
256,192,159128,1,0,0:0:0:0:
256,192,159203,1,8,0:0:0:0:
256,192,159278,1,0,0:0:0:0:
256,192,159429,1,0,0:0:0:0:
256,192,159731,1,8,0:0:0:0:
256,192,159881,1,8,0:0:0:0:
256,192,159957,1,0,0:0:0:0:
256,192,160032,1,8,0:0:0:0:
256,192,160183,1,8,0:0:0:0:
256,192,160334,1,4,0:0:0:0:
256,192,160484,1,8,0:0:0:0:
256,192,160560,1,0,0:0:0:0:
256,192,160635,1,8,0:0:0:0:
256,192,160710,1,8,0:0:0:0:
256,192,160786,1,0,0:0:0:0:
256,192,160861,1,0,0:0:0:0:
256,192,160937,1,8,0:0:0:0:
256,192,161012,1,0,0:0:0:0:
256,192,161087,1,8,0:0:0:0:
256,192,161163,1,8,0:0:0:0:
256,192,161238,1,0,0:0:0:0:
256,192,161389,1,8,0:0:0:0:
256,192,161540,1,4,0:0:0:0:
256,192,161690,1,8,0:0:0:0:
256,192,161741,1,8,0:0:0:0:
256,192,161791,1,8,0:0:0:0:
256,192,161841,1,0,0:0:0:0:
256,192,161992,1,8,0:0:0:0:
256,192,162042,1,0,0:0:0:0:
256,192,162092,1,0,0:0:0:0:
256,192,162143,1,8,0:0:0:0:
256,192,162218,1,0,0:0:0:0:
256,192,162293,1,8,0:0:0:0:
256,192,162369,1,0,0:0:0:0:
256,192,162444,1,8,0:0:0:0:
256,192,162494,1,8,0:0:0:0:
256,192,162595,1,8,0:0:0:0:
256,192,162645,1,8,0:0:0:0:
256,192,162746,1,0,0:0:0:0:
256,192,163047,1,8,0:0:0:0:
256,192,163123,1,0,0:0:0:0:
256,192,163198,1,0,0:0:0:0:
256,192,163349,1,8,0:0:0:0:
256,192,163424,1,8,0:0:0:0:
256,192,163499,1,0,0:0:0:0:
256,192,163650,1,8,0:0:0:0:
256,192,163726,1,8,0:0:0:0:
256,192,163801,1,8,0:0:0:0:
256,192,163952,1,4,0:0:0:0:
256,192,164178,1,4,0:0:0:0:
256,192,164404,1,4,0:0:0:0:
256,192,164630,1,4,0:0:0:0:
256,192,164856,1,12,0:0:0:0:
256,192,165158,1,8,0:0:0:0:
256,192,165233,1,0,0:0:0:0:
256,192,165308,1,8,0:0:0:0:
256,192,165384,1,0,0:0:0:0:
256,192,165459,1,8,0:0:0:0:
256,192,165509,1,8,0:0:0:0:
256,192,165610,1,8,0:0:0:0:
256,192,165660,1,8,0:0:0:0:
256,192,165761,1,0,0:0:0:0:
256,192,165836,1,8,0:0:0:0:
256,192,165911,1,0,0:0:0:0:
256,192,165987,1,0,0:0:0:0:
256,192,166062,1,8,0:0:0:0:
256,192,166364,1,0,0:0:0:0:
256,192,166515,1,8,0:0:0:0:
256,192,166665,1,0,0:0:0:0:
256,192,166741,1,0,0:0:0:0:
256,192,166816,1,8,0:0:0:0:
256,192,166967,1,8,0:0:0:0:
256,192,167017,1,8,0:0:0:0:
256,192,167118,1,0,0:0:0:0:
256,192,167168,1,0,0:0:0:0:
256,192,167268,1,8,0:0:0:0:
256,192,167319,1,8,0:0:0:0:
256,192,167369,1,8,0:0:0:0:
256,192,167419,1,0,0:0:0:0:
256,192,167570,1,8,0:0:0:0:
256,192,167620,1,8,0:0:0:0:
256,192,167721,1,0,0:0:0:0:
256,192,167771,1,0,0:0:0:0:
256,192,167871,1,8,0:0:0:0:
256,192,167922,1,8,0:0:0:0:
256,192,167972,1,8,0:0:0:0:
256,192,168022,1,0,0:0:0:0:
256,192,168173,1,8,0:0:0:0:
256,192,168248,1,8,0:0:0:0:
256,192,168324,1,8,0:0:0:0:
256,192,168399,1,8,0:0:0:0:
256,192,168474,1,0,0:0:0:0:
256,192,168550,1,0,0:0:0:0:
256,192,168625,1,8,0:0:0:0:
256,192,168700,1,0,0:0:0:0:
256,192,168776,1,12,0:0:0:0:
256,192,169077,1,8,0:0:0:0:
256,192,169228,1,4,0:0:0:0:
256,192,169379,1,12,0:0:0:0:
256,192,169530,1,0,0:0:0:0:
256,192,169605,1,0,0:0:0:0:
256,192,169680,1,8,0:0:0:0:
256,192,169756,1,8,0:0:0:0:
256,192,169831,1,0,0:0:0:0:
256,192,169982,1,12,0:0:0:0:
256,192,170283,1,12,0:0:0:0:
256,192,170585,1,4,0:0:0:0:
256,192,171188,1,12,0:0:0:0:
256,192,171339,1,0,0:0:0:0:
256,192,171414,1,0,0:0:0:0:
256,192,171489,1,0,0:0:0:0:
256,192,171565,1,0,0:0:0:0:
256,192,171640,1,8,0:0:0:0:
256,192,171791,1,0,0:0:0:0:
256,192,172092,1,8,0:0:0:0:
256,192,172243,1,8,0:0:0:0:
256,192,172319,1,8,0:0:0:0:
256,192,172394,1,0,0:0:0:0:
256,192,172469,1,0,0:0:0:0:
256,192,172545,1,8,0:0:0:0:
256,192,172695,1,0,0:0:0:0:
256,192,172846,1,8,0:0:0:0:
256,192,172997,1,0,0:0:0:0:
256,192,173148,1,0,0:0:0:0:
256,192,173223,1,0,0:0:0:0:
256,192,173298,1,8,0:0:0:0:
256,192,173374,1,8,0:0:0:0:
256,192,173449,1,0,0:0:0:0:
256,192,173600,1,12,0:0:0:0:
256,192,173751,1,0,0:0:0:0:
256,192,173826,1,0,0:0:0:0:
256,192,173901,1,0,0:0:0:0:
256,192,173977,1,0,0:0:0:0:
256,192,174052,1,8,0:0:0:0:
256,192,174203,1,8,0:0:0:0:
256,192,174504,1,0,0:0:0:0:
256,192,174655,1,8,0:0:0:0:
256,192,174731,1,8,0:0:0:0:
256,192,174806,1,0,0:0:0:0:
256,192,174881,1,0,0:0:0:0:
256,192,174957,1,8,0:0:0:0:
256,192,175107,1,8,0:0:0:0:
256,192,175258,1,0,0:0:0:0:
256,192,175334,1,8,0:0:0:0:
256,192,175409,1,0,0:0:0:0:
256,192,175560,1,0,0:0:0:0:
256,192,175710,1,8,0:0:0:0:
256,192,175861,1,0,0:0:0:0:
256,192,176012,1,12,0:0:0:0:
256,192,176163,1,0,0:0:0:0:
256,192,176238,1,0,0:0:0:0:
256,192,176314,1,0,0:0:0:0:
256,192,176389,1,0,0:0:0:0:
256,192,176464,1,8,0:0:0:0:
256,192,176766,1,8,0:0:0:0:
256,192,176917,1,0,0:0:0:0:
256,192,176992,1,0,0:0:0:0:
256,192,177067,1,8,0:0:0:0:
256,192,177143,1,8,0:0:0:0:
256,192,177218,1,0,0:0:0:0:
256,192,177369,1,8,0:0:0:0:
256,192,177670,1,8,0:0:0:0:
256,192,177821,1,0,0:0:0:0:
256,192,177896,1,0,0:0:0:0:
256,192,177972,1,0,0:0:0:0:
256,192,178123,1,8,0:0:0:0:
256,192,178198,1,8,0:0:0:0:
256,192,178273,1,0,0:0:0:0:
256,192,178424,1,12,0:0:0:0:
256,192,178876,1,12,0:0:0:0:
256,192,179329,1,12,0:0:0:0:
256,192,179781,1,12,0:0:0:0:
256,192,180233,1,4,0:0:0:0:
256,192,180308,12,4,181741,0:0:0:0:
