osu file format v14

[General]
AudioFilename: audio.mp3
AudioLeadIn: 0
PreviewTime: -1
Countdown: 0
SampleSet: Normal
StackLeniency: 0.5
Mode: 0
LetterboxInBreaks: 0
WidescreenStoryboard: 0

[Editor]
DistanceSpacing: 1
BeatDivisor: 4
GridSize: 4
TimelineZoom: 2.2

[Metadata]
Title:KAEDE
TitleUnicode:KAEDE
Artist:Ocelot
ArtistUnicode:Ocelot
Creator:Kirin
Version:Extra
Source:
Tags:
BeatmapID:1164053
BeatmapSetID:549723

[Difficulty]
HPDrainRate:5
CircleSize:4.2
OverallDifficulty:8
ApproachRate:9
SliderMultiplier:1.6
SliderTickRate:1

[Events]
//Background and Video events
0,0,"DB7PeJ.jpeg",0,0
//Break Periods
2,100092,120988
//Storyboard Layer 0 (Background)
//Storyboard Layer 1 (Fail)
//Storyboard Layer 2 (Pass)
//Storyboard Layer 3 (Foreground)
//Storyboard Sound Samples

[TimingPoints]
2266,338.983050847458,4,1,0,65,1,0
56164,-200,4,1,0,65,0,0
56503,-66.6666666666667,4,1,0,65,0,1
59215,-200,4,1,0,65,0,1
59554,-66.6666666666667,4,1,0,65,0,1
61927,-200,4,1,0,65,0,1
62266,-66.6666666666667,4,1,0,65,0,1
64638,-142.857142857143,4,1,0,65,0,1
64977,-200,4,1,0,65,0,1
67350,-66.6666666666667,4,1,0,65,0,1
70062,-200,4,1,0,65,0,1
70401,-66.6666666666667,4,1,0,65,0,1
72774,-200,4,1,0,65,0,1
73113,-66.6666666666667,4,1,0,65,0,1
75486,-125,4,1,0,65,0,1
78198,-200,4,1,0,65,0,0
78876,-100,4,1,0,65,0,0
80232,-66.6666666666667,4,1,0,65,0,0
80910,-200,4,1,0,65,0,0
81588,-100,4,1,0,65,0,0
82943,-66.6666666666667,4,1,0,65,0,0
83621,-200,4,1,0,65,0,0
84299,-100,4,1,0,65,0,0
85655,-66.6666666666667,4,1,0,65,0,0
86333,-166.666666666667,4,1,0,65,0,0
89045,-200,4,1,0,65,0,0
89723,-100,4,1,0,65,0,0
91079,-66.6666666666667,4,1,0,65,0,0
91757,-200,4,1,0,65,0,0
92435,-100,4,1,0,65,0,0
93791,-66.6666666666667,4,1,0,65,0,0
94469,-200,4,1,0,65,0,0
121588,-100,4,1,0,65,0,0
143621,-100,4,1,0,40,0,0
149384,-100,4,1,0,45,0,0
150062,-100,4,1,0,50,0,0
150740,-100,4,1,0,55,0,0
151249,-100,4,1,0,60,0,0
152096,-100,4,1,0,65,0,0
153791,-200,4,1,0,65,0,0
154130,-58.8235294117647,4,1,0,65,0,0
156842,-200,4,1,0,65,0,0
157181,-58.8235294117647,4,1,0,65,0,0
159554,-200,4,1,0,65,0,0
159893,-58.8235294117647,4,1,0,65,0,0
162266,-200,4,1,0,65,0,0
164977,-58.8235294117647,4,1,0,65,0,0
167689,-200,4,1,0,65,0,0
168028,-58.8235294117647,4,1,0,65,0,0
170401,-200,4,1,0,65,0,0
170740,-58.8235294117647,4,1,0,65,0,0
173113,-200,4,1,0,65,0,0
176503,-100,4,1,0,65,0,0
177859,-58.8235294117647,4,1,0,65,0,0
178537,-200,4,1,0,65,0,0
179215,-100,4,1,0,65,0,0
180571,-58.8235294117647,4,1,0,65,0,0
181249,-200,4,1,0,65,0,0
181927,-100,4,1,0,65,0,0
183282,-58.8235294117647,4,1,0,65,0,0
183960,-166.666666666667,4,1,0,65,0,0
186672,-200,4,1,0,65,0,0
187350,-100,4,1,0,65,0,0
188706,-58.8235294117647,4,1,0,65,0,0
189384,-200,4,1,0,65,0,0
190062,-100,4,1,0,65,0,0
191418,-58.8235294117647,4,1,0,65,0,0
192096,-200,4,1,0,65,0,0

[Colours]
Combo1 : 79,79,255
Combo2 : 250,181,88
Combo3 : 251,179,191
Combo4 : 0,64,128

[HitObjects]
72,272,23960,6,0,P|140:296|212:232,1,160
132,220,24469,1,0,0:0:0:0:
256,320,24638,2,0,L|344:340,1,80
328,260,24977,2,0,L|420:280,1,80
380,192,25316,5,0,0:0:0:0:
348,60,25486,1,0,0:0:0:0:
456,156,25655,1,0,0:0:0:0:
312,144,25825,1,0,0:0:0:0:
453,69,25994,2,0,L|301:149,1,160
232,120,26503,5,0,0:0:0:0:
144,116,26672,2,0,P|164:168|196:192,1,80
240,308,27011,2,0,P|244:240|212:212,1,80
176,272,27350,1,0,0:0:0:0:
316,220,27520,1,0,0:0:0:0:
152,284,27689,2,0,L|68:320,1,80
116,216,28028,6,0,B|56:148|160:136|92:52,1,160
40,108,28537,1,0,0:0:0:0:
184,80,28706,2,0,B|244:72|244:72|292:88|292:88|344:80,1,160
416,104,29215,1,0,0:0:0:0:
364,168,29384,6,0,B|356:216|376:248|376:248|424:260|436:316,1,160
356,320,29893,1,0,0:0:0:0:
256,288,30062,2,0,L|168:308,1,80
184,224,30401,2,0,L|96:244,1,80
160,152,30740,5,0,0:0:0:0:
248,68,30910,1,0,0:0:0:0:
132,152,31079,1,0,0:0:0:0:
276,72,31249,1,0,0:0:0:0:
104,152,31418,2,0,L|248:68,1,160
352,72,31927,1,0,0:0:0:0:
296,160,32096,6,0,L|348:76,1,80
340,232,32435,2,0,L|396:144,1,80
380,304,32774,2,0,L|472:156,1,160
420,92,33282,1,0,0:0:0:0:
492,184,33452,6,0,L|404:324,1,160
304,284,33960,1,0,0:0:0:0:
200,320,34130,2,0,P|140:320|96:332,1,80
56,260,34469,2,0,P|48:200|56:152,1,80
112,108,34808,6,0,P|144:140|256:96,1,160
180,72,35316,1,0,0:0:0:0:
240,212,35486,2,0,P|276:240|316:252,1,80
332,176,35825,2,0,P|380:176|420:164,1,80
444,100,36164,5,0,0:0:0:0:
488,176,36333,1,0,0:0:0:0:
376,252,36503,1,0,0:0:0:0:
332,176,36672,1,0,0:0:0:0:
456,256,36842,2,0,B|456:304|436:336|436:336|396:348|360:328,1,160
276,320,37350,1,0,0:0:0:0:
200,304,37520,6,0,P|224:264|268:248,1,80
180,184,37859,2,0,P|156:224|112:240,1,80
104,168,38198,1,0,0:0:0:0:
244,136,38367,1,0,0:0:0:0:
112,84,38537,1,0,0:0:0:0:
252,216,38706,1,0,0:0:0:0:
316,172,38876,6,0,P|360:172|416:80,1,160
340,96,39384,1,0,0:0:0:0:
440,212,39554,2,0,P|456:272|372:344,1,160
380,264,40062,1,0,0:0:0:0:
312,312,40232,6,0,L|144:344,1,160
72,304,40740,1,0,0:0:0:0:
36,216,40910,2,0,P|72:188|120:184,1,80
188,216,41249,2,0,P|240:212|280:176,1,80
208,144,41588,5,0,0:0:0:0:
256,288,41757,1,0,0:0:0:0:
288,116,41927,1,0,0:0:0:0:
180,312,42096,1,0,0:0:0:0:
336,260,42266,2,0,B|376:280|376:280|436:240|432:168,1,160
388,104,42774,1,0,0:0:0:0:
300,124,42943,6,0,P|260:96|248:60,1,80
204,148,43282,2,0,P|191:100|205:65,1,80
112,120,43621,2,0,P|132:75|165:57,1,80
64,40,43960,2,0,P|108:19|145:26,1,80
28,124,44299,5,0,0:0:0:0:
32,144,44384,1,0,0:0:0:0:
36,164,44469,1,0,0:0:0:0:
44,184,44554,1,0,0:0:0:0:
52,204,44638,1,0,0:0:0:0:
60,224,44723,1,0,0:0:0:0:
68,244,44808,1,0,0:0:0:0:
76,260,44893,1,0,0:0:0:0:
88,276,44977,2,0,L|144:340,1,80
208,248,45316,2,0,L|152:184,1,80
256,148,45655,5,0,0:0:0:0:
256,148,45994,1,0,0:0:0:0:
256,148,46333,1,0,0:0:0:0:
256,148,46672,1,0,0:0:0:0:
160,112,47011,6,0,P|120:88|104:40,1,80
72,184,47350,2,0,P|60:236|76:296,1,80
168,304,47689,2,0,P|216:288|336:332,1,160
428,340,48198,1,0,0:0:0:0:
388,208,48367,5,0,0:0:0:0:
388,208,48706,1,0,0:0:0:0:
388,208,49045,1,0,0:0:0:0:
388,208,49384,1,0,0:0:0:0:
300,160,49723,6,0,L|229:121,1,80
388,208,50062,2,0,L|480:260,1,80
300,160,50401,1,0,0:0:0:0:
388,208,50571,1,0,0:0:0:0:
220,164,50740,2,0,P|236:108|276:76,1,80
249,92,50994,1,0,0:0:0:0:
249,92,51079,5,0,0:0:0:0:
132,76,51249,1,0,0:0:0:0:
280,104,51418,1,0,0:0:0:0:
112,72,51588,1,0,0:0:0:0:
96,204,51757,5,0,0:0:0:0:
264,196,51927,1,0,0:0:0:0:
76,204,52096,1,0,0:0:0:0:
284,192,52266,1,0,0:0:0:0:
284,192,52350,1,0,0:0:0:0:
284,192,52435,5,0,0:0:0:0:
248,344,52604,1,0,0:0:0:0:
400,292,52774,1,0,0:0:0:0:
308,272,52943,1,0,0:0:0:0:
220,244,53113,5,0,0:0:0:0:
372,192,53282,1,0,0:0:0:0:
336,344,53452,1,0,0:0:0:0:
308,272,53621,5,0,0:0:0:0:
304,252,53706,1,0,0:0:0:0:
300,232,53791,1,0,0:0:0:0:
296,212,53876,1,0,0:0:0:0:
292,192,53960,1,0,0:0:0:0:
284,172,54045,1,0,0:0:0:0:
268,148,54130,1,0,0:0:0:0:
244,132,54215,1,0,0:0:0:0:
216,124,54299,1,0,0:0:0:0:
188,124,54384,1,0,0:0:0:0:
160,128,54469,1,0,0:0:0:0:
132,140,54554,1,0,0:0:0:0:
112,160,54638,1,0,0:0:0:0:
100,184,54723,1,0,0:0:0:0:
96,212,54808,1,0,0:0:0:0:
100,240,54893,1,0,0:0:0:0:
112,264,54977,1,0,0:0:0:0:
132,284,55062,1,0,0:0:0:0:
156,296,55147,6,0,B|192:312|192:312|208:308|208:308|256:328,1,80
348,320,55486,1,0,0:0:0:0:
372,292,55571,1,0,0:0:0:0:
388,260,55655,1,0,0:0:0:0:
236,200,55825,1,0,0:0:0:0:
468,208,55994,1,0,0:0:0:0:
328,84,56164,2,0,P|320:44|304:52,1,60
248,80,56503,6,0,B|188:116|108:100|72:44,1,180.000006866455
28,120,56842,2,0,B|56:176|48:240|48:240|76:232|88:200,1,180.000006866455
208,308,57181,1,0,0:0:0:0:
156,180,57350,1,0,0:0:0:0:
132,352,57520,1,0,0:0:0:0:
240,168,57689,1,0,0:0:0:0:
240,168,57774,1,0,0:0:0:0:
240,168,57859,6,0,L|308:152,1,60.0000022888184
420,188,58028,2,0,L|512:168,1,60.0000022888184
264,272,58198,2,0,L|332:256,1,60.0000022888184
428,292,58367,1,0,0:0:0:0:
124,360,58537,6,0,B|96:340|96:340|100:308,1,60.0000022888184
44,228,58706,2,0,B|60:197|60:197|92:197,1,60.0000022888184
81,93,58876,2,0,B|113:80|113:80|137:101,1,60.0000022888184
196,20,59045,2,0,B|228:30|228:30|234:62,1,60.0000022888184
304,96,59215,6,0,P|328:100|352:72,1,60
420,44,59554,2,0,B|440:92|440:92|460:92|480:112|480:136|480:136|468:156|444:168|424:160,1,180.000006866455
328,204,59893,1,0,0:0:0:0:
448,304,60062,1,0,0:0:0:0:
296,348,60232,1,0,0:0:0:0:
256,352,60316,1,0,0:0:0:0:
212,348,60401,1,0,0:0:0:0:
176,328,60486,1,0,0:0:0:0:
152,296,60571,6,0,L|112:236,1,60.0000022888184
236,208,60740,2,0,L|196:148,1,60.0000022888184
332,140,60910,2,0,L|288:76,1,60.0000022888184
324,224,61079,1,0,0:0:0:0:
444,328,61249,6,0,B|420:320|420:320|404:328|404:328|376:320,1,60.0000022888184
216,288,61418,2,0,B|240:280|240:280|256:288|256:288|284:280,1,60.0000022888184
456,228,61588,2,0,B|432:220|432:220|416:228|416:228|388:220,1,60.0000022888184
212,172,61757,2,0,B|236:164|236:164|252:172|252:172|280:164,1,60.0000022888184
344,148,61927,6,0,L|416:128,1,60
476,116,62266,6,0,B|476:80|440:52|440:52|384:76|344:32,1,180.000006866455
288,80,62604,1,0,0:0:0:0:
112,56,62774,1,0,0:0:0:0:
256,204,62943,1,0,0:0:0:0:
204,28,63113,1,0,0:0:0:0:
184,248,63282,6,0,P|168:272|128:296,1,60.0000022888184
276,288,63452,2,0,P|272:352|260:368,1,60.0000022888184
368,244,63621,2,0,P|404:296|408:320,1,60.0000022888184
448,188,63791,1,0,0:0:0:0:
296,172,63960,6,0,L|216:192,1,60.0000022888184
136,152,64130,2,0,L|60:172,1,60.0000022888184
308,64,64299,2,0,L|228:84,1,60.0000022888184
148,44,64469,2,0,L|72:64,1,60.0000022888184
228,84,64638,6,0,L|323:59,1,83.9999974365235
404,32,64977,6,0,B|408:80|436:112|436:112|416:136|404:120|404:120|372:128|376:164|408:180|440:176|456:152,1,240
300,244,66164,1,0,0:0:0:0:
460,160,66333,1,0,0:0:0:0:
424,316,66503,1,0,0:0:0:0:
292,236,66672,6,0,P|272:216|268:188,1,40
232,96,67011,2,0,P|212:72|188:80,1,60
120,124,67350,6,0,B|100:84|120:32|120:32|64:84|68:144,1,180.000006866455
32,180,67689,2,0,B|96:200|96:200|120:240|120:240|184:260,1,180.000006866455
260,256,68028,1,0,0:0:0:0:
444,232,68198,1,0,0:0:0:0:
332,344,68367,1,0,0:0:0:0:
320,144,68537,1,0,0:0:0:0:
156,192,68706,6,0,B|128:192|128:192|116:200|116:200|84:200,1,60.0000022888184
160,288,68876,2,0,B|138:305|138:305|134:319|134:319|109:340,1,60.0000022888184
160,96,69045,2,0,B|138:78|138:78|134:64|134:64|109:43,1,60.0000022888184
236,148,69215,1,0,0:0:0:0:
348,68,69384,6,0,P|376:48|412:44,1,60.0000022888184
496,144,69554,2,0,L|476:224,1,60.0000022888184
348,220,69723,2,0,P|320:204|280:200,1,60.0000022888184
192,264,69893,2,0,L|216:336,1,60.0000022888184
352,348,70062,6,0,L|428:336,1,60
424,336,70401,6,0,B|344:352|344:352|328:332|304:320|304:320|312:292|300:264,1,180.000006866455
200,308,70740,1,0,0:0:0:0:
396,252,70910,1,0,0:0:0:0:
248,136,71079,1,0,0:0:0:0:
288,128,71164,1,0,0:0:0:0:
328,120,71249,1,0,0:0:0:0:
368,112,71333,1,0,0:0:0:0:
408,104,71418,6,0,L|440:32,1,60.0000022888184
476,168,71588,2,0,L|456:224,1,60.0000022888184
280,172,71757,2,0,L|312:104,1,60.0000022888184
344,272,71927,1,0,0:0:0:0:
76,336,72096,6,0,B|100:328|100:328|112:332|112:332|120:324|120:324|148:328,1,60.0000022888184
232,240,72266,2,0,P|232:188|216:160,1,60.0000022888184
120,108,72435,2,0,B|96:100|96:100|84:104|84:104|76:96|76:96|48:100,1,60.0000022888184
264,44,72604,2,0,B|288:36|288:36|300:40|300:40|308:32|308:32|336:36,1,60.0000022888184
400,76,72774,6,0,P|424:92|408:112,1,60
336,144,73113,6,0,B|392:212|468:164|468:164|464:200|428:232,1,180.000006866455
420,260,73452,1,0,0:0:0:0:
248,308,73621,1,0,0:0:0:0:
440,352,73791,1,0,0:0:0:0:
224,212,73960,1,0,0:0:0:0:
360,272,74130,6,0,L|296:292,1,60.0000022888184
144,348,74299,2,0,P|128:320|124:280,1,60.0000022888184
160,168,74469,2,0,P|168:136|160:96,1,60.0000022888184
60,44,74638,1,0,0:0:0:0:
228,60,74808,6,0,P|292:40|332:44,1,60.0000022888184
436,84,74977,2,0,L|436:152,1,60.0000022888184
288,200,75147,2,0,P|252:216|224:248,1,60.0000022888184
104,316,75316,2,0,L|80:240,1,60.0000022888184
76,224,75486,6,0,L|106:323,1,96
176,336,75825,2,0,B|212:300|248:296|280:324|304:352|344:360|376:352|404:332|424:308|428:264|424:232|400:208|360:200,1,384
188,208,77011,1,0,0:0:0:0:
340,268,77181,1,0,0:0:0:0:
160,196,77350,1,0,0:0:0:0:
316,136,77520,2,0,P|364:112|384:64,1,96
264,52,77859,2,0,P|212:48|168:64,1,96
68,44,78198,6,0,L|112:188,1,140
136,248,78876,6,0,B|180:264|196:304|196:304|176:316|152:304,1,120
208,200,79215,2,0,B|222:155|261:138|261:138|274:157|263:182,1,120
284,244,79554,2,0,B|372:256|420:176|420:176|396:172|368:152|352:112|368:76,1,280
436,104,80232,6,0,L|504:84,1,60.0000022888184
292,56,80401,2,0,L|228:40,1,60.0000022888184
88,96,80571,2,0,P|112:120|124:168,1,60.0000022888184
136,304,80740,2,0,P|160:244|156:216,1,60.0000022888184
188,184,80910,6,0,P|220:208|232:240,1,60
236,296,81249,2,0,P|276:284|292:256,1,60
304,200,81588,6,0,B|352:224|380:208|380:208|376:176|344:168,1,120
360,288,81927,2,0,B|363:341|391:357|391:357|416:338|407:306,1,120
440,256,82266,2,0,B|468:220|468:220|460:188|460:188|480:156|480:156|456:136|436:112|436:76|456:48|456:48|476:84,1,280
368,80,82943,6,0,P|312:100|292:120,1,60.0000022888184
160,100,83113,2,0,P|124:44|124:16,1,60.0000022888184
284,200,83282,2,0,P|300:224|308:256,1,60.0000022888184
58,191,83452,2,0,P|83:208|112:216,1,60.0000022888184
192,256,83621,6,0,P|204:288|224:308,1,60
292,336,83960,2,0,P|328:324|356:328,1,60
424,332,84299,6,0,P|412:288|328:256,1,120
276,244,84638,2,0,P|304:196|388:188,1,120
436,168,84977,2,0,B|456:152|464:128|464:128|436:112|408:112|408:112|404:88|416:64|416:64|352:40|288:64,1,280
224,88,85655,6,0,P|200:100|156:100,1,60.0000022888184
64,228,85825,2,0,L|48:152,1,60.0000022888184
168,280,85994,2,0,P|196:280|244:260,1,60.0000022888184
328,212,86164,2,0,L|348:280,1,60.0000022888184
396,328,86333,5,0,0:0:0:0:
456,196,86503,1,0,0:0:0:0:
316,136,86672,1,0,0:0:0:0:
416,104,86842,1,0,0:0:0:0:
288,148,87011,2,0,L|228:172,1,47.9999985351563
332,40,87350,1,0,0:0:0:0:
232,172,87520,1,0,0:0:0:0:
232,172,87604,1,0,0:0:0:0:
232,172,87689,6,0,L|192:192,1,23.9999992675781
68,256,87859,2,0,L|100:240,1,23.9999992675781
256,256,88028,2,0,L|224:272,1,23.9999992675781
96,344,88198,2,0,L|128:328,1,23.9999992675781
200,336,88367,6,0,P|232:344|280:340,1,71.9999978027344
364,340,88706,2,0,P|332:332|284:336,1,71.9999978027344
340,260,89045,6,0,L|376:108,1,140
356,48,89723,6,0,B|308:36|268:72|268:72|292:92|316:84,1,120
252,152,90062,2,0,B|212:188|168:176|168:176|176:152|196:144,1,120
180,76,90401,2,0,B|140:64|140:64|104:72|104:72|68:60|68:60|44:108|64:152|64:152|88:164|96:192|88:216,1,280
108,280,91079,6,0,P|148:296|184:296,1,60.0000022888184
312,272,91249,2,0,L|296:200,1,60.0000022888184
252,60,91418,2,0,P|292:48|324:48,1,60.0000022888184
460,68,91588,2,0,L|448:140,1,60.0000022888184
436,204,91757,6,0,P|428:252|416:268,1,60
360,296,92096,2,0,P|324:300|296:312,1,60
232,328,92435,6,0,B|184:348|148:328|148:328|168:300|196:304,1,120
124,252,92774,2,0,B|172:232|188:200|188:200|156:188|140:204,1,120
76,184,93113,2,0,B|56:144|68:96|104:68|104:68|136:84|136:84|164:72|164:72|184:84|216:88|244:84|264:72,1,280
320,80,93791,6,0,P|352:80|396:60,1,60.0000022888184
472,148,93960,2,0,L|460:216,1,60.0000022888184
328,200,94130,2,0,P|300:200|260:212,1,60.0000022888184
160,288,94299,2,0,L|180:352,1,60.0000022888184
252,352,94469,6,0,P|288:356|336:336,2,80
148,200,95486,1,0,0:0:0:0:
280,280,95655,1,0,0:0:0:0:
312,140,95825,2,0,P|296:100|212:64,1,140
140,84,96503,6,0,L|108:96,1,20
212,60,96672,2,0,L|244:48,1,20
84,104,96842,2,0,L|116:92,1,20
268,40,97011,2,0,L|236:52,1,20
200,152,97181,5,0,0:0:0:0:
84,216,97350,1,0,0:0:0:0:
196,284,97520,1,0,0:0:0:0:
116,140,97689,1,0,0:0:0:0:
216,320,97859,1,0,0:0:0:0:
216,320,97943,1,0,0:0:0:0:
216,320,98028,1,0,0:0:0:0:
252,216,98198,2,0,L|292:212,1,40
368,332,98537,6,0,L|376:296,1,20
464,272,98706,2,0,L|452:240,1,20
368,208,98876,2,0,L|380:176,1,20
464,140,99045,2,0,L|452:108,1,20
384,76,99215,6,0,P|344:96|312:92,1,60
272,52,99554,2,0,P|256:96|272:140,1,80
120,68,121588,6,0,P|156:104|124:196,1,160
84,132,122096,1,0,0:0:0:0:
228,88,122266,2,0,L|312:64,1,80
296,144,122604,2,0,L|384:120,1,80
420,188,122943,5,0,0:0:0:0:
448,328,123113,1,0,0:0:0:0:
328,232,123282,1,0,0:0:0:0:
496,244,123452,1,0,0:0:0:0:
352,316,123621,2,0,L|500:240,1,160
460,164,124130,5,0,0:0:0:0:
388,92,124299,2,0,P|332:80|296:88,1,80
164,112,124638,2,0,P|216:120|256:112,1,80
208,40,124977,1,0,0:0:0:0:
212,196,125147,1,0,0:0:0:0:
132,112,125316,2,0,P|96:96|72:56,1,80
56,168,125655,6,0,B|36:228|116:256|84:324,1,160
16,292,126164,1,0,0:0:0:0:
168,304,126333,2,0,L|328:344,1,160
424,312,126842,1,0,0:0:0:0:
368,212,127011,6,0,B|424:160|424:160|400:144|392:108|404:80,1,160
472,104,127520,1,0,0:0:0:0:
320,96,127689,2,0,P|276:88|244:64,1,80
216,184,128028,2,0,P|192:136|192:96,1,80
128,52,128367,5,0,0:0:0:0:
44,184,128537,1,0,0:0:0:0:
188,188,128706,1,0,0:0:0:0:
116,136,128876,1,0,0:0:0:0:
72,288,129045,2,0,L|116:132,1,160
172,248,129554,1,0,0:0:0:0:
240,320,129723,6,0,L|264:236,1,80
312,352,130062,2,0,L|340:256,1,80
388,376,130401,2,0,L|436:204,1,160
368,136,130910,1,0,0:0:0:0:
472,224,131079,6,0,L|428:378,1,160
324,320,131588,1,0,0:0:0:0:
220,272,131757,2,0,P|192:240|184:192,1,80
256,132,132096,2,0,P|256:92|220:44,1,80
44,76,132435,6,0,P|84:112|192:104,1,160
128,40,132943,1,0,0:0:0:0:
60,184,133113,2,0,P|44:228|40:272,1,80
124,244,133452,2,0,P|132:292|160:332,1,80
288,284,133791,5,0,0:0:0:0:
264,200,133960,1,0,0:0:0:0:
124,244,134130,1,0,0:0:0:0:
152,320,134299,1,0,0:0:0:0:
184,184,134469,2,0,B|204:136|248:120|248:120|208:104|196:60,1,160
124,96,134977,1,0,0:0:0:0:
272,48,135147,6,0,P|316:56|356:48,1,80
424,112,135486,2,0,P|440:152|428:204,1,80
368,160,135825,1,0,0:0:0:0:
260,204,135994,1,0,0:0:0:0:
336,84,136164,1,0,0:0:0:0:
288,276,136333,1,0,0:0:0:0:
200,160,136503,6,0,P|168:120|224:28,1,160
240,100,137011,1,0,0:0:0:0:
108,160,137181,2,0,P|72:200|104:296,1,160
144,232,137689,1,0,0:0:0:0:
212,288,137859,6,0,L|376:336,1,160
348,248,138367,1,0,0:0:0:0:
284,200,138537,2,0,P|320:176|372:168,1,80
312,88,138876,2,0,P|276:112|224:120,1,80
248,44,139215,5,0,0:0:0:0:
284,200,139384,1,0,0:0:0:0:
312,88,139554,1,0,0:0:0:0:
216,156,139723,1,0,0:0:0:0:
120,80,139893,2,0,P|92:136|92:176,1,80
152,256,140232,1,0,0:0:0:0:
216,156,140401,1,0,0:0:0:0:
272,264,140571,6,0,P|312:296|352:308,1,80
308,200,140910,2,0,P|352:208|408:200,1,80
312,128,141249,2,0,P|364:120|400:104,1,80
288,60,141588,2,0,P|336:44|368:16,1,80
204,40,141927,5,0,0:0:0:0:
188,48,142011,1,0,0:0:0:0:
172,56,142096,1,0,0:0:0:0:
156,68,142181,1,0,0:0:0:0:
140,80,142266,1,0,0:0:0:0:
124,92,142350,1,0,0:0:0:0:
112,108,142435,1,0,0:0:0:0:
100,124,142520,1,0,0:0:0:0:
88,140,142604,2,0,L|52:216,1,80
152,256,142943,2,0,L|188:180,1,80
256,276,143282,5,0,0:0:0:0:
256,276,143621,1,0,0:0:0:0:
256,276,143960,1,0,0:0:0:0:
256,276,144299,1,0,0:0:0:0:
364,212,144638,6,0,P|408:184|424:136,1,80
304,108,144977,2,0,P|256:104|200:124,1,80
152,200,145316,2,0,P|92:192|56:92,1,160
128,124,145825,1,0,0:0:0:0:
84,268,145994,5,0,0:0:0:0:
84,268,146333,1,0,0:0:0:0:
84,268,146672,1,0,0:0:0:0:
84,268,147011,1,0,0:0:0:0:
188,328,147350,6,0,L|276:344,1,80
432,264,147689,2,0,L|340:284,1,80
268,340,148028,1,0,0:0:0:0:
352,280,148198,1,0,0:0:0:0:
236,240,148367,1,0,0:0:0:0:
328,160,148537,1,0,0:0:0:0:
328,160,148621,1,0,0:0:0:0:
328,160,148706,5,0,0:0:0:0:
464,96,148876,1,0,0:0:0:0:
308,172,149045,1,0,0:0:0:0:
484,84,149215,1,0,0:0:0:0:
336,64,149384,5,0,0:0:0:0:
184,44,149554,1,0,0:0:0:0:
360,68,149723,1,0,0:0:0:0:
160,40,149893,1,0,0:0:0:0:
160,40,149977,1,0,0:0:0:0:
160,40,150062,5,0,0:0:0:0:
148,164,150232,1,0,0:0:0:0:
24,156,150401,1,0,0:0:0:0:
36,32,150571,1,0,0:0:0:0:
88,104,150740,5,0,0:0:0:0:
88,232,150910,1,0,0:0:0:0:
216,232,151079,1,0,0:0:0:0:
216,104,151249,1,0,0:0:0:0:
248,96,151333,1,0,0:0:0:0:
280,92,151418,1,0,0:0:0:0:
312,92,151503,1,0,0:0:0:0:
344,100,151588,1,0,0:0:0:0:
372,116,151672,1,0,0:0:0:0:
392,140,151757,1,0,0:0:0:0:
408,168,151842,1,0,0:0:0:0:
412,200,151927,1,0,0:0:0:0:
408,232,152011,1,0,0:0:0:0:
392,260,152096,1,0,0:0:0:0:
372,284,152181,1,0,0:0:0:0:
344,300,152266,1,0,0:0:0:0:
316,312,152350,1,0,0:0:0:0:
284,320,152435,1,0,0:0:0:0:
252,324,152520,1,0,0:0:0:0:
220,324,152604,1,0,0:0:0:0:
188,316,152689,1,0,0:0:0:0:
160,304,152774,6,0,L|80:260,1,80
88,152,153113,1,0,0:0:0:0:
112,172,153198,1,0,0:0:0:0:
136,192,153282,1,0,0:0:0:0:
200,76,153452,1,0,0:0:0:0:
80,200,153621,1,0,0:0:0:0:
220,48,153791,2,0,P|240:40|260:68,1,60
276,136,154130,6,0,B|348:108|324:32|324:32|392:80|396:136,1,204.000003890991
392,156,154469,2,0,P|384:228|472:316,1,204.000003890991
344,340,154808,1,0,0:0:0:0:
472,220,154977,1,0,0:0:0:0:
328,356,155147,1,0,0:0:0:0:
224,248,155316,1,0,0:0:0:0:
224,248,155401,1,0,0:0:0:0:
224,248,155486,6,0,B|196:256|196:256|172:252|172:252|144:260,1,68.0000012969971
78,167,155655,2,0,B|92:164|92:164|116:168|116:168|144:160,1,68.0000012969971
196,48,155825,2,0,B|168:56|168:56|144:52|144:52|116:60,1,68.0000012969971
256,104,155994,1,0,0:0:0:0:
368,56,156164,6,0,B|404:64|404:64|412:56|412:56|440:60,1,68.0000012969971
332,160,156333,2,0,B|352:180|352:180|364:180|364:180|388:200,1,68.0000012969971
240,216,156503,2,0,B|248:244|248:244|256:248|256:248|264:280,1,68.0000012969971
124,224,156672,2,0,B|116:248|116:248|120:256|120:256|108:288,1,68.0000012969971
168,344,156842,6,0,L|232:348,1,60
304,340,157181,6,0,B|364:320|364:320|384:352|420:364|420:364|432:336|436:288,1,204.000003890991
380,248,157520,1,0,0:0:0:0:
488,160,157689,1,0,0:0:0:0:
356,116,157859,1,0,0:0:0:0:
324,120,157943,1,0,0:0:0:0:
292,124,158028,1,0,0:0:0:0:
260,128,158113,1,0,0:0:0:0:
228,132,158198,6,0,P|184:120|156:92,1,68.0000012969971
60,148,158367,2,0,L|44:228,1,68.0000012969971
140,280,158537,2,0,P|184:276|216:288,1,68.0000012969971
264,336,158706,1,0,0:0:0:0:
416,296,158876,6,0,P|436:260|432:216,1,68.0000012969971
320,128,159045,2,0,P|304:164|312:208,1,68.0000012969971
436,160,159215,2,0,L|508:136,1,68.0000012969971
308,124,159384,2,0,L|232:100,1,68.0000012969971
172,80,159554,6,0,P|144:68|128:88,1,60
92,152,159893,2,0,B|64:204|108:236|108:236|148:216|180:236|180:236|144:252,1,204.000003890991
132,320,160232,1,0,0:0:0:0:
296,288,160401,1,0,0:0:0:0:
100,324,160571,1,0,0:0:0:0:
336,292,160740,1,0,0:0:0:0:
336,292,160825,1,0,0:0:0:0:
336,292,160910,6,0,P|372:292|412:272,1,68.0000012969971
316,172,161079,2,0,L|228:152,1,68.0000012969971
416,296,161249,2,0,P|384:308|350:307,1,68.0000012969971
272,288,161418,1,0,0:0:0:0:
436,168,161588,6,0,L|452:100,1,68.0000012969971
336,40,161757,2,0,L|312:116,1,68.0000012969971
184,148,161927,2,0,L|208:84,1,68.0000012969971
108,8,162096,2,0,L|80:76,1,68.0000012969971
68,104,162266,6,0,L|96:40,1,60
60,180,162604,2,0,B|92:196|108:232|92:260|92:260|116:272|148:272|180:260|200:240|212:204,1,240
192,64,163791,1,0,0:0:0:0:
212,212,163960,1,0,0:0:0:0:
308,68,164130,1,0,0:0:0:0:
256,140,164299,2,0,L|312:168,1,60
388,204,164638,2,0,L|328:176,1,60
320,172,164977,6,0,B|384:204|416:220|416:220|400:272|352:288,1,204.000003890991
276,276,165316,2,0,P|200:264|100:332,1,204.000003890991
204,348,165655,1,0,0:0:0:0:
68,228,165825,1,0,0:0:0:0:
244,184,165994,1,0,0:0:0:0:
56,232,166164,1,0,0:0:0:0:
56,232,166249,1,0,0:0:0:0:
56,232,166333,6,0,P|40:196|44:148,1,68.0000012969971
152,156,166503,2,0,P|168:108|192:80,1,68.0000012969971
284,116,166672,2,0,P|320:76|352:64,1,68.0000012969971
360,140,166842,1,0,0:0:0:0:
284,292,167011,6,0,P|328:312|376:312,1,68.0000012969971
456,256,167181,2,0,L|448:176,1,68.0000012969971
268,304,167350,2,0,P|224:328|176:328,1,68.0000012969971
88,264,167520,2,0,L|104:188,1,68.0000012969971
112,120,167689,6,0,P|80:104|104:88,1,60
152,48,168028,6,0,B|236:0|284:120|328:80|384:44,1,204.000003890991
192,108,168367,1,0,0:0:0:0:
360,160,168537,1,0,0:0:0:0:
204,188,168706,1,0,0:0:0:0:
235,201,168791,1,0,0:0:0:0:
270,209,168876,1,0,0:0:0:0:
301,218,168960,1,0,0:0:0:0:
332,228,169045,6,0,B|356:236|356:236|380:252|388:288,1,68.0000012969971
232,348,169215,2,0,B|248:324|248:324|264:312|296:312,1,68.0000012969971
136,304,169384,2,0,B|144:276|144:276|136:248|112:232,1,68.0000012969971
60,280,169554,1,0,0:0:0:0:
128,120,169723,6,0,P|160:88|164:48,1,68.0000012969971
288,136,169893,2,0,L|308:208,1,68.0000012969971
104,140,170062,2,0,P|84:96|88:60,1,68.0000012969971
324,128,170232,2,0,L|344:192,1,68.0000012969971
408,236,170401,6,0,L|428:176,1,60
432,160,170740,6,0,B|408:236|408:236|372:240|348:264|348:264|316:248|280:252,1,204.000003890991
408,312,171079,1,0,0:0:0:0:
340,176,171249,1,0,0:0:0:0:
232,288,171418,1,0,0:0:0:0:
244,192,171588,5,0,0:0:0:0:
244,192,171672,1,0,0:0:0:0:
244,192,171757,2,0,L|176:172,1,68.0000012969971
88,56,171927,2,0,L|160:80,1,68.0000012969971
44,224,172096,2,0,L|116:248,1,68.0000012969971
144,312,172266,1,0,0:0:0:0:
296,352,172435,6,0,P|344:344|384:320,1,68.0000012969971
480,260,172604,2,0,L|468:188,1,68.0000012969971
312,160,172774,2,0,P|264:180|212:172,1,68.0000012969971
116,132,172943,2,0,L|136:52,1,68.0000012969971
208,40,173113,6,0,L|280:48,1,60
340,20,173452,2,0,B|352:72|316:112|316:112|340:120|368:140|372:184|360:204|352:216,1,220
292,180,174469,1,0,0:0:0:0:
112,224,174638,1,0,0:0:0:0:
292,180,174808,1,0,0:0:0:0:
88,232,174977,1,0,0:0:0:0:
220,336,175147,2,0,P|232:300|224:276,1,60
172,228,175486,2,0,P|160:192|168:160,1,60
172,100,175825,6,0,L|316:56,1,140
372,96,176503,6,0,B|392:144|432:148|432:148|436:120|416:104,1,120
344,180,176842,2,0,B|304:208|312:248|312:248|340:240|352:220,1,120
408,256,177181,2,0,B|436:284|436:328|404:356|404:356|364:336|320:356|320:356|272:332|224:344,1,280
168,336,177859,6,0,P|120:332|96:320,1,68.0000012969971
28,216,178028,2,0,L|40:144,1,68.0000012969971
208,160,178198,2,0,L|192:80,1,68.0000012969971
320,32,178367,2,0,P|360:28|400:36,1,68.0000012969971
444,84,178537,6,0,L|388:112,1,60
320,116,178876,2,0,P|336:156|360:172,1,60
376,232,179215,6,0,B|352:272|304:272|304:272|316:248|336:244,1,120
248,224,179554,2,0,B|208:188|164:196|164:196|176:220|196:224,1,120
176,288,179893,2,0,B|120:308|64:280|64:280|80:200|80:200|64:184|52:156|60:120|84:100,1,280
132,152,180571,6,0,L|200:128,1,68.0000012969971
360,68,180740,2,0,P|392:128|384:176,1,68.0000012969971
156,220,180910,2,0,L|224:196,1,68.0000012969971
400,148,181079,2,0,P|428:200|424:252,1,68.0000012969971
392,272,181249,6,0,L|260:332,1,140
192,340,181927,6,0,B|140:320|132:280|132:280|164:276|180:296,1,120
168,208,182266,2,0,B|132:204|132:204|156:160|208:156,1,120
268,148,182604,2,0,B|252:96|208:88|208:88|228:64|276:52|276:52|304:60|304:60|332:52|332:52|356:64|388:64,1,280
440,116,183282,6,0,P|460:132|480:180,1,68.0000012969971
340,224,183452,2,0,L|276:252,1,68.0000012969971
124,200,183621,2,0,P|104:224|96:280,1,68.0000012969971
272,328,183791,2,0,L|352:352,1,68.0000012969971
412,360,183960,5,0,0:0:0:0:
340,224,184130,1,0,0:0:0:0:
464,140,184299,1,0,0:0:0:0:
308,244,184469,1,0,0:0:0:0:
472,108,184638,2,0,L|488:56,1,47.9999985351563
276,264,184977,1,0,0:0:0:0:
472,108,185147,1,0,0:0:0:0:
472,108,185232,1,0,0:0:0:0:
472,108,185316,6,0,L|468:68,1,23.9999992675781
384,108,185486,2,0,L|384:144,1,23.9999992675781
300,104,185655,2,0,L|304:72,1,23.9999992675781
216,100,185825,2,0,L|220:132,1,23.9999992675781
136,112,185994,6,0,P|124:84|80:56,1,71.9999978027344
60,132,186333,2,0,P|44:164|48:208,1,71.9999978027344
120,184,186672,6,0,L|268:224,1,140
328,236,187350,6,0,B|356:192|344:152|344:152|320:168|320:192,1,120
408,120,187689,2,0,B|380:76|392:36|392:36|416:52|416:76,1,120
488,104,188028,2,0,B|484:180|412:196|412:196|448:220|448:220|420:272|464:320,1,280
388,344,188706,6,0,B|356:348|356:348|344:344|344:344|308:348,1,68.0000012969971
140,348,188876,2,0,P|120:316|116:272,1,68.0000012969971
232,184,189045,2,0,B|254:181|254:181|266:185|266:185|298:181,1,68.0000012969971
148,84,189215,2,0,P|120:68|96:32,1,68.0000012969971
228,92,189384,6,0,P|256:88|284:56,1,60
344,36,189723,2,0,P|376:36|408:60,1,60
452,104,190062,6,0,B|436:144|448:184|448:184|476:168|476:152,1,120
372,164,190401,2,0,B|320:164|296:192|296:192|324:208|344:200,1,120
396,240,190740,2,0,B|428:288|384:340|384:340|344:328|344:328|304:344|304:344|260:328|212:344,1,280
148,312,191418,6,0,P|132:292|120:252,1,68.0000012969971
244,208,191588,2,0,L|320:224,1,68.0000012969971
440,168,191757,2,0,P|448:136|440:92,1,68.0000012969971
328,48,191927,2,0,L|256:64,1,68.0000012969971
200,108,192096,6,0,P|152:96|128:64,2,80
36,172,193113,1,0,0:0:0:0:
192,36,193282,1,0,0:0:0:0:
176,180,193452,2,0,P|116:204|38:171,1,140
56,144,194130,6,0,L|48:180,1,20
36,224,194299,2,0,L|44:196,1,20
60,132,194469,2,0,L|72:100,1,20
32,236,194638,2,0,L|24:264,1,20
92,308,194808,5,2,0:0:0:0:
248,340,194977,1,2,0:0:0:0:
200,184,195147,1,2,0:0:0:0:
80,308,195316,1,2,0:0:0:0:
256,256,195486,1,0,0:0:0:0:
276,248,195571,1,0,0:0:0:0:
296,240,195655,1,0,0:0:0:0:
368,152,195825,2,0,L|332:196,1,40
277,84,196164,6,0,L|264:100,1,20
164,120,196333,2,0,L|160:140,1,20
73,197,196503,2,0,L|88:212,1,20
68,311,196672,2,0,L|88:316,1,20
168,296,196842,6,0,P|208:288|232:304,1,60
232,368,197181,2,0,P|264:360|288:332,1,60
296,268,197520,1,0,0:0:0:0:
