osu file format v14

[General]
AudioFilename: audio.mp3
AudioLeadIn: 0
PreviewTime: 332230
Countdown: 0
SampleSet: Normal
StackLeniency: 0.7
Mode: 0
LetterboxInBreaks: 0
WidescreenStoryboard: 0

[Editor]
Bookmarks: 15742,29588,59126,77587,107125,172233,218586,264763,328092,367403,390161,439816,470850,473953
DistanceSpacing: 1
BeatDivisor: 4
GridSize: 4
TimelineZoom: 1.9

[Metadata]
Title:Hansha & Escapist
TitleUnicode:Hansha & Escapist
Artist:Oceans Ate Alaska
ArtistUnicode:Oceans Ate Alaska
Creator:Zectro
Version:Hikari
Source:
Tags:
BeatmapID:1387573
BeatmapSetID:654626

[Difficulty]
HPDrainRate:5
CircleSize:4
OverallDifficulty:9
ApproachRate:9.7
SliderMultiplier:1.4
SliderTickRate:1

[Events]
//Background and Video events
0,0,"maxresdefault.jpg",0,0
//Break Periods
2,92671,95554
2,172413,186496
2,216575,218091
2,324155,327597
2,330102,330830
2,406913,407769
2,423463,424321
//Storyboard Layer 0 (Background)
//Storyboard Layer 1 (Fail)
//Storyboard Layer 2 (Pass)
//Storyboard Layer 3 (Foreground)
//Storyboard Sound Samples

[TimingPoints]
50,230.769230769231,4,2,1,30,1,0
8588,-200,4,2,1,30,0,0
14126,-200,4,2,1,20,0,0
14357,-200,4,2,1,10,0,0
14588,-100,4,2,1,30,0,0
15742,-100,4,1,1,50,0,0
29588,-100,4,2,1,35,0,0
36626,-100,4,3,1,35,0,0
44357,-100,4,1,1,50,0,0
59126,461.538461538462,4,1,1,50,1,0
62818,-100,4,2,1,60,0,1
77356,-100,4,2,1,60,0,0
77587,-100,4,2,1,60,0,1
83356,-66.6666666666667,4,2,1,60,0,1
88433,-66.6666666666667,4,2,1,50,0,0
88664,-66.6666666666667,4,2,1,50,0,1
92356,-66.6666666666667,4,2,1,50,0,0
96049,230.769230769231,4,1,1,50,1,0
99741,-200,4,1,1,50,0,0
101818,-100,4,1,1,50,0,0
107125,-100,4,2,1,40,0,0
121895,-100,4,1,1,50,0,0
136665,240,4,1,1,50,1,0
143385,-66.6666666666667,4,1,1,50,0,0
144345,240,4,1,1,50,1,1
144465,-66.6666666666667,4,1,1,50,0,1
144705,-66.6666666666667,4,1,1,5,0,1
144765,-66.6666666666667,4,1,1,50,0,1
145665,-66.6666666666667,4,1,1,5,0,1
145725,-66.6666666666667,4,1,1,50,0,1
146985,-66.6666666666667,4,1,1,5,0,1
147045,-66.6666666666667,4,1,1,50,0,1
151665,-100,4,1,1,50,0,1
152025,-100,4,1,1,50,0,0
152635,315.789473684211,4,3,1,50,1,0
152635,-200,4,3,1,50,0,0
162108,-50,4,3,1,50,0,0
162424,-200,4,3,1,50,0,0
170950,-100,4,3,1,50,0,0
172223,461.538461538462,4,3,1,50,1,0
186991,230.769230769231,4,1,1,50,1,0
209144,-200,4,1,1,50,0,0
211452,-100,4,1,1,50,0,0
218586,258.620689655172,4,1,1,50,1,0
218844,-100,4,1,1,30,0,0
220654,-100,4,1,1,50,0,0
222723,-66.6666666666667,4,1,1,55,0,0
244448,200.66889632107,4,3,1,50,1,0
250869,-100,4,1,1,50,0,0
252976,-200,4,1,1,50,0,0
253578,-100,4,1,1,50,0,0
256488,258.620689655172,4,1,1,50,1,0
260625,517.241379310345,4,1,1,50,1,0
264763,258.620689655172,4,1,1,50,1,0
264763,-100,4,1,1,50,0,1
281314,-100,4,1,1,50,0,0
284677,258.620689655172,4,1,1,50,1,0
284677,-100,4,1,1,60,0,1
284806,-100,4,1,1,60,0,0
285323,-100,4,1,1,60,0,1
285452,-100,4,1,1,60,0,0
285970,-100,4,1,1,60,0,1
286228,-100,4,1,1,60,0,0
286616,-100,4,1,1,60,0,1
287133,-100,4,1,1,60,0,0
287651,-100,4,1,1,60,0,1
287780,-100,4,1,1,60,0,0
288297,-100,4,1,1,60,0,1
288556,-100,4,1,1,60,0,0
288944,-100,4,1,1,60,0,1
289202,-100,4,1,1,60,0,0
289720,-100,4,1,1,60,0,1
290237,-100,4,1,1,60,0,0
290754,-100,4,1,1,60,0,1
290883,-100,4,1,1,60,0,0
291401,-100,4,1,1,60,0,1
291659,-100,4,1,1,60,0,0
292177,-200,4,1,1,60,0,0
292952,-100,4,1,1,60,0,0
294245,258.620689655172,4,1,1,60,1,0
294245,-133.333333333333,4,1,1,55,0,1
300451,-133.333333333333,4,1,1,55,0,0
303296,-100,4,1,1,55,0,0
303555,600,4,1,1,55,1,0
303555,-200,4,1,1,55,0,0
304755,600,4,1,1,55,1,0
304755,-600,4,1,1,55,0,1
306355,-600,4,1,1,5,0,1
306455,-600,4,1,1,55,0,1
307005,-600,4,1,1,5,0,1
307055,-600,4,1,1,55,0,1
307155,-600,4,1,1,55,0,0
314205,-600,4,1,1,5,0,0
314355,-66.6666666666667,4,1,1,55,0,0
314805,-30,4,1,1,55,0,0
315255,-66.6666666666667,4,1,1,55,0,0
317355,-200,4,1,1,55,0,1
319155,-200,4,1,1,55,0,0
319755,-66.6666666666667,4,1,1,55,0,0
323955,258.620689655172,4,1,1,55,1,0
329256,-200,4,1,1,30,0,0
332230,-100,4,1,1,55,0,1
365463,-100,4,1,1,30,0,0
367403,-100,4,1,1,50,0,0
368243,-66.6666666666667,4,1,1,50,0,0
376196,-60.6060606060606,4,1,1,50,0,0
376713,-55.5555555555556,4,1,1,50,0,0
377748,-66.6666666666667,4,1,1,50,0,0
390161,-66.6666666666667,4,1,1,60,0,1
406713,517.241379310345,4,1,1,25,1,0
406842,-133.333333333333,4,2,1,25,0,0
413954,-200,4,2,1,25,0,0
424816,-133.333333333333,4,2,1,25,0,0
439816,258.620689655172,4,1,1,45,1,0

[Colours]
Combo1 : 255,235,174
Combo2 : 255,128,128
Combo3 : 255,191,191
Combo4 : 241,208,131

[HitObjects]
185,116,8588,6,0,L|231:113,1,35
336,40,8819,2,0,L|370:37,2,35
102,231,10319,6,0,L|109:115,2,105
142,330,11126,2,0,P|172:340|250:324,2,105
142,330,12742,5,0,0:0:0:0:
184,152,12973,1,0,0:0:0:0:
221,227,13088,2,0,P|276:253|357:223,1,140
359,133,13665,2,0,L|352:88,1,35
477,169,13896,2,0,L|464:248,2,70,2|2|2,0:0|0:0|0:0,0:0:0:0:
459,56,14588,6,0,P|465:38|466:20,3,35
390,18,14819,1,4,1:0:0:0:
343,241,15165,2,0,L|335:203,1,35
144,89,15742,6,0,P|195:104|285:68,1,140,12|0,0:0|0:0,0:0:0:0:
425,258,16203,2,0,L|428:188,1,70,6|2,0:0|0:0,0:0:0:0:
309,158,16434,6,0,L|312:227,1,70,0|0,0:0|0:0,0:0:0:0:
290,294,16665,1,4,0:0:0:0:
227,324,16780,1,0,0:0:0:0:
159,315,16895,1,0,0:0:0:0:
106,270,17011,1,0,0:0:0:0:
87,204,17126,2,0,L|90:134,1,70,4|0,0:0|0:0,0:0:0:0:
271,7,17357,2,0,L|274:76,1,70,2|2,0:0|0:0,0:0:0:0:
210,211,17588,5,6,0:0:0:0:
309,158,17703,2,0,P|375:162|444:225,1,140,2|0,0:0|0:0,0:0:0:0:
441,326,18050,2,0,P|386:368|317:373,1,140,6|0,0:0|0:0,0:0:0:0:
228,310,18396,1,2,0:0:0:0:
210,211,18511,2,0,P|181:168|78:135,1,140,6|0,0:0|0:0,0:0:0:0:
0,328,18857,2,0,P|65:305|107:250,1,140,10|0,0:0|0:0,0:0:0:0:
168,73,19203,1,2,0:0:0:0:
162,63,19261,1,2,0:0:0:0:
156,53,19319,1,2,0:0:0:0:
150,44,19376,1,2,0:0:0:0:
144,34,19434,1,12,0:0:0:0:
0,182,19665,6,0,P|39:196|85:190,1,70,4|0,0:0|0:0,0:0:0:0:
134,174,19896,1,4,0:0:0:0:
202,164,20011,1,0,0:0:0:0:
270,181,20126,2,0,L|278:267,1,70,2|2,0:0|0:0,0:0:0:0:
431,299,20357,5,6,0:0:0:0:
373,121,20473,2,0,P|350:89|170:94,1,210,10|4,0:0|0:0,0:0:0:0:
134,174,20934,1,0,0:0:0:0:
200,274,21050,2,0,P|252:278|285:261,2,70,2|0|12,0:0|0:0|0:0,0:0:0:0:
113,86,21511,2,0,P|61:82|28:99,2,70,0|0|4,0:0|0:0|0:0,0:0:0:0:
166,131,21857,1,0,0:0:0:0:
235,138,21972,1,0,0:0:0:0:
303,123,22087,1,0,0:0:0:0:
362,87,22203,5,8,0:0:0:0:
373,188,22318,1,8,0:0:0:0:
380,290,22434,2,0,L|302:276,1,70,6|0,0:0|0:0,0:0:0:0:
112,170,22665,1,0,0:0:0:0:
124,250,22780,2,0,L|202:236,1,70,4|2,0:0|0:0,0:0:0:0:
197,247,22953,1,2,0:0:0:0:
202,256,23011,1,2,0:0:0:0:
118,157,23126,6,0,P|76:170|119:345,1,280,12|0,0:0|2:0,0:0:0:0:
263,197,23819,1,2,0:0:0:0:
259,187,23876,1,2,0:0:0:0:
255,177,23934,1,2,0:0:0:0:
251,167,23992,1,2,0:0:0:0:
247,157,24050,1,6,0:0:0:0:
183,194,24165,1,2,0:0:0:0:
220,258,24280,1,2,0:0:0:0:
284,221,24396,2,0,P|324:219|428:364,1,210,2|2,0:0|0:0,0:0:0:0:
70,167,24973,5,6,0:0:0:0:
70,167,25088,2,0,P|90:132|208:96,1,140,2|0,0:0|0:0,0:0:0:0:
268,117,25434,2,0,P|315:120|415:89,1,140,6|0,0:0|0:0,0:0:0:0:
462,26,25780,1,2,0:0:0:0:
492,118,25896,5,6,0:0:0:0:
396,330,26126,1,2,0:0:0:0:
318,20,26357,5,6,0:0:0:0:
299,267,26588,1,2,0:0:0:0:
163,37,26819,5,6,0:0:0:0:
189,250,27050,1,2,0:0:0:0:
43,145,27280,5,6,0:0:0:0:
113,352,27511,1,2,0:0:0:0:
332,199,27742,5,6,0:0:0:0:
91,217,27973,1,2,0:0:0:0:
307,317,28203,5,6,0:0:0:0:
41,292,28434,1,2,0:0:0:0:
329,102,28665,5,6,0:0:0:0:
42,69,28896,2,0,P|81:56|127:63,1,70,2|0,0:0|0:0,0:0:0:0:
175,116,29126,2,0,P|209:115|242:127,1,70,2|0,0:0|0:0,0:0:0:0:
329,102,29357,2,0,P|368:89|414:96,1,70,2|0,0:0|0:0,0:0:0:0:
450,158,29588,5,2,0:0:0:0:
423,267,29703,1,8,0:0:0:0:
362,172,29819,1,2,0:0:0:0:
362,336,29934,2,8,P|295:335|233:284,1,140
231,193,30280,1,2,0:0:0:0:
147,288,30396,2,0,L|162:369,1,70,2|0,0:0|0:0,0:0:0:0:
126,176,30626,1,2,0:0:0:0:
42,271,30742,2,0,L|57:352,1,70,2|0,0:0|0:0,0:0:0:0:
22,157,30973,2,0,P|37:119|144:66,1,140,8|0,0:0|0:0,0:0:0:0:
226,85,31319,5,0,0:0:0:0:
235,93,31550,1,0,0:0:0:0:
42,271,32126,5,0,0:0:0:0:
334,88,32588,5,0,0:0:0:0:
342,93,32703,6,2,L|336:75,4,17.5
331,187,32934,1,2,0:0:0:0:
453,67,33050,2,2,L|447:49,8,17.5
399,252,33511,1,0,0:0:0:0:
331,187,33626,2,0,P|266:176|183:205,1,140,8|0,0:0|0:0,0:0:0:0:
148,266,33973,5,2,0:0:0:0:
108,167,34088,2,0,L|116:86,1,70,2|0,0:0|0:0,0:0:0:0:
55,261,34319,1,2,0:0:0:0:
15,162,34434,2,0,L|23:81,1,70,2|0,0:0|0:0,0:0:0:0:
232,44,34665,2,0,P|212:81|172:109,1,70,8|0,0:0|0:0,0:0:0:0:
137,252,34896,6,0,L|141:290,1,35,2|0,0:0|0:0,0:0:0:0:
148,266,35011,2,0,L|152:304,1,35,2|0,0:0|0:0,0:0:0:0:
259,163,35242,1,0,0:0:0:0:
61,167,35819,5,0,0:0:0:0:
383,146,36280,1,0,0:0:0:0:
383,146,36396,6,2,L|377:128,7,17.5
331,74,36626,2,0,P|277:57|240:62,1,70,2|2,0:0|0:0,0:0:0:0:
61,167,36857,2,0,P|115:184|152:179,1,70,2|6,0:0|0:0,0:0:0:0:
192,155,37088,5,0,0:0:0:0:
261,152,37203,1,0,0:0:0:0:
322,185,37318,1,0,0:0:0:0:
359,243,37434,1,0,0:0:0:0:
362,312,37549,1,0,0:0:0:0:
336,247,37665,1,0,0:0:0:0:
347,179,37780,1,8,0:0:0:0:
389,124,37896,6,0,L|457:109,1,70,8|0,0:0|0:0,0:0:0:0:
250,48,38126,2,0,L|318:63,1,70
141,145,38357,2,0,L|209:130,1,70
11,60,38588,2,0,L|79:75,1,70
196,217,38819,5,0,0:0:0:0:
202,286,38934,1,0,0:0:0:0:
179,351,39050,1,8,0:0:0:0:
234,307,39165,1,8,0:0:0:0:
298,281,39280,1,0,0:0:0:0:
367,291,39395,1,2,0:0:0:0:
422,333,39511,1,0,0:0:0:0:
383,275,39626,1,0,0:0:0:0:
365,209,39742,6,0,P|392:190|434:172,1,70,0|8,0:0|0:0,0:0:0:0:
345,126,39973,2,0,P|350:94|367:51,1,70,0|2,0:0|0:0,0:0:0:0:
273,82,40203,2,0,P|254:56|236:13,1,70,8|0,0:0|0:0,0:0:0:0:
190,102,40434,2,0,P|158:97|115:80,1,70
219,176,40665,5,6,0:0:0:0:
210,243,40780,1,0,0:0:0:0:
156,284,40895,1,0,0:0:0:0:
89,274,41011,1,0,0:0:0:0:
49,218,41126,1,0,0:0:0:0:
114,189,41242,1,0,0:0:0:0:
181,173,41357,1,0,0:0:0:0:
251,179,41472,1,8,0:0:0:0:
314,208,41588,6,0,L|303:294,1,70,8|0,0:0|0:0,0:0:0:0:
381,87,41819,2,0,L|392:172,1,70
156,260,42050,2,0,L|241:271,1,70
470,234,42280,2,0,L|384:245,1,70
153,248,42511,5,0,0:0:0:0:
389,156,42742,2,0,P|317:159|296:167,1,70,8|0,0:0|0:0,0:0:0:0:
108,340,43088,1,8,0:0:0:0:
153,248,43434,1,0,0:0:0:0:
143,237,43492,1,0,0:0:0:0:
135,224,43550,1,0,0:0:0:0:
131,210,43607,1,0,0:0:0:0:
132,196,43665,6,0,L|115:161,3,35
135,163,43896,2,0,L|127:125,1,35,2|0,0:0|0:0,0:0:0:0:
146,133,44011,2,0,L|149:94,1,35,2|0,0:0|0:0,0:0:0:0:
165,107,44126,2,0,L|178:70,1,35,2|0,0:0|0:0,0:0:0:0:
190,86,44242,2,0,L|212:54,1,35,2|0,0:0|0:0,0:0:0:0:
220,73,44357,6,0,P|267:60|315:65,1,70,6|0,0:0|0:0,0:0:0:0:
391,158,44588,2,0,P|344:171|296:166,1,70,6|0,0:0|0:0,0:0:0:0:
199,204,44819,2,0,L|191:296,1,70,0|2,0:0|0:0,0:0:0:0:
251,146,45050,1,2,0:0:0:0:
272,224,45165,1,2,0:0:0:0:
175,131,45280,5,8,0:0:0:0:
118,187,45396,2,0,L|110:279,1,70
99,112,45626,1,2,0:0:0:0:
199,204,45742,1,2,0:0:0:0:
152,56,45857,1,0,0:0:0:0:
41,169,45973,2,0,L|33:261,1,70,2|8,0:0|0:0,0:0:0:0:
61,313,46203,5,0,0:0:0:0:
141,321,46319,2,0,L|210:327,1,70,2|0,0:0|0:0,0:0:0:0:
206,247,46550,1,2,0:0:0:0:
286,255,46666,2,0,L|355:261,2,70,2|2|2,0:0|0:0|0:0,0:0:0:0:
286,255,47126,6,0,L|320:258,2,35,2|2|2,0:0|0:0|0:0,0:0:0:0:
355,122,47357,2,0,L|286:129,1,70,2|2,0:0|0:0,0:0:0:0:
134,192,47588,1,2,0:0:0:0:
443,328,47819,2,0,P|464:199|425:52,1,280,6|0,0:0|0:0,0:0:0:0:
134,7,48511,1,0,0:0:0:0:
106,80,48626,1,2,0:0:0:0:
137,152,48742,2,0,P|177:155|219:146,1,70,0|2,0:0|0:0,0:0:0:0:
287,61,48973,5,8,0:0:0:0:
291,186,49088,1,2,0:0:0:0:
291,186,49146,1,2,0:0:0:0:
291,186,49203,1,2,0:0:0:0:
371,73,49319,1,2,0:0:0:0:
348,259,49434,1,2,0:0:0:0:
434,161,49550,1,2,0:0:0:0:
443,308,49665,1,8,0:0:0:0:
323,345,49780,6,0,P|288:325|264:280,1,70,2|0,0:0|0:0,0:0:0:0:
211,225,50011,2,0,P|157:206|63:223,1,140,6|2,0:0|0:0,0:0:0:0:
49,151,50357,1,2,0:0:0:0:
60,83,50472,1,2,0:0:0:0:
109,35,50587,1,2,0:0:0:0:
285,152,50819,5,8,0:0:0:0:
285,152,50876,1,2,0:0:0:0:
285,152,50934,1,2,0:0:0:0:
266,61,51050,1,2,0:0:0:0:
200,128,51165,1,2,0:0:0:0:
344,96,51280,1,2,0:0:0:0:
224,208,51396,1,2,0:0:0:0:
187,45,51511,1,2,0:0:0:0:
367,178,51626,1,2,0:0:0:0:
256,287,51742,6,0,P|315:289|338:280,1,70,6|0,0:0|0:0,0:0:0:0:
512,209,51973,2,0,P|453:207|430:216,1,70,2|0,0:0|0:0,0:0:0:0:
168,337,52319,1,2,0:0:0:0:
138,246,52434,1,2,0:0:0:0:
132,232,52492,1,2,0:0:0:0:
127,218,52550,1,2,0:0:0:0:
122,204,52607,1,2,0:0:0:0:
117,190,52665,5,8,0:0:0:0:
189,85,52780,2,0,P|146:97|107:92,1,70,2|0,0:0|0:0,0:0:0:0:
51,45,53011,1,2,0:0:0:0:
248,27,53126,2,0,P|291:15|330:20,1,70,2|0,0:0|0:0,0:0:0:0:
396,83,53357,1,2,0:0:0:0:
294,205,53473,2,0,P|337:193|376:198,1,70,8|0,0:0|0:0,0:0:0:0:
495,282,53703,2,0,P|452:270|413:275,1,70,2|0,0:0|0:0,0:0:0:0:
364,304,53934,1,2,0:0:0:0:
297,322,54049,1,2,0:0:0:0:
228,313,54164,1,2,0:0:0:0:
168,278,54280,2,0,L|161:194,1,70,2|0,0:0|0:0,0:0:0:0:
142,53,54511,5,2,0:0:0:0:
142,53,54569,1,2,0:0:0:0:
142,53,54626,1,2,0:0:0:0:
89,119,54742,1,2,0:0:0:0:
227,59,54857,1,2,0:0:0:0:
60,41,54973,2,0,P|19:66|4:92,1,70,2|0,0:0|0:0,0:0:0:0:
36,247,55203,2,0,B|116:239|116:239|166:210|166:210|265:196,1,210,6|0,0:0|0:0,0:0:0:0:
293,134,55665,5,0,0:0:0:0:
287,268,55780,2,0,P|311:238|315:196,1,70,2|0,0:0|0:0,0:0:0:0:
423,231,56011,2,0,P|399:201|395:159,1,70,2|0,0:0|0:0,0:0:0:0:
403,66,56242,1,2,0:0:0:0:
293,134,56357,5,8,0:0:0:0:
320,39,56473,1,2,0:0:0:0:
320,39,56530,1,2,0:0:0:0:
320,39,56588,1,2,0:0:0:0:
216,88,56703,1,2,0:0:0:0:
393,170,56819,1,2,0:0:0:0:
228,0,56934,1,2,0:0:0:0:
293,134,57050,1,8,0:0:0:0:
453,104,57165,6,0,P|479:143|480:184,1,70,2|0,0:0|0:0,0:0:0:0:
393,170,57396,2,0,P|367:209|366:250,1,70,2|0,0:0|0:0,0:0:0:0:
370,300,57626,1,2,0:0:0:0:
314,341,57741,1,2,0:0:0:0:
246,347,57856,1,2,0:0:0:0:
185,314,57973,2,0,L|180:220,1,70,2|0,0:0|0:0,0:0:0:0:
176,112,58203,5,2,0:0:0:0:
176,112,58261,1,2,0:0:0:0:
176,112,58319,1,2,0:0:0:0:
291,189,58434,1,2,0:0:0:0:
110,180,58550,1,2,0:0:0:0:
110,180,58607,1,2,0:0:0:0:
110,180,58665,1,2,0:0:0:0:
273,96,58780,1,2,0:0:0:0:
181,244,58896,2,0,L|185:314,1,70,12|0,0:0|0:0,0:0:0:0:
256,192,60049,12,0,62587,0:0:0:0:
112,100,62818,6,0,B|156:72|156:72|264:64,1,140,4|0,0:0|0:0,0:0:0:0:
356,236,63510,1,0,0:0:0:0:
356,236,63741,2,0,P|321:232|291:215,1,70,12|0,0:0|0:0,0:0:0:0:
408,84,64202,2,0,P|428:128|432:168,1,70,4|0,0:0|0:0,0:0:0:0:
424,280,64664,6,0,P|431:314|447:345,1,70,4|0,0:0|0:0,0:0:0:0:
292,80,65126,2,0,P|312:124|316:164,1,70,4|0,0:0|0:0,0:0:0:0:
308,276,65587,1,12,0:0:0:0:
216,156,65818,1,2,0:0:0:0:
236,184,65934,1,2,0:0:0:0:
241,218,66049,1,2,0:0:0:0:
216,156,66279,1,2,0:0:0:0:
188,133,66395,1,2,0:0:0:0:
154,121,66510,6,0,L|147:213,1,70,6|0,0:0|0:0,0:0:0:0:
381,230,66972,2,0,L|374:138,1,70,4|0,0:0|0:0,0:0:0:0:
364,21,67433,1,12,0:0:0:0:
364,21,67895,6,0,P|320:45|298:48,1,70,4|0,0:0|0:0,0:0:0:0:
177,5,68356,2,0,P|172:55|162:75,1,70,4|0,0:0|0:0,0:0:0:0:
58,148,68818,2,0,P|95:182|106:201,1,70,4|0,0:0|0:0,0:0:0:0:
129,297,69279,1,8,0:0:0:0:
127,331,69394,1,2,0:0:0:0:
119,365,69509,1,2,0:0:0:0:
148,345,69626,1,2,0:0:0:0:
177,326,69741,1,2,0:0:0:0:
211,317,69856,1,2,0:0:0:0:
246,316,69972,1,2,0:0:0:0:
279,325,70087,1,2,0:0:0:0:
309,343,70202,6,0,P|350:342|395:328,1,70,4|0,0:0|0:0,0:0:0:0:
488,245,70664,1,4,0:0:0:0:
241,214,70895,1,2,0:0:0:0:
461,322,71126,1,12,0:0:0:0:
282,145,71356,2,0,P|269:93|268:61,1,70,2|4,0:0|0:0,0:0:0:0:
431,20,71818,1,2,2:0:0:0:
431,20,72049,6,0,P|426:54|416:88,1,70,4|0,0:0|0:0,0:0:0:0:
95,88,72510,2,0,P|85:54|81:20,1,70,4|0,0:0|0:0,0:0:0:0:
255,242,72972,1,8,0:0:0:0:
254,103,73202,1,2,0:0:0:0:
254,67,73318,1,2,0:0:0:0:
254,32,73433,1,6,0:0:0:0:
223,319,73664,1,2,0:0:0:0:
257,324,73779,1,2,0:0:0:0:
291,317,73895,6,0,P|337:319|369:328,1,70,6|0,0:0|0:0,0:0:0:0:
175,227,74356,2,0,P|129:229|97:238,1,70,4|2,0:0|0:0,0:0:0:0:
347,147,74818,1,12,0:0:0:0:
347,147,75049,2,0,P|393:149|425:158,1,70,2|4,0:0|0:0,0:0:0:0:
511,222,75510,1,0,0:0:0:0:
443,36,75741,5,4,0:0:0:0:
337,290,75972,1,2,0:0:0:0:
358,263,76087,2,0,L|368:224,1,35,2|0,0:0|0:0,0:0:0:0:
175,290,76318,1,8,0:0:0:0:
154,263,76433,2,0,L|144:224,1,35,0|2,0:0|0:0,0:0:0:0:
141,68,76664,1,2,3:0:0:0:
172,82,76779,1,2,3:0:0:0:
207,85,76894,1,8,3:0:0:0:
241,77,77010,1,8,3:0:0:0:
262,49,77126,1,2,3:0:0:0:
265,83,77241,1,2,3:0:0:0:
268,118,77356,1,8,3:0:0:0:
271,153,77472,1,8,3:0:0:0:
275,188,77587,6,2,P|258:208|243:219,1,35,6|2,0:0|0:0,0:0:0:0:
318,319,77818,2,2,P|301:339|286:350,1,35
392,163,78049,2,2,P|375:183|360:194,1,35,6|2,0:0|0:0,0:0:0:0:
435,294,78280,2,2,P|418:314|403:325,1,35
461,57,78510,2,2,P|444:77|429:88,1,35,14|2,0:0|0:0,0:0:0:0:
504,188,78741,2,2,P|487:208|472:219,1,35
361,262,78972,1,6,0:0:0:0:
328,250,79087,1,2,0:0:0:0:
304,225,79202,1,2,0:0:0:0:
294,192,79318,1,2,0:0:0:0:
300,158,79433,6,2,L|284:123,3,35,6|2|2|2,0:0|0:0|0:0|0:0,0:0:0:0:
285,91,79895,2,2,L|301:55,3,35,6|2|2|2,0:0|0:0|0:0|0:0,0:0:0:0:
223,22,80356,1,14,0:0:0:0:
188,18,80471,1,2,0:0:0:0:
153,23,80586,1,2,0:0:0:0:
121,37,80702,1,2,0:0:0:0:
94,59,80817,1,6,0:0:0:0:
73,87,80932,1,2,0:0:0:0:
61,120,81048,1,2,0:0:0:0:
57,154,81163,1,2,0:0:0:0:
65,193,81279,5,6,0:0:0:0:
115,177,81394,1,2,0:0:0:0:
167,180,81509,1,2,0:0:0:0:
216,197,81625,1,2,0:0:0:0:
268,207,81741,2,2,P|292:202|318:192,1,35,6|2,0:0|0:0,0:0:0:0:
412,86,81972,1,2,0:0:0:0:
423,53,82087,1,2,0:0:0:0:
430,18,82202,2,2,P|413:12|395:10,1,35,14|2,0:0|0:0,0:0:0:0:
188,11,82433,2,2,P|204:5|222:3,1,35
430,168,82664,2,2,P|413:162|395:160,1,35,6|2,0:0|0:0,0:0:0:0:
188,161,82895,2,2,P|204:155|222:153,1,35
328,232,83126,5,6,0:0:0:0:
345,262,83241,1,2,0:0:0:0:
365,290,83356,1,10,0:0:0:0:
314,303,83471,1,10,0:0:0:0:
262,304,83586,1,6,0:0:0:0:
211,290,83702,1,2,0:0:0:0:
160,277,83817,1,10,0:0:0:0:
108,279,83932,1,2,0:0:0:0:
58,293,84049,2,2,L|58:205,1,52.5000020027161,14|2,0:0|0:0,0:0:0:0:
92,35,84279,1,2,0:0:0:0:
144,34,84394,1,2,0:0:0:0:
191,55,84509,1,6,0:0:0:0:
226,94,84625,1,2,0:0:0:0:
241,144,84741,2,2,L|241:213,1,52.5000020027161
252,339,84972,5,6,0:0:0:0:
303,343,85087,1,2,0:0:0:0:
353,326,85202,1,2,0:0:0:0:
391,291,85318,1,2,0:0:0:0:
412,243,85433,1,6,0:0:0:0:
360,251,85549,1,2,0:0:0:0:
309,245,85664,1,2,0:0:0:0:
278,205,85779,1,2,0:0:0:0:
288,155,85895,2,2,L|287:83,1,52.5000020027161,14|2,0:0|0:0,0:0:0:0:
146,300,86126,2,2,L|147:227,1,52.5000020027161
201,157,86356,2,2,L|199:84,1,52.5000020027161,6|2,0:0|0:0,0:0:0:0:
58,301,86587,2,2,L|59:228,1,52.5000020027161
58,67,86818,5,6,0:0:0:0:
100,36,86933,1,2,0:0:0:0:
149,19,87048,1,2,0:0:0:0:
202,18,87164,1,2,0:0:0:0:
252,32,87279,1,6,0:0:0:0:
240,84,87395,1,2,0:0:0:0:
235,136,87510,1,2,0:0:0:0:
240,188,87625,1,2,0:0:0:0:
253,239,87741,2,2,L|330:239,1,52.5000020027161,14|2,0:0|0:0,0:0:0:0:
431,149,87972,2,2,L|507:148,1,52.5000020027161
241,328,88202,2,2,L|317:327,1,52.5000020027161,6|2,0:0|0:0,0:0:0:0:
418,237,88433,2,2,L|494:236,1,52.5000020027161
178,237,88664,5,6,0:0:0:0:
452,324,88895,1,2,0:0:0:0:
130,158,89126,5,6,0:0:0:0:
418,104,89356,1,2,0:0:0:0:
68,245,89587,5,14,0:0:0:0:
418,237,89818,1,2,0:0:0:0:
203,120,90049,2,0,B|175:114|175:114|205:101|205:101|221:51|303:44,1,157.500006008148,6|0,0:0|0:0,0:0:0:0:
284,191,90510,2,0,P|239:223|162:223,1,105.000004005432,4|2,0:0|0:0,0:0:0:0:
356,60,90972,1,6,0:0:0:0:
306,305,91202,1,2,0:0:0:0:
151,41,91433,5,12,3:3:0:0:
382,275,91664,1,2,3:3:0:0:
382,275,91741,1,2,3:3:0:0:
382,275,91818,1,2,3:3:0:0:
382,275,91895,1,10,3:3:0:0:
103,176,92126,1,4,3:3:0:0:
221,342,92356,6,0,L|226:290,1,52.5000020027161,8|0,1:1|1:1,1:1:0:0:
131,68,96049,6,0,L|156:151,1,70,6|0,0:0|0:0,0:0:0:0:
52,47,96510,1,0,0:0:0:0:
214,241,96972,5,6,0:0:0:0:
239,146,97087,1,2,0:0:0:0:
280,300,97202,1,2,0:0:0:0:
126,258,97318,1,2,0:0:0:0:
325,195,97433,2,0,P|376:228|396:312,1,140,6|0,0:0|0:0,0:0:0:0:
103,101,97895,5,0,0:0:0:0:
151,181,98125,1,8,0:0:0:0:
88,104,98356,1,0,0:0:0:0:
141,265,98586,1,2,0:0:0:0:
135,278,98645,1,2,0:0:0:0:
129,290,98702,1,2,0:0:0:0:
124,303,98760,1,2,0:0:0:0:
119,316,98818,5,12,0:0:0:0:
236,277,98933,2,0,P|292:271|334:287,1,70,2|0,0:0|0:0,0:0:0:0:
405,348,99164,2,0,L|405:256,1,70,2|4,0:0|0:0,0:0:0:0:
401,108,99395,1,2,0:0:0:0:
370,208,99510,1,2,0:0:0:0:
464,60,99625,1,2,0:0:0:0:
296,142,99741,6,0,P|250:141|174:83,1,140,6|4,0:0|0:0,0:0:0:0:
176,87,100664,5,14,0:0:0:0:
188,194,100779,1,2,0:0:0:0:
273,45,100895,1,2,0:0:0:0:
296,142,101010,1,2,0:0:0:0:
101,148,101125,2,0,P|95:233|138:281,1,140,6|4,0:0|0:0,0:0:0:0:
301,236,101818,6,0,B|277:305|277:305|223:257,1,140,8|4,0:0|0:0,0:0:0:0:
368,158,102279,1,2,0:0:0:0:
375,146,102337,1,2,0:0:0:0:
378,132,102395,1,2,0:0:0:0:
378,118,102452,1,2,0:0:0:0:
375,104,102510,5,12,0:0:0:0:
250,71,102625,2,0,L|161:81,1,70,2|0,0:0|0:0,0:0:0:0:
22,149,102856,2,0,L|111:159,1,70,2|4,0:0|0:0,0:0:0:0:
255,176,103087,1,2,0:0:0:0:
145,237,103202,1,2,0:0:0:0:
334,207,103318,1,2,0:0:0:0:
287,274,103433,5,6,0:0:0:0:
311,345,103664,1,2,0:0:0:0:
512,205,103895,5,6,0:0:0:0:
488,276,104125,1,2,0:0:0:0:
288,86,104356,5,14,0:0:0:0:
305,161,104587,1,2,0:0:0:0:
435,121,104818,5,6,0:0:0:0:
418,196,105049,1,2,0:0:0:0:
200,169,105279,5,6,0:0:0:0:
268,345,105510,1,10,0:0:0:0:
374,77,105741,5,6,0:0:0:0:
350,330,105972,1,2,0:0:0:0:
79,172,106202,5,14,0:0:0:0:
449,236,106433,1,10,0:3:0:0:
223,59,106664,1,10,0:3:0:0:
183,344,106895,1,10,0:0:0:0:
296,168,107125,6,0,L|288:256,2,70,8|0|0,0:0|0:0|0:0,0:0:0:0:
384,284,107472,2,0,L|392:372,2,70,4|0|0,0:0|0:0|0:0,0:0:0:0:
390,124,107818,2,0,P|410:88|450:68,1,70,2|0,0:0|0:0,0:0:0:0:
483,160,108049,5,8,0:0:0:0:
307,61,108164,2,0,B|271:41|271:41|170:57,1,140,2|0,0:0|0:0,0:0:0:0:
65,73,108510,1,4,0:0:0:0:
190,289,108741,1,8,0:0:0:0:
224,181,108856,1,8,0:0:0:0:
258,347,108972,6,0,P|225:372|128:359,1,140,0|2,0:0|0:0,0:0:0:0:
347,141,109433,1,2,0:0:0:0:
347,141,109664,2,0,L|352:243,1,70,0|2,0:0|0:0,0:0:0:0:
356,329,109895,5,8,0:0:0:0:
436,231,110010,1,0,0:0:0:0:
436,231,110068,1,0,0:0:0:0:
436,231,110125,1,0,0:0:0:0:
283,271,110241,1,0,0:0:0:0:
447,324,110356,1,0,0:0:0:0:
256,345,110472,1,0,0:0:0:0:
350,210,110587,2,0,L|349:167,1,35,2|0,3:3|3:3,3:3:0:0:
322,200,110702,2,0,L|321:157,1,35,2|0,3:3|3:3,3:3:0:0:
298,184,110818,5,2,3:3:0:0:
447,146,110933,1,8,3:3:0:0:
238,124,111049,1,8,3:3:0:0:
436,243,111164,2,4,P|445:293|439:338,1,70,0|0,3:3|3:3,3:3:0:0:
243,343,111395,2,0,P|243:308|251:274,1,70,2|2,0:0|0:0,0:0:0:0:
335,153,111625,1,0,0:0:0:0:
348,318,111741,5,8,0:0:0:0:
148,250,111856,2,0,P|167:211|258:173,1,140,2|0,0:0|0:0,0:0:0:0:
418,209,112202,1,4,0:0:0:0:
277,64,112433,1,2,0:0:0:0:
336,142,112549,1,8,0:0:0:0:
206,89,112664,5,8,0:0:0:0:
119,316,112895,2,0,P|106:274|106:227,1,70,2|0,0:0|0:0,0:0:0:0:
218,244,113125,2,0,P|231:202|231:155,1,70,2|0,0:0|0:0,0:0:0:0:
206,89,113356,1,0,0:0:0:0:
312,167,113472,1,2,0:0:0:0:
150,185,113587,6,0,P|115:158|105:56,1,140,8|0,0:0|0:0,0:0:0:0:
277,29,113933,1,0,0:0:0:0:
206,89,114049,1,0,0:0:0:0:
353,47,114164,1,0,0:0:0:0:
236,181,114279,2,0,L|244:268,1,70,8|8,0:0|0:0,0:0:0:0:
342,274,114510,6,0,L|334:361,2,70,2|2|2,0:0|0:0|0:0,0:0:0:0:
388,158,114856,2,0,P|421:142|464:139,1,70,2|0,0:0|0:0,0:0:0:0:
458,144,115202,2,0,P|423:148|392:163,1,70
342,274,115433,5,8,0:0:0:0:
170,148,115549,1,2,0:0:0:0:
170,148,115664,2,0,P|194:123|226:111,1,70
342,274,115894,2,0,P|320:301|289:316,1,70
187,305,116125,1,8,0:0:0:0:
319,109,116241,1,8,0:0:0:0:
51,240,116587,5,8,3:3:0:0:
383,158,116818,1,8,3:3:0:0:
257,217,116933,2,0,P|222:252|207:282,1,70,8|0,3:3|3:3,3:3:0:0:
227,363,117164,1,2,0:0:0:0:
373,258,117279,5,8,0:0:0:0:
327,356,117395,1,2,0:0:0:0:
466,250,117510,1,0,0:0:0:0:
420,348,117626,1,2,0:0:0:0:
408,174,117741,2,0,P|367:166|326:178,1,70,0|2,0:0|0:0,0:0:0:0:
212,269,117972,1,2,0:0:0:0:
220,254,118029,1,2,0:0:0:0:
230,240,118087,1,2,0:0:0:0:
243,227,118145,1,2,0:0:0:0:
257,216,118202,6,0,P|254:176|240:123,1,70,2|2,0:0|0:0,0:0:0:0:
184,53,118433,1,2,0:0:0:0:
166,175,118549,1,2,0:0:0:0:
273,50,118664,1,2,0:0:0:0:
102,107,118779,1,2,0:0:0:0:
247,146,118895,2,0,P|294:148|336:140,1,70,2|0,0:0|0:0,0:0:0:0:
430,88,119125,5,8,0:0:0:0:
378,220,119241,1,0,3:0:0:0:
356,66,119356,1,0,3:0:0:0:
356,66,119414,1,0,3:0:0:0:
356,66,119472,1,0,3:0:0:0:
310,269,119587,1,0,3:0:0:0:
247,146,119702,2,0,L|253:65,2,70,0|0|0,3:0|3:0|3:0,3:0:0:0:
204,262,120049,6,0,P|167:277|114:278,1,70,8|0,0:0|0:0,0:0:0:0:
247,146,120279,1,8,0:0:0:0:
284,263,120395,2,0,P|276:301|252:329,1,70
244,330,120568,1,0,0:0:0:0:
231,336,120625,2,0,B|200:350|200:350|156:352,1,70,8|0,0:0|0:0,0:0:0:0:
247,146,120856,1,0,0:0:0:0:
333,328,120972,5,2,0:0:0:0:
348,338,121049,1,0,3:0:0:0:
365,344,121125,1,0,3:0:0:0:
383,346,121202,1,0,3:0:0:0:
375,290,121279,1,8,3:0:0:0:
368,234,121356,1,8,3:0:0:0:
361,178,121433,1,8,3:0:0:0:
354,122,121510,1,2,3:0:0:0:
346,66,121587,1,2,3:0:0:0:
339,10,121664,2,2,L|288:1,2,46.6666666666667,2|2|2,3:0|3:0|3:0,3:0:0:0:
433,112,121895,6,0,L|442:188,1,70,2|0,0:0|0:0,0:0:0:0:
202,76,122125,1,0,0:0:0:0:
278,147,122241,1,0,0:0:0:0:
178,177,122356,1,0,0:0:0:0:
301,45,122472,1,2,0:0:0:0:
100,143,122587,1,2,0:0:0:0:
100,143,122702,6,0,P|93:184|105:223,1,70,2|0,0:0|0:0,0:0:0:0:
250,315,122933,2,0,P|256:280|249:246,1,70,2|0,0:0|0:0,0:0:0:0:
198,120,123164,1,2,0:0:0:0:
198,120,123279,2,0,L|284:111,1,70,2|0,0:0|0:0,0:0:0:0:
409,101,123510,1,2,0:0:0:0:
333,245,123625,6,0,P|332:300|342:336,1,70,8|0,0:0|0:0,0:0:0:0:
464,141,123856,2,0,P|430:110|395:98,1,70,2|0,0:0|0:0,0:0:0:0:
267,112,124087,1,2,0:0:0:0:
391,187,124202,1,2,0:0:0:0:
271,197,124318,1,2,0:0:0:0:
337,73,124433,2,0,P|307:42|267:31,1,70,2|0,0:0|0:0,0:0:0:0:
102,37,124664,6,0,L|92:70,2,35,8|0|0,0:0|0:0|0:0,0:0:0:0:
23,136,124895,1,2,0:0:0:0:
171,112,125010,1,2,0:0:0:0:
15,22,125125,1,2,0:0:0:0:
166,217,125241,1,4,0:0:0:0:
166,217,125356,6,0,P|214:207|254:61,1,210,2|0,0:0|0:0,0:0:0:0:
345,185,125818,1,2,0:0:0:0:
345,185,125933,2,0,P|328:222|283:264,1,70,2|0,0:0|0:0,0:0:0:0:
116,300,126164,2,0,B|148:311|148:311|192:310,1,70,2|0,0:0|0:0,0:0:0:0:
382,301,126395,1,2,0:0:0:0:
166,217,126510,5,8,0:0:0:0:
273,324,126625,1,2,0:0:0:0:
265,336,126683,1,2,0:0:0:0:
258,348,126741,1,2,0:0:0:0:
251,185,126856,1,2,0:0:0:0:
188,384,126972,1,2,0:0:0:0:
309,244,127087,1,2,0:0:0:0:
116,300,127202,1,8,0:0:0:0:
367,315,127318,6,0,P|389:290|369:175,1,140,2|2,0:0|0:0,0:0:0:0:
80,60,127779,1,2,0:0:0:0:
75,158,127895,1,2,0:0:0:0:
70,255,128010,1,2,0:0:0:0:
166,114,128125,1,2,0:0:0:0:
166,114,128356,6,0,L|169:72,2,35,8|2|2,0:0|0:0|0:0,0:0:0:0:
161,227,128587,1,2,0:0:0:0:
259,116,128702,2,0,L|262:74,2,35,2|2|2,0:0|0:0|0:0,0:0:0:0:
254,229,128933,1,2,0:0:0:0:
100,158,129049,1,2,0:0:0:0:
203,314,129164,1,2,0:0:0:0:
337,176,129279,6,0,P|371:182|406:208,1,70,2|0,0:0|0:0,0:0:0:0:
477,81,129510,2,0,P|443:87|408:113,1,70,2|0,0:0|0:0,0:0:0:0:
337,262,129741,1,2,0:0:0:0:
293,97,129856,2,0,L|301:53,1,35,2|0,0:0|0:0,0:0:0:0:
266,92,129972,2,0,L|274:48,1,35,2|0,0:0|0:0,0:0:0:0:
237,90,130087,2,0,L|245:46,1,35,2|0,0:0|0:0,0:0:0:0:
210,85,130202,5,8,0:0:0:0:
163,199,130318,2,0,P|168:236|194:281,1,70,2|0,0:0|0:0,0:0:0:0:
313,325,130549,1,2,0:0:0:0:
299,169,130664,2,0,B|287:202|287:202|287:244,1,70,2|0,0:0|0:0,0:0:0:0:
386,368,130895,1,2,0:0:0:0:
229,339,131010,6,0,L|155:352,1,70,8|0,0:0|0:0,0:0:0:0:
230,156,131241,2,0,L|304:169,1,70,2|0,0:0|0:0,0:0:0:0:
436,243,131472,1,2,0:0:0:0:
287,236,131587,1,2,0:0:0:0:
459,170,131702,1,2,0:0:0:0:
359,270,131818,2,0,L|345:345,1,70,2|0,0:0|0:0,0:0:0:0:
190,292,132049,6,0,L|228:288,2,35,2|2|2,0:0|0:0|0:0,0:0:0:0:
112,232,132279,1,2,0:0:0:0:
271,357,132395,1,2,0:0:0:0:
186,175,132510,1,2,0:0:0:0:
98,324,132625,1,4,0:0:0:0:
98,324,132741,6,0,P|52:306|50:162,1,210
186,175,133202,1,2,0:0:0:0:
186,175,133318,2,0,P|222:175|264:168,1,70,2|0,0:0|0:0,0:0:0:0:
302,19,133549,2,0,P|277:46|267:81,1,70,2|0,0:0|0:0,0:0:0:0:
289,252,133779,1,2,0:0:0:0:
350,144,133895,5,8,0:0:0:0:
371,303,134010,1,2,0:0:0:0:
381,312,134068,1,2,0:0:0:0:
391,321,134125,1,2,0:0:0:0:
233,329,134241,1,2,0:0:0:0:
416,225,134356,1,2,0:0:0:0:
164,283,134472,1,2,0:0:0:0:
310,362,134587,1,8,0:0:0:0:
182,204,134702,6,0,P|142:202|100:241,1,70,2|0,0:0|0:0,0:0:0:0:
292,273,134933,2,0,L|286:173,1,70,2|0,0:0|0:0,0:0:0:0:
122,110,135164,2,0,P|166:84|210:80,1,70,2|2,0:0|0:0,0:0:0:0:
293,194,135395,1,2,0:0:0:0:
278,27,135510,1,2,0:0:0:0:
193,171,135625,1,4,0:0:0:0:
357,100,135741,6,0,L|395:103,2,35,10|2|2,0:0|0:0|0:0,0:0:0:0:
187,181,135972,1,2,0:0:0:0:
350,107,136087,6,0,L|388:110,2,35,2|2|2,0:0|0:0|0:0,0:0:0:0:
221,267,136318,1,0,0:0:0:0:
369,224,136433,2,0,L|446:232,1,70,8|0,0:0|0:0,0:0:0:0:
207,99,136665,6,0,L|207:55,2,35,2|2|2,0:0|0:0|0:0,0:0:0:0:
381,300,137385,6,2,L|379:324,4,17.5
452,336,137625,2,2,L|454:360,4,17.5
389,161,138105,2,2,L|386:141,4,17.5
150,101,138705,6,2,L|152:125,4,17.5
79,137,138945,2,2,L|77:161,4,17.5
311,312,139545,5,2,0:0:0:0:
311,312,139605,1,2,0:0:0:0:
311,312,139665,1,2,0:0:0:0:
311,312,139725,1,2,0:0:0:0:
311,312,139785,2,0,L|304:162,1,140,8|2,0:0|0:0,0:0:0:0:
296,60,140145,1,2,0:0:0:0:
181,122,140265,1,8,0:0:0:0:
188,156,140325,1,8,0:0:0:0:
195,190,140385,1,8,0:0:0:0:
202,224,140445,1,2,0:0:0:0:
209,258,140505,1,2,0:0:0:0:
216,292,140565,1,2,0:0:0:0:
224,325,140625,6,0,L|139:314,1,70,2|0,0:0|0:0,0:0:0:0:
449,150,141225,6,2,L|451:126,4,17.5
378,114,141465,2,2,L|376:90,4,17.5
460,290,141945,2,2,L|457:310,4,17.5
163,140,142545,5,2,0:0:0:0:
165,174,142605,1,2,0:0:0:0:
167,208,142665,1,2,0:0:0:0:
284,298,142785,1,2,0:0:0:0:
282,264,142845,1,2,0:0:0:0:
280,230,142905,1,2,0:0:0:0:
163,140,143385,5,6,0:0:0:0:
165,174,143445,1,2,0:0:0:0:
167,208,143505,1,2,0:0:0:0:
169,242,143565,1,2,0:0:0:0:
171,276,143625,2,0,L|60:298,1,105.000004005432,2|0,0:0|0:0,0:0:0:0:
341,276,143865,2,0,L|453:298,1,105.000004005432,2|0,0:0|0:0,0:0:0:0:
407,99,144105,1,8,0:0:0:0:
372,91,144165,1,8,0:0:0:0:
338,96,144225,1,8,0:0:0:0:
306,110,144285,1,8,0:0:0:0:
281,134,144345,5,2,0:0:0:0:
265,165,144405,1,2,0:0:0:0:
260,200,144465,2,0,B|276:343|276:343|236:279,1,210.000008010865,2|0,0:0|0:0,0:0:0:0:
161,46,145065,5,2,0:0:0:0:
168,81,145125,1,2,0:0:0:0:
173,116,145185,1,2,0:0:0:0:
92,218,145305,1,8,0:0:0:0:
87,253,145365,1,2,0:0:0:0:
82,287,145425,2,0,P|137:327|276:303,1,210.000008010865,2|0,0:0|0:0,0:0:0:0:
318,201,145785,2,0,L|382:191,2,52.5000020027161,2|2|2,0:0|0:0|0:0,0:0:0:0:
50,101,146385,5,2,0:0:0:0:
50,101,146445,1,2,0:0:0:0:
50,101,146505,1,2,0:0:0:0:
412,53,146625,1,2,0:0:0:0:
412,53,146685,1,2,0:0:0:0:
412,53,146745,2,0,P|426:98|361:254,1,210,2|0,0:0|0:0,0:0:0:0:
474,315,147225,5,8,0:0:0:0:
452,342,147285,1,2,0:0:0:0:
423,361,147345,1,2,0:0:0:0:
389,369,147405,1,2,0:0:0:0:
355,366,147465,2,0,B|320:361|320:361|251:375,1,105.000004005432,2|0,0:0|0:0,0:0:0:0:
103,228,147705,2,0,L|110:165,1,52.5000020027161,2|2,0:0|0:0,0:0:0:0:
183,153,147825,2,0,L|174:83,1,52.5000020027161,2|2,0:0|0:0,0:0:0:0:
104,69,147945,2,0,L|110:10,2,52.5000020027161,2|2|2,0:0|0:0|0:0,0:0:0:0:
196,259,148185,5,10,0:0:0:0:
196,259,148245,1,10,0:0:0:0:
196,259,148305,2,0,P|234:267|310:241,1,105.000004005432,10|0,0:0|0:0,0:0:0:0:
362,154,148545,1,8,0:0:0:0:
411,348,148665,1,8,0:0:0:0:
440,100,148785,1,8,0:0:0:0:
309,335,148905,2,0,L|258:343,2,52.5000020027161,8|8|8,0:0|0:0|0:0,0:0:0:0:
438,237,149145,6,0,L|489:245,2,52.5000020027161,8|8|8,0:0|0:0|0:0,0:0:0:0:
221,191,149385,1,8,0:0:0:0:
411,348,149505,1,8,0:0:0:0:
338,200,149625,1,8,0:0:0:0:
350,177,149685,1,8,0:0:0:0:
362,154,149745,1,8,0:0:0:0:
407,354,149865,1,8,0:0:0:0:
472,149,149985,6,0,B|472:117|472:117|446:33,1,105.000004005432,8|8,0:0|0:0,0:0:0:0:
279,43,150225,2,0,L|228:53,2,52.5000020027161,10|2|10,0:0|0:0|0:0,0:0:0:0:
432,241,150465,2,0,L|483:251,2,52.5000020027161,10|2|10,0:0|0:0|0:0,0:0:0:0:
135,183,150705,1,8,0:0:0:0:
403,360,150825,1,8,0:0:0:0:
288,123,150945,1,8,0:0:0:0:
196,311,151065,5,12,0:0:0:0:
172,322,151125,1,2,0:0:0:0:
146,328,151185,1,2,0:0:0:0:
119,328,151245,1,2,0:0:0:0:
93,321,151305,2,0,L|84:263,1,52.5000020027161,6|2,0:0|0:0,0:0:0:0:
135,183,151425,2,0,L|144:125,1,52.5000020027161,2|2,0:0|0:0,0:0:0:0:
59,68,151545,2,0,L|50:10,1,52.5000020027161,2|2,0:0|0:0,0:0:0:0:
186,48,151665,1,2,0:0:0:0:
212,71,151725,1,2,0:0:0:0:
231,100,151785,1,6,0:0:0:0:
242,133,151845,1,2,0:0:0:0:
244,168,151905,1,2,0:0:0:0:
236,202,151965,1,2,0:0:0:0:
220,233,152025,5,14,0:0:0:0:
440,100,152635,6,0,L|388:112,1,52.5,2|0,0:0|0:0,0:0:0:0:
96,168,152950,2,0,L|148:180,1,52.5,2|0,0:0|0:0,0:0:0:0:
451,230,153266,1,4,0:0:0:0:
213,350,153582,6,0,L|222:283,1,52.5,2|0,0:0|0:0,0:0:0:0:
293,44,153898,2,0,L|303:122,1,70,2|0,0:0|0:0,0:0:0:0:
324,334,154529,5,4,0:0:0:0:
314,251,154845,1,4,0:0:0:0:
305,284,155161,5,4,0:0:0:0:
335,290,155371,1,4,0:0:0:0:
314,313,155582,1,4,0:0:0:0:
319,296,155792,5,12,0:0:0:0:
130,106,156108,6,0,P|81:96|115:129,1,122.5,2|0,0:0|0:0,0:0:0:0:
270,110,156740,2,0,P|319:100|264:133,1,192.5,2|0,0:0|0:0,0:0:0:0:
291,17,157687,6,0,P|322:16|383:51,1,87.5,2|0,0:0|0:0,0:0:0:0:
415,102,158161,2,8,P|431:103|431:103,2,11.6666666666667
429,177,158319,1,12,0:0:0:0:
351,150,158635,1,4,0:0:0:0:
364,233,158950,1,4,0:0:0:0:
364,233,159582,6,0,L|303:228,1,52.5,2|0,0:0|0:0,0:0:0:0:
76,163,159898,2,0,L|128:158,1,52.5,2|0,0:0|0:0,0:0:0:0:
359,107,160213,5,4,0:0:0:0:
389,113,160424,1,4,0:0:0:0:
368,136,160635,1,4,0:0:0:0:
374,122,160845,6,0,L|381:264,1,140,12|0,0:0|0:0,0:0:0:0:
106,111,161792,6,0,L|115:102,1,8.75
141,97,161871,2,0,L|152:90,1,8.75
180,92,161950,2,0,L|192:89,1,8.75
218,98,162029,2,0,L|231:98,1,8.75
253,114,162108,6,0,P|316:152|266:97,1,210,2|0,0:0|0:0,0:0:0:0:
191,228,162424,6,0,L|185:287,1,52.5,6|0,0:0|0:0,0:0:0:0:
468,227,162740,2,0,L|462:168,1,52.5,6|0,0:0|0:0,0:0:0:0:
202,236,163056,2,0,L|196:295,1,52.5,6|0,0:0|0:0,0:0:0:0:
452,82,163371,1,8,0:0:0:0:
445,93,163687,6,0,L|387:97,1,52.5,2|0,0:0|0:0,0:0:0:0:
83,140,164003,2,0,L|155:145,1,70,2|0,0:0|0:0,0:0:0:0:
464,346,164635,6,0,P|442:356|454:294,1,140,6|0,0:0|0:0,0:0:0:0:
196,97,165898,5,12,0:0:0:0:
196,97,166213,2,0,P|174:87|186:149,1,140,2|2,0:0|0:0,0:0:0:0:
431,150,167161,2,0,B|374:167|374:167|324:209,1,122.5,6|0,0:0|0:0,0:0:0:0:
259,248,167792,2,0,P|284:276|345:285,1,87.5,2|0,0:0|0:0,0:0:0:0:
406,267,168266,2,0,L|423:271,2,11.6666666666667,4|4|4,0:0|0:0|0:0,0:0:0:0:
491,292,168424,1,8,0:0:0:0:
430,352,168740,1,8,0:0:0:0:
466,209,169056,1,8,0:0:0:0:
139,275,169687,6,0,L|195:284,1,52.5,6|0,0:0|0:0,0:0:0:0:
371,138,170003,2,0,L|315:147,1,52.5,2|0,0:0|0:0,0:0:0:0:
139,183,170319,5,4,0:0:0:0:
109,177,170530,1,4,0:0:0:0:
130,154,170741,1,4,0:0:0:0:
127,171,170950,6,0,P|95:163|175:135,2,280,6|8|4,0:0|0:0|0:0,0:0:0:0:
144,88,186991,5,4,0:0:0:0:
150,97,187914,1,12,0:0:0:0:
225,288,188144,2,0,P|247:261|256:212,1,70,2|0,0:0|0:0,0:0:0:0:
260,98,188375,1,6,0:0:0:0:
217,153,188491,1,2,0:0:0:0:
158,191,188606,1,0,0:0:0:0:
89,204,188721,1,0,0:0:0:0:
18,202,188837,5,4,0:0:0:0:
65,251,188952,1,0,0:0:0:0:
70,320,189067,1,0,0:0:0:0:
31,376,189183,1,0,0:0:0:0:
87,335,189298,1,4,0:0:0:0:
152,310,189413,1,0,0:0:0:0:
221,301,189529,2,0,P|273:321|313:325,1,70,2|2,0:0|0:0,0:0:0:0:
437,320,189760,5,12,0:0:0:0:
390,178,189875,2,0,P|333:159|265:222,1,140,2|0,0:0|0:0,0:0:0:0:
410,251,190221,2,0,P|456:212|438:121,1,140,6|0,0:0|0:0,0:0:0:0:
271,201,190567,1,2,0:0:0:0:
320,64,190683,6,0,B|284:38|284:38|176:53,1,140,6|0,0:0|0:0,0:0:0:0:
24,88,191029,2,0,P|41:119|26:237,1,140,2|0,0:0|0:0,0:0:0:0:
160,251,191375,2,0,L|165:297,2,46.6666666666667,2|2|2,0:0|0:0|0:0,0:0:0:0:
201,158,191606,5,12,0:0:0:0:
424,354,191837,2,0,L|416:274,1,70,4|0,0:0|0:0,0:0:0:0:
401,118,192067,1,0,0:0:0:0:
401,118,192298,2,0,L|352:113,1,35,2|0,0:0|0:0,0:0:0:0:
328,213,192414,2,0,L|279:218,1,35,2|0,0:0|0:0,0:0:0:0:
272,127,192529,6,0,L|223:122,1,35,2|0,0:0|0:0,0:0:0:0:
199,222,192645,2,0,B|105:180|105:180|41:74,1,210,2|4,0:0|0:0,0:0:0:0:
463,226,193221,2,0,L|463:310,1,70,2|0,0:0|0:0,0:0:0:0:
284,190,193452,6,0,P|334:155|461:216,1,210,12|2,0:0|0:0,0:0:0:0:
368,262,193914,1,4,0:0:0:0:
277,82,194029,1,2,0:0:0:0:
321,343,194144,1,0,0:0:0:0:
199,222,194260,1,0,0:0:0:0:
373,154,194375,5,8,0:0:0:0:
196,328,194491,1,8,0:0:0:0:
444,215,194606,2,0,P|457:258|449:306,1,70,6|0,0:0|0:0,0:0:0:0:
249,165,194837,1,0,0:0:0:0:
369,269,194952,2,0,P|356:312|364:360,1,70,6|0,0:0|0:0,0:0:0:0:
483,145,195183,1,2,0:0:0:0:
483,145,195241,1,2,0:0:0:0:
483,145,195298,6,0,L|470:68,1,70,12|0,0:0|0:0,0:0:0:0:
323,133,195529,2,0,P|358:152|405:151,1,70,4|0,0:0|0:0,0:0:0:0:
480,72,195760,1,4,0:0:0:0:
204,128,195991,1,2,0:0:0:0:
205,162,196048,1,2,0:0:0:0:
218,195,196106,1,2,0:0:0:0:
239,222,196164,1,2,0:0:0:0:
268,242,196221,6,0,L|341:234,2,70,6|0|2,0:0|0:0|0:0,0:0:0:0:
52,265,196567,2,0,P|101:294|179:248,1,140,2|0,0:0|0:0,0:0:0:0:
204,128,196914,1,2,0:0:0:0:
46,271,197144,5,12,0:0:0:0:
292,119,197260,2,0,P|271:72|122:91,2,210,2|6|2,0:0|0:0|0:0,0:0:0:0:
204,128,198067,5,14,0:0:0:0:
456,88,198298,1,2,0:0:0:0:
204,256,198529,5,6,0:0:0:0:
456,296,198760,1,2,0:0:0:0:
107,192,198991,5,6,0:0:0:0:
370,192,199221,2,0,P|364:240|352:267,1,70,2|0,0:0|0:0,0:0:0:0:
318,127,199452,2,0,P|357:110|393:114,1,70,6|0,0:0|0:0,0:0:0:0:
371,336,199683,2,0,P|336:335|305:320,1,70,2|0,0:0|0:0,0:0:0:0:
200,201,199914,5,6,0:0:0:0:
461,185,200144,1,2,0:0:0:0:
181,298,200375,5,6,0:0:0:0:
346,35,200606,1,2,0:0:0:0:
171,207,200837,2,0,P|219:211|268:291,1,140,12|2,0:0|0:0,0:0:0:0:
385,372,201183,2,0,B|411:313|411:313|401:226,1,140
380,98,201529,1,8,0:0:0:0:
268,281,201760,5,6,0:0:0:0:
169,46,202221,2,0,P|175:84|173:125,1,70,4|0,0:0|0:0,0:0:0:0:
27,304,202683,5,2,0:0:0:0:
75,254,202798,1,2,0:0:0:0:
141,232,202913,1,2,0:0:0:0:
210,241,203029,1,2,0:0:0:0:
267,280,203144,1,6,0:0:0:0:
358,72,203375,6,0,L|370:152,2,70,0|0|4,0:0|0:0|0:0,0:0:0:0:
324,214,203837,2,0,P|370:227|442:177,1,140,2|4,0:0|0:0,0:0:0:0:
216,52,204298,1,2,0:0:0:0:
211,65,204356,1,2,0:0:0:0:
206,78,204414,1,2,0:0:0:0:
201,91,204471,1,2,0:0:0:0:
196,104,204529,5,12,0:0:0:0:
145,252,204644,2,0,P|126:215|74:194,1,70,2|0,0:0|0:0,0:0:0:0:
65,277,204875,2,0,P|95:324|178:331,1,140,2|2,0:0|0:0,0:0:0:0:
248,241,205221,2,0,L|238:165,1,70,2|2,0:0|0:0,0:0:0:0:
267,377,205452,5,6,0:0:0:0:
177,121,205683,1,0,0:0:0:0:
239,94,205798,1,0,0:0:0:0:
301,122,205914,2,0,B|369:134|369:134|442:121,1,140,4|0,0:0|0:0,0:0:0:0:
61,43,206375,5,6,0:0:0:0:
68,112,206490,1,2,0:0:0:0:
76,182,206605,1,2,0:0:0:0:
84,251,206721,1,2,0:0:0:0:
92,320,206837,2,0,B|126:314|126:314|181:324,1,70,6|0,0:0|0:0,0:0:0:0:
420,320,207067,2,0,B|386:314|386:314|331:324,1,70
256,192,207298,6,0,L|256:32,1,140,4|8,0:0|0:0,0:0:0:0:
195,248,207644,2,0,P|236:274|320:245,1,140
366,105,207991,1,2,0:0:0:0:
373,116,208048,1,2,0:0:0:0:
380,127,208106,1,2,0:0:0:0:
387,138,208164,1,2,0:0:0:0:
394,149,208221,5,12,0:0:0:0:
327,37,208337,2,0,P|362:28|408:40,1,70,2|0,0:0|0:0,0:0:0:0:
256,192,208567,2,0,B|227:170|227:170|211:138,1,70,2|4,0:0|0:0,0:0:0:0:
178,32,208798,1,2,0:0:0:0:
163,255,208914,1,2,0:0:0:0:
295,117,209029,1,2,0:0:0:0:
83,287,209144,6,0,P|95:310|208:326,1,140,6|4,0:0|0:0,0:0:0:0:
65,79,210067,5,6,0:0:0:0:
37,200,210183,1,2,0:0:0:0:
155,130,210299,1,2,0:0:0:0:
2,129,210414,1,2,0:0:0:0:
137,217,210529,6,0,P|173:220|239:137,1,140,6|4,0:0|0:0,0:0:0:0:
203,23,211221,5,0,0:0:0:0:
469,125,211452,2,0,P|434:128|400:121,1,70,4|0,0:0|0:0,0:0:0:0:
297,27,211683,1,2,0:0:0:0:
291,40,211741,1,2,0:0:0:0:
286,52,211798,1,2,0:0:0:0:
281,65,211856,1,2,0:0:0:0:
276,78,211914,5,12,0:0:0:0:
172,257,212029,2,0,P|171:190|186:165,1,70,2|0,0:0|0:0,0:0:0:0:
272,89,212260,2,0,P|273:156|258:181,1,70,2|4,0:0|0:0,0:0:0:0:
87,264,212491,1,2,0:0:0:0:
247,225,212606,1,2,0:0:0:0:
81,275,212721,1,2,0:0:0:0:
255,236,212837,5,6,0:0:0:0:
27,125,213067,1,2,0:0:0:0:
348,155,213298,5,6,0:0:0:0:
43,205,213529,1,2,0:0:0:0:
292,72,213760,6,0,P|338:60|425:96,1,140,12|0,0:0|0:0,0:0:0:0:
300,314,214221,2,0,B|261:323|261:323|267:270,2,93.3333333333333,6|8|2,0:0|0:0|0:0,0:0:0:0:
451,163,214683,5,6,0:0:0:0:
383,249,214837,1,2,0:0:0:0:
490,263,214991,1,8,0:0:0:0:
403,105,215144,5,6,0:0:0:0:
364,219,215298,1,2,0:0:0:0:
480,193,215452,1,2,0:0:0:0:
333,54,215606,5,12,0:0:0:0:
337,197,215760,1,2,0:0:0:0:
457,120,215914,1,2,0:0:0:0:
219,0,216067,5,6,0:0:0:0:
294,186,216221,1,2,0:0:0:0:
414,29,216375,1,12,2:0:0:0:
73,101,218586,5,2,0:0:0:0:
336,293,218844,1,0,2:2:0:0:
293,222,218973,2,0,P|285:178|286:139,1,70,0|0,2:2|2:2,2:2:0:0:
387,55,219232,2,0,P|385:89|378:124,1,70,0|0,2:2|2:2,2:2:0:0:
138,210,219491,6,0,L|-25:190,1,140,0|0,2:2|2:2,2:2:0:0:
172,148,219879,2,0,P|200:176|207:218,1,70,0|0,2:2|2:2,2:2:0:0:
130,343,220137,2,0,B|161:327|161:327|165:343|165:343|172:327|172:327|175:342|175:342|181:328|181:328|186:341|186:341|232:363|295:328|295:328,1,210,0|0,2:2|2:2,2:2:0:0:
451,129,220654,6,0,L|400:102,1,35,12|0,0:0|0:0,0:0:0:0:
261,28,220784,1,2,0:0:0:0:
250,49,220848,1,2,0:0:0:0:
239,71,220913,2,0,L|245:117,1,35,2|0,0:0|0:0,0:0:0:0:
358,304,221042,1,6,0:0:0:0:
369,283,221106,1,2,0:0:0:0:
380,261,221171,2,0,L|374:215,1,35,6|0,0:0|0:0,0:0:0:0:
159,140,221301,2,0,L|165:186,1,35,2|0,0:0|0:0,0:0:0:0:
327,159,221430,1,2,0:0:0:0:
346,143,221495,1,2,0:0:0:0:
363,125,221560,2,0,L|357:79,1,35,2|0,0:0|0:0,0:0:0:0:
91,29,221689,6,0,L|86:63,1,35,2|2,3:0|3:0,3:0:0:0:
0,139,221818,2,0,L|34:143,1,35,2|2,3:3|3:3,3:3:0:0:
68,263,221948,2,0,L|72:228,1,35,2|2,3:0|3:0,3:0:0:0:
159,140,222077,1,2,3:0:0:0:
181,131,222142,1,2,3:0:0:0:
205,128,222206,2,8,L|252:137,1,35,8|8,3:0|3:0,3:0:0:0:
461,134,222336,2,8,L|414:143,1,35,8|8,3:0|3:0,3:0:0:0:
205,232,222465,2,8,L|252:241,1,35,8|8,3:0|3:0,3:0:0:0:
461,238,222595,2,8,L|414:247,1,35,8|8,3:0|3:0,3:0:0:0:
211,325,222723,5,2,0:0:0:0:
315,107,222853,1,8,0:0:0:0:
296,317,222982,1,2,0:0:0:0:
313,334,223047,1,0,0:0:0:0:
330,350,223111,1,8,0:0:0:0:
124,288,223241,5,2,0:0:0:0:
350,220,223370,1,8,0:0:0:0:
141,162,223499,2,0,L|103:115,2,52.5000020027161,2|0|8,0:0|0:0|0:0,0:0:0:0:
213,334,223758,5,2,0:0:0:0:
69,215,223887,1,8,0:0:0:0:
312,150,224017,2,0,P|362:142|408:166,1,105.000004005432,2|8,0:0|0:0,0:0:0:0:
213,334,224275,2,0,L|231:213,2,105.000004005432,2|8|2,0:0|0:0|0:0,0:0:0:0:
207,118,224663,1,8,0:0:0:0:
310,312,224792,5,2,0:0:0:0:
119,293,224922,1,2,0:0:0:0:
311,204,225051,2,0,L|395:217,2,52.5000020027161,2|2|8,0:0|0:0|0:0,0:0:0:0:
116,303,225310,1,2,0:0:0:0:
308,210,225439,1,8,0:0:0:0:
135,130,225568,2,0,L|83:138,2,52.5000020027161,2|2|8,0:0|0:0|0:0,0:0:0:0:
223,234,225827,5,2,3:0:0:0:
217,259,225892,1,2,3:0:0:0:
212,284,225956,2,0,L|191:216,1,52.5000020027161,2|0,3:0|3:0,3:0:0:0:
145,37,226086,1,2,3:0:0:0:
263,121,226215,2,4,P|292:129|321:127,1,52.5000020027161,4|4,3:0|3:0,3:0:0:0:
452,47,226344,1,4,3:0:0:0:
444,72,226409,1,4,3:0:0:0:
437,97,226473,1,4,3:0:0:0:
430,122,226538,1,4,3:0:0:0:
421,146,226603,2,8,L|438:219,1,52.5000020027161,8|8,3:0|3:0,3:0:0:0:
470,335,226732,1,8,3:0:0:0:
446,347,226797,1,8,3:0:0:0:
420,346,226861,6,8,L|352:353,1,52.5000020027161,8|8,3:0|3:0,3:0:0:0:
196,364,226991,1,8,0:0:0:0:
287,159,227120,1,2,0:0:0:0:
277,360,227249,1,8,0:0:0:0:
225,101,227379,1,2,0:0:0:0:
139,304,227508,1,8,0:0:0:0:
150,138,227637,2,0,L|133:82,2,52.5000020027161,2|0|8,0:0|0:0|0:0,0:0:0:0:
259,246,227896,6,0,P|321:245|367:207,1,105.000004005432,2|8,0:0|0:0,0:0:0:0:
413,97,228154,1,2,0:0:0:0:
401,73,228219,1,0,0:0:0:0:
389,49,228284,1,8,0:0:0:0:
287,159,228413,1,2,0:0:0:0:
377,25,228542,1,8,0:0:0:0:
444,255,228672,1,2,0:0:0:0:
457,277,228736,1,0,0:0:0:0:
471,299,228801,1,8,0:0:0:0:
475,165,228930,6,4,L|418:159,1,52.5000020027161,6|4,3:0|3:0,3:0:0:0:
245,161,229060,2,4,L|302:155,1,52.5000020027161,4|4,3:0|3:0,3:0:0:0:
357,289,229189,2,4,L|364:226,1,52.5000020027161,4|4,3:0|3:0,3:0:0:0:
362,36,229319,2,4,L|368:99,1,52.5000020027161,4|4,3:0|3:0,3:0:0:0:
232,158,229448,2,4,L|294:164,1,52.5000020027161,4|4,3:0|3:0,3:0:0:0:
485,162,229577,2,4,L|422:168,1,52.5000020027161,4|4,3:0|3:0,3:0:0:0:
370,25,229706,2,4,L|362:93,1,52.5000020027161,4|4,3:0|3:0,3:0:0:0:
366,303,229836,2,4,L|358:234,1,52.5000020027161,4|4,3:0|3:0,3:0:0:0:
262,66,229965,5,8,3:0:0:0:
215,42,230029,1,8,3:0:0:0:
163,41,230094,1,8,3:0:0:0:
116,62,230158,1,8,3:0:0:0:
83,103,230223,2,8,L|92:220,1,105.000004005432,8|8,3:0|3:0,3:0:0:0:
273,345,230482,2,0,L|281:240,1,105.000004005432,2|2,0:0|0:0,0:0:0:0:
24,268,230741,2,0,P|75:298|137:284,1,105.000004005432,2|2,0:0|0:0,0:0:0:0:
139,277,230935,1,2,0:0:0:0:
159,261,230999,6,0,L|216:213,5,52.5000020027161,2|0|8|0|2|0,0:0|0:0|0:0|0:0|0:0|0:0,0:0:0:0:
164,112,231387,2,0,L|204:145,3,52.5000020027161,8|0|2|0,0:0|0:0|0:0|0:0,0:0:0:0:
278,196,231646,2,0,L|339:197,1,52.5000020027161,8|0,0:0|0:0,0:0:0:0:
406,222,231775,2,0,P|411:197|393:151,1,52.5000020027161,2|0,0:0|0:0,0:0:0:0:
293,53,231904,2,0,P|287:78|292:104,1,52.5000020027161,8|0,0:0|0:0,0:0:0:0:
357,294,232034,6,0,L|348:349,5,52.5000020027161,2|0|8|0|2|0,0:0|0:0|0:0|0:0|0:0|0:0,0:0:0:0:
163,345,232422,2,0,L|155:294,5,52.5000020027161,8|0|2|0|8|0,0:0|0:0|0:0|0:0|0:0|0:0,0:0:0:0:
256,192,232810,2,0,L|256:123,1,52.5000020027161,2|0,0:0|0:0,0:0:0:0:
256,283,232939,1,2,0:0:0:0:
256,309,233004,1,2,0:0:0:0:
256,334,233068,5,2,0:0:0:0:
355,201,233198,1,8,0:0:0:0:
152,205,233327,2,0,L|94:190,2,52.5000020027161,2|0|8,0:0|0:0|0:0,0:0:0:0:
434,247,233585,2,0,P|447:197|418:131,1,105.000004005432,2|10,0:0|0:0,0:0:0:0:
261,55,233844,1,2,0:0:0:0:
236,64,233909,1,2,0:0:0:0:
211,73,233973,1,8,0:0:0:0:
235,243,234103,6,8,P|263:189|265:178,1,52.5000020027161,8|8,3:0|3:0,3:0:0:0:
101,191,234232,2,8,P|73:137|71:126,1,52.5000020027161,8|8,3:0|3:0,3:0:0:0:
303,121,234361,1,8,3:0:0:0:
337,159,234425,1,8,3:0:0:0:
343,210,234491,2,8,L|390:263,1,52.5000020027161,8|8,3:0|3:0,3:0:0:0:
436,353,234620,1,4,3:0:0:0:
409,356,234685,1,4,3:0:0:0:
383,360,234749,1,4,3:0:0:0:
357,364,234814,1,4,3:0:0:0:
331,369,234879,1,4,3:0:0:0:
306,361,234943,1,4,3:0:0:0:
280,353,235008,1,4,3:0:0:0:
461,163,235137,5,2,0:0:0:0:
264,242,235267,2,0,P|260:191|287:147,1,105.000004005432,8|2,0:0|0:0,0:0:0:0:
508,96,235525,1,8,0:0:0:0:
343,210,235654,1,2,0:0:0:0:
430,89,235784,1,8,0:0:0:0:
418,248,235913,2,0,P|394:279|366:294,2,52.5000020027161,2|0|8,0:0|0:0|0:0,0:0:0:0:
352,90,236172,6,0,P|304:60|237:80,2,105.000004005432,2|8|2,0:0|0:0|0:0,0:0:0:0:
383,286,236560,1,8,0:0:0:0:
286,147,236689,1,2,0:0:0:0:
486,190,236818,1,8,0:0:0:0:
295,260,236948,1,2,0:0:0:0:
280,281,237012,1,2,0:0:0:0:
265,303,237077,1,8,0:0:0:0:
80,166,237206,5,8,3:0:0:0:
102,152,237271,1,0,3:0:0:0:
127,146,237335,2,0,L|121:207,1,52.5000020027161,0|0,3:0|3:0,3:0:0:0:
193,357,237465,2,0,L|187:296,1,52.5000020027161,8|0,3:0|3:0,3:0:0:0:
227,139,237594,1,8,3:0:0:0:
243,118,237659,1,0,3:0:0:0:
259,98,237723,2,0,L|322:82,1,52.5000020027161,8|0,3:0|3:0,3:0:0:0:
432,222,237853,2,0,L|369:206,1,52.5000020027161,8|0,3:0|3:0,3:0:0:0:
262,262,237982,1,8,3:0:0:0:
271,286,238047,1,8,3:0:0:0:
279,310,238111,2,0,L|329:322,1,52.5000020027161,8|0,3:0|3:0,3:0:0:0:
391,133,238241,6,0,L|396:60,1,52.5000020027161,2|0,0:0|0:0,0:0:0:0:
120,133,238370,2,0,L|115:60,1,52.5000020027161,2|0,0:0|0:0,0:0:0:0:
403,133,238499,2,0,L|408:53,1,52.5000020027161,2|0,0:0|0:0,0:0:0:0:
107,133,238628,2,0,B|102:61|102:61|65:218,1,210.000008010865,4|0,0:0|0:0,0:0:0:0:
272,296,239017,1,2,0:0:0:0:
233,331,239082,1,2,0:0:0:0:
184,348,239146,1,2,0:0:0:0:
132,344,239211,1,2,0:0:0:0:
86,321,239275,6,4,L|79:258,1,52.5000020027161,4|4,3:0|3:0,3:0:0:0:
222,62,239404,1,4,3:0:0:0:
230,86,239469,1,4,3:0:0:0:
238,110,239534,1,4,3:0:0:0:
246,134,239598,1,4,3:0:0:0:
254,158,239663,1,4,3:0:0:0:
261,183,239728,1,4,3:0:0:0:
268,207,239792,1,4,3:0:0:0:
310,237,239856,1,8,3:0:0:0:
361,242,239921,1,8,3:0:0:0:
409,221,239985,1,8,3:0:0:0:
440,179,240050,1,8,3:0:0:0:
446,128,240115,1,8,3:0:0:0:
426,80,240179,1,8,3:0:0:0:
384,48,240244,1,8,3:0:0:0:
333,42,240310,6,8,L|324:107,2,52.5000020027161
179,342,240568,2,8,L|186:289,2,52.5000020027161
333,342,240956,6,8,L|325:289,2,52.5000020027161
126,216,241215,2,8,L|133:163,1,52.5000020027161
386,216,241344,6,8,L|378:163,2,52.5000020027161
230,50,241603,2,8,L|293:50,2,52.5000020027161
44,141,241861,1,4,0:0:0:0:
468,141,242120,1,4,0:0:0:0:
256,194,242379,5,2,0:0:0:0:
256,358,242508,2,8,L|256:282,2,52.5000020027161
206,135,242767,2,0,P|255:117|322:234,2,210.000008010865,8|8|8,0:0|0:0|0:0,0:0:0:0:
71,298,243413,6,8,P|41:297|14:287,2,52.5000020027161
441,298,243672,2,8,P|470:297|498:287,2,52.5000020027161
108,152,243930,2,0,B|79:110|79:110|62:24,1,105.000004005432,4|0,0:0|0:0,0:0:0:0:
404,152,244189,2,0,B|433:110|433:110|450:24,1,105.000004005432,4|0,0:0|0:0,0:0:0:0:
309,271,244448,5,8,0:0:0:0:
203,271,244548,1,8,0:0:0:0:
256,12,244749,5,4,0:0:0:0:
256,118,244849,1,4,0:0:0:0:
256,344,245050,1,0,0:0:0:0:
97,65,245250,5,8,0:0:0:0:
416,319,245551,5,2,0:0:0:0:
416,213,245651,1,2,0:0:0:0:
63,160,245953,5,2,0:0:0:0:
169,160,246053,1,2,0:0:0:0:
383,336,246254,6,0,P|369:295|344:272,1,70,4|4,0:0|0:0,0:0:0:0:
257,267,246454,1,2,0:0:0:0:
161,276,246555,2,0,P|138:302|129:336,1,70,2|2,0:0|0:0,0:0:0:0:
257,258,246755,1,2,0:0:0:0:
256,165,246856,5,8,0:0:0:0:
256,367,247056,1,2,0:0:0:0:
256,0,247458,1,2,0:0:0:0:
180,91,247658,6,0,L|177:132,1,35,4|4,0:0|0:0,0:0:0:0:
145,198,247759,1,4,0:0:0:0:
74,252,247859,2,0,P|105:279|236:207,1,210,8|8,0:0|0:0,0:0:0:0:
285,139,248260,2,2,L|326:146,3,35
330,237,248461,6,0,B|356:272|356:272|515:259,1,175,4|0,0:0|0:0,0:0:0:0:
437,375,248762,2,0,B|411:340|411:340|280:350,1,175,4|0,0:0|0:0,0:0:0:0:
181,353,249063,6,0,L|186:283,1,70,8|0,0:0|0:0,0:0:0:0:
195,117,249264,2,0,P|236:83|389:127,2,210,8|8|8,0:0|0:0|0:0,0:0:0:0:
440,259,250066,5,4,0:0:0:0:
426,277,250132,1,4,0:0:0:0:
408,292,250199,1,4,0:0:0:0:
386,301,250266,1,4,0:0:0:0:
363,304,250333,1,4,0:0:0:0:
340,302,250400,1,4,0:0:0:0:
319,293,250467,1,8,0:0:0:0:
300,279,250534,1,8,0:0:0:0:
286,260,250601,1,8,0:0:0:0:
278,239,250668,1,8,0:0:0:0:
275,215,250734,1,8,0:0:0:0:
278,192,250801,1,8,0:0:0:0:
287,170,250869,6,8,L|243:187,2,35
126,65,251170,2,8,L|82:48,2,35
386,65,251471,2,8,L|430:48,2,35
189,291,251672,5,0,0:0:0:0:
323,291,251772,2,0,P|318:229|304:196,1,70,6|0,0:0|0:0,0:0:0:0:
125,147,251973,2,0,P|130:209|144:242,1,70,6|0,0:0|0:0,0:0:0:0:
189,291,252173,6,0,B|235:245|235:245|232:206|232:206|273:140,1,175,6|0,0:0|0:0,0:0:0:0:
353,74,252474,2,0,B|349:35|349:35|339:78,1,70,2|0,0:0|0:0,0:0:0:0:
352,165,252675,1,2,0:0:0:0:
406,238,252775,2,0,P|456:246|492:234,1,70,8|0,0:0|0:0,0:0:0:0:
451,122,252976,6,0,L|444:171,1,35,2|0,0:0|0:0,0:0:0:0:
351,331,253177,1,2,0:0:0:0:
351,331,253277,2,0,L|346:298,2,17.5,8|2|2,0:0|0:0|0:0,0:0:0:0:
112,179,253578,6,0,B|175:125|175:125|271:110,1,175,4|0,0:0|0:0,0:0:0:0:
261,185,253879,2,0,B|206:193|206:193|169:225,1,105,4|0,0:0|0:0,0:0:0:0:
130,302,254080,6,8,L|137:336,4,35
432,120,254581,6,0,P|429:77|361:130,1,175,2|0,0:0|0:0,0:0:0:0:
363,194,254882,2,0,P|392:227|422:181,1,105,2|0,0:0|0:0,0:0:0:0:
287,162,255083,2,0,B|251:155|251:155|198:165,1,70,2|0,0:0|0:0,0:0:0:0:
66,341,255384,1,2,0:0:0:0:
87,257,255484,2,0,L|67:181,1,70,8|0,0:0|0:0,0:0:0:0:
93,106,255685,2,2,L|98:64,2,35
214,239,255986,6,0,P|251:251|291:137,1,175,4|0,0:0|0:0,0:0:0:0:
228,227,256287,2,0,P|253:235|281:156,1,105,4|0,0:0|0:0,0:0:0:0:
260,48,256488,6,8,L|215:37,2,35
429,48,256746,2,8,L|474:37,2,35
122,308,257134,6,8,L|129:251,2,35
390,308,257393,2,8,L|383:251,1,35
256,109,257522,6,8,L|256:153,2,35
256,331,257781,2,8,L|256:287,2,35
126,155,258039,2,8,L|103:120,2,35
386,155,258298,2,8,L|409:120,2,35
337,221,258556,1,4,0:0:0:0:
68,220,258686,5,0,2:0:0:0:
444,220,258944,1,0,2:0:0:0:
68,220,259203,1,0,2:0:0:0:
103,287,259332,1,0,2:0:0:0:
141,351,259462,2,0,L|193:337,1,35,2|0,0:0|0:0,0:0:0:0:
265,285,259591,5,2,3:0:0:0:
270,250,259655,1,2,3:0:0:0:
265,216,259720,1,2,3:0:0:0:
249,185,259784,1,2,3:0:0:0:
224,161,259850,2,8,L|235:112,3,35,8|8|8|8,3:0|3:0|3:0|3:0,3:0:0:0:
325,77,260108,1,4,3:0:0:0:
356,92,260172,1,4,3:0:0:0:
390,97,260237,1,4,3:0:0:0:
425,93,260301,1,4,3:0:0:0:
456,78,260367,2,4,L|462:134,1,35,4|4,3:0|3:0,3:0:0:0:
412,207,260496,2,4,L|406:262,1,35,4|4,3:0|3:0,3:0:0:0:
471,324,260625,5,8,3:0:0:0:
133,176,262176,1,0,2:0:0:0:
210,299,262693,6,0,P|213:274|210:259,1,23.3333333333333,0|0,2:0|2:0,2:0:0:0:
60,91,263728,2,0,P|118:68|211:93,1,140,0|4,2:0|2:0,2:0:0:0:
380,237,264763,6,0,P|339:269|262:268,1,105,2|0,0:0|0:0,0:0:0:0:
206,227,265021,1,0,0:0:0:0:
384,348,265150,1,2,0:0:0:0:
309,188,265280,1,0,0:0:0:0:
283,366,265409,1,2,0:0:0:0:
244,143,265538,1,2,0:0:0:0:
195,326,265668,1,2,0:0:0:0:
161,110,265797,6,0,P|191:72|290:69,1,140,8|2,0:0|0:0,0:0:0:0:
358,121,266185,1,0,0:0:0:0:
195,326,266314,1,2,0:0:0:0:
109,268,266444,2,0,B|103:203|103:203|167:99,1,175,2|0,0:0|0:0,0:0:0:0:
210,178,266831,6,0,P|167:194|70:132,2,140,2|2|2,0:0|0:0|0:0,0:0:0:0:
357,17,267607,1,2,0:0:0:0:
374,154,267737,1,2,0:0:0:0:
289,60,267866,5,8,0:0:0:0:
316,268,267995,1,8,0:0:0:0:
419,68,268125,1,2,0:0:0:0:
160,269,268254,2,0,B|181:298|181:298|268:316,1,105
322,262,268513,1,2,0:0:0:0:
162,135,268642,1,2,0:0:0:0:
109,362,268771,1,2,0:0:0:0:
265,144,268900,5,2,0:0:0:0:
231,220,269030,1,0,0:0:0:0:
231,220,269159,1,0,0:0:0:0:
355,44,269288,1,2,0:0:0:0:
389,120,269418,1,0,0:0:0:0:
389,120,269547,1,0,0:0:0:0:
238,47,269676,1,0,0:0:0:0:
333,225,269806,1,2,0:0:0:0:
452,50,269935,6,0,B|473:21|473:21|483:136,1,140,8|2,0:0|0:0,0:0:0:0:
125,303,270452,1,0,0:0:0:0:
211,354,270581,2,0,P|272:350|334:281,1,140,2|0,0:0|0:0,0:0:0:0:
213,143,270969,6,0,L|177:159,2,35,2|2|2,0:0|0:0|0:0,0:0:0:0:
286,73,271228,1,2,0:0:0:0:
162,232,271357,2,0,P|126:216|111:131,1,105,2|0,0:0|0:0,0:0:0:0:
219,149,271616,1,0,0:0:0:0:
11,132,271745,1,0,0:0:0:0:
256,236,271875,1,2,0:0:0:0:
77,70,272004,6,0,P|116:43|186:64,1,105,8|0,0:0|0:0,0:0:0:0:
435,70,272263,2,0,P|396:43|326:64,1,105,2|0,0:0|0:0,0:0:0:0:
256,236,272521,1,8,0:0:0:0:
241,54,272650,1,2,0:0:0:0:
260,247,272780,1,8,0:0:0:0:
289,1,272909,1,2,0:0:0:0:
340,273,273038,6,0,B|315:314|315:314|213:347,1,140,2|0,0:0|0:0,0:0:0:0:
109,158,273426,2,0,P|152:153|227:202,1,105,2|0,0:0|0:0,0:0:0:0:
256,236,273685,1,2,0:0:0:0:
268,57,273814,1,2,0:0:0:0:
141,252,273944,1,2,0:0:0:0:
322,193,274073,6,0,B|361:181|361:181|466:180,2,140,8|2|0,0:0|0:0|0:0,0:0:0:0:
217,373,274719,1,2,0:0:0:0:
217,373,274849,2,0,P|235:326|234:286,1,70
196,115,275107,5,0,0:0:0:0:
196,115,275366,2,0,P|246:98|342:109,1,140
392,195,275754,1,2,0:0:0:0:
359,26,275883,1,2,0:0:0:0:
324,248,276013,1,2,0:0:0:0:
459,114,276142,5,8,0:0:0:0:
267,183,276271,1,8,0:0:0:0:
464,127,276400,1,2,0:0:0:0:
185,190,276530,2,0,L|166:273,1,70,2|0,0:0|0:0,0:0:0:0:
455,204,276788,5,2,0:0:0:0:
179,181,276918,1,2,0:0:0:0:
499,273,277047,1,2,0:0:0:0:
297,132,277176,6,0,P|286:88|290:51,1,70,2|0,0:0|0:0,0:0:0:0:
491,11,277435,1,0,0:0:0:0:
378,259,277564,2,0,P|338:282|310:285,1,70,2|0,0:0|0:0,0:0:0:0:
177,105,277823,1,0,0:0:0:0:
388,268,277952,2,0,L|396:343,1,70,0|2,0:0|0:0,0:0:0:0:
150,246,278211,6,0,P|176:202|238:186,1,105,8|0,0:0|0:0,0:0:0:0:
316,204,278469,2,0,L|323:134,1,70,2|0,0:0|0:0,0:0:0:0:
47,139,278728,2,0,L|54:208,1,70,0|2,0:0|0:0,0:0:0:0:
322,213,278987,2,0,L|329:143,1,70,0|2,0:0|0:0,0:0:0:0:
145,255,279245,6,0,L|148:289,2,35,2|2|2,0:0|0:0|0:0,0:0:0:0:
202,162,279504,1,2,0:0:0:0:
73,325,279633,1,2,0:0:0:0:
253,288,279763,1,0,0:0:0:0:
253,288,279892,1,0,0:0:0:0:
203,358,280021,1,0,0:0:0:0:
273,195,280150,1,2,0:0:0:0:
376,334,280280,5,8,0:0:0:0:
114,26,280538,1,2,0:0:0:0:
305,107,280797,5,8,0:0:0:0:
181,252,280926,1,2,0:0:0:0:
391,189,281056,1,8,0:0:0:0:
106,171,281185,1,8,0:0:0:0:
321,283,281314,5,2,0:0:0:0:
316,299,281379,1,2,0:0:0:0:
311,315,281444,1,2,0:0:0:0:
473,203,281573,2,0,L|465:115,2,70,0|0|0,2:0|2:0|2:0,2:0:0:0:
191,283,281961,5,2,0:0:0:0:
196,299,282026,1,2,0:0:0:0:
201,315,282091,1,2,0:0:0:0:
39,203,282220,2,0,L|47:115,2,70,0|0|0,2:0|2:0|2:0,2:0:0:0:
325,50,282607,5,8,0:0:0:0:
291,39,282671,1,2,0:0:0:0:
256,36,282736,1,2,0:0:0:0:
222,39,282800,1,2,0:0:0:0:
188,49,282865,1,2,0:0:0:0:
256,248,282995,2,0,L|256:165,1,70,0|0,2:0|2:0,2:0:0:0:
255,9,283254,1,2,0:0:0:0:
361,330,283383,5,2,0:0:0:0:
356,347,283448,1,2,0:0:0:0:
352,363,283512,1,2,0:0:0:0:
221,116,283642,2,0,P|253:107|294:117,2,70,0|0|0,2:0|2:0|2:0,2:0:0:0:
255,357,284030,1,0,2:0:0:0:
355,126,284676,5,2,0:0:0:0:
355,126,284741,1,2,0:0:0:0:
355,126,284806,1,2,0:0:0:0:
120,200,284935,5,0,2:0:0:0:
377,212,285064,1,0,2:0:0:0:
123,125,285194,1,0,2:0:0:0:
262,294,285323,5,2,0:0:0:0:
262,294,285388,1,2,0:0:0:0:
262,294,285452,1,2,0:0:0:0:
205,91,285582,5,0,2:0:0:0:
175,319,285711,1,8,2:1:0:0:
377,212,285840,1,0,2:0:0:0:
347,291,285970,5,8,0:0:0:0:
360,301,286034,1,2,0:0:0:0:
373,311,286099,1,2,0:0:0:0:
387,321,286164,1,2,0:0:0:0:
400,331,286228,1,2,0:0:0:0:
194,232,286358,5,0,2:0:0:0:
470,172,286487,1,0,2:0:0:0:
417,237,286616,5,2,0:0:0:0:
388,158,286745,1,2,0:0:0:0:
388,158,286810,1,2,0:0:0:0:
388,158,286875,1,2,0:0:0:0:
497,291,287004,1,2,0:0:0:0:
497,291,287069,1,2,0:0:0:0:
497,291,287133,1,2,0:0:0:0:
298,351,287263,5,0,2:0:0:0:
385,72,287392,1,0,2:0:0:0:
204,290,287521,1,0,2:0:0:0:
257,230,287651,5,2,0:0:0:0:
257,230,287715,1,2,0:0:0:0:
257,230,287780,1,2,0:0:0:0:
305,87,287909,5,0,2:0:0:0:
202,367,288039,1,8,2:1:0:0:
151,161,288168,1,0,2:0:0:0:
90,225,288297,5,2,0:0:0:0:
118,245,288361,1,2,0:0:0:0:
152,252,288426,1,2,0:0:0:0:
186,244,288490,1,2,0:0:0:0:
213,224,288555,1,2,0:0:0:0:
48,94,288685,5,8,2:1:0:0:
305,87,288814,1,0,2:0:0:0:
341,153,288944,5,2,0:0:0:0:
339,12,289073,1,2,0:0:0:0:
339,12,289138,1,2,0:0:0:0:
339,12,289202,1,2,0:0:0:0:
369,265,289332,5,2,2:1:0:0:
254,20,289461,1,4,2:0:0:0:
294,297,289590,1,0,2:0:0:0:
303,219,289720,5,2,0:0:0:0:
222,322,289849,2,0,P|189:337|147:334,1,70,2|0,0:0|0:0,0:0:0:0:
280,142,290108,2,0,L|269:105,2,35,2|2|2,0:0|0:0|0:0,0:0:0:0:
303,219,290366,5,0,2:0:0:0:
90,225,290495,1,0,2:0:0:0:
359,345,290625,1,0,2:0:0:0:
222,322,290754,5,2,0:0:0:0:
222,322,290819,1,2,0:0:0:0:
222,322,290883,1,2,0:0:0:0:
446,262,291013,5,0,2:0:0:0:
280,142,291142,1,8,2:1:0:0:
294,369,291271,1,0,2:0:0:0:
353,110,291401,5,10,0:0:0:0:
332,81,291465,1,2,0:0:0:0:
302,64,291530,1,2,0:0:0:0:
268,60,291594,1,2,0:0:0:0:
235,71,291659,1,2,0:0:0:0:
80,284,291789,5,0,2:0:0:0:
302,277,291918,1,0,2:0:0:0:
280,142,292047,5,8,3:0:0:0:
217,242,292177,2,0,L|224:322,1,70,2|0,0:0|0:0,0:0:0:0:
302,277,292564,2,0,L|295:357,1,70,2|0,0:0|0:0,0:0:0:0:
385,323,292952,6,0,P|431:319|450:306,2,46.6666666666667,2|2|2,0:0|0:0|0:0,0:0:0:0:
278,142,293211,2,0,B|321:157|321:157|380:237,1,140,8|2,0:0|0:0,0:0:0:0:
474,380,293599,1,2,0:0:0:0:
473,210,293728,2,0,P|487:181|509:209,1,70,2|0,0:0|0:0,0:0:0:0:
380,329,293987,2,0,B|345:335|345:335|290:325,1,70,2|0,0:0|0:0,0:0:0:0:
168,221,294245,5,2,0:0:0:0:
175,195,294309,1,2,0:0:0:0:
188,173,294374,1,2,0:0:0:0:
206,153,294438,1,2,0:0:0:0:
227,139,294503,1,2,0:0:0:0:
252,129,294568,1,2,0:0:0:0:
278,125,294632,1,2,0:0:0:0:
304,128,294697,1,2,0:0:0:0:
327,140,294762,6,0,L|321:181,3,26.2500010013581,2|2|2|2,0:0|0:0|0:0|0:0,0:0:0:0:
385,205,295020,2,0,L|391:246,3,26.2500010013581,2|2|2|2,0:0|0:0|0:0|0:0,0:0:0:0:
329,315,295279,1,10,0:0:0:0:
307,330,295344,1,2,0:0:0:0:
281,337,295408,1,2,0:0:0:0:
254,334,295473,1,2,0:0:0:0:
156,243,295602,1,2,0:0:0:0:
156,243,295667,1,2,0:0:0:0:
156,243,295732,1,2,0:0:0:0:
156,243,295796,5,2,0:0:0:0:
130,240,295860,1,2,0:0:0:0:
106,229,295925,1,2,0:0:0:0:
86,212,295989,1,2,0:0:0:0:
70,190,296055,2,0,L|77:145,3,26.2500010013581,2|2|2|2,0:0|0:0|0:0|0:0,0:0:0:0:
160,327,296313,5,2,0:0:0:0:
185,323,296377,1,2,0:0:0:0:
208,310,296442,1,2,0:0:0:0:
227,292,296506,1,2,0:0:0:0:
237,268,296571,1,2,0:0:0:0:
240,242,296636,1,2,0:0:0:0:
234,216,296701,2,0,L|241:166,5,26.2500010013581,2|2|2|2|2|2,0:0|0:0|0:0|0:0|0:0|0:0,0:0:0:0:
374,142,297089,1,2,0:0:0:0:
389,163,297153,1,2,0:0:0:0:
400,187,297218,1,2,0:0:0:0:
404,212,297282,1,2,0:0:0:0:
403,238,297348,6,0,L|414:284,3,26.2500010013581,10|2|2|2,0:0|0:0|0:0|0:0,0:0:0:0:
347,331,297607,2,0,L|336:376,3,26.2500010013581,6|2|2|2,0:0|0:0|0:0|0:0,0:0:0:0:
256,355,297865,1,2,0:0:0:0:
230,348,297929,1,2,0:0:0:0:
204,342,297994,1,2,0:0:0:0:
179,336,298058,1,2,0:0:0:0:
163,315,298124,1,2,0:0:0:0:
137,321,298188,1,2,0:0:0:0:
111,327,298253,1,2,0:0:0:0:
86,333,298317,1,2,0:0:0:0:
61,342,298382,6,0,L|51:303,1,26.2500010013581,2|2,0:0|0:0,0:0:0:0:
84,233,298512,2,0,L|94:194,1,26.2500010013581,2|2,0:0|0:0,0:0:0:0:
28,144,298641,2,0,L|18:105,1,26.2500010013581,2|2,0:0|0:0,0:0:0:0:
53,35,298771,2,0,L|63:-4,1,26.2500010013581,2|2,0:0|0:0,0:0:0:0:
144,145,298900,2,0,L|134:106,1,26.2500010013581,2|2,0:0|0:0,0:0:0:0:
169,36,299030,2,0,L|179:-3,1,26.2500010013581,2|2,0:0|0:0,0:0:0:0:
248,155,299158,2,0,L|238:116,1,26.2500010013581,2|2,0:0|0:0,0:0:0:0:
273,46,299288,2,0,L|283:7,1,26.2500010013581,2|2,0:0|0:0,0:0:0:0:
413,112,299417,5,10,0:0:0:0:
433,127,299481,1,2,0:0:0:0:
443,151,299546,1,2,0:0:0:0:
440,176,299610,1,2,0:0:0:0:
424,197,299675,1,2,0:0:0:0:
399,206,299740,1,2,0:0:0:0:
374,201,299804,1,2,0:0:0:0:
355,184,299869,1,2,0:0:0:0:
354,157,299934,1,2,0:0:0:0:
350,182,299998,1,2,0:0:0:0:
341,207,300063,1,2,0:0:0:0:
326,228,300127,1,2,0:0:0:0:
306,245,300192,1,2,0:0:0:0:
282,257,300257,1,2,0:0:0:0:
257,262,300321,1,2,0:0:0:0:
231,261,300386,1,2,0:0:0:0:
207,249,300451,6,0,B|202:46|202:46|73:209|73:209|93:326|211:359|211:359|311:303,1,735.000028038026,2|0,0:0|0:0,0:0:0:0:
389,122,302520,2,0,P|372:153|372:188,1,52.5000020027161,2|0,0:0|0:0,0:0:0:0:
457,183,302779,2,0,P|474:214|474:249,1,52.5000020027161
398,238,303038,2,0,P|381:269|383:306,1,52.5000020027161,2|0,0:0|0:0,0:0:0:0:
461,351,303296,6,0,L|518:337,2,46.6666666666667,2|2|2,0:0|0:0|0:0,0:0:0:0:
329,342,303555,6,0,P|289:310|317:310,1,122.5,8|0,0:0|0:0,0:0:0:0:
374,237,304755,6,0,L|365:172,1,64.1666666666667,14|0,0:0|0:0,0:0:0:0:
355,103,306555,2,0,L|335:99,1,17.5,2|0,0:0|0:0,0:0:0:0:
123,288,307155,5,14,0:0:0:0:
123,288,309555,5,4,0:0:0:0:
161,187,309705,1,2,0:0:0:0:
188,363,309855,1,2,0:0:0:0:
80,208,310005,1,2,0:0:0:0:
477,304,310455,1,2,0:0:0:0:
455,223,310755,5,4,0:0:0:0:
455,223,311955,5,10,0:0:0:0:
233,65,313155,6,0,P|226:85|228:107,1,40.8333333333333,2|0,0:0|0:0,0:0:0:0:
292,185,314355,6,0,L|407:175,1,105.000004005432,6|0,0:0|0:0,0:0:0:0:
436,91,314805,6,0,P|489:200|412:269,1,233.333333333333,2|0,0:0|0:0,0:0:0:0:
445,78,315255,6,0,P|486:106|502:146,1,78.7500030040742,2|0,0:0|0:0,0:0:0:0:
419,269,315555,2,0,L|426:229,1,26.2500010013581
355,348,315705,2,0,L|348:308,1,26.2500010013581
323,228,315855,2,0,P|270:217|205:246,1,105.000004005432,2|0,0:0|0:0,0:0:0:0:
181,316,316305,5,2,0:0:0:0:
193,112,316455,1,8,0:0:0:0:
278,304,316605,1,8,0:0:0:0:
118,199,316755,6,0,L|3:214,1,105.000004005432,10|0,0:0|0:0,0:0:0:0:
160,282,317355,6,0,P|192:254|200:234,1,52.5,0|0,2:0|2:0,2:0:0:0:
222,108,317955,2,0,L|229:157,1,35,0|0,2:0|2:0,2:0:0:0:
314,274,318555,2,0,L|307:225,1,35,0|0,2:0|2:0,2:0:0:0:
332,113,319155,5,0,0:0:0:0:
386,206,319305,1,0,0:0:0:0:
369,33,319455,1,0,0:0:0:0:
309,239,319605,5,2,0:0:0:0:
418,117,319755,2,0,P|476:117|509:133,1,52.5000020027161,8|0,0:0|0:0,0:0:0:0:
335,318,320055,2,0,P|277:318|244:302,1,52.5000020027161,2|0,0:0|0:0,0:0:0:0:
98,185,320355,5,8,0:0:0:0:
122,270,320505,1,2,0:0:0:0:
260,33,320805,5,2,0:0:0:0:
223,191,320955,1,2,0:0:0:0:
223,191,321555,5,4,0:0:0:0:
179,263,322455,5,2,0:0:0:0:
179,120,322555,1,2,0:0:0:0:
301,190,322655,1,2,0:0:0:0:
70,199,322755,1,8,0:0:0:0:
333,263,323055,5,4,3:0:0:0:
333,120,323155,1,4,3:0:0:0:
211,190,323255,1,4,3:0:0:0:
442,199,323355,2,0,P|453:238|450:276,1,52.5000020027161,10|0,0:3|0:0,0:0:0:0:
256,342,323955,5,6,0:0:0:0:
256,42,328092,5,6,0:0:0:0:
256,42,329256,6,0,P|228:64|197:74,1,52.5,0|0,2:0|2:0,2:0:0:0:
96,88,329644,2,0,L|88:58,4,17.5,0|0|0|0|0,2:0|2:0|2:0|2:0|2:0,2:0:0:0:
243,306,331325,6,0,P|239:274|244:243,1,52.5,0|0,2:0|2:0,2:0:0:0:
312,204,331713,2,0,P|312:184|310:173,3,17.5,0|0|0|0,2:0|2:0|2:0|2:0,2:0:0:0:
256,42,332230,6,0,B|200:52|200:52|140:104,1,105,2|0,0:0|0:0,0:0:0:0:
127,170,332489,1,0,0:0:0:0:
85,31,332618,1,2,0:0:0:0:
84,281,332748,1,0,0:0:0:0:
246,140,332877,1,2,0:0:0:0:
18,93,333006,1,2,0:0:0:0:
42,184,333136,1,2,0:0:0:0:
322,88,333265,6,0,P|338:127|297:218,1,140,8|2,0:0|0:0,0:0:0:0:
171,295,333653,1,0,0:0:0:0:
280,306,333782,1,0,0:0:0:0:
138,206,333911,2,0,P|192:204|234:217,1,70,2|0,0:0|0:0,0:0:0:0:
472,321,334170,1,0,0:0:0:0:
382,83,334299,5,2,0:0:0:0:
382,83,334429,2,0,P|330:85|292:113,1,70,2|0,0:0|0:0,0:0:0:0:
366,170,334687,1,2,0:0:0:0:
199,26,334817,2,0,L|208:107,1,70,2|0,0:0|0:0,0:0:0:0:
171,295,335075,1,0,0:0:0:0:
88,246,335205,1,0,0:0:0:0:
339,309,335334,5,8,0:0:0:0:
87,338,335463,1,8,0:0:0:0:
298,174,335592,1,8,0:0:0:0:
171,295,335722,5,2,0:0:0:0:
175,203,335851,1,0,0:0:0:0:
252,347,335980,5,2,0:0:0:0:
258,254,336110,1,2,0:0:0:0:
170,379,336239,1,2,0:0:0:0:
339,309,336368,5,2,0:0:0:0:
88,246,336498,1,8,0:0:0:0:
88,246,336627,1,8,0:0:0:0:
321,190,336756,5,2,0:0:0:0:
142,114,336886,1,0,0:0:0:0:
142,114,337015,1,0,0:0:0:0:
229,192,337144,1,0,0:0:0:0:
269,74,337273,1,2,0:0:0:0:
177,293,337403,6,0,P|137:304|60:238,1,140,8|2,0:0|0:0,0:0:0:0:
269,74,337920,1,0,0:0:0:0:
323,138,338049,2,0,L|294:290,1,140,2|0,0:0|0:0,0:0:0:0:
161,40,338437,2,0,P|187:34|208:40,2,35,2|2|2,0:0|0:0|0:0,0:0:0:0:
49,235,338696,1,2,0:0:0:0:
87,121,338825,1,2,0:0:0:0:
145,321,338955,5,0,0:0:0:0:
159,207,339084,1,0,0:0:0:0:
159,207,339213,1,0,0:0:0:0:
48,328,339342,1,2,0:0:0:0:
261,149,339472,6,0,L|405:176,1,140,8|2,0:0|0:0,0:0:0:0:
402,192,339989,2,0,L|333:179,1,70,8|2,0:0|0:0,0:0:0:0:
106,134,340248,1,8,0:0:0:0:
446,276,340377,1,8,0:0:0:0:
201,59,340506,6,0,B|251:68|251:68|305:105,1,105,2|0,0:0|0:0,0:0:0:0:
333,179,340765,1,0,0:0:0:0:
137,323,340894,2,0,P|145:279|198:215,1,105,2|0,0:0|0:0,0:0:0:0:
213,222,341153,1,2,0:0:0:0:
341,300,341282,1,2,0:0:0:0:
220,145,341411,1,2,0:0:0:0:
301,378,341541,6,0,P|343:388|426:320,1,140,8|2,0:0|0:0,0:0:0:0:
124,32,342058,2,0,L|116:130,1,70,0|2,0:0|0:0,0:0:0:0:
131,237,342317,1,2,0:0:0:0:
425,86,342575,2,0,P|360:83|286:136,1,140
274,248,342963,5,2,0:0:0:0:
230,72,343092,1,0,0:0:0:0:
195,302,343222,5,0,0:0:0:0:
199,162,343351,1,2,0:0:0:0:
199,162,343480,1,2,0:0:0:0:
367,183,343610,5,8,0:0:0:0:
126,248,343739,1,2,0:0:0:0:
368,273,343868,5,2,0:0:0:0:
65,178,343998,2,0,P|38:219|56:305,1,140,2|2,0:0|0:0,0:0:0:0:
274,248,344386,1,2,0:0:0:0:
126,248,344515,1,2,0:0:0:0:
357,186,344644,5,2,0:0:0:0:
206,188,344773,1,0,0:0:0:0:
206,188,344903,1,0,0:0:0:0:
435,135,345032,5,2,0:0:0:0:
285,88,345161,1,0,0:0:0:0:
285,88,345291,1,0,0:0:0:0:
285,88,345420,2,0,L|290:165,1,70,0|2,0:0|0:0,0:0:0:0:
312,321,345679,6,0,P|272:344|233:349,1,70,8|0,0:0|0:0,0:0:0:0:
62,234,345937,2,0,L|54:321,1,70,2|0,0:0|0:0,0:0:0:0:
126,121,346196,2,0,L|134:208,1,70,0|2,0:0|0:0,0:0:0:0:
66,10,346454,2,0,L|58:97,1,70,0|2,0:0|0:0,0:0:0:0:
140,285,346713,1,2,0:0:0:0:
52,156,346842,1,0,0:0:0:0:
206,238,346972,1,2,0:0:0:0:
62,234,347101,6,0,B|54:317|54:317|64:348|113:373,1,140,8|0,0:0|0:0,0:0:0:0:
327,275,347489,1,0,0:0:0:0:
140,285,347618,1,2,0:0:0:0:
288,351,347748,6,0,P|353:358|398:325,1,105,8|0,0:0|0:0,0:0:0:0:
383,210,348006,2,0,P|336:188|285:198,1,105,2|0,0:0|0:0,0:0:0:0:
224,278,348265,1,8,0:0:0:0:
460,262,348394,1,2,0:0:0:0:
204,363,348523,1,8,0:0:0:0:
383,210,348653,1,8,0:0:0:0:
346,352,348782,6,0,P|352:310|385:339,1,105,2|0,0:0|0:0,0:0:0:0:
460,262,349041,1,0,0:0:0:0:
460,262,349170,2,0,L|454:108,1,140,2|2,0:0|0:0,0:0:0:0:
465,359,349558,1,2,0:0:0:0:
365,86,349687,1,2,0:0:0:0:
351,181,349817,6,0,P|311:192|206:155,1,140,8|2,0:0|0:0,0:0:0:0:
212,176,350463,1,2,0:0:0:0:
212,176,351110,6,0,L|218:297,1,105,2|0,0:0|0:0,0:0:0:0:
113,384,351368,2,0,L|119:263,1,105,2|0,0:0|0:0,0:0:0:0:
128,182,351627,1,0,0:0:0:0:
198,364,351756,1,0,0:0:0:0:
51,238,351886,5,8,0:0:0:0:
292,230,352015,1,8,0:0:0:0:
42,250,352144,1,8,0:0:0:0:
330,308,352273,2,0,P|359:284|367:196,1,105,2|0,0:0|0:0,0:0:0:0:
331,106,352532,2,0,L|343:26,2,70,2|2|2,0:0|0:0|0:0,0:0:0:0:
188,191,352920,6,0,P|142:167|120:59,1,140,2|0,0:0|0:0,0:0:0:0:
266,157,353308,2,0,P|272:194|259:243,1,70,2|0,0:0|0:0,0:0:0:0:
205,315,353567,1,0,0:0:0:0:
352,267,353696,1,0,0:0:0:0:
133,258,353825,1,2,0:0:0:0:
293,325,353954,6,0,B|325:341|325:341|276:359,1,70,8|0,0:0|0:0,0:0:0:0:
209,91,354213,2,0,P|256:72|343:121,1,140,2|0,0:0|0:0,0:0:0:0:
288,332,354601,2,0,P|248:337|211:326,1,70,2|0,0:0|0:0,0:0:0:0:
133,258,354860,1,2,0:0:0:0:
261,191,354989,6,0,L|266:149,2,35,2|2|2,0:0|0:0|0:0,0:0:0:0:
129,268,355248,1,2,0:0:0:0:
333,106,355377,2,0,P|274:72|209:91,1,140,2|0,0:0|0:0,0:0:0:0:
125,279,355765,1,0,0:0:0:0:
144,149,355894,1,2,0:0:0:0:
73,359,356023,5,8,0:0:0:0:
209,90,356282,2,0,P|181:68|129:64,1,70,2|0,0:0|0:0,0:0:0:0:
196,236,356541,2,0,B|227:251|227:251|299:251,1,105,8|0,0:0|0:0,0:0:0:0:
401,251,356799,1,8,0:0:0:0:
83,204,356929,1,8,0:0:0:0:
439,159,357058,6,0,P|375:149|320:188,1,105
356,340,357317,1,0,0:0:0:0:
446,174,357446,2,0,B|459:125|459:125|452:54,1,105,2|0,0:0|0:0,0:0:0:0:
396,20,357704,1,2,0:0:0:0:
401,251,357834,1,2,0:0:0:0:
384,27,357963,1,2,0:0:0:0:
409,262,358092,5,8,0:0:0:0:
318,117,358222,1,8,0:0:0:0:
356,350,358351,2,0,B|320:352|320:352|361:332,1,70,2|0,0:0|0:0,0:0:0:0:
495,8,358739,1,2,0:0:0:0:
384,27,358868,1,0,0:0:0:0:
495,18,358998,1,0,0:0:0:0:
378,38,359127,6,0,P|331:36|291:45,1,70
103,162,359386,2,0,P|150:164|190:155,1,70,2|0,0:0|0:0,0:0:0:0:
303,50,359644,2,0,L|312:213,1,140,2|0,0:0|0:0,0:0:0:0:
232,306,360032,1,2,0:0:0:0:
310,189,360161,5,8,0:0:0:0:
168,37,360291,1,8,0:0:0:0:
108,235,360420,1,2,0:0:0:0:
383,276,360549,2,0,P|409:236|385:121,1,140,2|2,0:0|0:0,0:0:0:0:
293,37,360937,2,0,L|286:117,1,70,2|2,0:0|0:0,0:0:0:0:
167,343,361196,6,0,B|199:312|199:312|214:204,1,140,2|2,0:0|0:0,0:0:0:0:
345,343,361713,2,0,B|313:312|313:312|298:204,1,140,2|2,0:0|0:0,0:0:0:0:
189,56,362230,2,0,B|255:44|255:44|332:61,1,140,2|2,0:0|0:0,0:0:0:0:
255,335,362748,1,2,0:0:0:0:
255,335,363006,1,2,0:0:0:0:
109,158,363265,5,2,0:0:0:0:
403,158,363523,1,8,0:0:0:0:
30,106,363782,1,2,0:0:0:0:
477,217,364041,1,2,0:0:0:0:
35,217,364299,1,8,0:0:0:0:
482,106,364558,1,2,0:0:0:0:
114,262,364817,5,8,0:0:0:0:
408,262,364946,1,2,0:0:0:0:
35,314,365075,1,8,0:0:0:0:
482,203,365204,1,8,0:0:0:0:
245,293,365334,6,0,P|241:333|251:376,1,70,2|0,0:0|0:0,0:0:0:0:
416,115,365592,1,0,2:0:0:0:
327,165,365722,2,0,P|280:171|256:167,1,70,0|0,2:0|2:0,2:0:0:0:
175,115,365980,2,0,P|128:109|104:113,1,70,0|0,2:0|2:0,2:0:0:0:
104,337,366239,6,0,P|136:303|132:203,1,140,0|0,2:0|2:0,2:0:0:0:
35,75,366627,2,0,P|60:47|106:35,1,70,0|0,2:0|2:0,2:0:0:0:
286,41,366886,2,0,B|339:45|385:74|385:74|400:63|400:63|400:84|400:84|418:73|418:73|420:96|420:96|461:110,1,210,0|0,2:0|2:0,2:0:0:0:
430,270,367403,5,2,0:0:0:0:
408,297,367467,1,2,0:0:0:0:
379,316,367532,1,2,0:0:0:0:
345,323,367596,1,2,0:0:0:0:
310,318,367661,1,2,0:0:0:0:
279,302,367726,1,2,0:0:0:0:
256,277,367790,1,2,0:0:0:0:
234,304,367855,1,2,0:0:0:0:
205,323,367920,1,2,0:0:0:0:
171,330,367984,1,2,0:0:0:0:
136,325,368049,1,2,0:0:0:0:
106,309,368114,1,2,0:0:0:0:
82,284,368178,5,2,0:0:0:0:
105,236,368243,1,2,0:0:0:0:
134,192,368307,1,2,0:0:0:0:
175,160,368372,1,2,0:0:0:0:
224,142,368436,1,2,0:0:0:0:
276,139,368501,1,2,0:0:0:0:
326,153,368566,1,2,0:0:0:0:
370,182,368630,1,2,0:0:0:0:
403,222,368696,6,0,L|393:312,3,52.5000020027161,2|2|2|2,0:0|0:0|0:0|0:0,0:0:0:0:
256,293,368954,2,0,L|256:346,3,52.5000020027161,2|2|2|2,0:0|0:0|0:0|0:0,0:0:0:0:
108,222,369213,2,0,L|119:312,3,52.5000020027161,2|2|2|2,0:0|0:0|0:0|0:0,0:0:0:0:
179,350,369472,5,2,0:0:0:0:
195,133,369601,1,8,0:0:0:0:
101,363,369730,1,2,0:0:0:0:
131,66,369860,2,0,P|187:42|254:62,1,105.000004005432,8|2,0:0|0:0,0:0:0:0:
381,318,370118,2,0,P|325:342|258:322,1,105.000004005432,8|2,0:0|0:0,0:0:0:0:
191,219,370377,1,8,0:0:0:0:
427,244,370506,5,2,0:0:0:0:
157,291,370636,1,8,0:0:0:0:
366,161,370765,2,0,P|367:102|343:45,1,105.000004005432,2|8,0:0|0:0,0:0:0:0:
22,169,371023,2,0,L|82:169,1,52.5000020027161,2|0,0:0|0:0,0:0:0:0:
154,301,371153,2,0,L|154:241,1,52.5000020027161,8|0,0:0|0:0,0:0:0:0:
286,166,371282,2,0,L|226:166,1,52.5000020027161,2|0,0:0|0:0,0:0:0:0:
154,34,371412,2,0,L|154:94,1,52.5000020027161,8|2,0:0|0:0,0:0:0:0:
272,288,371541,6,0,P|336:310|390:304,1,105.000004005432,2|8,0:0|0:0,0:0:0:0:
486,112,371799,1,2,0:0:0:0:
465,94,371864,1,2,0:0:0:0:
441,81,371929,2,0,P|388:81|340:101,1,105.000004005432,8|2,0:0|0:0,0:0:0:0:
264,298,372187,1,8,0:0:0:0:
227,120,372317,1,2,0:0:0:0:
232,94,372381,1,2,0:0:0:0:
238,68,372446,1,8,0:0:0:0:
401,202,372575,5,2,0:0:0:0:
406,228,372639,1,2,0:0:0:0:
412,254,372704,2,0,P|374:266|348:266,1,52.5000020027161,2|2,0:0|0:0,0:0:0:0:
100,254,372834,2,0,P|138:266|164:266,1,52.5000020027161,2|2,0:0|0:0,0:0:0:0:
330,125,372963,1,4,3:0:0:0:
375,99,373027,1,4,3:0:0:0:
427,100,373092,1,4,3:0:0:0:
471,128,373156,1,4,3:0:0:0:
495,174,373221,1,4,3:0:0:0:
489,226,373286,1,4,3:0:0:0:
484,278,373350,1,8,3:0:0:0:
480,330,373415,1,8,3:0:0:0:
476,382,373480,2,8,L|393:371,1,52.5000020027161,8|8,3:0|3:0,3:0:0:0:
225,223,373610,5,2,0:0:0:0:
236,172,373674,1,2,0:0:0:0:
247,120,373739,1,8,0:0:0:0:
355,315,373868,1,2,0:0:0:0:
140,190,373998,1,8,0:0:0:0:
413,223,374127,1,2,0:0:0:0:
170,345,374256,1,8,0:0:0:0:
364,327,374386,1,2,0:0:0:0:
129,188,374516,1,8,0:0:0:0:
428,227,374644,6,0,L|350:235,1,52.5000020027161,2|0,0:0|0:0,0:0:0:0:
161,360,374773,2,0,L|238:368,1,52.5000020027161,8|0,0:0|0:0,0:0:0:0:
444,231,374903,2,0,L|366:239,1,52.5000020027161,2|0,0:0|0:0,0:0:0:0:
149,374,375032,2,0,B|221:382|221:382|353:340,1,210.000008010865,8|8,0:0|0:0,0:0:0:0:
380,37,375420,2,0,P|341:91|337:159,1,105.000004005432,2|8,0:0|0:0,0:0:0:0:
446,370,375679,6,0,L|436:309,1,52.5000020027161,2|0,3:0|3:0,3:0:0:0:
228,269,375808,2,0,L|288:259,1,52.5000020027161,2|0,3:0|3:0,3:0:0:0:
464,170,375937,2,0,L|403:179,1,52.5000020027161,2|0,3:0|3:0,3:0:0:0:
246,69,376067,2,0,L|256:130,1,52.5000020027161,2|0,3:0|3:0,3:0:0:0:
461,358,376196,6,0,L|444:299,1,57.7500005507469,2|0,3:0|3:0,3:0:0:0:
233,281,376325,2,0,L|293:264,1,57.7500005507469,2|0,3:0|3:0,3:0:0:0:
458,157,376454,2,0,L|398:174,1,57.7500005507469,2|0,3:0|3:0,3:0:0:0:
230,80,376584,2,0,L|247:139,1,57.7500005507469,2|0,3:0|3:0,3:0:0:0:
475,345,376713,6,0,L|448:278,1,62.9999980773926,2|0,3:0|3:0,3:0:0:0:
240,292,376842,2,0,L|307:266,1,62.9999980773926,2|0,3:0|3:0,3:0:0:0:
451,146,376971,2,0,L|389:170,1,62.9999980773926,2|0,3:0|3:0,3:0:0:0:
216,93,377101,2,0,L|243:160,1,62.9999980773926,2|0,3:0|3:0,3:0:0:0:
373,360,377230,6,0,L|377:282,3,62.9999980773926,2|0|2|0,3:0|3:0|3:0|3:0,3:0:0:0:
139,360,377489,2,0,L|135:282,3,62.9999980773926,2|0|2|0,3:0|3:0|3:0|3:0,3:0:0:0:
37,166,377748,5,2,0:0:0:0:
40,114,377812,1,2,0:0:0:0:
66,68,377877,1,10,0:0:0:0:
108,37,377941,1,2,0:0:0:0:
159,27,378006,2,0,B|186:23|186:23|226:28,1,52.5000020027161,2|2,0:0|0:0,0:0:0:0:
374,110,378136,2,0,B|402:117|402:117|426:110,3,52.5000020027161,10|2|2|2,0:0|0:0|0:0|0:0,0:0:0:0:
163,136,378394,2,0,B|157:164|157:164|163:195,1,52.5000020027161,8|0,0:0|0:0,0:0:0:0:
314,331,378523,2,0,B|320:303|320:303|314:272,3,52.5000020027161,2|2|10|2,0:0|0:0|0:0|0:0,0:0:0:0:
196,279,378782,6,0,B|192:303|192:303|198:331,5,52.5000020027161,2|2|10|2|2|2,0:0|0:0|0:0|0:0|0:0|0:0,0:0:0:0:
231,167,379170,2,0,B|256:160|256:160|288:169,5,52.5000020027161,10|2|2|2|10|2,0:0|0:0|0:0|0:0|0:0|0:0,0:0:0:0:
376,210,379558,1,2,0:0:0:0:
102,56,379623,6,0,P|55:108|112:288,1,262.500010013581,2|8,0:0|0:0,0:0:0:0:
261,327,380075,1,2,0:0:0:0:
278,307,380140,1,2,0:0:0:0:
295,287,380204,2,0,P|355:277|422:316,1,105.000004005432,8|2,0:0|0:0,0:0:0:0:
372,28,380463,2,0,B|360:83|360:83|374:175,1,105.000004005432,8|2,0:0|0:0,0:0:0:0:
461,230,380657,1,2,0:0:0:0:
478,249,380722,2,0,L|465:162,1,52.5000020027161,8|2,0:0|0:0,0:0:0:0:
276,79,380851,5,2,0:0:0:0:
228,100,380915,1,2,0:0:0:0:
194,139,380980,1,10,0:0:0:0:
179,189,381044,1,2,0:0:0:0:
187,241,381110,2,0,L|124:247,3,52.5000020027161,2|2|2|2,3:0|3:0|3:0|3:0,0:0:0:0:
336,342,381368,2,0,L|399:347,3,52.5000020027161,4|4|4|4,3:0|3:0|3:0|3:0,3:0:0:0:
186,331,381627,1,8,3:0:0:0:
167,336,381692,1,8,3:0:0:0:
149,341,381756,1,8,3:0:0:0:
130,346,381821,1,8,3:0:0:0:
113,353,381886,6,0,P|90:328|77:294,1,52.5000020027161,2|2,0:0|0:0,0:0:0:0:
88,110,382015,1,8,0:0:0:0:
249,223,382144,1,2,0:0:0:0:
274,227,382209,1,2,0:0:0:0:
299,231,382273,2,0,L|355:196,1,52.5000020027161,8|0,0:0|0:0,0:0:0:0:
77,101,382403,1,2,0:0:0:0:
431,160,382532,1,8,0:0:0:0:
67,92,382661,1,2,0:0:0:0:
350,106,382791,1,8,0:0:0:0:
176,166,382920,6,0,P|156:241|188:298,2,105.000004005432,2|8|2,0:0|0:0|0:0,0:0:0:0:
350,106,383308,1,8,0:0:0:0:
249,223,383437,1,2,0:0:0:0:
448,206,383567,1,8,0:0:0:0:
250,107,383696,1,2,0:0:0:0:
235,84,383761,1,2,0:0:0:0:
220,62,383825,1,8,0:0:0:0:
22,142,383954,5,10,0:0:0:0:
22,168,384019,1,2,0:0:0:0:
29,193,384084,2,0,L|77:225,1,52.5000020027161,2|2,0:0|0:0,0:0:0:0:
292,193,384213,2,0,L|249:223,1,52.5000020027161,2|2,0:0|0:0,0:0:0:0:
0,294,384342,2,0,L|48:326,1,52.5000020027161,10|2,0:0|0:0,0:0:0:0:
251,325,384472,1,2,0:0:0:0:
276,323,384536,1,2,0:0:0:0:
302,322,384601,2,0,L|345:292,1,52.5000020027161,2|2,0:0|0:0,0:0:0:0:
462,111,384730,1,10,0:0:0:0:
437,113,384794,1,10,0:0:0:0:
411,114,384859,2,0,L|367:143,1,52.5000020027161,10|2,0:0|0:0,0:0:0:0:
292,193,384989,6,0,L|249:223,1,52.5000020027161,2|2,0:0|0:0,0:0:0:0:
173,275,385118,2,0,L|129:304,1,52.5000020027161,2|2,0:0|0:0,0:0:0:0:
416,247,385248,2,0,L|459:217,1,52.5000020027161,2|2,0:0|0:0,0:0:0:0:
250,65,385377,2,0,B|191:45|191:45|33:79,1,210.000008010865,10|2,0:0|0:0,0:0:0:0:
249,223,385765,1,2,0:0:0:0:
239,172,385829,1,2,0:0:0:0:
200,138,385894,1,2,0:0:0:0:
148,137,385958,1,2,0:0:0:0:
107,168,386023,6,8,L|38:169,2,52.5000020027161
404,245,386282,2,8,L|473:244,2,52.5000020027161
108,245,386670,6,8,L|38:244,2,52.5000020027161
344,356,386929,2,8,L|344:302,1,52.5000020027161
168,303,387058,6,8,L|168:356,2,52.5000020027161
344,80,387317,2,8,L|344:28,2,52.5000020027161
475,144,387575,5,0,2:0:0:0:
37,144,387834,1,0,2:0:0:0:
256,243,388092,5,0,0:0:0:0:
256,88,388222,2,8,L|256:32,2,52.5000020027161
195,316,388480,2,0,P|254:341|333:212,2,210.000008010865,8|8|8,0:0|0:0|0:0,0:0:0:0:
107,105,389127,2,8,L|102:42,2,52.5000020027161
405,105,389386,2,8,L|410:42,2,52.5000020027161
84,318,389644,2,0,B|69:288|69:288|69:216,1,105.000004005432,2|0,2:0|2:0,2:0:0:0:
443,216,389903,2,0,B|443:281|443:281|427:318,1,105.000004005432,2|0,2:0|2:0,2:0:0:0:
186,145,390161,5,2,0:0:0:0:
186,145,390226,1,2,0:0:0:0:
186,145,390291,1,2,0:0:0:0:
326,239,390420,1,2,0:0:0:0:
326,239,390485,1,2,0:0:0:0:
326,239,390550,1,2,0:0:0:0:
256,45,390679,1,0,2:0:0:0:
204,277,390808,1,2,0:0:0:0:
220,297,390873,1,2,0:0:0:0:
236,317,390937,1,2,0:0:0:0:
344,117,391067,1,2,0:0:0:0:
133,229,391196,5,10,0:0:0:0:
133,229,391261,1,2,0:0:0:0:
133,229,391325,1,2,0:0:0:0:
447,149,391454,1,2,0:0:0:0:
447,149,391519,1,2,0:0:0:0:
447,149,391583,1,2,0:0:0:0:
172,113,391713,1,2,0:0:0:0:
146,118,391778,1,2,0:0:0:0:
120,123,391842,1,2,0:0:0:0:
391,264,391972,1,2,0:0:0:0:
417,259,392037,1,2,0:0:0:0:
443,254,392101,1,2,0:0:0:0:
254,194,392230,5,0,2:0:0:0:
207,268,392360,1,2,0:0:0:0:
227,279,392424,1,2,0:0:0:0:
254,283,392489,1,2,0:0:0:0:
279,277,392554,1,2,0:0:0:0:
303,268,392618,6,0,P|356:281|293:308,1,157.500006008148,2|0,0:0|0:0,0:0:0:0:
369,191,392877,2,0,P|418:233|392:393,1,210.000008010865,0|2,0:0|0:0,0:0:0:0:
130,280,393265,5,10,0:0:0:0:
120,255,393329,1,2,0:0:0:0:
110,230,393394,1,2,0:0:0:0:
269,106,393523,1,2,0:0:0:0:
259,131,393588,1,2,0:0:0:0:
249,156,393652,1,2,0:0:0:0:
78,120,393782,6,0,B|51:85|51:85|50:21,1,105.000004005432,2|0,2:0|2:0,2:0:0:0:
433,120,394041,2,0,B|460:84|460:84|461:20,1,105.000004005432,2|0,2:0|2:0,2:0:0:0:
201,261,394299,5,2,0:0:0:0:
201,261,394364,1,2,0:0:0:0:
201,261,394429,1,2,0:0:0:0:
304,27,394558,1,2,0:0:0:0:
304,27,394623,1,2,0:0:0:0:
304,27,394688,1,2,0:0:0:0:
311,261,394817,1,0,2:0:0:0:
200,105,394946,1,2,0:0:0:0:
173,100,395011,1,2,0:0:0:0:
147,96,395075,1,2,0:0:0:0:
201,261,395204,1,2,0:0:0:0:
312,105,395333,5,10,0:0:0:0:
339,100,395398,1,2,0:0:0:0:
365,96,395462,1,2,0:0:0:0:
505,260,395592,1,2,0:0:0:0:
478,265,395657,1,2,0:0:0:0:
452,269,395721,1,2,0:0:0:0:
426,30,395851,1,2,0:0:0:0:
426,30,395916,1,2,0:0:0:0:
426,30,395980,1,2,0:0:0:0:
383,318,396110,1,2,0:0:0:0:
383,318,396174,1,2,0:0:0:0:
383,318,396239,1,2,0:0:0:0:
258,190,396368,5,2,2:0:0:0:
305,116,396498,1,2,0:0:0:0:
285,105,396562,1,2,0:0:0:0:
258,101,396627,1,2,0:0:0:0:
233,107,396692,1,2,0:0:0:0:
209,116,396756,6,0,P|156:103|219:76,1,157.500006008148,2|0,0:0|0:0,0:0:0:0:
143,193,397015,2,0,P|94:151|120:-9,1,210.000008010865,2|2,0:0|0:0,0:0:0:0:
256,273,397403,5,10,0:0:0:0:
244,296,397467,1,2,0:0:0:0:
233,320,397532,1,2,0:0:0:0:
211,65,397661,1,2,0:0:0:0:
223,42,397725,1,2,0:0:0:0:
234,18,397790,1,2,0:0:0:0:
412,182,397920,2,8,L|460:224,2,52.5000020027161
100,182,398179,2,8,L|52:224,2,52.5000020027161
256,147,398437,5,2,0:0:0:0:
256,147,398502,1,2,0:0:0:0:
256,147,398567,1,2,0:0:0:0:
188,219,398696,2,0,P|254:248|303:233,1,105.000004005432,2|0,0:0|0:0,0:0:0:0:
319,75,398954,2,0,P|253:46|204:61,1,105.000004005432,2|2,0:0|0:0,0:0:0:0:
202,67,399148,1,2,0:0:0:0:
181,83,399213,1,2,0:0:0:0:
290,252,399342,1,2,0:0:0:0:
112,136,399472,5,2,0:0:0:0:
110,161,399536,1,2,0:0:0:0:
108,187,399601,1,2,0:0:0:0:
404,187,399730,1,2,0:0:0:0:
402,161,399795,1,2,0:0:0:0:
400,136,399859,1,2,0:0:0:0:
230,154,399989,2,0,L|283:154,2,52.5000020027161,2|2|2,0:0|0:0|0:0,0:0:0:0:
256,342,400248,1,2,0:0:0:0:
256,316,400312,1,2,0:0:0:0:
256,289,400377,1,2,0:0:0:0:
204,57,400506,6,0,P|254:39|319:82,1,105.000004005432,0|2,0:0|0:0,0:0:0:0:
318,75,400700,1,2,0:0:0:0:
336,93,400765,1,2,0:0:0:0:
354,111,400829,1,2,0:0:0:0:
371,131,400894,2,0,B|385:183|385:183|376:293,1,157.500006008148,2|0,0:0|0:0,0:0:0:0:
306,241,401153,2,0,P|354:208|460:268,1,157.500006008148,2|0,0:0|0:0,0:0:0:0:
399,362,401411,2,0,B|371:368|371:368|315:346,1,52.5000020027161,2|0,0:0|0:0,0:0:0:0:
205,287,401541,6,0,L|203:230,2,52.5000020027161,2|2|2,0:0|0:0|0:0,0:0:0:0:
205,97,401799,2,0,L|203:154,2,52.5000020027161,2|2|2,0:0|0:0|0:0,0:0:0:0:
114,264,402058,2,0,B|89:235|89:235|88:154,1,105.000004005432,2|0,2:0|2:0,2:0:0:0:
398,264,402317,2,0,B|423:235|423:235|424:154,1,105.000004005432,2|0,2:0|2:0,2:0:0:0:
307,287,402575,6,0,L|309:230,2,52.5000020027161,2|2|2,0:0|0:0|0:0,0:0:0:0:
307,97,402833,2,0,L|309:154,2,52.5000020027161,2|2|2,0:0|0:0|0:0,0:0:0:0:
88,168,403092,2,0,B|89:235|89:235|114:264,1,105.000004005432,0|8,0:0|0:0,0:0:0:0:
132,282,403286,1,2,0:0:0:0:
151,300,403351,1,2,0:0:0:0:
223,88,403480,1,2,0:0:0:0:
237,274,403610,5,2,0:0:0:0:
256,292,403675,1,2,0:0:0:0:
275,309,403739,1,2,0:0:0:0:
374,147,403868,1,2,0:0:0:0:
355,165,403933,1,2,0:0:0:0:
336,182,403997,1,2,0:0:0:0:
144,98,404127,2,0,P|143:69|160:37,2,52.5000020027161,10|2|2,0:0|0:0|0:0,0:0:0:0:
359,300,404386,2,0,P|360:329|343:361,2,52.5000020027161,10|2|2,0:0|0:0|0:0,0:0:0:0:
186,336,404644,6,0,B|158:316|158:316|144:230,1,105.000004005432,0|2,0:0|0:0,0:0:0:0:
161,224,404838,1,2,0:0:0:0:
179,205,404903,1,2,0:0:0:0:
197,186,404967,1,2,0:0:0:0:
216,167,405032,2,0,B|246:106|246:106|257:207|281:231,1,157.500006008148,2|0,0:0|0:0,0:0:0:0:
292,46,405291,2,0,P|231:32|167:94,1,157.500006008148,2|0,0:0|0:0,0:0:0:0:
236,269,405549,2,0,P|258:274|294:269,1,52.5000020027161,2|0,0:0|0:0,0:0:0:0:
421,166,405679,5,2,0:0:0:0:
426,140,405743,1,2,0:0:0:0:
431,114,405808,1,2,0:0:0:0:
81,114,405937,1,2,0:0:0:0:
86,140,406002,1,2,0:0:0:0:
91,166,406066,1,2,0:0:0:0:
326,346,406196,1,8,0:0:0:0:
326,346,406261,1,8,0:0:0:0:
326,346,406325,1,8,0:0:0:0:
186,346,406454,1,8,0:0:0:0:
186,346,406519,1,8,0:0:0:0:
186,346,406583,1,8,0:0:0:0:
262,193,406713,5,0,2:0:0:0:
262,193,408264,5,0,0:0:0:0:
262,193,409816,5,0,0:0:0:0:
193,128,410075,2,0,L|200:17,1,105.000004005432
162,204,410850,6,0,L|99:200,1,52.5000020027161,0|0,2:0|2:0,2:0:0:0:
350,204,412402,2,0,L|412:200,1,52.5000020027161,0|0,2:0|2:0,2:0:0:0:
255,312,412919,5,0,0:0:0:0:
255,298,413006,2,0,L|255:195,1,87.5000033378602
188,98,413954,6,0,P|210:89|335:106,1,140
256,353,416281,5,0,0:0:0:0:
256,278,416540,1,0,0:0:0:0:
255,202,416799,1,0,0:0:0:0:
84,136,417833,5,0,0:0:0:0:
428,136,418350,1,0,0:0:0:0:
254,45,418868,1,0,0:0:0:0:
254,45,419126,6,0,L|254:193,1,140
188,286,421195,6,0,P|210:294|335:278,2,140,0|0|4,0:0|0:0|0:0,0:0:0:0:
81,93,424816,6,0,P|121:77|194:94,1,105.000004005432,2|0,0:0|0:0,0:0:0:0:
270,149,425678,1,0,0:0:0:0:
292,161,425850,2,0,P|343:161|389:144,1,70.0000026702882,2|0,0:0|0:0,0:0:0:0:
432,87,426368,2,0,L|420:41,2,35.0000013351441,2|2|2,0:0|0:0|0:0,0:0:0:0:
81,93,427402,5,0,0:0:0:0:
431,291,428954,1,0,0:0:0:0:
131,266,429471,2,0,P|171:240|254:244,1,105.000004005432,2|2,0:0|0:0,0:0:0:0:
328,324,430333,2,0,L|333:300,1,17.500000667572,2|0,0:0|0:0,0:0:0:0:
334,212,430506,2,0,L|320:100,1,105.000004005432,0|0,3:0|0:0,0:0:0:0:
78,63,431368,1,0,3:0:0:0:
115,141,431540,6,0,P|157:145|216:112,1,105.000004005432,2|0,0:0|0:0,0:0:0:0:
71,58,432402,1,0,3:0:0:0:
22,141,432575,1,2,0:0:0:0:
211,117,432833,6,0,L|264:110,2,52.5000020027161
211,117,434385,1,0,0:0:0:0:
149,220,434644,2,0,L|157:270,2,35.0000013351441,0|0|0,3:0|0:0|0:0,0:0:0:0:
238,321,435161,2,0,L|230:371,2,35.0000013351441,2|0|0,0:0|0:0|0:0,0:0:0:0:
274,205,435678,6,0,P|305:197|367:204,1,78.7500030040742
442,258,436540,5,0,0:0:0:0:
460,157,436713,2,0,L|449:74,1,70.0000026702882
360,25,437230,6,0,B|323:37|323:37|271:38,1,78.7500030040742
168,27,437747,5,0,0:0:0:0:
158,219,438092,1,0,0:0:0:0:
109,137,438264,2,0,L|118:99,2,35.0000013351441
80,269,438781,5,0,0:0:0:0:
465,185,439299,1,0,0:0:0:0:
138,28,439816,6,0,B|121:73|121:73|121:188,1,140,2|0,0:0|0:0,0:0:0:0:
126,313,440203,2,0,P|164:315|196:301,1,70,2|0,0:0|0:0,0:0:0:0:
218,90,440591,1,0,0:0:0:0:
402,285,440850,5,8,0:0:0:0:
308,237,440979,1,2,0:0:0:0:
373,362,441109,2,0,P|418:370|476:312,1,105,2|0,0:0|0:0,0:0:0:0:
469,237,441367,2,0,L|446:98,1,140,2|0,0:0|0:0,0:0:0:0:
219,32,441755,1,2,0:0:0:0:
219,32,442531,5,0,0:0:0:0:
202,116,442660,1,0,0:0:0:0:
310,49,442790,5,2,0:0:0:0:
117,75,442919,1,8,0:0:0:0:
293,142,443048,2,0,L|310:298,1,140,2|0,0:0|0:0,0:0:0:0:
62,242,443436,5,2,0:0:0:0:
98,213,443522,1,2,0:0:0:0:
143,203,443608,1,2,0:0:0:0:
188,213,443695,2,0,L|202:294,1,70,2|0,0:0|0:0,0:0:0:0:
31,165,443953,1,0,0:0:0:0:
283,118,444212,1,2,0:0:0:0:
283,118,444341,1,2,0:0:0:0:
0,84,444729,5,0,0:0:0:0:
159,35,444988,2,0,P|174:102|156:200,1,140,2|0,0:0|0:0,0:0:0:0:
106,283,445376,2,0,P|176:266|204:274,1,70,10|0,0:0|0:0,0:0:0:0:
98,291,445764,2,0,P|168:274|196:282,1,70,2|0,0:0|0:0,0:0:0:0:
319,328,446022,6,0,B|332:288|332:288|317:146,1,175,2|0,0:0|0:0,0:0:0:0:
252,196,446410,2,0,P|312:232|394:147,1,175,2|0,0:0|0:0,0:0:0:0:
309,16,446798,2,0,L|318:152,1,105,2|0,0:0|0:0,0:0:0:0:
318,155,447057,1,8,0:0:0:0:
402,277,447186,2,0,P|320:304|238:279,1,175,2|0,0:0|0:0,0:0:0:0:
176,190,447574,5,2,0:0:0:0:
183,144,447660,1,2,0:0:0:0:
190,97,447747,1,2,0:0:0:0:
198,51,447833,2,0,P|136:43|109:50,1,70,2|2,0:0|0:0,0:0:0:0:
35,338,448091,6,0,P|134:350|178:339,1,140,2|0,0:0|0:0,0:0:0:0:
237,278,448479,1,2,0:0:0:0:
309,347,448609,2,0,P|352:353|381:340,1,70,2|0,0:0|0:0,0:0:0:0:
428,44,449384,5,0,2:0:0:0:
438,147,449643,1,0,2:0:0:0:
344,104,449902,6,0,P|267:94|198:139,1,140,2|8,0:0|0:0,0:0:0:0:
278,260,450290,2,0,P|290:220|289:185,1,70,2|0,0:0|0:0,0:0:0:0:
104,72,450678,1,2,0:0:0:0:
95,105,450742,1,2,0:0:0:0:
86,139,450807,2,0,L|93:233,1,70,2|0,0:0|0:0,0:0:0:0:
377,280,451324,5,2,3:0:0:0:
280,289,451453,1,2,3:0:0:0:
410,193,451583,1,2,3:0:0:0:
334,370,451712,1,8,3:0:0:0:
322,206,451841,1,4,3:0:0:0:
417,365,451971,1,4,3:0:0:0:
241,372,452100,1,4,3:0:0:0:
410,193,452229,6,0,L|407:142,2,35,2|2|2,0:0|0:0|0:0,0:0:0:0:
102,193,452617,2,0,L|105:142,2,35,2|2|2,0:0|0:0|0:0,0:0:0:0:
256,142,452876,5,0,0:0:0:0:
207,244,453005,1,0,0:0:0:0:
305,244,453134,1,0,0:0:0:0:
291,64,453264,2,0,P|255:59|220:65,1,70,8|0,0:0|0:0,0:0:0:0:
255,352,453522,1,4,0:0:0:0:
97,127,453910,5,2,0:0:0:0:
84,57,454040,1,2,0:0:0:0:
31,103,454169,1,2,0:0:0:0:
152,80,454298,5,2,0:0:0:0:
180,100,454363,1,2,0:0:0:0:
211,115,454428,2,0,L|271:107,1,35,2|2,0:0|0:0,0:0:0:0:
415,84,454557,1,8,0:0:0:0:
188,207,454686,1,2,0:0:0:0:
216,227,454751,1,2,0:0:0:0:
247,242,454816,2,0,L|307:234,1,35,2|2,0:0|0:0,0:0:0:0:
451,211,454945,5,8,0:0:0:0:
328,314,455074,1,2,0:0:0:0:
316,347,455139,1,2,0:0:0:0:
305,380,455203,1,8,0:0:0:0:
109,253,455333,1,2,0:0:0:0:
121,286,455398,1,2,0:0:0:0:
132,319,455462,1,8,0:0:0:0:
256,147,455591,2,0,L|256:91,3,35,2|2|2|2,0:0|0:0|0:0|0:0,0:0:0:0:
238,80,455850,1,8,0:0:0:0:
207,63,455914,1,8,0:0:0:0:
173,58,455979,1,8,0:0:0:0:
139,65,456043,1,8,0:0:0:0:
109,84,456109,2,0,L|114:150,1,35,2|0,0:0|0:0,0:0:0:0:
400,118,456238,2,0,L|403:84,1,35,2|0,0:0|0:0,0:0:0:0:
140,264,456367,6,0,P|177:209|179:125,1,140,2|0,0:0|0:0,0:0:0:0:
63,299,456755,2,0,P|87:334|117:345,1,70,2|0,0:0|0:0,0:0:0:0:
111,344,457919,5,0,2:0:0:0:
101,73,458436,5,8,0:0:0:0:
178,150,458695,2,0,P|228:157|369:62,1,210,2|2,0:0|0:0,0:0:0:0:
243,226,459341,2,0,P|305:212|373:172,1,140,2|2,0:0|0:0,0:0:0:0:
370,173,459988,1,2,2:0:0:0:
331,199,460074,1,2,2:0:0:0:
288,217,460160,1,2,2:0:0:0:
243,226,460246,1,2,2:0:0:0:
123,37,460505,5,2,0:0:0:0:
119,83,460591,1,2,0:0:0:0:
115,130,460677,1,2,0:0:0:0:
111,176,460764,2,0,L|120:249,1,70,2|0,0:0|0:0,0:0:0:0:
111,176,462445,1,0,0:0:0:0:
115,210,462509,1,0,0:0:0:0:
119,245,462574,6,0,L|196:254,1,70
406,273,462833,2,0,P|416:228|385:112,1,140,2|0,0:0|0:0,0:0:0:0:
228,20,463221,2,0,P|218:65|249:181,1,140,2|0,0:0|0:0,0:0:0:0:
399,136,463609,2,0,L|402:49,2,70,8|0|0,0:0|0:0|0:0,0:0:0:0:
329,227,463997,1,8,0:0:0:0:
481,136,464126,1,2,0:0:0:0:
318,101,464255,1,8,0:0:0:0:
492,150,464384,1,8,3:0:0:0:
307,112,464514,1,8,3:0:0:0:
381,301,464643,6,0,P|328:318|250:270,1,140,2|0,0:0|0:0,0:0:0:0:
192,149,465031,2,0,L|183:237,1,70,2|0,0:0|0:0,0:0:0:0:
131,301,465290,1,0,0:0:0:0:
131,301,465419,2,0,P|184:318|262:270,1,140,2|8,0:0|0:0,0:0:0:0:
320,149,465807,2,0,L|329:237,1,70,2|0,0:0|0:0,0:0:0:0:
381,301,466065,1,0,0:0:0:0:
411,176,466195,2,0,L|402:88,1,70,2|2,0:0|0:0,0:0:0:0:
389,7,466453,1,8,0:0:0:0:
171,77,466583,6,0,P|209:106|257:106,1,70,2|0,0:0|0:0,0:0:0:0:
200,3,466841,2,0,P|151:0|111:28,1,70,2|0,0:0|0:0,0:0:0:0:
86,124,467100,2,0,L|97:227,1,70,2|0,0:0|0:0,0:0:0:0:
418,193,467359,2,0,L|423:149,1,35,2|0,0:0|0:0,0:0:0:0:
258,251,467488,2,0,L|261:285,1,35,2|0,0:0|0:0,0:0:0:0:
426,75,467617,6,0,P|366:61|346:67,1,70,2|8,0:0|0:0,0:0:0:0:
274,366,467876,2,0,P|334:380|354:374,1,70,2|0,0:0|0:0,0:0:0:0:
267,145,468264,1,8,3:0:0:0:
220,149,468350,1,4,3:0:0:0:
182,174,468436,1,4,3:0:0:0:
158,214,468522,1,4,3:0:0:0:
158,214,469298,5,2,0:0:0:0:
174,183,469363,1,2,0:0:0:0:
200,159,469427,1,2,0:0:0:0:
232,146,469492,1,2,0:0:0:0:
267,145,469556,1,2,0:0:0:0:
365,310,469815,1,2,0:0:0:0:
330,309,469879,1,2,0:0:0:0:
298,295,469944,1,2,0:0:0:0:
272,272,470008,1,2,0:0:0:0:
257,241,470073,1,2,0:0:0:0:
381,40,470462,1,8,0:0:0:0:
375,74,470527,1,8,0:0:0:0:
371,108,470591,1,8,0:0:0:0:
401,294,470721,1,8,0:0:0:0:
346,213,470850,5,8,2:0:0:0:
346,213,471884,1,0,2:0:0:0:
