osu file format v14

[General]
AudioFilename: 02 Occult Kenkyuubu Girls - Lovely Devil.mp3
AudioLeadIn: 1500
PreviewTime: 147292
Countdown: 0
SampleSet: Soft
StackLeniency: 0.5
Mode: 0
LetterboxInBreaks: 0
WidescreenStoryboard: 1

[Editor]
DistanceSpacing: 1.2
BeatDivisor: 4
GridSize: 4
TimelineZoom: 1

[Metadata]
Title:Lovely Devil
TitleUnicode:らぶりぃ♥でびる
Artist:Occult Kenkyuubu Girls
ArtistUnicode:オカルト研究部ガールズ
Creator:patrick12
Version:Normal
Source:Highschool DxD NEW
Tags:highschool dxd new ending occult kenkyuubu lovely devil issei rias akeno koneko asia xenovia kiba
BeatmapID:402508
BeatmapSetID:165426

[Difficulty]
HPDrainRate:4
CircleSize:3
OverallDifficulty:5
ApproachRate:6
SliderMultiplier:0.7
SliderTickRate:1

[Events]
//Background and Video events
0,0,"maxresdefault.jpg",0,0
//Break Periods
2,88038,95515
2,170765,181152
//Storyboard Layer 0 (Background)
//Storyboard Layer 1 (Fail)
//Storyboard Layer 2 (Pass)
//Storyboard Layer 3 (Foreground)
//Storyboard Sound Samples

[TimingPoints]
2020.3853519826,363.636363636364,4,2,0,50,1,0
13656,-100,4,2,0,60,0,0
31111,-100,4,2,0,65,0,0
48565,-100,4,2,0,70,0,0
61656,-100,4,2,0,80,0,1
85111,-100,4,2,0,80,0,0
99474,-100,4,2,0,60,0,0
116929,-100,4,2,0,65,0,0
134384,-100,4,2,0,70,0,0
147474,-100,4,2,0,80,0,1
170747,-100,4,2,0,80,0,0
182202,-100,4,2,0,80,0,0
191111,-100,4,2,0,80,0,0
195474,-100,4,2,0,80,0,1
218747,-100,4,2,0,80,0,0

[Colours]
Combo1 : 50,0,155
Combo2 : 234,240,242
Combo3 : 0,114,253
Combo4 : 225,0,5
Combo5 : 236,218,0

[HitObjects]
64,124,565,2,0,L|124:72,2,70,0|0|0,0:0|1:0|3:0,0:0:0:0:
172,188,1656,1,0,0:0:0:0:
277,128,2020,6,0,P|304:160|336:176,1,70
359,49,2747,2,0,P|396:75|413:108,1,70,0|0,0:0|1:0,0:0:0:0:
416,199,3474,1,0,0:0:0:0:
360,296,3838,1,0,1:0:0:0:
296,200,4202,2,0,L|218:200,1,70,0|0,0:0|1:0,0:0:0:0:
107,231,4929,5,0,0:0:0:0:
104,128,5293,1,0,1:0:0:0:
200,120,5656,2,0,L|249:185,1,70,0|0,0:0|1:0,0:0:0:0:
324,136,6384,2,0,L|273:72,1,70,0|0,0:0|1:0,0:0:0:0:
399,65,7111,1,4,0:0:0:0:
459,136,7474,1,0,1:0:0:0:
448,240,7838,5,4,0:0:0:0:
388,320,8202,1,0,1:0:0:0:
333,240,8565,2,0,L|252:239,1,70,0|0,0:0|1:0,0:0:0:0:
276,322,9293,2,0,L|193:323,1,70,0|0,0:0|1:0,0:0:0:0:
121,260,10020,1,0,0:0:0:0:
120,164,10384,1,0,1:0:0:0:
256,192,10747,12,0,12020,0:0:0:0:
230,90,12747,5,4,0:0:0:0:
230,180,13111,1,4,0:0:0:0:
77,181,13656,5,0,0:0:0:0:
132,104,14020,1,0,0:0:0:0:
190,179,14384,1,0,0:0:0:0:
240,100,14747,1,0,1:0:0:0:
320,60,15111,2,0,P|340:96|342:138,1,70
288,196,15838,2,0,L|208:196|208:196,1,70,0|0,0:0|1:0,0:0:0:0:
128,156,16565,5,0,0:0:0:0:
64,232,16929,1,0,0:0:0:0:
128,304,17293,2,0,L|208:304,1,70,0|0,0:0|1:0,0:0:0:0:
244,216,18020,2,0,L|159:216,1,70,0|0,0:0|0:0,0:0:0:0:
220,124,18747,1,0,0:0:0:0:
284,64,19111,1,0,1:0:0:0:
372,64,19474,5,0,0:0:0:0:
420,144,19838,1,0,0:0:0:0:
320,144,20202,1,0,0:0:0:0:
320,232,20565,1,0,1:0:0:0:
236,280,20929,2,0,L|235:200,2,70,0|0|0,0:0|0:0|0:0,0:0:0:0:
160,224,22020,1,0,1:0:0:0:
233,137,22384,5,0,0:0:0:0:
233,49,22747,1,0,0:0:0:0:
312,88,23111,1,0,0:0:0:0:
312,176,23474,1,0,1:0:0:0:
240,232,23838,1,0,0:0:0:0:
100,110,25111,5,0,0:0:0:0:
109,199,25474,2,0,L|139:234,2,35,0|0|0,0:0|1:0|0:0,0:0:0:0:
208,208,26202,1,0,0:0:0:0:
272,272,26565,1,0,0:0:0:0:
265,127,27111,5,0,1:0:0:0:
153,131,27474,1,0,0:0:0:0:
208,208,27838,1,0,1:0:0:0:
256,192,28020,12,0,29474,0:0:0:0:
238,184,30202,5,0,0:0:0:0:
240,92,30565,1,0,0:0:0:0:
92,104,31111,5,0,0:0:0:0:
41,180,31474,1,0,1:0:0:0:
140,180,31838,2,0,L|190:245,1,70,0|0,0:0|1:0,0:0:0:0:
276,164,32565,2,0,P|309:197|316:233,2,70,0|0|0,0:0|1:0|0:0,0:0:0:0:
327,77,33656,1,0,1:0:0:0:
416,76,34020,5,0,0:0:0:0:
416,164,34383,1,0,1:0:0:0:
372,244,34747,2,0,L|322:298,1,70,0|0,0:0|1:0,0:0:0:0:
263,237,35474,2,0,P|232:205|232:170,2,70,0|0|0,0:0|1:0|0:0,0:0:0:0:
204,296,36565,1,0,1:0:0:0:
120,280,36929,6,0,L|120:204,1,70,0|0,0:0|1:0,0:0:0:0:
164,140,37656,2,0,P|192:122|196:74,1,70,0|0,0:0|1:0,0:0:0:0:
280,84,38384,1,0,0:0:0:0:
281,83,38747,1,0,1:0:0:0:
336,152,39111,1,0,0:0:0:0:
336,152,39474,1,0,1:0:0:0:
336,240,39838,6,0,P|319:282|285:297,1,70,0|0,0:0|1:0,0:0:0:0:
244,232,40565,2,0,P|212:267|215:302,1,70,0|0,0:0|1:0,0:0:0:0:
132,280,41293,1,0,0:0:0:0:
132,280,41656,1,0,1:0:0:0:
56,279,42020,2,0,L|58:199,1,70,0|0,0:0|1:0,0:0:0:0:
58,164,42565,5,0,1:0:0:0:
150,132,42929,2,0,L|172:171,3,35,0|0|0|0,0:0|1:0|0:0|0:0,0:0:0:0:
215,227,44020,1,0,0:0:0:0:
297,270,44384,2,0,L|298:228,1,35,0|0,0:0|1:0,0:0:0:0:
293,193,44747,2,0,L|268:155,2,35,0|0|0,0:0|0:0|0:0,0:0:0:0:
256,192,45474,12,0,46929,0:0:0:0:
114,126,47474,6,0,L|79:202,2,70,0|0|0,0:0|0:0|0:0,0:0:0:0:
194,91,48565,2,0,B|209:141|197:177|175:233,1,140,4|0,0:0|0:0,0:0:0:0:
266,244,50020,2,0,B|280:186|300:150|340:111,1,140,0|0,0:0|1:0,0:0:0:0:
412,80,51474,2,0,B|383:39|347:34|311:35|271:44,1,140,0|0,0:0|1:0,0:0:0:0:
196,44,52929,2,0,B|128:36|96:62|71:105|71:105,1,140,0|0,0:0|1:0,0:0:0:0:
126,193,54384,6,0,L|184:250,1,70,0|0,0:0|1:0,0:0:0:0:
264,225,55111,2,0,L|211:168,1,70
274,116,55838,2,0,L|328:64,1,70
362,142,56565,2,0,L|417:188,1,70,0|0,0:0|1:0,0:0:0:0:
441,68,57474,6,0,L|441:116,1,35,0|0,0:0|1:0,0:0:0:0:
361,133,58020,2,0,L|361:88,2,35,0|0|0,0:0|0:0|1:0,0:0:0:0:
256,192,58565,12,0,60020,0:0:0:0:
96,160,61474,6,0,B|96:116|96:116|140:64,1,105,0|0,0:0|1:0,0:0:0:0:
211,89,62384,2,0,B|210:116|210:116|177:156,1,70,0|0,0:0|1:0,0:0:0:0:
244,207,63111,1,0,0:0:0:0:
244,207,63474,1,0,1:0:0:0:
308,143,63838,1,0,0:0:0:0:
308,143,64202,1,0,1:0:0:0:
388,175,64565,6,0,L|388:92|388:92,1,70,0|0,0:0|1:0,0:0:0:0:
320,53,65293,2,0,P|285:45|245:61,1,70,0|0,0:0|1:0,0:0:0:0:
170,57,66020,2,0,P|171:78|171:128,1,70,0|0,0:0|1:0,0:0:0:0:
87,126,66747,2,0,P|61:175|63:198,1,70,0|0,0:0|1:0,0:0:0:0:
83,215,67293,6,0,L|165:215,1,70,2|0,0:0|0:0,0:0:0:0:
204,218,67838,2,0,L|231:254,2,35,0|0|0,1:0|0:0|0:0,0:0:0:0:
262,128,68565,2,0,L|219:129,2,35,0|0|0,1:0|0:0|0:0,0:0:0:0:
319,127,69111,2,0,L|344:97,2,35,0|0|0,0:0|1:0|0:0,0:0:0:0:
244,63,69838,6,0,L|196:64,1,35,0|0,0:0|1:0,0:0:0:0:
144,72,70202,2,0,P|156:146|216:190,1,140
212,276,71656,2,0,B|256:272|279:270|303:249|326:192,1,140
416,52,73293,5,0,0:0:0:0:
416,52,73656,1,0,1:0:0:0:
340,84,74020,1,0,0:0:0:0:
340,84,74384,1,0,1:0:0:0:
260,84,74747,2,0,L|176:84,2,70,0|0|0,0:0|1:0|0:0,0:0:0:0:
260,168,75838,1,0,1:0:0:0:
200,224,76202,6,0,L|124:224,2,70,0|0|0,0:0|1:0|0:0,0:0:0:0:
202,307,77293,1,0,1:0:0:0:
282,305,77656,2,0,P|292:261|321:248,1,70,0|0,0:0|1:0,0:0:0:0:
388,232,78384,1,0,0:0:0:0:
388,232,78747,1,0,1:0:0:0:
434,189,78929,6,0,B|433:152|433:152|405:126,1,70,2|0,0:0|0:0,0:0:0:0:
348,124,79474,2,0,L|317:96,2,35,0|0|0,1:0|0:0|0:0,0:0:0:0:
285,202,80202,2,0,L|237:202,2,35,0|0|0,1:0|0:0|0:0,0:0:0:0:
360,248,80929,1,0,1:0:0:0:
289,296,81293,1,0,0:0:0:0:
215,251,81656,1,0,1:0:0:0:
214,169,82020,1,0,0:0:0:0:
104,258,83111,1,0,1:0:0:0:
104,178,83474,6,0,P|133:146|159:119,1,70,0|0,0:0|1:0,0:0:0:0:
213,190,84202,2,0,L|181:228,2,35,0|0|0,0:0|0:0|1:0,0:0:0:0:
250,146,84747,1,0,0:0:0:0:
123,188,86565,6,0,L|151:156,2,35,0|0|0,1:0|1:0|1:0,1:1:0:0:
127,250,87111,2,0,P|166:277|192:269,1,70,0|2,0:0|0:0,0:0:0:0:
253,193,87838,1,4,0:0:0:0:
256,192,96565,12,0,97838,0:0:0:0:
218,151,98565,6,0,P|185:113|156:108,1,70,6|4,0:0|0:0,0:0:0:0:
108,156,99474,5,4,0:0:0:0:
108,156,99838,1,0,0:0:0:0:
168,88,100202,1,0,0:0:0:0:
256,88,100565,1,0,1:0:0:0:
216,164,100929,2,0,L|172:218,2,70,0|0|0,0:0|0:0|0:0,0:0:0:0:
264,228,102020,1,0,1:0:0:0:
212,304,102384,6,0,L|292:304,2,70,0|0|0,0:0|0:0|0:0,0:0:0:0:
136,295,103474,1,0,1:0:0:0:
77,245,103838,2,0,L|77:162,1,70
79,98,104565,2,0,P|123:100|149:129,1,70,0|0,0:0|1:0,0:0:0:0:
218,112,105293,6,0,B|218:147|218:147|190:185,1,70
316,212,106020,2,0,B|336:180|336:180|336:132,1,70,0|0,0:0|1:0,0:0:0:0:
293,61,106747,2,0,L|223:60,2,70,0|0|0,0:0|0:0|0:0,0:0:0:0:
375,58,107838,1,0,1:0:0:0:
373,138,108202,5,0,0:0:0:0:
373,138,108565,1,0,0:0:0:0:
320,204,108929,2,0,L|378:255,1,70,0|0,0:0|1:0,0:0:0:0:
340,328,109656,2,0,L|277:275,1,70
248,212,110384,1,0,0:0:0:0:
250,135,110747,1,0,1:0:0:0:
368,108,111293,6,0,L|400:76,2,35,0|0|0,0:0|1:0|0:0,0:0:0:0:
368,160,111838,2,0,L|368:204,1,35
320,256,112384,1,0,0:0:0:0:
243,287,112747,2,0,L|197:289,2,35,0|0|0,0:0|1:0|0:0,0:0:0:0:
246,241,113293,2,0,L|246:199,1,35
256,192,113838,12,0,115293,0:0:0:0:
264,104,116020,5,0,0:0:0:0:
260,196,116384,1,0,0:0:0:0:
144,184,116929,6,0,L|90:132,2,70,4|0|0,0:0|1:0|0:0,0:0:0:0:
208,128,118020,1,0,0:0:0:0:
270,69,118384,2,0,L|332:127,1,70,0|0,0:0|1:0,0:0:0:0:
380,64,119111,2,0,L|433:110,1,70,0|0,0:0|1:0,0:0:0:0:
372,172,119838,5,0,0:0:0:0:
372,172,120202,1,0,1:0:0:0:
308,224,120565,1,0,0:0:0:0:
308,224,120929,1,0,1:0:0:0:
379,255,121293,2,0,B|376:289|376:289|344:322,1,70,0|0,0:0|1:0,0:0:0:0:
273,306,122020,2,0,B|236:306|236:306|204:306,1,70,0|0,0:0|1:0,0:0:0:0:
155,305,122565,5,0,0:0:0:0:
154,218,122929,2,0,L|118:217,2,35,0|0|0,0:0|0:0|0:0,0:0:0:0:
212,217,123474,2,0,L|254:218,2,35,0|0|0,0:0|0:0|1:0,0:0:0:0:
212,148,124020,2,0,L|269:101,2,70
138,60,125293,5,0,1:0:0:0:
94,135,125656,2,0,L|166:136,2,70,0|0|0,0:0|1:0|0:0,0:0:0:0:
127,214,126747,2,0,L|42:214,2,70,0|0|0,0:0|0:0|1:0,0:0:0:0:
158,250,127656,1,2,0:0:0:0:
216,304,128020,1,0,1:0:0:0:
297,305,128384,5,2,0:0:0:0:
360,248,128747,2,0,L|331:218,2,35,0|0|0,0:0|1:0|0:0,0:0:0:0:
416,245,129293,2,0,L|416:173,1,70,0|0,0:0|1:0,0:0:0:0:
416,136,129838,5,0,0:0:0:0:
318,132,130202,2,0,L|285:97,2,35,0|0|0,0:0|1:0|0:0,0:0:0:0:
315,190,130747,2,0,L|277:222,1,35
256,192,131293,12,0,132747,0:0:0:0:
219,154,133293,6,0,L|219:73,2,70,0|0|0,0:0|0:0|1:0,0:0:0:0:
296,114,134384,6,0,P|359:129|397:205,1,140,4|0,0:0|1:0,0:0:0:0:
306,197,135656,2,0,L|254:263|254:263,1,70,0|0,0:0|0:0,0:0:0:0:
321,305,136384,2,0,L|349:273,1,35,0|0,0:0|1:0,0:0:0:0:
400,202,136929,1,0,0:0:0:0:
395,104,137293,6,0,P|323:103|262:138,1,140
257,219,138384,2,0,L|222:247,1,35
128,268,139111,2,0,L|92:296,2,35,0|0|0,0:0|1:0|0:0,0:0:0:0:
126,190,139656,2,0,L|126:148,2,35,0|0|2,0:0|0:0|0:0,0:0:0:0:
160,64,140384,6,0,L|195:33,1,35,0|0,0:0|1:0,0:0:0:0:
252,91,140929,2,0,L|189:147,1,70,0|0,0:0|1:0,0:0:0:0:
209,242,141656,2,0,L|267:191,1,70
368,208,142384,2,0,L|312:264,1,70,0|0,0:0|1:0,0:0:0:0:
352,117,143293,6,0,L|305:117,1,35,0|0,0:0|1:0,0:0:0:0:
261,191,143838,2,0,L|312:191,2,35,0|0|0,0:0|0:0|1:0,0:0:0:0:
256,192,144384,12,0,145838,0:0:0:0:
420,208,147293,6,0,B|418:149|418:149|387:113,1,105,0|0,0:0|1:0,0:0:0:0:
332,68,148202,2,0,L|363:42,2,35,0|0|0,0:0|0:0|1:0,0:0:0:0:
293,102,148747,2,0,B|255:156|168:174|133:206|102:265,1,245,0|0,0:0|1:0,0:0:0:0:
183,311,150384,6,0,L|230:255,1,70,0|0,0:0|1:0,0:0:0:0:
220,168,151111,2,0,P|207:129|234:98,1,70,0|0,0:0|1:0,0:0:0:0:
261,81,151656,2,0,B|335:102|348:192|459:231,1,245
420,308,153293,5,0,0:0:0:0:
420,308,153656,1,0,1:0:0:0:
328,308,154020,1,0,0:0:0:0:
328,308,154384,1,0,1:0:0:0:
253,264,154747,2,0,L|253:180,1,70,0|0,0:0|1:0,0:0:0:0:
202,126,155474,2,0,L|162:126,2,35,0|0|0,0:0|1:0|1:0,0:0:0:0:
237,86,156020,6,0,P|298:79|370:131,1,140
408,248,157474,2,0,L|357:305,1,70
252,300,158202,2,0,L|300:300,2,35,0|0|0,0:0|1:0|0:0,0:0:0:0:
204,300,158747,1,0,0:0:0:0:
103,303,159111,5,0,0:0:0:0:
52,234,159474,1,0,1:0:0:0:
100,160,159838,1,0,0:0:0:0:
100,160,160202,1,0,1:0:0:0:
104,68,160565,2,0,L|185:69,1,70,0|0,0:0|1:0,0:0:0:0:
252,144,161293,2,0,L|227:113,2,35,0|0|0,0:0|0:0|1:0,0:0:0:0:
284,180,161838,6,0,L|357:262,1,105,0|0,0:0|1:0,0:0:0:0:
400,320,162747,1,0,0:0:0:0:
308,320,163111,1,0,1:0:0:0:
213,316,163474,2,0,L|211:233,1,70,0|0,0:0|1:0,0:0:0:0:
298,207,164202,2,0,L|269:180,2,35,0|0|0,0:0|0:0|1:0,0:0:0:0:
362,200,164747,6,0,B|362:170|362:170|401:138,1,70,2|0,0:0|0:0,0:0:0:0:
433,114,165292,2,0,L|457:87,2,35,0|0|0,1:0|0:0|0:0,0:0:0:0:
256,96,166020,2,0,L|210:96,1,35,0|0,1:0|0:0,0:0:0:0:
143,99,166384,1,0,0:0:0:0:
196,175,166747,1,0,1:0:0:0:
131,231,167111,1,0,0:0:0:0:
197,285,167474,1,0,1:0:0:0:
280,243,167838,6,0,L|339:196,1,70,0|0,0:0|1:0,0:0:0:0:
278,141,168565,2,0,L|212:193,1,70,0|0,0:0|1:0,0:0:0:0:
148,124,169293,5,0,0:0:0:0:
148,124,169656,1,0,0:0:0:0:
145,217,170020,2,0,L|106:242,2,35,4|4|4,3:0|3:0|3:0,0:0:0:0:
207,216,170565,1,4,0:0:0:0:
111,209,182202,6,0,L|81:195,2,17.5,0|0|0,0:0|0:0|0:0,0:0:0:0:
161,142,182747,2,2,L|221:178,1,70,2|0,0:0|0:0,0:0:0:0:
190,273,183474,1,2,0:0:0:0:
230,293,183656,2,0,L|289:330,2,70,0|0|0,0:0|0:0|0:0,0:0:0:0:
313,179,184929,1,0,1:0:0:0:
244,113,185293,5,0,0:0:0:0:
171,176,185656,1,0,1:0:0:0:
100,229,186020,2,0,L|99:277,2,35,0|2|0,0:0|0:0|0:0,0:0:0:0:
181,269,186565,1,0,0:0:0:0:
266,306,186929,1,2,0:0:0:0:
321,230,187293,1,0,0:0:0:0:
357,146,187656,2,0,L|321:125,2,35,2|0|0,0:0|1:0|0:0,0:0:0:0:
259,91,188384,6,0,L|284:58,1,35,0|0,0:0|1:0,0:0:0:0:
144,103,188929,2,0,L|113:78,2,35,0|2|0,0:0|0:0|0:0,0:0:0:0:
182,133,189474,1,0,0:0:0:0:
235,267,189838,2,0,L|266:233,2,35,2|0|2,0:0|1:0|0:0,0:0:0:0:
348,156,190565,2,0,L|317:193,2,35,2|0|2,0:0|1:0|0:0,0:0:0:0:
256,192,191111,12,0,193838,0:0:0:0:
49,247,195293,6,0,B|48:193|48:193|83:149,1,105,0|0,0:0|1:0,0:0:0:0:
140,98,196202,2,0,L|170:70,2,35,0|0|0,0:0|0:0|0:0,0:0:0:0:
155,158,196747,2,0,L|238:237,1,105,0|0,0:0|1:0,0:0:0:0:
345,173,197656,2,0,L|309:141,1,35
312,72,198020,1,0,1:0:0:0:
264,72,198202,6,0,P|231:121|237:168,1,105,0|0,0:0|1:0,0:0:0:0:
154,220,199111,2,0,P|112:232|76:219,1,70,0|0,0:0|1:0,0:0:0:0:
120,128,199838,1,0,0:0:0:0:
120,128,200202,1,0,1:0:0:0:
202,84,200565,2,0,L|168:62,2,35,0|0|0,0:0|0:0|1:0,0:0:0:0:
239,116,201111,6,0,L|309:118,1,70,2|0,0:0|0:0,0:0:0:0:
355,157,201656,2,0,L|382:197,2,35,0|0|0,1:0|0:0|0:0,0:0:0:0:
289,253,202384,1,0,1:0:0:0:
216,312,202747,2,0,L|145:312,1,70,0|0,0:0|1:0,0:0:0:0:
96,241,203474,2,0,L|74:275,2,35,0|0|0,0:0|0:0|1:0,0:0:0:0:
112,192,204020,6,0,B|172:175|172:144|204:136|248:140,1,140
332,71,205293,1,0,0:0:0:0:
377,97,205474,2,0,P|390:156|354:241,1,140
248,64,206929,6,0,P|192:76|160:120,1,105,0|0,0:0|1:0,0:0:0:0:
160,212,207838,2,0,L|130:241,2,35,0|0|0,0:0|0:0|1:0,0:0:0:0:
277,178,208565,2,0,P|320:206|333:229,1,70,0|0,0:0|1:0,0:0:0:0:
282,292,209293,2,0,L|211:292,1,70,0|0,0:0|1:0,0:0:0:0:
153,288,209838,6,0,L|89:198,1,105,0|0,0:0|1:0,0:0:0:0:
205,190,210747,2,0,L|181:155,2,35,0|0|0,0:0|0:0|1:0,0:0:0:0:
248,235,211293,2,0,P|307:246|348:212,1,105,0|0,0:0|1:0,0:0:0:0:
368,304,212202,1,0,0:0:0:0:
425,245,212565,1,0,1:0:0:0:
465,206,212747,6,0,B|465:168|465:168|433:132,1,70,2|0,0:0|0:0,0:0:0:0:
404,107,213292,2,0,L|349:54,2,70,0|0|0,1:0|0:0|0:0,0:0:0:0:
325,155,214384,1,0,0:0:0:0:
320,246,214747,1,0,1:0:0:0:
216,244,215111,1,0,1:0:0:0:
208,156,215474,1,0,0:0:0:0:
296,96,215838,2,0,B|350:147|367:213|432:259,1,210,4|0,0:0|1:0,0:0:0:0:
308,240,217293,6,0,L|272:276,3,35,0|0|0|0,1:0|1:0|1:0|1:0,1:0:0:0:
228,208,218020,2,0,L|192:172,3,35,0|0|0|4,1:0|1:0|1:0|0:0,0:0:0:0:
328,108,219111,6,0,L|408:108,1,70
432,192,219838,1,0,0:0:0:0:
432,192,220202,1,0,0:0:0:0:
404,284,220565,2,0,L|328:284,2,70,0|0|0,0:0|0:0|0:0,0:0:0:0:
444,284,221474,1,4,0:0:0:0:
340,176,222202,5,4,0:0:0:0:
240,280,222929,1,4,0:0:0:0:
256,192,223111,12,4,225111,0:0:0:0:
