osu file format v14

[General]
AudioFilename: audio.mp3
AudioLeadIn: 0
PreviewTime: -1
Countdown: 1
SampleSet: Soft
StackLeniency: 0.7
Mode: 2
LetterboxInBreaks: 0
WidescreenStoryboard: 1

[Editor]
DistanceSpacing: 2
BeatDivisor: 4
GridSize: 16
TimelineZoom: 1

[Metadata]
Title:Falling
TitleUnicode:Falling
Artist:Obsidia Ft. CoMa
ArtistUnicode:Obsidia Ft. CoMa
Creator:IMkoley
Version:Suigintou
Source:
Tags:dubstep
BeatmapID:1485282
BeatmapSetID:701873

[Difficulty]
HPDrainRate:5.9
CircleSize:4.2
OverallDifficulty:7
ApproachRate:9
SliderMultiplier:1.4
SliderTickRate:1

[Events]
//Background and Video events
0,0,"Webp.net-resizeimage.png",0,0
//Break Periods
2,130721,257721
2,270721,272321
//Storyboard Layer 0 (Background)
//Storyboard Layer 1 (Fail)
//Storyboard Layer 2 (Pass)
//Storyboard Layer 3 (Foreground)
//Storyboard Sound Samples

[TimingPoints]
1777.35526315789,798.4,4,2,0,100,1,0
46487,400,4,2,0,100,1,0
46487,-66.6666666666667,4,2,0,100,0,0
49688.3215166861,400,4,2,0,75,1,0
51288,400,4,2,0,75,1,0
52072,800,4,2,0,100,1,0
53373,397.350993377483,4,2,0,100,1,0
54521,400,4,2,0,100,1,0
54565,-66.6666666666667,4,2,0,100,0,0
105721,400,4,2,0,100,1,0
105821,-66.6666666666667,4,2,0,100,0,0
131321,400,4,2,0,100,1,0
131321,-100,4,2,0,100,0,0
184121,400,4,2,0,100,1,0
184121,-66.6666666666667,4,2,0,100,0,0
235321,400,4,2,0,100,1,0
235421,-66.6666666666667,4,2,0,100,0,0
261321,-100,4,2,0,100,0,0

[HitObjects]
124,248,1777,5,0,0:0:0:0:
360,240,2376,2,0,L|472:240,1,105
216,248,3374,1,0,0:0:0:0:
456,236,3972,1,0,0:0:0:0:
128,252,4571,1,0,0:0:0:0:
392,216,4970,1,0,0:0:0:0:
152,192,5569,1,0,0:0:0:0:
436,208,6168,5,0,0:0:0:0:
64,212,6567,1,0,0:0:0:0:
260,188,7166,1,0,0:0:0:0:
480,184,7366,1,0,0:0:0:0:
320,136,7765,1,0,0:0:0:0:
36,176,8164,1,0,0:0:0:0:
380,168,8763,6,0,L|264:168,1,105
16,180,9761,1,0,0:0:0:0:
424,240,10360,1,0,0:0:0:0:
172,296,10958,1,0,0:0:0:0:
504,280,11358,1,0,0:0:0:0:
288,264,11956,6,0,L|376:200,1,105
224,160,12954,2,0,L|104:160,1,105
320,136,13753,2,0,L|236:72,1,105
400,112,14551,2,0,L|464:24,1,105
148,168,15749,1,0,0:0:0:0:
256,192,16148,12,0,19342,0:0:0:0:
160,260,19940,5,0,0:0:0:0:
348,252,20140,2,0,L|412:184,1,70
148,216,20938,2,0,L|88:128,1,105
280,152,21737,2,0,L|236:80,1,70
488,124,22535,2,0,L|388:52,1,105
296,148,23334,2,0,L|372:148,1,70
176,184,24132,6,0,L|248:180,1,70
456,136,24731,2,0,L|376:136,1,70
160,140,25330,2,0,L|244:140,1,70
400,152,25928,1,0,0:0:0:0:
416,224,26128,1,0,0:0:0:0:
368,296,26328,1,0,0:0:0:0:
96,240,26527,5,0,0:0:0:0:
36,164,26727,1,0,0:0:0:0:
352,152,26926,1,0,0:0:0:0:
44,248,27326,2,0,L|120:248,1,70
336,240,27924,2,0,L|260:240,1,70
504,192,28523,2,0,L|456:176,1,35
336,136,28922,2,0,L|264:136,1,70
52,144,29521,6,0,L|124:144,1,70
240,144,30120,1,0,0:0:0:0:
336,192,30320,1,0,0:0:0:0:
512,232,30519,2,0,L|436:248,1,70
136,280,31118,2,0,L|184:240,1,35
224,256,31517,5,0,0:0:0:0:
288,256,31717,1,0,0:0:0:0:
128,208,31916,1,0,0:0:0:0:
48,160,32116,1,0,0:0:0:0:
248,304,32316,1,0,0:0:0:0:
200,304,32515,1,0,0:0:0:0:
152,304,32715,1,0,0:0:0:0:
444,240,32914,6,0,L|348:240,1,70
116,280,33513,1,0,0:0:0:0:
196,236,33713,1,0,0:0:0:0:
492,216,33912,1,0,0:0:0:0:
416,172,34112,1,0,0:0:0:0:
124,208,34312,1,0,0:0:0:0:
416,128,34511,2,0,L|336:120,1,70
112,200,35310,6,0,L|192:152,1,70
372,148,35908,2,0,L|432:144,1,35
140,148,36507,2,0,L|80:148,1,35
315,104,36906,2,0,L|232:72,1,70
108,100,37505,2,0,L|220:60,1,105
504,92,38503,1,0,0:0:0:0:
232,136,39102,5,0,0:0:0:0:
440,152,39302,2,0,L|400:224,1,70
176,192,39900,1,0,0:0:0:0:
464,160,40100,2,0,L|344:100,1,105
208,112,40898,2,0,L|112:112,1,70
432,304,41697,2,0,L|304:304,1,105
112,304,42495,6,0,L|192:256,1,70
400,240,43294,1,0,0:0:0:0:
64,256,43892,1,0,0:0:0:0:
400,272,44491,1,0,0:0:0:0:
160,224,44890,2,0,L|91:210,1,70
352,208,45689,2,0,L|420:194,1,70
256,192,46487,12,0,49287,0:0:0:0:
136,212,49687,6,0,L|128:188,1,26.2500010013581
416,196,49888,2,0,L|428:172,1,17.5
96,196,50088,2,0,L|84:172,1,17.5
376,212,50288,6,0,L|384:188,1,26.2500010013581
136,212,50488,6,0,L|128:188,1,26.2500010013581
416,196,50689,2,0,L|428:172,1,17.5
96,196,50889,2,0,L|84:172,1,17.5
376,212,51089,6,0,L|384:188,1,26.2500010013581
80,256,51288,2,0,L|76:216,1,35
248,192,51488,2,0,L|264:160,1,35
436,204,51688,1,0,0:0:0:0:
472,168,51788,5,0,0:0:0:0:
208,204,51888,1,0,0:0:0:0:
104,144,51988,1,0,0:0:0:0:
352,112,52072,1,0,0:0:0:0:
192,272,53373,2,0,L|128:208,1,70
432,240,53770,1,0,0:0:0:0:
120,224,54167,1,0,0:0:0:0:
304,180,54521,5,0,0:0:0:0:
321,184,54571,1,0,0:0:0:0:
339,184,54621,1,0,0:0:0:0:
356,184,54671,1,0,0:0:0:0:
376,176,54721,1,0,0:0:0:0:
392,164,54771,1,0,0:0:0:0:
408,148,54821,1,0,0:0:0:0:
428,128,54871,1,0,0:0:0:0:
208,184,54921,5,0,0:0:0:0:
176,200,54971,1,0,0:0:0:0:
144,216,55021,1,0,0:0:0:0:
112,216,55071,1,0,0:0:0:0:
80,208,55121,1,0,0:0:0:0:
72,176,55171,1,0,0:0:0:0:
72,144,55221,1,0,0:0:0:0:
96,120,55271,1,0,0:0:0:0:
320,112,55321,6,0,P|448:112|328:112,1,210.000008010865
496,64,55921,1,0,0:0:0:0:
104,64,56121,2,0,L|456:64,1,315.000012016297
240,160,56921,1,0,0:0:0:0:
144,96,57121,1,0,0:0:0:0:
428,168,57321,1,0,0:0:0:0:
80,192,57521,1,0,0:0:0:0:
297,112,57721,6,0,P|185:112|305:112,1,210.000008010865
80,128,58321,1,0,0:0:0:0:
376,159,58521,2,0,L|328:272,1,105.000004005432
512,213,58921,2,0,L|376:213,1,105.000004005432
32,264,59321,2,0,P|128:272|208:192,1,210.000008010865
464,304,59921,1,0,0:0:0:0:
208,184,60121,5,0,0:0:0:0:
192,184,60171,1,0,0:0:0:0:
176,184,60221,1,0,0:0:0:0:
160,184,60271,1,0,0:0:0:0:
140,180,60321,1,0,0:0:0:0:
124,176,60371,1,0,0:0:0:0:
112,168,60421,1,0,0:0:0:0:
100,156,60471,1,0,0:0:0:0:
480,160,60521,5,0,0:0:0:0:
440,224,60621,1,0,0:0:0:0:
360,232,60721,1,0,0:0:0:0:
304,176,60821,1,0,0:0:0:0:
128,128,60921,5,0,0:0:0:0:
141,118,60971,1,0,0:0:0:0:
156,107,61021,1,0,0:0:0:0:
170,97,61071,1,0,0:0:0:0:
184,87,61121,1,0,0:0:0:0:
198,77,61171,1,0,0:0:0:0:
213,66,61221,1,0,0:0:0:0:
226,56,61271,1,0,0:0:0:0:
384,144,61321,5,0,0:0:0:0:
393,130,61371,1,0,0:0:0:0:
403,114,61421,1,0,0:0:0:0:
412,100,61471,1,0,0:0:0:0:
420,84,61521,1,0,0:0:0:0:
431,71,61571,1,0,0:0:0:0:
441,55,61621,1,0,0:0:0:0:
144,96,61721,6,0,P|32:96|144:96,1,210.000008010865
336,112,62321,2,0,L|372:180,1,70.0000026702882
496,220,62521,2,0,P|328:88|228:208,1,385.000014686585
368,176,63321,2,0,L|496:184,1,105.000004005432
192,176,63721,1,0,0:0:0:0:
368,144,63821,2,0,L|256:144,1,105.000004005432
64,144,64121,2,0,P|192:112|224:32,1,210.000008010865
480,96,64721,5,0,0:0:0:0:
224,128,64921,1,0,0:0:0:0:
480,184,65121,1,0,0:0:0:0:
224,248,65321,1,0,0:0:0:0:
480,160,65521,2,0,L|427:160,1,52.5000020027161
216,192,65721,2,0,P|256:96|352:48,1,210.000008010865
144,48,66321,1,0,0:0:0:0:
432,96,66521,6,0,L|304:128,1,105.000004005432
144,224,66921,1,0,0:0:0:0:
432,184,67121,1,0,0:0:0:0:
208,184,67321,5,0,0:0:0:0:
191,184,67371,1,0,0:0:0:0:
173,184,67421,1,0,0:0:0:0:
156,184,67471,1,0,0:0:0:0:
138,184,67521,1,0,0:0:0:0:
121,184,67571,1,0,0:0:0:0:
103,184,67621,1,0,0:0:0:0:
86,184,67671,1,0,0:0:0:0:
416,176,67721,6,0,B|496:160|496:160|432:160,1,105.000004005432
240,192,68121,2,0,L|384:144,1,105.000004005432
112,80,68521,2,0,L|144:240,1,157.500006008148
416,96,68921,2,0,P|464:208|368:240,1,210.000008010865
156,248,69521,1,0,0:0:0:0:
24,160,69721,1,0,0:0:0:0:
420,144,69921,1,0,0:0:0:0:
154,148,70121,5,0,0:0:0:0:
420,228,70321,1,0,0:0:0:0:
224,176,70521,2,0,L|368:192,1,105.000004005432
48,176,70921,2,0,L|128:272,1,105.000004005432
384,208,71321,2,0,P|464:160|416:144,1,210.000008010865
256,160,71921,1,0,0:0:0:0:
0,160,72121,2,0,L|240:96,1,210.000008010865
464,96,72721,5,0,0:0:0:0:
208,64,72921,2,0,B|91:72|91:72|183:67,1,210.000008010865
80,160,73521,1,0,0:0:0:0:
512,127,73721,1,0,0:0:0:0:
494,108,73771,1,0,0:0:0:0:
471,95,73821,1,0,0:0:0:0:
446,88,73871,1,0,0:0:0:0:
420,88,73921,1,0,0:0:0:0:
394,95,73971,1,0,0:0:0:0:
372,108,74021,1,0,0:0:0:0:
353,126,74071,1,0,0:0:0:0:
340,149,74121,1,0,0:0:0:0:
84,162,74321,5,0,0:0:0:0:
460,69,74521,2,0,P|549:77|512:159,1,210.000008010865
281,190,75121,1,0,0:0:0:0:
32,208,75321,2,0,B|160:176|160:176|115:131|115:131|60:131|60:131|160:96,1,315.000012016297
416,144,76121,2,0,B|496:144|496:144|408:144,1,157.500006008148
256,112,76521,1,0,0:0:0:0:
96,192,76921,2,0,L|328:192,1,210.000008010865
96,120,77521,1,0,0:0:0:0:
336,128,77721,6,0,L|195:130,2,105.000004005432
512,128,78321,1,0,0:0:0:0:
144,208,78521,2,0,B|32:192|32:192|144:192,1,210.000008010865
496,192,79121,1,0,0:0:0:0:
352,176,79321,1,0,0:0:0:0:
224,176,79521,1,0,0:0:0:0:
512,176,79721,1,0,0:0:0:0:
256,256,79921,1,0,0:0:0:0:
64,224,80121,5,0,0:0:0:0:
89,227,80171,1,0,0:0:0:0:
116,224,80221,1,0,0:0:0:0:
144,224,80271,1,0,0:0:0:0:
176,224,80321,1,0,0:0:0:0:
208,224,80371,1,0,0:0:0:0:
240,224,80421,1,0,0:0:0:0:
272,224,80471,1,0,0:0:0:0:
304,224,80521,1,0,0:0:0:0:
482,134,80571,5,0,0:0:0:0:
479,160,80621,1,0,0:0:0:0:
470,185,80671,1,0,0:0:0:0:
456,207,80721,1,0,0:0:0:0:
438,225,80771,1,0,0:0:0:0:
416,240,80821,1,0,0:0:0:0:
208,144,80871,1,0,0:0:0:0:
177,162,80921,1,0,0:0:0:0:
145,178,80971,1,0,0:0:0:0:
464,160,81321,6,0,L|320:160,1,105.000004005432
32,208,81721,2,0,P|0:160|48:144,1,105.000004005432
208,80,82121,1,0,0:0:0:0:
336,112,82321,1,0,0:0:0:0:
448,112,82521,1,0,0:0:0:0:
184,176,82721,1,0,0:0:0:0:
336,192,82921,1,0,0:0:0:0:
272,144,83021,1,0,0:0:0:0:
336,96,83121,1,0,0:0:0:0:
48,192,83321,6,0,L|272:192,1,210.000008010865
80,160,83921,1,0,0:0:0:0:
288,80,84121,2,0,L|176:80,1,105.000004005432
432,128,84521,1,0,0:0:0:0:
176,160,84721,1,0,0:0:0:0:
416,208,84921,2,0,B|400:240|400:240|176:256,1,210.000008010865
448,176,85521,1,0,0:0:0:0:
48,96,85721,5,0,0:0:0:0:
58,120,85771,1,0,0:0:0:0:
68,144,85821,1,0,0:0:0:0:
79,168,85871,1,0,0:0:0:0:
89,192,85921,1,0,0:0:0:0:
416,64,86121,5,0,0:0:0:0:
406,88,86171,1,0,0:0:0:0:
396,112,86221,1,0,0:0:0:0:
385,136,86271,1,0,0:0:0:0:
375,160,86321,1,0,0:0:0:0:
240,128,86521,5,0,0:0:0:0:
260,112,86571,1,0,0:0:0:0:
282,97,86621,1,0,0:0:0:0:
303,82,86671,1,0,0:0:0:0:
324,66,86721,1,0,0:0:0:0:
448,240,86821,6,0,L|544:224,1,52.5000020027161
256,192,87021,2,0,L|357:217,1,105.000004005432
176,176,87321,2,0,P|80:144|160:96,1,210.000008010865
288,80,87921,1,0,0:0:0:0:
464,88,88121,2,0,L|320:88,2,105.000004005432
240,160,88721,1,0,0:0:0:0:
64,80,88921,2,0,L|169:80,1,105.000004005432
368,80,89321,6,0,L|224:80,1,105.000004005432
96,112,89721,2,0,P|17:167|63:252,1,210.000008010865
256,224,90321,1,0,0:0:0:0:
512,208,90521,2,0,L|416:160,2,105.000004005432
224,256,91121,1,0,0:0:0:0:
512,176,91321,1,0,0:0:0:0:
512,208,91921,5,0,0:0:0:0:
208,160,92121,1,0,0:0:0:0:
384,160,92321,1,0,0:0:0:0:
208,160,92521,1,0,0:0:0:0:
512,128,92721,1,0,0:0:0:0:
160,192,92921,1,0,0:0:0:0:
185,195,92971,1,0,0:0:0:0:
211,199,93021,1,0,0:0:0:0:
237,203,93071,1,0,0:0:0:0:
263,206,93121,1,0,0:0:0:0:
512,192,93321,5,0,0:0:0:0:
486,185,93371,1,0,0:0:0:0:
461,179,93421,1,0,0:0:0:0:
435,172,93471,1,0,0:0:0:0:
410,166,93521,1,0,0:0:0:0:
64,160,93721,5,0,0:0:0:0:
96,160,93771,1,0,0:0:0:0:
128,160,93821,1,0,0:0:0:0:
160,160,93871,1,0,0:0:0:0:
192,160,93921,1,0,0:0:0:0:
384,144,94121,2,0,P|288:128|272:80,1,157.500006008148
480,208,94521,2,0,B|400:136|400:136|488:80,1,210.000008010865
240,208,95121,5,0,0:0:0:0:
96,208,95321,1,0,0:0:0:0:
336,208,95421,1,0,0:0:0:0:
400,128,95521,1,0,0:0:0:0:
144,208,95721,1,0,0:0:0:0:
304,176,95921,1,0,0:0:0:0:
0,176,96121,2,0,L|112:176,1,105.000004005432
288,80,96521,6,0,L|184:32,1,105.000004005432
512,80,96921,2,0,L|288:80,1,210.000008010865
80,96,97521,1,0,0:0:0:0:
216,104,97721,1,0,0:0:0:0:
448,228,97821,2,0,B|576:212|464:120,1,157.500006008148
288,172,98321,1,0,0:0:0:0:
16,192,98521,2,0,P|145:133|257:149,1,210.000008010865
480,112,99121,1,0,0:0:0:0:
208,96,99321,6,0,L|16:192,1,210.000008010865
35,188,99721,2,0,L|256:192,1,210.000008010865
244,191,100121,2,0,L|88:50,1,210.000008010865
432,48,100721,1,0,0:0:0:0:
64,160,100921,1,0,0:0:0:0:
89,156,100971,1,0,0:0:0:0:
115,152,101021,1,0,0:0:0:0:
141,148,101071,1,0,0:0:0:0:
167,145,101121,1,0,0:0:0:0:
193,141,101171,1,0,0:0:0:0:
219,137,101221,1,0,0:0:0:0:
245,134,101271,1,0,0:0:0:0:
271,130,101321,1,0,0:0:0:0:
496,128,101521,5,0,0:0:0:0:
272,48,101721,1,0,0:0:0:0:
238,53,101771,1,0,0:0:0:0:
212,57,101821,1,0,0:0:0:0:
186,60,101871,1,0,0:0:0:0:
160,64,101921,1,0,0:0:0:0:
400,96,102121,2,0,L|480:192,1,105.000004005432
208,128,102521,6,0,L|64:128,2,105.000004005432
368,160,103121,2,0,L|432:160,1,52.5000020027161
256,160,103321,2,0,L|170:98,1,105.000004005432
416,192,103721,1,0,0:0:0:0:
512,112,103921,1,0,0:0:0:0:
128,224,104121,1,0,0:0:0:0:
256,192,104921,12,0,105421,0:0:0:0:
224,208,105721,5,0,0:0:0:0:
256,208,105771,1,0,0:0:0:0:
290,207,105821,1,0,0:0:0:0:
320,192,105871,1,0,0:0:0:0:
352,192,105921,1,0,0:0:0:0:
384,208,105971,1,0,0:0:0:0:
416,208,106021,1,0,0:0:0:0:
448,208,106071,1,0,0:0:0:0:
56,224,106121,5,0,0:0:0:0:
40,200,106171,1,0,0:0:0:0:
32,180,106221,1,0,0:0:0:0:
44,156,106271,1,0,0:0:0:0:
60,136,106321,1,0,0:0:0:0:
80,120,106371,1,0,0:0:0:0:
120,96,106421,1,0,0:0:0:0:
480,96,106521,6,0,P|378:79|272:96,1,210.000008010865
273,95,106921,2,0,L|413:250,1,210.000008010865
416,256,107321,2,0,L|224:160,1,210.000008010865
240,160,107721,2,0,L|352:160,2,105.000004005432
240,160,108121,2,0,L|496:160,2,210.000008010865
240,160,108921,2,0,L|99:4,1,210.000008010865
99,4,109321,2,0,L|240:32,1,105.000004005432
208,32,109521,2,0,L|112:80,1,105.000004005432
112,80,109721,6,0,L|316:128,1,210.000008010865
320,128,110121,2,0,L|256:32,1,105.000004005432
320,128,110321,2,0,L|280:232,1,105.000004005432
320,128,110521,2,0,L|464:128,1,105.000004005432
248,224,110921,1,0,0:0:0:0:
424,224,111121,1,0,0:0:0:0:
16,160,111321,1,0,0:0:0:0:
104,104,111421,1,0,0:0:0:0:
216,112,111521,1,0,0:0:0:0:
12,224,111621,2,0,B|24:160|32:128|32:128|136:80,1,210.000008010865
280,40,112121,5,0,0:0:0:0:
312,80,112171,1,0,0:0:0:0:
344,120,112221,1,0,0:0:0:0:
376,160,112271,1,0,0:0:0:0:
416,192,112321,1,0,0:0:0:0:
456,224,112371,1,0,0:0:0:0:
208,82,112521,6,0,L|320:80,1,105.000004005432
192,152,112921,1,0,0:0:0:0:
56,152,113121,1,0,0:0:0:0:
384,128,113321,2,0,B|464:224,1,105.000004005432
160,176,113721,2,0,L|32:176,2,105.000004005432
432,192,114321,1,0,0:0:0:0:
160,152,114521,2,0,B|160:56|160:56|80:72|80:72|81:147|81:147|250:107|250:107,1,420.000016021729
243,108,115321,6,0,L|464:104,1,210.000008010865
336,176,115921,2,0,L|304:256,1,52.5000020027161
144,156,116121,2,0,B|28:168|28:168|144:160,1,210.000008010865
328,192,116721,1,0,0:0:0:0:
128,288,116921,2,0,P|64:240|128:128,1,210.000008010865
336,104,117521,2,0,L|216:104,1,105.000004005432
496,112,117921,1,0,0:0:0:0:
232,192,118121,1,0,0:0:0:0:
136,152,118221,1,0,0:0:0:0:
352,160,118321,6,0,L|416:160,1,52.5000020027161
232,208,118521,2,0,L|264:312,1,105.000004005432
128,288,118921,2,0,P|64:240|128:160,1,157.500006008148
384,288,119321,2,0,P|448:240|384:160,1,157.500006008148
112,192,119721,2,0,P|48:144|112:64,1,157.500006008148
400,192,120121,2,0,P|528:144|400:64,1,315.000012016297
208,203,120921,2,0,B|144:203|144:203|224:171|224:171|224:107|224:107|240:139|240:139,1,210.000008010865
224,111,121321,2,0,L|352:112,1,105.000004005432
48,160,121721,6,0,P|0:112|48:32,1,157.500006008148
224,176,122121,2,0,L|144:96,1,105.000004005432
440,192,122521,2,0,P|504:144|408:48,1,210.000008010865
240,48,123121,1,0,0:0:0:0:
0,48,123321,2,0,L|224:48,1,210.000008010865
64,48,123921,1,0,0:0:0:0:
248,104,124121,6,0,P|376:104|416:40,1,210.000008010865
414,44,124521,2,0,P|424:144|360:176,1,157.500006008148
208,176,124921,2,0,L|176:64,1,105.000004005432
0,96,125321,2,0,L|224:96,1,210.000008010865
224,144,125721,2,0,L|448:144,1,210.000008010865
464,208,126121,2,0,L|336:216,1,105.000004005432
32,176,126521,2,0,P|96:272|256:176,1,315.000012016297
88,264,127321,2,0,B|178:72|178:72|392:108|392:108|48:112,1,735.000028038026
256,128,128921,6,0,B|352:176|352:176|240:208,1,210.000008010865
512,176,129521,1,0,0:0:0:0:
496,128,129621,1,0,0:0:0:0:
128,256,129721,2,0,P|64:176|136:112,1,210.000008010865
432,80,130321,1,0,0:0:0:0:
304,176,130421,1,0,0:0:0:0:
48,208,130521,1,0,0:0:0:0:
272,128,258321,5,0,0:0:0:0:
496,136,258521,1,0,0:0:0:0:
232,192,258921,6,0,B|112:192|112:192,1,105.000004005432
400,192,259321,6,0,B|506:181|506:181|384:176,1,210
408,192,259721,6,0,B|301:181|301:181,1,105.000004005432
168,168,260121,1,0,0:0:0:0:
504,208,260321,1,0,0:0:0:0:
340,208,260521,1,0,0:0:0:0:
504,144,260721,1,0,0:0:0:0:
76,232,260921,1,0,0:0:0:0:
256,192,261321,12,0,266521,0:0:0:0:
256,192,267321,12,0,270521,0:0:0:0:
256,192,272921,12,0,273721,0:0:0:0:
256,192,273721,12,0,279421,0:0:0:0:
256,192,280121,12,0,284921,0:0:0:0:
