osu file format v14

[General]
AudioFilename: audio.mp3
AudioLeadIn: 0
PreviewTime: -1
Countdown: 0
SampleSet: Soft
StackLeniency: 0.7
Mode: 0
LetterboxInBreaks: 0
WidescreenStoryboard: 0

[Editor]
DistanceSpacing: 1.3
BeatDivisor: 4
GridSize: 8
TimelineZoom: 1

[Metadata]
Title:Falling
TitleUnicode:Falling
Artist:Obsidia Ft. CoMa
ArtistUnicode:Obsidia Ft. CoMa
Creator:IMkoley
Version:Insane
Source:
Tags:dubstep
BeatmapID:1485281
BeatmapSetID:701873

[Difficulty]
HPDrainRate:5.9
CircleSize:4.2
OverallDifficulty:7
ApproachRate:9
SliderMultiplier:1.4
SliderTickRate:1

[Events]
//Background and Video events
0,0,"Webp.net-resizeimage.png",0,0
//Break Periods
//Storyboard Layer 0 (Background)
//Storyboard Layer 1 (Fail)
//Storyboard Layer 2 (Pass)
//Storyboard Layer 3 (Foreground)
//Storyboard Sound Samples

[TimingPoints]
1777.35526315789,798.4,4,2,0,100,1,0
46487,400,4,2,0,100,1,0
46487,-66.6666666666667,4,2,0,100,0,0
49688.3215166861,400,4,2,0,75,1,0
51288,400,4,2,0,75,1,0
52072,800,4,2,0,100,1,0
53373,397.350993377483,4,2,0,100,1,0
54521,400,4,2,0,100,1,0
54565,-66.6666666666667,4,2,0,100,0,0
105721,400,4,2,0,100,1,0
131321,400,4,2,0,100,1,0
131321,-100,4,2,0,100,0,0
184121,400,4,2,0,100,1,0
184121,-66.6666666666667,4,2,0,100,0,0
235321,400,4,2,0,100,1,0
235321,-66.6666666666667,4,2,0,100,0,0
261321,-100,4,2,0,100,0,0
272521,-100,4,2,0,100,0,0
276921,-100,4,2,0,100,0,0
278921,-100,4,2,0,100,0,0

[HitObjects]
160,176,1777,5,0,0:0:0:0:
296,144,2376,2,0,L|400:144,1,105
472,232,3374,2,0,L|336:256,1,105
336,280,4172,2,0,L|256:256,1,70
176,248,4970,2,0,L|272:208,1,105
152,176,6168,1,0,0:0:0:0:
224,168,6567,1,0,0:0:0:0:
360,184,7166,1,0,0:0:0:0:
320,160,7366,2,0,L|248:88,1,70
184,88,8164,2,0,L|224:192,1,105
320,264,9362,1,0,0:0:0:0:
400,224,9761,2,0,L|360:160,1,70
344,112,10360,1,0,0:0:0:0:
317,60,10559,2,0,L|280:120,1,70
256,160,11158,1,0,0:0:0:0:
232,200,11358,2,0,L|136:256,1,105
24,288,12555,1,0,0:0:0:0:
304,232,12954,5,0,0:0:0:0:
184,168,13553,1,0,0:0:0:0:
224,144,13753,2,0,L|224:272,1,105
328,240,14551,2,0,L|448:184,1,105
288,160,15749,1,0,0:0:0:0:
256,192,16148,12,0,17745,0:0:0:0:
282,283,18344,5,0,0:0:0:0:
148,256,18942,1,0,0:0:0:0:
236,232,19342,2,0,B|298:225|309:215|309:215|308:205|308:205|319:207|319:207|319:198|319:198|327:195|327:195|319:190|319:190|330:188|330:188,1,105
348,164,20140,2,0,B|334:166|334:166|336:155|336:155|327:160|327:160|327:147|327:147|311:152|311:152|311:143|311:143|300:148|300:148,1,70
256,192,20938,12,0,25729,0:0:0:0:
286,184,26527,5,0,0:0:0:0:
119,278,27326,2,0,L|248:283,1,105
372,176,28523,1,0,0:0:0:0:
256,88,28922,2,0,L|181:177,1,105
102,207,29721,2,0,L|178:203,1,70
264,184,30519,2,0,L|294:311,1,105
208,160,31717,1,0,0:0:0:0:
330,202,32116,1,0,0:0:0:0:
222,136,32715,1,0,0:0:0:0:
261,114,32914,2,0,L|339:80,1,70
254,138,33713,2,0,L|283:190,2,35
215,113,34312,2,0,L|160:72,2,35
198,155,34910,2,0,P|177:194|135:221,1,70
256,192,36108,12,0,38503,0:0:0:0:
270,218,39302,5,0,0:0:0:0:
447,200,40100,1,0,0:0:0:0:
309,200,40699,1,0,0:0:0:0:
309,200,41298,1,0,0:0:0:0:
253,128,41697,2,0,L|145:161,1,105
120,192,42495,2,0,L|204:239,1,70
264,264,43294,1,0,0:0:0:0:
312,136,43892,1,0,0:0:0:0:
177,115,44491,1,0,0:0:0:0:
264,152,44890,2,0,L|332:196,1,70
248,248,45689,1,0,0:0:0:0:
320,304,46088,1,0,0:0:0:0:
372,180,46487,5,0,0:0:0:0:
312,112,46687,1,0,0:0:0:0:
292,200,46886,1,0,0:0:0:0:
204,216,47087,1,0,0:0:0:0:
152,292,47287,2,0,L|272:300,1,105.000004005432
348,224,47687,2,0,L|463:207,2,105.000004005432
216,248,48287,1,0,0:0:0:0:
136,144,48487,1,0,0:0:0:0:
32,232,48687,1,0,0:0:0:0:
112,336,48887,2,0,L|216:304,1,105.000004005432
344,264,49287,1,0,0:0:0:0:
264,152,49487,1,0,0:0:0:0:
160,232,49681,1,0,0:0:0:0:
88,176,49886,1,0,0:0:0:0:
176,200,50085,1,0,0:0:0:0:
264,192,50284,1,0,0:0:0:0:
208,128,50483,2,0,L|140:104,1,70
128,16,50880,2,0,L|192:56,1,70
264,104,51277,1,0,0:0:0:0:
299,133,51377,1,0,0:0:0:0:
317,174,51476,1,0,0:0:0:0:
307,218,51575,1,0,0:0:0:0:
288,259,51675,1,0,0:0:0:0:
247,279,51774,1,0,0:0:0:0:
202,287,51873,1,0,0:0:0:0:
164,280,51973,1,0,0:0:0:0:
136,272,52072,1,0,0:0:0:0:
456,232,53373,5,0,0:0:0:0:
284,280,53770,1,0,0:0:0:0:
116,208,54167,1,0,0:0:0:0:
264,140,54521,2,0,B|268:142|268:142|280:144|280:144|276:148|276:148|288:148|288:148|280:152|280:152|292:152|292:152|308:160,1,70
432,216,54921,2,0,B|392:272|392:272|340:272,1,105.000004005432
232,320,55321,2,0,B|203:310|203:310|168:288|170:258|192:224,1,105.000004005432
288,160,55721,2,0,B|304:149|306:136|306:136|306:128|306:128|312:120|312:120|312:112|312:112|302:105|302:105|298:99|298:99|288:88|288:88|272:80|272:80|256:72,1,105.000004005432
144,40,56121,2,0,B|110:24|92:20|76:24|56:40|52:56|52:56|60:64|76:60|76:44|60:32|48:28|32:32|20:44|12:60|12:76|20:96|40:104|48:96|52:84|36:72|-4:84|-8:104|0:124|20:140|52:168,1,315.000012016297
120,256,56921,1,0,0:0:0:0:
192,372,57121,1,0,0:0:0:0:
188,236,57321,1,0,0:0:0:0:
296,320,57521,1,0,0:0:0:0:
300,184,57721,2,0,B|300:240|300:240|144:288,1,210.000008010865
288,316,58321,1,0,0:0:0:0:
424,324,58521,2,0,B|424:232|424:232|304:160,1,210.000008010865
208,96,59121,1,0,0:0:0:0:
348,136,59321,2,0,B|470:183|470:183|392:208,1,210.000008010865
264,240,59921,1,0,0:0:0:0:
392,296,60121,2,0,B|376:300|376:300|376:308|376:308|372:304|372:304|372:312|372:312|368:308|368:308|368:316|368:316|364:312|364:312|360:316|360:316|364:320|364:320|352:372|352:372|296:336|272:340,1,210
64,160,60921,2,0,B|70:187|70:187|72:188|72:188|76:200|76:200|76:196|76:196|80:204|80:204|76:208|76:208|84:208|84:208|80:212|80:212|89:218|89:218|100:228|100:228|109:230|109:230|155:250|220:204,1,210.000008010865
400,32,61721,2,0,P|300:28|204:96,1,210.000008010865
456,208,62521,2,0,B|312:135|431:156|431:156|385:200,1,210
280,280,63121,1,0,0:0:0:0:
160,344,63321,2,0,B|164:252|164:252|200:224,1,105.000004005432
280,160,63721,1,0,0:0:0:0:
480,344,64121,2,0,B|452:360|440:356|440:356|432:368|426:358|426:358|415:346|408:356|408:356|396:364|389:348|389:348|404:348|394:340|394:340|376:348|366:330|366:330|388:320|392:296|392:296|368:268,1,227.5
336,168,64721,2,0,L|348:124,1,26.2500010013581
408,64,64921,2,0,L|292:72,1,105.000004005432
272,184,65321,2,0,L|168:196,1,105.000004005432
40,248,65721,2,0,B|196:260|196:260|220:209,1,210
268,84,66321,1,0,0:0:0:0:
344,196,66521,1,0,0:0:0:0:
480,176,66721,1,0,0:0:0:0:
412,60,66921,2,0,L|304:100,1,105.000004005432
164,164,67321,2,0,L|140:168,6,17.5
248,96,67721,2,0,B|296:98|296:98|352:120,1,105.000004005432
456,200,68121,2,0,B|451:207|448:216|448:216|440:212|436:228|436:228|431:210|424:228|424:228|416:212|408:224|408:224|405:212|396:212|396:212|402:206|403:193|403:193|407:189|407:189|400:196|408:176|408:176|399:171|393:167|393:167|382:158|388:148|388:148|352:144|336:172,1,236.250009012223
156,316,68921,2,0,B|171:317|179:319|194:308|195:299|197:293|204:276|196:284|196:284|193:260|182:271|162:275|168:252|116:252|116:252|128:232|128:232|108:249|108:249|192:184,1,315.000012016297
304,104,69721,1,0,0:0:0:0:
416,24,69921,1,0,0:0:0:0:
364,148,70121,1,0,0:0:0:0:
252,228,70321,1,0,0:0:0:0:
116,220,70521,2,0,B|0:128|0:128|96:136,1,210.000008010865
196,124,71121,1,0,0:0:0:0:
268,8,71321,2,0,L|384:28,1,105.000004005432
448,140,71721,2,0,L|340:168,1,105.000004005432
424,280,72121,2,0,L|312:256,1,105.000004005432
408,360,72521,1,0,0:0:0:0:
272,344,72721,1,0,0:0:0:0:
264,336,72921,2,0,B|232:294|232:294|204:287|178:300|178:300|204:287|206:253|206:253|152:188,1,210.000008010865
32,80,73721,2,0,L|8:72,6,17.5
160,128,74121,2,0,L|80:204,1,105.000004005432
32,320,74521,2,0,L|132:272,1,105.000004005432
256,304,74921,2,0,L|312:172,1,105.000004005432
324,80,75321,2,0,P|400:144|404:252,1,210
344,372,75921,1,0,0:0:0:0:
208,372,76121,2,0,P|146:343|140:208,1,210.000008010865
368,72,76921,1,0,0:0:0:0:
284,236,77321,6,0,L|392:268,1,105.000004005432
224,176,77721,2,0,B|240:158|240:158|252:156|248:146|248:146|260:148|256:132|256:132|268:140|260:128|260:128|273:130|273:130|268:120|280:120|280:120|320:116|320:116|276:172|276:172,1,210.000008010865
208,280,78321,1,0,0:0:0:0:
344,312,78521,2,0,B|356:308|360:296|356:276|376:272|380:260|388:252|396:232|396:232|420:228|436:208|436:208|460:188|480:148,1,210
400,48,79121,1,0,0:0:0:0:
308,188,79321,1,0,0:0:0:0:
416,104,79521,1,0,0:0:0:0:
308,188,79721,2,0,P|244:184|212:144,1,105.000004005432
184,48,80121,2,0,B|192:76|192:76|172:80|144:84|116:116|100:152|122:188|160:220,1,210.000008010865
384,348,80921,2,0,B|436:308|436:308|296:224,1,210.000008010865
136,300,81721,2,0,B|84:312|72:356|72:356|20:356|0:272,1,210
12,136,82321,1,0,0:0:0:0:
64,260,82521,1,0,0:0:0:0:
96,128,82721,1,0,0:0:0:0:
140,256,82921,1,0,0:0:0:0:
220,144,83121,1,0,0:0:0:0:
184,276,83321,2,0,B|208:344|208:344|348:304,1,210.000008010865
468,256,83921,1,0,0:0:0:0:
336,220,84121,2,0,L|224:216,1,105.000004005432
100,320,84521,2,0,L|96:208,1,105.000004005432
96,80,84921,2,0,B|120:76|120:76|131:69|132:60|132:60|131:69|141:76|141:76|152:73|156:84|156:84|152:73|168:72|168:72|284:72,1,210.000008010865
416,80,85521,1,0,0:0:0:0:
368,188,85721,2,0,B|303:142|240:160|240:160|228:173|228:173|224:176|224:176|233:166|233:166|226:170|226:170|224:176|224:176|240:160|240:160|224:176|224:176|220:168|220:168|240:160|240:160|236:172|236:172|232:176|232:176|224:176|224:176|232:172|232:172|158:211|92:188,1,420.000016021729
352,336,86921,2,0,L|464:336,1,105.000004005432
320,304,87321,1,0,0:0:0:0:
288,32,87721,2,0,B|263:21|263:21|264:44|264:44|276:32|276:32|252:32|252:32|263:39,1,105.000004005432
176,144,88121,2,0,B|160:132|156:128|148:128|140:132|140:132|176:140|160:132|156:140|152:124|160:120|144:112|144:132|144:132|140:120|140:120|132:120|132:126|135:130|144:136|145:140|124:132|132:140|132:140|136:148|144:152|148:158|156:132|152:148|152:148|156:132|184:152,1,210.000008010865
304,208,88721,1,0,0:0:0:0:
432,224,88921,2,0,L|348:140,1,105.000004005432
412,36,89321,2,0,L|292:20,1,105.000004005432
172,0,89721,2,0,L|52:188,1,210.000008010865
4,304,90321,1,0,0:0:0:0:
116,224,90521,2,0,B|180:271|180:271|316:236,1,210.000008010865
440,216,91121,1,0,0:0:0:0:
336,288,91321,2,0,B|308:300|292:272|284:300|276:288|268:304|256:324|252:308|244:292|236:308|216:272|220:312|212:300|204:312|196:296|196:340|184:282|176:288|172:316|165:305|160:320|148:308|136:292,1,210.000008010865
76,168,91921,1,0,0:0:0:0:
188,244,92121,1,0,0:0:0:0:
176,88,92321,1,0,0:0:0:0:
232,212,92521,1,0,0:0:0:0:
256,96,92721,1,0,0:0:0:0:
384,48,92921,2,0,L|382:31,6,17.500000667572
440,216,93321,2,0,B|384:248|384:248|384:248|384:248|348:220|348:220|384:248|384:248|368:292|368:292|384:248|384:248,1,210.000008010865
104,224,94121,2,0,L|224:224,1,105.000004005432
232,88,94521,2,0,P|118:159|96:248,1,210.000008010865
96,360,95121,1,0,0:0:0:0:
224,336,95321,1,0,0:0:0:0:
96,280,95521,1,0,0:0:0:0:
232,276,95721,2,0,L|360:276,1,105.000004005432
228,192,96121,2,0,L|256:192,1,17.5
492,228,96521,1,0,0:0:0:0:
372,268,96721,1,0,0:0:0:0:
240,296,96921,2,0,B|135:304|135:304|183:279|187:242|187:242|194:211,1,210.000008010865
208,120,97521,1,0,0:0:0:0:
344,120,97721,2,0,B|323:109|312:96|312:96|304:104|304:104|296:95|296:95|288:100|288:100|288:88|288:88|208:40|208:40|268:72|268:72|208:40|208:40|144:144,1,420.000016021729
16,348,98921,1,0,0:0:0:0:
272,272,99321,2,0,B|296:288|296:288|256:292|256:292|264:272|264:272|292:272|292:272|276:304|276:304|256:280|256:280|276:264|276:264|280:264,1,210
504,116,100121,2,0,B|512:116|512:116|508:104|508:104|532:112|532:112|527:124|527:124|532:120|532:120|524:120|524:120|520:104|520:104|512:104|512:104|507:108|507:108|516:128|516:128|521:116|521:116|524:104|524:104|512:120|512:120|532:108|532:108|500:120,1,210.000008010865
276,236,100921,2,0,B|276:260|304:280|304:280|348:292|328:288|328:276|380:280|380:280|336:240|516:196|380:264|364:252|344:252|344:252|320:220|320:220,1,315.000012016297
304,88,101721,2,0,B|251:147|251:147|256:184,1,105.000004005432
272,312,102121,1,0,0:0:0:0:
48,160,102521,2,0,B|28:148|28:148|4:128|4:128|36:124|36:124|8:108|8:108|52:108|52:108|100:120,1,210.000008010865
232,136,103121,1,0,0:0:0:0:
116,184,103321,2,0,L|214:227,1,105.000004005432
336,284,103721,1,0,0:0:0:0:
268,168,103921,1,0,0:0:0:0:
176,264,104121,1,0,0:0:0:0:
256,192,104521,12,0,105321,0:0:0:0:
160,88,105721,6,0,B|177:82|177:82|184:91|184:91|197:85|197:85|208:94|208:94|220:90|220:90|224:98|224:98|240:94|240:94|244:106|244:106|260:100|260:100|272:116,1,140
125,90,106521,1,0,0:0:0:0:
304,112,106921,1,0,0:0:0:0:
204,272,107321,2,0,B|244:236|232:216|212:236|244:236|232:212|232:212|232:212|220:200|220:200|232:216|232:216|244:212|244:212|264:216,1,140
380,240,107921,1,0,0:0:0:0:
268,280,108121,2,0,B|207:328|207:328|152:296,1,140
0,232,108921,2,0,B|69:210|69:210|85:222|119:177|109:167|109:167|57:182|52:193|84:193|89:186|89:157|89:157|96:176|78:187|78:187|112:205|112:205|135:183|135:183|147:176|147:176|191:125,1,420
264,68,110321,1,0,0:0:0:0:
352,80,110521,2,0,L|236:184,1,140
168,224,111121,1,0,0:0:0:0:
253,304,111321,2,0,L|228:302,9,17.5
308,160,112121,2,0,B|276:154|276:154|328:72,1,105
360,32,112521,2,0,L|272:0,1,70
160,24,112921,2,0,L|160:96,1,70
160,184,113321,1,0,0:0:0:0:
344,200,113721,2,0,L|192:148,1,140
128,120,114321,1,0,0:0:0:0:
177,227,114521,2,0,L|221:150,1,70
312,51,114921,1,0,0:0:0:0:
134,85,115321,2,0,L|255:187,1,140
312,220,115921,1,0,0:0:0:0:
380,276,116121,2,0,L|464:136,1,140
492,68,116721,1,0,0:0:0:0:
388,84,116921,2,0,L|240:128,1,140
168,164,117521,1,0,0:0:0:0:
76,160,117721,1,0,0:0:0:0:
168,164,117921,1,0,0:0:0:0:
68,140,118121,1,0,0:0:0:0:
256,192,118521,12,0,119321,0:0:0:0:
240,192,119721,5,0,0:0:0:0:
80,112,120121,6,0,B|165:63|165:63|240:64,1,140
304,64,120721,1,0,0:0:0:0:
400,64,120921,1,0,0:0:0:0:
224,64,121321,1,0,0:0:0:0:
400,112,121721,6,0,B|450:112|546:80|408:148|440:148|428:170|428:170|428:172|387:202|387:202|426:186|426:186|263:218|263:218|231:192|231:192|250:229|250:229|212:194|212:194|186:284|77:264|-4:295|-4:295|-2:302|-2:302|-12:298|-12:298|-2:280|-2:280|12:293|12:293|-55:318|-62:234|7:227|7:227|26:162|95:181|95:181|105:169|105:169|101:186|101:186|97:172|97:172|95:186|95:186|114:176|117:185|104:186|104:186|106:198|106:198|148:196|148:196|129:193|129:193|153:183|153:183|152:160|159:146|208:144|208:144|191:101|191:101|215:133|225:135|225:135|263:92|263:92|263:177|301:148|301:148|359:101|359:101,1,1680
224,224,126921,1,0,0:0:0:0:
306,159,127121,1,0,0:0:0:0:
380,106,127321,2,0,L|434:256,1,140
248,275,128121,2,0,L|124:154,1,140
130,87,128721,1,0,0:0:0:0:
220,94,128921,2,0,B|335:110|335:110|352:144,1,140
368,224,129521,1,0,0:0:0:0:
300,286,129721,2,0,B|325:251|325:251|304:259|304:259|361:207|361:207|335:180|335:180|301:187|301:187,1,210
217,208,130521,5,0,0:0:0:0:
396,152,131321,5,0,0:0:0:0:
228,272,131921,2,0,L|376:256,1,140
336,172,132521,1,0,0:0:0:0:
456,312,132921,2,0,L|246:312,1,210
156,300,133721,2,0,L|220:160,1,140
400,176,134521,2,0,L|504:40,1,140
384,72,135121,1,0,0:0:0:0:
192,96,135721,1,0,0:0:0:0:
368,144,136121,2,0,L|240:224,1,140
176,272,136721,2,0,L|208:176,1,70
240,128,137121,1,0,0:0:0:0:
304,192,137321,2,0,L|296:116,1,70
288,32,137721,2,0,L|168:112,1,140
92,172,138321,2,0,L|236:160,1,140
204,248,138921,2,0,B|270:213|270:213|312:144,1,140
500,344,139921,1,0,0:0:0:0:
412,320,140121,2,0,L|340:268,1,87.5
304,240,140521,1,0,0:0:0:0:
496,220,140921,1,0,0:0:0:0:
164,336,141521,1,0,0:0:0:0:
360,60,142121,1,0,0:0:0:0:
404,304,142521,2,0,B|332:328|304:328|288:320|268:312|240:300|200:332,1,210
112,336,143321,2,0,L|68:272,1,70
36,196,143721,2,0,L|52:128,1,70
4,76,144121,2,0,L|148:120,1,140
284,164,144721,2,0,L|288:132,4,17.5
16,148,145321,1,0,0:0:0:0:
176,160,145721,1,0,0:0:0:0:
256,320,146321,2,0,B|320:332|337:278|337:278|368:248,1,140
404,168,146921,2,0,B|428:104|388:96|368:97|350:102|350:102|336:80|328:98|320:80|320:80|309:90|304:80|290:97|290:97|272:96|263:98|263:98|264:136|244:112|244:112|224:140,1,280
164,204,147921,2,0,B|116:224|116:224|51:239|51:239|120:272|152:268,1,210
320,268,148921,2,0,L|204:348,2,140
180,188,150121,1,0,0:0:0:0:
360,168,150521,2,0,L|440:164,1,70
396,80,150921,2,0,B|310:118|310:118|192:88,1,210
108,76,151721,2,0,B|158:145|158:145|216:156,1,140
392,168,152521,2,0,L|336:224,1,70
288,288,152921,2,0,P|376:304|436:283,1,140
396,124,153721,2,0,P|312:108|248:116,1,140
252,204,154321,2,0,P|132:192|104:112,1,210
260,28,155321,1,0,0:0:0:0:
96,292,155921,1,0,0:0:0:0:
44,340,156121,2,0,L|192:340,1,140
356,280,156921,2,0,L|204:280,1,140
176,212,157521,2,0,L|320:168,1,140
164,88,158121,2,0,L|244:96,1,70
324,84,158521,2,0,L|412:208,1,140
316,188,159121,2,0,B|240:140|240:140|140:172,2,175
44,212,160721,1,0,0:0:0:0:
280,48,161321,1,0,0:0:0:0:
352,216,161721,2,0,B|296:304|296:304|184:268,1,210
232,184,162521,2,0,B|305:200|305:200|264:144,1,140
336,40,163321,2,0,L|408:160,1,140
448,240,163921,2,0,L|304:196,1,140
232,232,164521,1,0,0:0:0:0:
48,124,164921,2,0,L|192:88,1,140
256,144,165521,2,0,L|372:196,1,122.5
280,212,166071,2,0,L|372:256,1,87.5
432,292,166521,2,0,L|212:292,2,210
380,220,167921,1,0,0:0:0:0:
328,144,168121,2,0,L|116:120,1,210
48,64,168921,2,0,L|196:64,1,140
344,160,169721,2,0,L|192:16,1,210
208,288,170921,1,0,0:0:0:0:
392,264,171321,2,0,L|240:216,1,140
256,192,172121,12,0,174521,0:0:0:0:
160,209,175121,5,0,0:0:0:0:
294,189,175721,1,0,0:0:0:0:
168,92,176121,1,0,0:0:0:0:
256,192,176521,12,0,181721,0:0:0:0:
320,248,182921,5,0,0:0:0:0:
144,192,183321,5,0,0:0:0:0:
272,64,183721,1,0,0:0:0:0:
404,192,184121,2,0,B|444:208|432:224|352:256|352:256|460:258|460:258,1,210.000008010865
176,288,184921,2,0,B|148:295|148:295|158:277|158:277|165:305|165:305|169:280|169:280|176:299|176:299|146:282|146:282|182:299|182:299|170:293|184:284,1,210.000008010865
448,224,185721,2,0,B|450:199|450:199|444:192|444:192|448:184|448:184|436:184|436:184|432:184|444:176|444:176|435:174|435:174|424:176|424:168|424:168|427:160|427:160|432:164|432:164|436:168|436:168|428:172|428:172|424:168|424:168|418:163|418:163|428:160|428:160|412:160|412:160|420:152|420:152|408:156|408:156|412:144|388:136,1,210.000008010865
320,96,186321,1,0,0:0:0:0:
240,96,186521,1,0,0:0:0:0:
144,128,186721,1,0,0:0:0:0:
64,224,186921,1,0,0:0:0:0:
80,336,187121,1,0,0:0:0:0:
192,308,187321,2,0,B|207:293|207:293|205:285|205:285|212:280|208:275|208:275|212:272|212:272|216:264|216:264|206:261|208:252|208:252|213:244|216:248|216:248|224:244|216:232|216:232|232:236|232:236|229:232|229:232|228:224|228:224|232:222|232:222|236:220|236:220|225:214|225:214|232:212|232:212|232:208|232:208|240:208|240:208|276:176,1,210.000008010865
384,104,187921,1,0,0:0:0:0:
440,232,188121,2,0,B|480:240|480:240|400:272|400:272,1,105.000004005432
288,296,188521,1,0,0:0:0:0:
160,328,188721,1,0,0:0:0:0:
64,248,188921,2,0,B|89:226|89:226|88:216|88:216|96:208|96:208|108:208|108:208|107:196|107:196|116:192|116:192|116:183|116:183|128:128|188:96,1,210.000008010865
308,36,189521,1,0,0:0:0:0:
236,116,189721,2,0,B|348:100|348:100|332:104|332:104|340:108|340:108|324:112|324:112|332:112|332:112|316:124|316:124|407:74|407:74|328:208,1,420.000016021729
100,320,190921,2,0,L|216:320,1,105.000004005432
436,248,191321,2,0,L|320:248,1,105.000004005432
184,248,191721,2,0,L|296:248,1,105.000004005432
152,248,192121,2,0,B|26:240|26:240|96:192,1,210.000008010865
208,112,192721,1,0,0:0:0:0:
268,216,192921,2,0,L|192:296,1,105.000004005432
288,192,193321,2,0,L|384:128,1,105.000004005432
380,260,193721,2,0,B|328:237|328:237|316:230|316:230|309:233|309:233|305:224|305:224|293:227|293:227|289:218|289:218|280:220|280:220|277:214|277:214|268:216|268:216|260:208|260:208|252:216|252:216|200:224,1,210
72,264,194321,1,0,0:0:0:0:
168,168,194521,1,0,0:0:0:0:
176,304,194721,5,0,0:0:0:0:
56,240,194921,1,0,0:0:0:0:
192,248,195121,1,0,0:0:0:0:
188,136,195321,2,0,B|240:120|320:156|312:212|372:184|372:184|324:216|324:216|368:180|368:180|344:212|344:212|356:184|356:184|348:220|348:220,1,420
264,324,196321,1,0,0:0:0:0:
396,284,196521,1,0,0:0:0:0:
260,266,196721,1,0,0:0:0:0:
132,315,196921,2,0,L|140:343,11,26.2500010013581
76,188,197721,2,0,B|116:182|116:182|120:169|120:169|96:176|176:204|176:204|120:152|120:132,1,210.000008010865
312,92,198521,2,0,B|290:108|267:104|267:104|208:80|203:125|203:125|184:172|132:160,1,210
0,152,199121,1,0,0:0:0:0:
104,64,199321,1,0,0:0:0:0:
88,200,199521,1,0,0:0:0:0:
152,320,199721,1,0,0:0:0:0:
288,312,199921,1,0,0:0:0:0:
204,208,200121,2,0,L|432:204,1,210.000008010865
512,208,200721,2,0,L|400:208,1,105.000004005432
268,208,201121,1,0,0:0:0:0:
172,108,201321,1,0,0:0:0:0:
288,36,201521,1,0,0:0:0:0:
340,164,201721,2,0,B|294:170|294:170|292:162|292:162|286:168|286:168|283:161|283:161|277:169|277:169|234:169|234:169|188:144|188:144|152:184,1,210.000008010865
56,292,202321,1,0,0:0:0:0:
36,128,202521,2,0,B|-16:197|-16:197|8:164|8:164|-16:200|-16:200|16:240,1,210.000008010865
256,352,203321,2,0,L|232:356,6,17.5
384,296,203721,2,0,L|408:300,6,17.5
358,158,204121,2,0,L|376:156,6,17.5
172,144,204521,2,0,L|154:142,6,17.5
304,184,204921,2,0,B|356:133|356:133|439:87|464:112|464:112|448:144,1,210.000008010865
376,240,205521,1,0,0:0:0:0:
264,312,205721,2,0,P|218:328|156:320,1,105.000004005432
40,264,206121,1,0,0:0:0:0:
304,184,206521,2,0,B|215:104|215:104|128:168,1,210.000008010865
356,172,207121,1,0,0:0:0:0:
360,296,207321,2,0,B|320:160|320:160|248:160,1,210.000008010865
120,176,207921,1,0,0:0:0:0:
80,304,208121,2,0,B|80:240|80:240|48:232|48:232|8:216|8:216|15:179|15:179|64:160,1,210.000008010865
160,112,208721,1,0,0:0:0:0:
312,28,208921,1,0,0:0:0:0:
204,108,209121,1,0,0:0:0:0:
112,208,209321,2,0,L|216:184,1,105.000004005432
348,160,209721,2,0,L|372:156,6,17.5
192,232,210171,2,0,L|300:172,1,105.000004005432
368,128,210521,2,0,L|224:144,1,105.000004005432
128,160,210921,1,0,0:0:0:0:
380,208,211321,2,0,B|268:260|268:260|272:348,1,210
336,344,211921,1,0,0:0:0:0:
200,344,212121,1,0,0:0:0:0:
64,352,212321,1,0,0:0:0:0:
168,264,212521,1,0,0:0:0:0:
272,176,212721,1,0,0:0:0:0:
108,212,212921,2,0,L|252:52,1,210.000008010865
364,128,213521,1,0,0:0:0:0:
272,224,213721,2,0,L|176:144,1,105.000004005432
64,32,214121,1,0,0:0:0:0:
124,156,214321,1,0,0:0:0:0:
240,228,214521,2,0,B|376:280|376:280|272:304,1,210.000008010865
180,316,215121,1,0,0:0:0:0:
52,264,215321,2,0,B|84:236|84:236|100:224|100:224|84:224|84:224|104:216|104:216|84:216|84:216|112:208|112:208|92:204|92:204|120:200|120:200|100:196|100:196|164:192|164:192|112:188|112:188|236:180,1,420.000016021729
448,72,216521,2,0,B|472:72|472:72|497:64|497:64|491:71|491:71|488:80|496:85|496:85|505:82|505:82|496:92|496:92|508:92|508:92|494:98|494:98|504:100|504:100|508:112|508:112|511:128|511:128|512:160|512:160|472:172,1,210.000008010865
340,340,217321,1,0,0:0:0:0:
428,180,217721,1,0,0:0:0:0:
284,256,218121,1,0,0:0:0:0:
352,136,218321,1,0,0:0:0:0:
280,260,218521,1,0,0:0:0:0:
120,176,218921,1,0,0:0:0:0:
348,24,219321,2,0,L|456:220,1,210.000008010865
316,240,219921,1,0,0:0:0:0:
200,268,220121,2,0,L|328:88,1,210.000008010865
456,128,220721,1,0,0:0:0:0:
321,96,220921,2,0,L|96:124,1,210.000008010865
132,256,221521,1,0,0:0:0:0:
236,164,221721,1,0,0:0:0:0:
196,296,221921,1,0,0:0:0:0:
300,204,222121,1,0,0:0:0:0:
428,252,222321,2,0,B|400:296|400:296|396:256|388:265|388:288|380:296|380:296|380:284|376:304|376:304|356:292|362:300|336:302|321:289|292:280,1,210.000008010865
200,184,222921,2,0,B|160:252|160:252|224:296,1,157.5
291,311,223321,2,0,B|325:252|325:252|244:204,1,157.500006008148
288,128,223746,1,0,0:0:0:0:
32,112,224121,2,0,L|12:108,11,17.5
160,160,224721,1,0,0:0:0:0:
190,35,224921,2,0,L|240:136,1,105.000004005432
368,192,225321,1,0,0:0:0:0:
240,160,225521,1,0,0:0:0:0:
128,224,225721,2,0,B|-8:172|-8:172|72:148|72:148,1,210.000008010865
192,112,226321,1,0,0:0:0:0:
320,128,226521,2,0,L|208:176,1,105.000004005432
168,272,226921,2,0,L|296:256,1,105.000004005432
408,260,227321,2,0,B|236:236|236:236|308:204,1,210.000008010865
400,176,227921,1,0,0:0:0:0:
272,160,228121,2,0,B|232:164|232:164|244:172|244:172|232:164|232:164|229:180|229:180|232:156|232:156|218:176|218:176|208:164|208:164|200:192|200:192|216:168|216:168|197:196|197:196|196:164|196:164|192:180|192:180|168:158|168:158|196:168|196:168|156:160|124:156|96:168,1,420.000016021729
128,368,229221,1,0,0:0:0:0:
168,368,229321,2,0,B|268:372|268:372|300:356,1,105
436,360,229721,2,0,L|436:128,1,210.000008010865
276,56,230521,2,0,P|92:80|80:104,1,210
224,112,231121,1,0,0:0:0:0:
96,160,231321,2,0,L|216:192,1,105.000004005432
320,128,231721,2,0,L|236:194,1,105.000004005432
172,264,232121,2,0,L|196:308,6,35
116,140,232721,1,0,0:0:0:0:
176,16,232921,1,0,0:0:0:0:
248,280,233321,1,0,0:0:0:0:
284,148,233521,1,0,0:0:0:0:
408,312,233721,1,0,0:0:0:0:
256,192,234371,12,0,235321,0:0:0:0:
80,288,235721,5,0,0:0:0:0:
352,272,236121,1,0,0:0:0:0:
408,8,236521,1,0,0:0:0:0:
292,192,236921,1,0,0:0:0:0:
208,80,237121,1,0,0:0:0:0:
288,192,237321,2,0,L|188:224,1,105
56,176,237721,1,0,0:0:0:0:
184,128,237921,1,0,0:0:0:0:
312,168,238121,2,0,L|442:168,1,105.000004005432
390,67,238521,6,0,L|406:59,6,17.5
344,204,238921,6,0,L|456:205,1,105.000004005432
344,204,239321,6,0,L|236:205,1,105.000004005432
102,210,239721,1,0,0:0:0:0:
368,176,240121,2,0,B|285:163|285:163|344:153|344:153|285:138|285:138|209:124|209:124|190:169,1,315.000012016297
176,288,240921,2,0,B|168:324|168:324|256:320|256:320,1,105.000004005432
368,304,241321,1,0,0:0:0:0:
416,176,241521,1,0,0:0:0:0:
334,67,241721,2,0,B|318:75|318:75|310:67|310:67|298:71|298:71|306:87|306:87|292:86|292:86|290:76|290:76|274:87|274:87|258:95|258:95|227:110|217:133|276:174,1,210.000008010865
436,371,242521,1,0,0:0:0:0:
304,136,242921,2,0,L|184:136,1,105.000004005432
64,168,243321,2,0,B|160:168|160:168|208:280,1,210
80,328,243921,1,0,0:0:0:0:
216,328,244121,2,0,B|324:328|324:328,1,105.000004005432
424,248,244521,2,0,B|316:248,1,105.000004005432
184,240,244921,2,0,B|188:232|192:240|192:240|180:224|180:224|198:223|196:228|196:228|212:228|204:220|204:220|208:212|208:212|184:208|184:208|188:196|188:196,1,105.000004005432
160,40,245321,1,0,0:0:0:0:
264,128,245521,1,0,0:0:0:0:
396,100,245721,2,0,L|296:148,1,105.000004005432
180,212,246121,1,0,0:0:0:0:
0,360,246521,2,0,P|104:352|104:352,1,105.000004005432
224,272,246921,2,0,L|160:168,1,105.000004005432
88,56,247321,2,0,L|204:40,1,105.000004005432
128,160,247721,1,0,0:0:0:0:
272,160,247921,1,0,0:0:0:0:
144,272,248121,2,0,L|124:272,6,17.5
272,224,248521,2,0,L|340:316,1,105.000004005432
140,356,248921,2,0,L|356:284,1,210.000008010865
284,128,249721,1,0,0:0:0:0:
116,160,249921,1,0,0:0:0:0:
172,284,250121,2,0,L|272:216,1,105.000004005432
424,184,250521,2,0,L|328:136,1,105.000004005432
208,72,250921,1,0,0:0:0:0:
160,200,251121,1,0,0:0:0:0:
24,176,251321,2,0,L|8:156,4,26.2500010013581
112,280,251721,6,0,L|208:236,1,105.000004005432
400,168,252121,2,0,L|296:184,1,105.000004005432
160,204,252521,2,0,L|272:152,1,105.000004005432
240,16,252921,2,0,L|352:64,1,105.000004005432
480,64,253321,2,0,L|392:136,1,105.000004005432
302,147,253721,1,0,0:0:0:0:
193,229,253921,1,0,0:0:0:0:
324,223,254121,1,0,0:0:0:0:
216,304,254321,1,0,0:0:0:0:
344,256,254521,2,0,L|360:236,6,17.5
320,120,254921,2,0,L|336:112,6,17.5
200,176,255321,2,0,L|184:168,6,17.5
328,224,255721,2,0,L|312:232,6,17.5
448,160,256121,1,0,0:0:0:0:
352,64,256321,1,0,0:0:0:0:
496,176,256521,1,0,0:0:0:0:
384,256,256721,1,0,0:0:0:0:
256,288,256921,2,0,P|216:272|172:220,1,105.000004005432
192,96,257321,2,0,P|148:160|152:232,1,105.000004005432
160,320,257721,2,0,L|148:332,6,17.500000667572
256,208,258121,2,0,L|276:212,6,17.500000667572
128,176,258521,2,0,L|136:156,6,17.500000667572
96,304,258921,1,0,0:0:0:0:
368,320,259321,2,0,B|384:288|384:288|368:272|368:272|384:256|384:256|384:208,1,105.000004005432
380,136,259721,1,0,0:0:0:0:
252,184,259921,1,0,0:0:0:0:
176,128,260121,5,0,0:0:0:0:
308,92,260321,1,0,0:0:0:0:
244,212,260521,1,0,0:0:0:0:
380,228,260721,2,0,B|361:291|261:283,1,105.000004005432
256,192,261321,12,0,266521,0:0:0:0:
256,192,267321,12,0,272521,0:0:0:0:
160,208,272921,6,0,B|176:200|192:192|220:180|224:184|224:192|224:208|236:220|176:264,1,140
320,224,273621,2,0,L|368:200,4,52.5
264,128,274371,2,0,L|204:148,5,52.5
404,120,275271,2,0,L|356:152,1,52.5
320,224,275571,2,0,L|272:184,3,52.5
208,128,276121,2,0,B|240:112|240:112|224:112|224:112|232:120|232:120|240:112|240:112|248:104|248:104|232:104|232:104|240:112|240:112|248:120|248:120|256:112|256:112|248:104|248:104,1,140
256,192,276921,12,0,278921,0:0:0:0:
176,120,279321,6,0,P|191:176|288:200,1,140
440,168,280121,1,0,0:0:0:0:
272,232,280521,1,0,0:0:0:0:
104,72,280921,1,0,0:0:0:0:
308,188,281321,1,0,0:0:0:0:
72,280,281721,1,0,0:0:0:0:
240,352,282121,1,0,0:0:0:0:
272,172,282521,1,0,0:0:0:0:
148,284,282921,1,0,0:0:0:0:
100,100,283321,2,0,B|175:101|200:76|200:76|260:108|248:128,1,175
248,212,284021,2,0,B|295:234|308:216|352:196|352:196|352:184|370:150|370:150|323:142|323:142|284:164|284:164|172:148|240:100|240:100|292:128|240:160,1,455
