osu file format v14

[General]
AudioFilename: audio.mp3
AudioLeadIn: 0
PreviewTime: -1
Countdown: 1
SampleSet: Soft
StackLeniency: 0.7
Mode: 0
LetterboxInBreaks: 0
WidescreenStoryboard: 0

[Editor]
DistanceSpacing: 1.3
BeatDivisor: 8
GridSize: 4
TimelineZoom: 1

[Metadata]
Title:Beautiful
TitleUnicode:Beautiful
Artist:Obsidia Ft. CoMa
ArtistUnicode:Obsidia Ft. CoMa
Creator:IMkoley
Version:Tell Me Something
Source:
Tags:
BeatmapID:1362739
BeatmapSetID:642796

[Difficulty]
HPDrainRate:5
CircleSize:4
OverallDifficulty:7
ApproachRate:9
SliderMultiplier:1.70000000596046
SliderTickRate:1

[Events]
//Background and Video events
0,0,"maxresdefault.jpg",0,0
//Break Periods
2,2118,3032
2,8263,13312
2,41109,56595
2,141160,161575
2,251935,252851
//Storyboard Layer 0 (Background)
//Storyboard Layer 1 (Fail)
//Storyboard Layer 2 (Pass)
//Storyboard Layer 3 (Foreground)
//Storyboard Sound Samples

[TimingPoints]
-224.550643149077,425.531914893617,4,2,0,100,1,0
3632,422.535211267606,4,2,0,100,1,0
7060,422.535211267606,4,2,0,100,1,0
10489,419.58041958042,4,2,0,100,1,0
12586,425.531914893617,4,2,0,100,1,0
13912.6024899685,428.571428571429,4,2,0,100,1,0
20768,428.571428571429,4,2,0,100,1,0
27625,428.571428571429,4,2,0,100,1,0
31053,428.571428571429,4,2,0,100,1,0
34481,428.571428571429,4,2,0,100,1,0
68766,434.782608695652,4,2,0,100,1,0
70496.8181733777,422.535211267606,4,2,0,100,1,0
73877,425.531914893617,4,2,0,100,1,0
77281,428.571428571429,4,2,0,100,1,0
78138,434.782608695652,4,2,0,100,1,0
81616,425.531914893617,4,2,0,100,1,0
84224,422.535211267606,4,2,0,100,1,0
87604,428.571428571429,4,2,0,100,1,0
170762,857.142857142857,4,2,0,100,1,0
173315,952.380952380952,4,2,0,100,1,0
175048.569035403,425.531914893617,4,2,0,100,1,0
178452,428.571428571429,4,2,0,100,1,0
188737,425.531914893617,4,2,0,100,1,0
192141,434.782608695652,4,2,0,100,1,0
195619,428.571428571429,4,2,0,100,1,0
229904,425.531914893617,4,2,0,100,1,0
233308,425.531914893617,4,2,0,100,1,0
236712,431.654676258993,4,2,0,100,1,0
240165,428.571428571429,4,2,0,100,1,0

[HitObjects]
220,168,204,5,0,0:0:0:0:
324,128,632,1,0,0:0:0:0:
312,120,1061,1,0,0:0:0:0:
304,296,1489,1,0,0:0:0:0:
116,172,1918,1,0,0:0:0:0:
228,116,3632,5,0,0:0:0:0:
272,208,3843,1,0,0:0:0:0:
404,176,4054,1,0,0:0:0:0:
312,116,4265,2,0,L|216:128,1,85.000000298023
180,248,4688,1,0,0:0:0:0:
116,156,4899,2,0,L|96:244,1,85.000000298023
208,232,5322,5,0,0:0:0:0:
288,152,5533,2,0,L|216:88,1,85.000000298023
140,56,5955,1,0,0:0:0:0:
124,148,6167,1,0,0:0:0:0:
196,204,6378,1,0,0:0:0:0:
280,164,6589,2,0,L|368:136,1,85.000000298023
304,16,7012,1,0,0:0:0:0:
340,100,7218,1,0,0:0:0:0:
248,80,7429,1,0,0:0:0:0:
296,160,7640,1,0,0:0:0:0:
204,156,7852,1,0,0:0:0:0:
252,236,8063,1,0,0:0:0:0:
144,192,13912,6,0,L|324:192,1,170.000000596046
124,196,14769,1,0,0:0:0:0:
312,224,15198,1,0,0:0:0:0:
260,40,15626,1,0,0:0:0:0:
52,116,16055,1,0,0:0:0:0:
76,200,16269,2,0,L|180:188,1,85.000000298023
220,132,16698,2,0,L|192:96,4,42.5000001490115
308,236,17341,1,0,0:0:0:0:
220,288,17555,2,0,L|308:304,2,85.000000298023
140,316,18198,2,0,L|216:244,1,85.000000298023
308,228,18626,2,0,L|244:164,2,85.000000298023
396,296,19269,1,0,0:0:0:0:
476,216,19483,1,0,0:0:0:0:
364,208,19697,1,0,0:0:0:0:
420,112,19912,1,0,0:0:0:0:
312,128,20126,1,0,0:0:0:0:
204,156,20340,1,0,0:0:0:0:
352,232,20768,5,0,0:0:0:0:
192,264,20982,2,0,L|284:268,1,85.000000298023
348,184,21410,1,0,0:0:0:0:
220,124,21625,1,0,0:0:0:0:
356,300,22053,1,0,0:0:0:0:
428,84,22482,2,0,B|356:84|300:80|272:120|336:140,1,170.000000596046
408,200,23125,1,0,0:0:0:0:
300,224,23339,1,0,0:0:0:0:
168,180,23553,1,0,0:0:0:0:
264,236,23768,1,0,0:0:0:0:
236,104,23982,2,0,L|320:156,1,85.000000298023
104,256,25053,1,0,0:0:0:0:
472,188,25910,1,0,0:0:0:0:
100,156,26768,1,0,0:0:0:0:
420,352,27625,1,0,0:0:0:0:
204,312,28053,1,0,0:0:0:0:
416,248,28482,1,0,0:0:0:0:
196,252,28910,1,0,0:0:0:0:
288,52,29339,1,0,0:0:0:0:
264,172,29767,1,0,0:0:0:0:
316,136,29982,2,0,L|404:112,2,85.000000298023
228,168,30625,1,0,0:0:0:0:
144,128,30839,2,0,L|72:80,2,85.000000298023
216,188,31481,1,0,0:0:0:0:
236,280,31695,1,0,0:0:0:0:
144,336,31910,2,0,L|64:276,1,85.000000298023
96,196,32338,5,0,0:0:0:0:
188,184,32553,2,0,L|116:236,3,85.000000298023
200,284,33410,1,0,0:0:0:0:
296,264,33624,2,0,L|396:252,2,85.000000298023
208,268,34267,2,0,L|160:232,1,42.5000001490115
148,204,34481,2,0,P|256:200|284:144,1,170.000000596046
116,68,35338,1,0,0:0:0:0:
68,248,35766,1,0,0:0:0:0:
248,204,36195,2,0,P|260:276|192:336,1,170.000000596046
88,196,37052,2,0,L|272:188,1,170.000000596046
348,168,37695,1,0,0:0:0:0:
324,76,37910,1,0,0:0:0:0:
232,92,38124,1,0,0:0:0:0:
248,184,38338,1,0,0:0:0:0:
156,196,38552,2,0,L|60:224,1,85.000000298023
36,152,38981,2,0,L|128:128,1,85.000000298023
192,76,39409,2,0,B|184:72|172:64|172:64|176:84|156:76|156:76|132:44,2,85.000000298023
284,84,40052,1,0,0:0:0:0:
216,148,40266,1,0,0:0:0:0:
160,224,40481,2,0,P|180:264|304:256,1,170.000000596046
256,192,57195,12,0,59338,0:0:0:0:
168,188,60194,5,0,0:0:0:0:
256,124,60409,1,0,0:0:0:0:
324,208,60623,1,0,0:0:0:0:
460,36,61052,1,0,0:0:0:0:
360,84,61266,1,0,0:0:0:0:
252,112,61481,1,0,0:0:0:0:
184,168,61695,2,0,L|240:236,2,85.000000298023
256,192,63623,12,0,67909,0:0:0:0:
196,132,68766,5,0,0:0:0:0:
128,332,69255,2,0,P|188:352|280:280,1,170.000000596046
284,112,70124,2,0,L|264:176,1,63.7500002235173
384,92,70505,6,0,P|328:40|104:112,1,340.000001192092
92,216,71553,1,0,0:0:0:0:
200,240,71764,1,0,0:0:0:0:
300,196,71975,1,0,0:0:0:0:
304,108,72186,2,0,B|280:116|280:116|284:124|284:124|288:112|288:112|288:107|288:101|288:101|280:132|268:120|243:122|180:168,2,170.000000596046
392,144,73243,1,0,0:0:0:0:
316,200,73454,1,0,0:0:0:0:
376,272,73665,1,0,0:0:0:0:
296,348,73877,2,0,B|268:348|268:348|276:340|276:340|260:352|260:352|272:336|272:336|252:352|252:352|264:336|264:336|256:324|256:324|176:332|176:332|244:328|244:328|312:276|312:276|248:332|248:332|228:264,1,510.000001788138
296,72,75579,2,0,L|212:102,1,85.000000298023
104,104,76004,2,0,L|204:52,1,106.250000372529
308,40,76483,2,0,L|380:84,3,85.000000298023
340,188,77334,2,0,B|328:188|321:189|321:189|312:184|312:184|308:192|308:192|296:184|296:184|292:196|292:196|284:194|284:194|280:188|280:188|272:199|272:199|268:188|268:188|260:192|260:192|253:188|253:188|252:195|252:195|248:192|248:192|245:209|245:209|241:195|241:195|232:200|212:223|212:223|192:256,1,233.750000819563
176,352,78138,2,0,L|272:360,2,85.000000298023
92,308,78790,1,0,0:0:0:0:
124,212,79007,2,0,B|143:177|143:177|168:200|168:200|144:208|144:208|188:144,1,170.000000596046
348,56,79877,2,0,L|284:124,1,85.000000298023
388,144,80311,2,0,L|300:168,1,85.000000298023
232,228,80746,2,0,L|308:276,1,85.000000298023
392,252,81181,2,0,L|348:180,1,85.000000298023
212,188,81616,2,0,L|184:196,1,21.2500000745058
236,140,81828,2,0,L|260:148,1,21.2500000745058
320,204,82041,2,0,L|300:192,1,21.2500000745058
320,112,82254,2,0,L|300:100,1,21.2500000745058
236,52,82467,2,0,L|336:64,1,85.000000298023
380,156,82892,6,0,L|380:196,3,21.2500000745058
244,228,83318,2,0,L|236:320,2,85.000000298023
180,136,83956,1,0,0:0:0:0:
300,72,84222,2,0,B|288:48|288:48|279:52|279:52|276:44|276:44|268:60|268:60|272:40|272:40|264:56|264:56|264:44|264:44|260:56|260:56|256:40|256:40|252:48|252:48|252:40|252:40|208:56|208:56|176:84,1,233.750000819563
176,184,85016,1,0,0:0:0:0:
300,172,85227,1,0,0:0:0:0:
232,256,85438,1,0,0:0:0:0:
340,276,85649,1,0,0:0:0:0:
244,332,85861,2,0,B|204:368|156:368|156:368|144:324|80:348,2,170.000000596046
348,292,86918,1,0,0:0:0:0:
248,244,87129,1,0,0:0:0:0:
268,136,87340,1,0,0:0:0:0:
356,204,87604,2,0,L|376:200,14,21.2500000745058
328,208,88461,2,0,L|240:252,1,85.000000298023
148,328,88889,2,0,L|236:288,1,85.000000298023
136,188,89318,2,0,L|216:128,1,85.000000298023
316,144,89746,2,0,L|236:84,1,85.000000298023
140,56,90175,1,0,0:0:0:0:
52,116,90389,1,0,0:0:0:0:
96,220,90604,1,0,0:0:0:0:
184,288,90818,1,0,0:0:0:0:
292,320,91032,2,0,B|304:328|304:328|308:323|308:323|316:321|316:321|314:329|314:329|325:326|325:326|324:320|324:320|332:325|332:325|332:316|332:316|344:324|344:324|340:316|340:316|348:316|348:316|352:324|352:324|360:323|360:323|355:317|355:317|364:317|364:317|366:322|366:322|372:320|372:320|368:312|368:312|380:316|380:316|376:312|376:312|385:311|385:311|380:308|380:308|388:308|388:308|384:300|384:300|392:300|392:300|387:294|387:294|386:287|386:287|393:289|393:289|384:280|384:280|372:264,1,255.000000894069
356,168,91889,2,0,L|384:168,4,21.2500000745058
252,204,92318,2,0,L|274:204,1,21.2500000745058
348,244,92532,1,0,0:0:0:0:
256,308,92746,2,0,B|208:364|214:334|180:320|180:320|156:352|104:344,1,170.000000596046
100,124,93604,2,0,L|46:200,1,85.000000298023
124,268,94032,2,0,L|256:152,1,170.000000596046
360,144,94675,1,0,0:0:0:0:
472,148,94889,2,0,B|432:248|432:248|352:260,1,170.000000596046
308,180,95532,1,0,0:0:0:0:
204,228,95747,1,0,0:0:0:0:
208,340,95961,1,0,0:0:0:0:
360,280,96175,2,0,B|304:252|304:252|288:228,1,85.000000298023
196,292,96604,2,0,B|196:240|196:240|148:236,1,85.000000298023
100,148,97032,2,0,B|12:200,1,85.000000298023
152,252,97461,2,0,L|236:200,1,85.000000298023
68,132,97889,1,0,0:0:0:0:
152,100,98104,1,0,0:0:0:0:
236,68,98318,1,0,0:0:0:0:
420,192,98746,1,0,0:0:0:0:
320,236,98961,1,0,0:0:0:0:
216,276,99175,1,0,0:0:0:0:
236,168,99389,1,0,0:0:0:0:
108,172,99604,2,0,L|168:100,1,85.000000298023
252,88,100032,2,0,L|149:227,1,170.000000596046
108,308,100675,1,0,0:0:0:0:
196,340,100890,1,0,0:0:0:0:
220,248,101104,1,0,0:0:0:0:
324,216,101318,2,0,B|358:185|358:185|355:165|355:165|362:177|362:177|359:153|359:153|366:170|366:170|364:145|364:145|371:162|371:162|368:148|368:148|380:140|380:140|368:140|368:140|376:132|376:132|368:120|356:120|344:116,1,255.000000894069
232,116,102175,2,0,L|152:152,1,85.000000298023
240,224,102604,2,0,L|320:288,1,85.000000298023
396,340,103032,2,0,L|416:248,1,85.000000298023
504,208,103461,2,0,P|454:141|367:113,1,170.000000596046
272,156,104104,1,0,0:0:0:0:
368,212,104318,2,0,L|300:264,1,85.000000298023
192,260,104746,2,0,B|166:266|166:266|164:260|164:260|160:264|160:264|152:264|152:264|152:264|132:264|132:264|136:272|136:272|140:260|140:260|144:272|136:276|127:266|116:272|116:272|52:280,2,170.000000596046
304,260,105818,1,0,0:0:0:0:
416,252,106032,1,0,0:0:0:0:
376,148,106246,2,0,L|340:140,1,21.2500000745058
244,80,106461,2,0,B|224:72|224:72|240:68|240:68|220:64|220:64|232:56|232:56|216:56|216:56|228:52|228:52|203:56|203:56|204:52|204:52|195:52|195:52|184:36|200:16,2,170.000000596046
420,247,107746,2,0,B|408:236|417:221|417:221|408:206|408:206|421:198|421:198|417:185|417:185|404:172|404:172|416:156|416:156|402:146|402:146|416:92,1,170.000000596046
412,4,108389,1,0,0:0:0:0:
412,96,108604,2,0,L|240:164,1,170.000000596046
180,216,109246,2,0,L|172:196,2,21.2500000745058
212,252,109461,2,0,L|204:272,2,21.2500000745058
256,236,109675,2,0,L|276:212,2,21.2500000745058
264,284,109889,2,0,B|300:352|376:348|424:300,2,170.000000596046
220,200,110961,1,0,0:0:0:0:
236,108,111175,2,0,L|328:148,1,85.000000298023
404,112,111604,2,0,L|324:56,2,85.000000298023
488,184,112246,1,0,0:0:0:0:
408,260,112461,2,0,L|372:260,4,21.2500000745058
320,196,112889,2,0,L|341:196,4,21.2500000745058
228,256,113318,2,0,B|220:224|200:220|172:228|184:204|148:208|148:208|152:196|168:188|176:180|176:180|156:176|132:184|120:196|108:212|140:220|164:216|176:200|184:192|160:160|92:124,1,340.000001192092
0,172,114389,1,0,0:0:0:0:
56,268,114604,1,0,0:0:0:0:
148,192,114818,1,0,0:0:0:0:
236,256,115032,2,0,L|256:172,1,85.000000298023
216,68,115461,2,0,B|256:72|256:72|272:96|272:96|256:116|256:116|312:64|312:84|324:108|324:108|308:136|288:140|304:112|304:112|312:120|365:76|344:184,1,340.000001192092
196,332,116746,2,0,L|212:348,5,21.2500000745058
196,264,117175,2,0,B|208:200|236:220|252:184,1,85.000000298023
320,108,117604,2,0,L|336:92,4,21.2500000745058
232,44,118032,1,0,0:0:0:0:
164,132,118246,1,0,0:0:0:0:
80,204,118461,2,0,B|104:214|104:214|120:208|120:208|139:220|139:220|155:214|155:214|159:224|159:224|181:218|181:218|182:231|182:231|202:222|202:222|208:231|208:231|228:223|228:223|233:231|233:231|264:224|264:224|264:233|264:233|294:225|294:225|296:235|296:235|312:224|312:224|312:232|312:232|330:229|368:244,1,340.000001192092
460,248,119532,2,0,L|404:160,1,85.000000298023
352,84,119961,1,0,0:0:0:0:
228,92,120175,2,0,B|228:132|188:116|188:116|188:111|200:120|200:120|184:104|204:124|196:116|196:116|184:84|184:84|172:140|172:140|192:140|214:130|220:136|227:125|180:152|224:148|224:148|232:144|196:148|202:139|202:139|196:140|192:136|172:128|172:136|171:144|144:16|140:156|152:148|148:140|148:140|164:112|164:112|124:308|124:128|124:128|124:128|124:128|140:140|132:128|132:128|148:120|148:120|84:132|84:132|153:127|236:168|236:168|220:112|220:112|212:80|212:80|204:120|204:120|196:84|196:84|192:124|192:124|172:92|172:92|180:128|180:128|120:100|192:96|164:108|172:108|124:156|124:156|188:116|160:120|116:124|128:112|112:128|104:116|100:120,1,1360.00000476837
40,236,124032,1,0,0:0:0:0:
248,252,124461,2,0,L|272:212,4,42.5000001490115
144,296,125104,1,0,0:0:0:0:
180,192,125318,1,0,0:0:0:0:
212,96,125532,1,0,0:0:0:0:
320,108,125746,2,0,L|264:276,1,170.000000596046
372,288,126389,1,0,0:0:0:0:
396,184,126604,2,0,L|224:156,1,170.000000596046
120,168,127246,2,0,L|180:232,1,85.000000298023
256,308,127675,1,0,0:0:0:0:
248,196,127889,1,0,0:0:0:0:
356,220,128104,1,0,0:0:0:0:
340,300,128318,2,0,L|400:232,1,85.000000298023
452,140,128746,2,0,L|364:148,3,85.000000298023
256,160,129604,1,0,0:0:0:0:
156,112,129818,1,0,0:0:0:0:
196,212,130032,2,0,L|116:248,1,85.000000298023
232,140,130461,1,0,0:0:0:0:
300,76,130675,1,0,0:0:0:0:
316,184,130889,1,0,0:0:0:0:
192,112,131104,2,0,L|296:124,1,85.000000298023
376,164,131532,1,0,0:0:0:0:
324,264,131746,2,0,L|144:276,1,170.000000596046
56,164,133032,1,0,0:0:0:0:
486,66,133889,1,0,0:0:0:0:
362,249,134318,1,0,0:0:0:0:
340,153,134532,2,0,L|434:182,1,85.000000298023
234,161,135604,1,0,0:0:0:0:
215,194,136461,2,0,B|104:84|257:104|270:115|270:115|455:192|393:41|236:196|220:220|246:296,1,510.000001788138
465,291,138175,1,0,0:0:0:0:
24,322,139032,1,0,0:0:0:0:
166,105,139461,1,0,0:0:0:0:
348,223,139889,1,0,0:0:0:0:
141,185,140318,1,0,0:0:0:0:
445,272,140746,2,0,L|341:274,1,85.000000298023
256,192,162175,12,0,169889,0:0:0:0:
200,128,170762,5,0,0:0:0:0:
420,144,171613,5,0,0:0:0:0:
220,236,172464,5,0,0:0:0:0:
432,184,173315,6,0,L|344:212,1,85.000000298023
248,188,174267,2,0,L|184:164,1,63.7500002235173
204,240,175048,2,0,P|280:236|324:180,1,148.75000052154
356,80,176112,1,0,0:0:0:0:
248,44,176325,1,0,0:0:0:0:
156,104,176537,1,0,0:0:0:0:
264,164,176750,2,0,B|224:192|224:192|212:232,1,85.000000298023
288,308,177176,2,0,B|304:296|300:274|300:274|308:268|308:268|300:264|300:264|304:256|304:256|312:260|312:260|316:252|316:252|308:248|308:248|312:240|312:240|320:244|320:244|322:235|322:235|316:232|316:232|328:232|328:232|340:184,1,170.000000596046
352,116,177814,1,0,0:0:0:0:
280,84,178027,1,0,0:0:0:0:
184,148,178240,2,0,L|208:200,1,42.5000001490115
224,236,178452,2,0,B|238:244|238:244|252:249|252:249|256:236|256:236|260:248|260:248|268:236|268:236|272:244|272:244|280:236|280:236|280:248|280:248|288:236|288:236|288:248|288:248|296:240|296:240|296:252|296:252|304:256|304:256|304:244|304:244|316:272|360:252|372:232|364:212,1,255.000000894069
396,128,179309,2,0,L|296:148,1,85.000000298023
204,124,179737,2,0,L|264:200,1,85.000000298023
276,288,180166,2,0,B|232:308|232:308|244:276|244:276|212:280|212:280|240:256|240:256|180:284|160:272|164:252|184:236,1,255.000000894069
272,176,181023,2,0,L|172:180,1,85.000000298023
216,64,181452,2,0,L|292:120,1,85.000000298023
388,152,181880,2,0,B|356:172|356:172|358:181|352:192|352:192|342:189|340:184|340:184|337:189|328:192|328:192|323:184|323:180|323:180|328:176|336:176|336:176|341:178|341:178|340:172|340:172|324:160|309:169|309:169|308:177|312:184|312:184|216:184,1,255.000000894069
204,240,182737,2,0,L|208:260,4,21.2500000745058
316,240,183166,2,0,L|328:216,4,21.2500000745058
296,132,183594,2,0,L|464:80,2,170.000000596046
80,176,184880,1,0,0:0:0:0:
284,256,185309,2,0,B|300:240|288:232|304:228|292:220|292:220|304:216|304:216|296:208|296:208|312:200|312:200|300:192|300:192|312:192|307:179|316:188|308:176|320:184|320:180|312:172|324:176|312:168|324:168|328:156|296:136|296:136|356:136|356:136|300:124|300:124|344:112|344:112|308:108|256:124|240:100|260:72|260:72|292:64|328:104|328:104|360:68|388:72|412:96|428:128|420:148|392:160,1,680.000002384184
316,212,187237,1,0,0:0:0:0:
196,272,187452,1,0,0:0:0:0:
476,368,187880,2,0,B|428:348|428:348|384:352|384:352|356:328|356:328|308:320,1,170.000000596046
168,152,188737,2,0,B|160:166|160:166|152:176|152:176|172:184|172:184|175:184|180:188|180:188|176:196|172:184|164:172|164:172|175:169|175:169|148:196|148:196|179:181|156:196|156:196|176:168|176:172|176:172|152:164|152:164|172:164|172:164|184:164|184:164|196:164|184:172|184:172|184:176|176:176|164:184|136:224,1,340.000001192092
68,304,189800,1,0,0:0:0:0:
180,312,190013,1,0,0:0:0:0:
292,280,190226,1,0,0:0:0:0:
244,180,190439,2,0,L|236:160,4,21.2500000745058
344,136,190864,2,0,L|268:68,1,85.000000298023
176,44,191290,2,0,L|124:124,1,85.000000298023
136,224,191715,2,0,L|228:172,1,106.250000372529
336,192,192195,2,0,B|384:184|384:184|388:188|388:188|396:184|396:184|404:192|404:192|411:183|411:183|424:192|424:192|432:192|432:192|439:186|439:186|447:184|447:184|456:188|456:188|464:192|464:192|472:188|472:188|480:192|480:192|472:192|472:192|464:188|464:188|456:192|456:192|448:192|448:192|440:192|440:192|432:188|432:188|424:184|424:184|416:192|416:192|404:184|404:184|396:192|396:192|394:188|394:188|382:192|382:192|376:188|376:188|368:193|368:193|336:192,1,318.750001117586
284,156,193227,1,0,0:0:0:0:
156,188,193445,2,0,L|248:172,1,85.000000298023
348,148,193880,2,0,B|332:216|332:216|336:222|336:222|320:227|320:227|320:240|320:240|316:252|316:252|316:272|316:272|276:296,2,170.000000596046
352,36,194967,1,0,0:0:0:0:
256,88,195184,1,0,0:0:0:0:
160,140,195401,1,0,0:0:0:0:
144,252,195619,2,0,B|176:264|176:264|180:248|180:248|188:272|188:272|188:253|188:253|200:260|200:260|200:240|200:240|208:264|208:264|212:248|212:248|220:260|220:260|220:240|220:240|224:264|224:264|232:248|232:248|232:260|232:260|240:240|240:240|244:268|244:268|296:268,1,340.000001192092
396,236,196690,2,0,L|296:236,1,85.000000298023
212,284,197119,1,0,0:0:0:0:
320,308,197333,2,0,B|356:312|376:292|384:280|384:260|376:240|352:224,1,127.500000447035
304,240,197761,2,0,B|284:238|264:232|252:200|256:176,1,85.000000298023
272,72,198190,1,0,0:0:0:0:
180,128,198404,1,0,0:0:0:0:
284,168,198619,2,0,L|204:196,1,85.000000298023
168,260,199047,2,0,B|244:288|244:288|284:200,1,170.000000596046
272,8,199904,1,0,0:0:0:0:
340,96,200119,1,0,0:0:0:0:
276,188,200333,1,0,0:0:0:0:
180,136,200547,1,0,0:0:0:0:
100,212,200761,2,0,L|240:320,2,170.000000596046
272,88,202047,1,0,0:0:0:0:
408,304,202476,1,0,0:0:0:0:
248,188,202904,1,0,0:0:0:0:
316,132,203119,2,0,L|412:136,3,85.000000298023
500,208,203976,1,0,0:0:0:0:
392,224,204190,2,0,L|220:224,1,170.000000596046
4,180,205047,2,0,B|12:200|40:172|52:292|60:12|65:190|92:388|76:191|76:12|96:204|112:148|132:392|116:12|136:168|168:368|164:172|156:188|140:-28|192:380|172:4|220:356|207:185|204:120|220:176|240:192,1,255.000000894069
340,188,205904,2,0,L|252:228,1,85.000000298023
172,288,206333,2,0,L|256:298,1,85.000000298023
256,192,206761,12,0,207189,0:0:0:0:
256,192,207190,12,0,207618,0:0:0:0:
256,192,207619,12,0,208476,0:0:0:0:
256,192,207726,12,0,207833,0:0:0:0:
256,192,207940,12,0,208047,0:0:0:0:
256,192,208476,12,0,209333,0:0:0:0:
256,192,208583,12,0,208690,0:0:0:0:
256,192,208797,12,0,208904,0:0:0:0:
256,192,209012,12,0,209119,0:0:0:0:
256,192,209333,12,0,210190,0:0:0:0:
256,192,210297,12,0,210404,0:0:0:0:
256,192,210511,12,0,210618,0:0:0:0:
256,192,210726,12,0,210833,0:0:0:0:
256,192,210940,12,0,211047,0:0:0:0:
256,192,211047,12,0,211476,0:0:0:0:
256,192,211476,12,0,211904,0:0:0:0:
256,192,211904,12,0,212332,0:0:0:0:
256,192,212333,12,0,212761,0:0:0:0:
256,192,212761,12,0,213619,0:0:0:0:
256,192,213725,12,0,213832,0:0:0:0:
256,192,213939,12,0,214046,0:0:0:0:
256,192,214154,12,0,214261,0:0:0:0:
256,192,214368,12,0,214904,0:0:0:0:
256,116,215333,5,0,0:0:0:0:
464,188,215761,1,0,0:0:0:0:
252,208,216190,1,0,0:0:0:0:
184,124,216404,1,0,0:0:0:0:
268,76,216619,1,0,0:0:0:0:
456,92,217047,1,0,0:0:0:0:
432,188,217261,1,0,0:0:0:0:
328,148,217475,1,0,0:0:0:0:
276,236,217690,1,0,0:0:0:0:
172,196,217904,2,0,B|217:153|217:153|236:172|238:141|238:141|248:144|248:144|244:140|244:140|252:144|252:144|252:136|252:136|280:144|280:144|296:136,2,170.000000596046
108,284,218976,1,0,0:0:0:0:
196,348,219190,1,0,0:0:0:0:
280,276,219404,1,0,0:0:0:0:
336,180,219619,2,0,B|367:161|367:161|360:148|360:148|372:144|372:144|364:128|364:128|380:124|380:124|377:114|377:114|384:104|384:104|368:107|368:107|350:95|350:95|346:107|346:107|332:94|332:94|316:100|316:100|301:111|260:108|260:108|212:36|193:117|193:117|88:92|148:180|148:180|32:156|48:244|144:244,1,680.000002384184
236,264,221547,1,0,0:0:0:0:
348,248,221761,2,0,B|296:256|276:216|276:197|276:197|268:168|240:160|212:180,1,170.000000596046
152,228,222404,1,0,0:0:0:0:
48,212,222618,1,0,0:0:0:0:
100,116,222832,1,0,0:0:0:0:
208,96,223047,2,0,B|424:105|424:105|384:160|374:169|374:169|424:180|424:180|340:184,1,425.000001490115
244,200,224333,1,0,0:0:0:0:
328,272,224547,1,0,0:0:0:0:
224,304,224761,2,0,L|324:320,1,85.000000298023
416,292,225190,2,0,L|240:244,1,170.000000596046
152,184,225833,1,0,0:0:0:0:
216,92,226047,2,0,L|296:136,1,85.000000298023
408,144,226476,2,0,L|316:188,1,85.000000298023
336,292,226904,2,0,L|295:217,1,85.000000298023
232,128,227333,1,0,0:0:0:0:
312,52,227547,1,0,0:0:0:0:
280,156,227761,1,0,0:0:0:0:
392,160,227976,1,0,0:0:0:0:
356,264,228190,2,0,P|459:217|452:192,2,170.000000596046
144,204,229476,1,0,0:0:0:0:
80,0,229904,1,0,0:0:0:0:
152,188,230329,1,0,0:0:0:0:
100,68,230542,1,0,0:0:0:0:
196,176,230755,2,0,L|376:168,1,170.000000596046
404,280,231393,1,0,0:0:0:0:
292,292,231606,2,0,L|160:184,1,170.000000596046
240,108,232244,1,0,0:0:0:0:
136,140,232457,2,0,L|301:177,1,170.000000596046
404,216,233095,1,0,0:0:0:0:
312,280,233308,1,0,0:0:0:0:
248,188,233520,1,0,0:0:0:0:
356,176,233733,1,0,0:0:0:0:
268,240,233946,1,0,0:0:0:0:
308,136,234159,1,0,0:0:0:0:
372,228,234371,1,0,0:0:0:0:
320,328,234584,2,0,L|404:331,2,85.000000298023
232,264,235222,1,0,0:0:0:0:
192,152,235435,1,0,0:0:0:0:
260,76,235648,1,0,0:0:0:0:
188,156,235861,1,0,0:0:0:0:
116,220,236073,2,0,L|56:288,1,85.000000298023
152,348,236499,2,0,L|224:304,1,85.000000298023
320,248,236927,1,0,0:0:0:0:
236,176,237143,1,0,0:0:0:0:
144,112,237359,1,0,0:0:0:0:
244,64,237575,1,0,0:0:0:0:
352,96,237791,2,0,L|432:144,1,85.000000298023
392,228,238222,2,0,L|296:200,2,85.000000298023
488,284,238870,2,0,L|400:296,1,85.000000298023
312,292,239301,1,0,0:0:0:0:
216,236,239517,1,0,0:0:0:0:
172,148,239733,2,0,L|256:136,2,85.000000298023
60,152,240378,1,0,0:0:0:0:
96,256,240593,1,0,0:0:0:0:
180,184,240807,1,0,0:0:0:0:
236,280,241021,1,0,0:0:0:0:
320,208,241236,1,0,0:0:0:0:
392,124,241450,2,0,L|292:116,1,85.000000298023
196,108,241879,1,0,0:0:0:0:
84,104,242093,2,0,L|144:184,1,85.000000298023
196,260,242522,1,0,0:0:0:0:
308,244,242736,2,0,L|336:156,2,85.000000298023
260,376,243379,2,0,L|184:316,1,85.000000298023
191,252,244182,2,0,B|144:221|153:171|157:162,1,85.000000298023
191,252,244932,2,0,B|186:201|241:184,1,85.000000298023
143,262,246968,2,0,B|96:231|99:204|117:173,1,106.250000372529
253,67,247611,2,0,B|238:77|229:127|276:158,1,106.250000372529
338,310,248254,2,0,B|385:279|376:229|355:212,1,106.250000372529
299,74,249165,2,0,B|198:111|206:143|182:144|202:189,1,170.000000596046
308,347,250022,1,0,0:0:0:0:
407,133,250450,2,0,L|221:158,1,170.000000596046
164,186,251093,2,0,P|241:260|384:267,1,255.000000894069
64,176,253451,5,0,0:0:0:0:
156,236,253665,6,0,L|252:208,1,85.000000298023
280,110,254093,1,0,0:0:0:0:
120,136,254522,1,0,0:0:0:0:
426,262,255165,1,0,0:0:0:0:
