osu file format v14

[General]
AudioFilename: audio.ogg
AudioLeadIn: 0
PreviewTime: 145522
Countdown: 0
SampleSet: Normal
StackLeniency: 0.7
Mode: 1
LetterboxInBreaks: 0
WidescreenStoryboard: 1

[Editor]
Bookmarks: 71585
DistanceSpacing: 1.3
BeatDivisor: 4
GridSize: 32
TimelineZoom: 4.099998

[Metadata]
Title:Solaris
TitleUnicode:Solaris
Artist:Obscura
ArtistUnicode:Obscura
Creator:frukoyurdakul
Version:Muzukashii
Source:
Tags:progressive technical melodic death metal david diepold a valediction english nuclear blast records stream stamina growl
BeatmapID:3366550
BeatmapSetID:1628329

[Difficulty]
HPDrainRate:5
CircleSize:2
OverallDifficulty:5.5
ApproachRate:10
SliderMultiplier:1.4
SliderTickRate:1

[Events]
//Background and Video events
0,0,"bg.jpg",0,80
//Break Periods
//Storyboard Layer 0 (Background)
//Storyboard Layer 1 (Fail)
//Storyboard Layer 2 (Pass)
//Storyboard Layer 3 (Foreground)
//Storyboard Layer 4 (Overlay)
//Storyboard Sound Samples

[TimingPoints]
1000,250,4,1,0,70,1,0
7000,250,4,1,0,70,1,8
7500,250,6,1,0,70,1,0
9000,250,4,1,0,70,1,0
15000,250,4,1,0,70,1,8
15500,250,4,1,0,70,1,0
31500,-100,4,1,0,70,0,1
33500,-100,4,1,0,70,0,0
35500,-100,4,1,0,70,0,1
37500,-100,4,1,0,70,0,0
39500,-100,4,1,0,70,0,1
41500,-100,4,1,0,70,0,0
43500,-100,4,1,0,70,0,1
45500,-100,4,1,0,70,0,0
47500,-100,4,1,0,70,0,1
55500,-100,4,1,0,70,0,0
111500,-100,4,1,0,70,0,1
119500,-100,4,1,0,70,0,0
145500,-100,4,1,0,70,0,1
160500,-100,4,1,0,70,0,0
161500,-100,4,1,0,70,0,1
177500,-100,4,1,0,70,0,0
193500,-100,4,1,0,70,0,1
209500,-100,4,1,0,70,0,0

[HitObjects]
160,288,1000,5,4,0:0:0:0:
352,96,1125,1,8,0:0:0:0:
352,96,1500,1,8,0:0:0:0:
352,96,1750,1,8,0:0:0:0:
160,288,2000,1,4,0:0:0:0:
160,96,2250,1,0,0:0:0:0:
352,96,2375,1,8,0:0:0:0:
160,96,2625,1,0,0:0:0:0:
352,96,2750,1,8,0:0:0:0:
160,96,3000,1,0,0:0:0:0:
160,96,3250,1,0,0:0:0:0:
352,96,3375,1,8,0:0:0:0:
160,96,3500,1,0,0:0:0:0:
352,96,3750,1,8,0:0:0:0:
160,288,4000,1,4,0:0:0:0:
352,96,4500,1,8,0:0:0:0:
352,96,4625,1,8,0:0:0:0:
160,96,4750,1,0,0:0:0:0:
352,96,5000,1,8,0:0:0:0:
160,96,5250,1,0,0:0:0:0:
352,96,5500,1,8,0:0:0:0:
352,96,5750,1,8,0:0:0:0:
160,96,6000,1,0,0:0:0:0:
160,96,6125,1,0,0:0:0:0:
352,96,6250,1,8,0:0:0:0:
352,96,6500,1,8,0:0:0:0:
160,96,6625,1,0,0:0:0:0:
352,96,6750,1,8,0:0:0:0:
160,288,7000,1,4,0:0:0:0:
352,288,7500,1,12,0:0:0:0:
352,96,7750,1,8,0:0:0:0:
352,96,8000,1,8,0:0:0:0:
160,96,8250,1,0,0:0:0:0:
352,96,8500,1,8,0:0:0:0:
352,96,8750,1,8,0:0:0:0:
352,96,9000,1,8,0:0:0:0:
160,96,9250,1,0,0:0:0:0:
352,96,9500,1,8,0:0:0:0:
160,96,9750,1,0,0:0:0:0:
352,96,10000,1,8,0:0:0:0:
160,96,10125,1,0,0:0:0:0:
352,96,10250,1,8,0:0:0:0:
352,96,10500,1,8,0:0:0:0:
352,96,11000,1,8,0:0:0:0:
160,96,11250,1,0,0:0:0:0:
352,96,11500,1,8,0:0:0:0:
160,96,11750,1,0,0:0:0:0:
352,96,12000,1,8,0:0:0:0:
352,96,12250,1,8,0:0:0:0:
160,96,12500,1,0,0:0:0:0:
352,96,12750,1,8,0:0:0:0:
352,96,13000,1,8,0:0:0:0:
352,96,13250,1,8,0:0:0:0:
160,96,13500,1,0,0:0:0:0:
160,96,13750,1,0,0:0:0:0:
352,96,14000,1,8,0:0:0:0:
352,96,14250,1,8,0:0:0:0:
160,96,14500,1,0,0:0:0:0:
352,96,14750,1,8,0:0:0:0:
352,288,15000,1,12,0:0:0:0:
160,96,15375,1,0,0:0:0:0:
160,96,15500,1,0,0:0:0:0:
352,96,15625,1,8,0:0:0:0:
160,288,16000,1,4,0:0:0:0:
352,96,16250,1,8,0:0:0:0:
352,96,16500,1,8,0:0:0:0:
352,96,16625,1,8,0:0:0:0:
352,96,16875,1,8,0:0:0:0:
352,96,17000,1,8,0:0:0:0:
160,96,17250,1,0,0:0:0:0:
352,96,17500,1,8,0:0:0:0:
160,96,17750,1,0,0:0:0:0:
160,96,17875,1,0,0:0:0:0:
352,96,18000,1,8,0:0:0:0:
352,96,18500,1,8,0:0:0:0:
352,96,18625,1,8,0:0:0:0:
160,96,18750,1,0,0:0:0:0:
160,96,18875,1,0,0:0:0:0:
352,96,19000,1,8,0:0:0:0:
160,96,19250,1,0,0:0:0:0:
160,288,19500,1,4,0:0:0:0:
160,96,19875,1,0,0:0:0:0:
352,96,20000,1,8,0:0:0:0:
352,96,20250,1,8,0:0:0:0:
160,96,20500,1,0,0:0:0:0:
160,96,20625,1,0,0:0:0:0:
352,96,20875,1,8,0:0:0:0:
352,96,21000,1,8,0:0:0:0:
352,96,21250,1,8,0:0:0:0:
352,288,21500,1,12,0:0:0:0:
352,288,21750,1,12,0:0:0:0:
160,96,22000,1,0,0:0:0:0:
160,96,22125,1,0,0:0:0:0:
352,96,22250,1,8,0:0:0:0:
352,288,22500,1,12,0:0:0:0:
160,288,22750,1,4,0:0:0:0:
160,96,23000,1,0,0:0:0:0:
160,96,23062,1,0,0:0:0:0:
160,96,23125,1,0,0:0:0:0:
352,96,23250,1,8,0:0:0:0:
160,288,23500,1,4,0:0:0:0:
352,96,24000,1,8,0:0:0:0:
352,96,24250,1,8,0:0:0:0:
160,96,24500,1,0,0:0:0:0:
160,96,24625,1,0,0:0:0:0:
352,96,24875,1,8,0:0:0:0:
352,96,25000,1,8,0:0:0:0:
160,96,25125,1,0,0:0:0:0:
352,96,25250,1,8,0:0:0:0:
352,96,25500,1,8,0:0:0:0:
160,96,25750,1,0,0:0:0:0:
352,96,26000,1,8,0:0:0:0:
352,96,26250,1,8,0:0:0:0:
352,96,26500,1,8,0:0:0:0:
352,96,26625,1,8,0:0:0:0:
160,96,26750,1,0,0:0:0:0:
160,96,26875,1,0,0:0:0:0:
352,96,27000,1,8,0:0:0:0:
160,96,27250,1,0,0:0:0:0:
352,288,27500,1,12,0:0:0:0:
160,96,27875,1,0,0:0:0:0:
352,96,28000,1,8,0:0:0:0:
352,96,28250,1,8,0:0:0:0:
160,96,28500,1,0,0:0:0:0:
160,96,28625,1,0,0:0:0:0:
352,96,28875,1,8,0:0:0:0:
160,96,29000,1,0,0:0:0:0:
160,96,29125,1,0,0:0:0:0:
352,96,29250,1,8,0:0:0:0:
160,288,29500,1,4,0:0:0:0:
160,288,29750,1,4,0:0:0:0:
160,96,30000,1,0,0:0:0:0:
160,96,30125,1,0,0:0:0:0:
352,288,30250,1,12,0:0:0:0:
352,96,30500,1,8,0:0:0:0:
352,96,30562,1,8,0:0:0:0:
352,96,30625,1,8,0:0:0:0:
160,96,30750,1,0,0:0:0:0:
160,96,31000,1,0,0:0:0:0:
160,96,31125,1,0,0:0:0:0:
352,288,31250,1,12,0:0:0:0:
160,288,31500,1,4,0:0:0:0:
160,96,31875,1,0,0:0:0:0:
352,96,32000,1,8,0:0:0:0:
352,96,32250,1,8,0:0:0:0:
352,96,32375,1,8,0:0:0:0:
160,96,32500,1,0,0:0:0:0:
160,96,32625,1,0,0:0:0:0:
352,96,32750,1,8,0:0:0:0:
352,96,33000,1,8,0:0:0:0:
160,96,33250,1,0,0:0:0:0:
160,96,33375,1,0,0:0:0:0:
352,288,33500,1,12,0:0:0:0:
352,96,33875,1,8,0:0:0:0:
160,96,34000,1,0,0:0:0:0:
352,96,34250,1,8,0:0:0:0:
160,96,34500,1,0,0:0:0:0:
352,96,34625,1,8,0:0:0:0:
352,96,34875,1,8,0:0:0:0:
160,96,35000,1,0,0:0:0:0:
352,96,35250,1,8,0:0:0:0:
352,288,35500,1,12,0:0:0:0:
160,96,35875,1,0,0:0:0:0:
352,96,36000,1,8,0:0:0:0:
352,96,36250,1,8,0:0:0:0:
352,96,36375,1,8,0:0:0:0:
160,96,36500,1,0,0:0:0:0:
160,96,36625,1,0,0:0:0:0:
352,96,36750,1,8,0:0:0:0:
352,96,37000,1,8,0:0:0:0:
352,96,37250,1,8,0:0:0:0:
352,96,37375,1,8,0:0:0:0:
160,288,37500,1,4,0:0:0:0:
352,96,37875,1,8,0:0:0:0:
160,96,38000,1,0,0:0:0:0:
352,96,38250,1,8,0:0:0:0:
160,288,38500,1,4,0:0:0:0:
160,288,38875,1,4,0:0:0:0:
352,96,39125,1,8,0:0:0:0:
160,96,39250,1,0,0:0:0:0:
352,288,39500,1,12,0:0:0:0:
160,96,39875,1,0,0:0:0:0:
352,96,40000,1,8,0:0:0:0:
352,96,40250,1,8,0:0:0:0:
352,96,40375,1,8,0:0:0:0:
160,96,40500,1,0,0:0:0:0:
352,96,40750,1,8,0:0:0:0:
160,96,40875,1,0,0:0:0:0:
352,96,41000,1,8,0:0:0:0:
352,96,41250,1,8,0:0:0:0:
160,288,41500,1,4,0:0:0:0:
352,96,41875,1,8,0:0:0:0:
160,96,42000,1,0,0:0:0:0:
352,96,42250,1,8,0:0:0:0:
160,96,42500,1,0,0:0:0:0:
352,96,42625,1,8,0:0:0:0:
352,96,42875,1,8,0:0:0:0:
352,96,43000,1,8,0:0:0:0:
160,96,43250,1,0,0:0:0:0:
352,288,43500,1,12,0:0:0:0:
160,96,43875,1,0,0:0:0:0:
352,96,44000,1,8,0:0:0:0:
352,96,44250,1,8,0:0:0:0:
160,96,44375,1,0,0:0:0:0:
352,96,44500,1,8,0:0:0:0:
352,96,44750,1,8,0:0:0:0:
352,96,44875,1,8,0:0:0:0:
352,96,45000,1,8,0:0:0:0:
352,96,45250,1,8,0:0:0:0:
352,288,45500,1,12,0:0:0:0:
352,96,45875,1,8,0:0:0:0:
160,96,46000,1,0,0:0:0:0:
352,96,46250,1,8,0:0:0:0:
160,288,46500,1,4,0:0:0:0:
160,288,46875,1,4,0:0:0:0:
160,96,47250,1,0,0:0:0:0:
160,96,47312,1,0,0:0:0:0:
160,96,47375,1,0,0:0:0:0:
352,288,47500,1,12,0:0:0:0:
352,96,48000,1,8,0:0:0:0:
160,96,48125,1,0,0:0:0:0:
352,96,48250,1,8,0:0:0:0:
352,96,48500,1,8,0:0:0:0:
352,96,48750,1,8,0:0:0:0:
352,96,48875,1,8,0:0:0:0:
160,96,49000,1,0,0:0:0:0:
160,96,49125,1,0,0:0:0:0:
352,96,49250,1,8,0:0:0:0:
160,288,49500,1,4,0:0:0:0:
352,96,50000,1,8,0:0:0:0:
160,96,50250,1,0,0:0:0:0:
352,96,50500,1,8,0:0:0:0:
352,96,50750,1,8,0:0:0:0:
352,96,51000,1,8,0:0:0:0:
160,96,51125,1,0,0:0:0:0:
352,96,51250,1,8,0:0:0:0:
352,288,51500,1,12,0:0:0:0:
352,96,52000,1,8,0:0:0:0:
160,96,52125,1,0,0:0:0:0:
352,96,52250,1,8,0:0:0:0:
352,96,52500,1,8,0:0:0:0:
352,96,52625,1,8,0:0:0:0:
160,96,52750,1,0,0:0:0:0:
352,96,53000,1,8,0:0:0:0:
352,96,53125,1,8,0:0:0:0:
160,96,53250,1,0,0:0:0:0:
352,288,53500,1,12,0:0:0:0:
352,96,54000,1,8,0:0:0:0:
352,96,54250,1,8,0:0:0:0:
352,96,54500,1,8,0:0:0:0:
352,96,54562,1,8,0:0:0:0:
352,96,54625,1,8,0:0:0:0:
160,96,54750,1,0,0:0:0:0:
352,96,55000,1,8,0:0:0:0:
352,288,55250,1,12,0:0:0:0:
352,96,55500,1,8,0:0:0:0:
352,96,55625,1,8,0:0:0:0:
160,96,55750,1,0,0:0:0:0:
160,96,55875,1,0,0:0:0:0:
352,96,56000,1,8,0:0:0:0:
160,96,56500,1,0,0:0:0:0:
160,96,56625,1,0,0:0:0:0:
352,96,56750,1,8,0:0:0:0:
352,96,57000,1,8,0:0:0:0:
160,96,57250,1,0,0:0:0:0:
352,96,57500,1,8,0:0:0:0:
352,96,57625,1,8,0:0:0:0:
352,96,57750,1,8,0:0:0:0:
160,96,57875,1,0,0:0:0:0:
352,96,58000,1,8,0:0:0:0:
160,96,58500,1,0,0:0:0:0:
160,96,58625,1,0,0:0:0:0:
352,96,58750,1,8,0:0:0:0:
352,96,59000,1,8,0:0:0:0:
160,96,59500,1,0,0:0:0:0:
160,96,59750,1,0,0:0:0:0:
352,96,60000,1,8,0:0:0:0:
160,96,60250,1,0,0:0:0:0:
352,96,60500,1,8,0:0:0:0:
160,96,60750,1,0,0:0:0:0:
352,96,61000,1,8,0:0:0:0:
352,96,61166,1,8,0:0:0:0:
352,96,61333,1,8,0:0:0:0:
160,96,61500,1,0,0:0:0:0:
352,96,62000,1,8,0:0:0:0:
352,96,62250,1,8,0:0:0:0:
160,288,62500,1,4,0:0:0:0:
160,288,62750,1,4,0:0:0:0:
352,288,63000,1,12,0:0:0:0:
352,96,63500,1,8,0:0:0:0:
352,96,63625,1,8,0:0:0:0:
160,96,63750,1,0,0:0:0:0:
160,96,63875,1,0,0:0:0:0:
352,96,64000,1,8,0:0:0:0:
352,96,64250,1,8,0:0:0:0:
160,96,64500,1,0,0:0:0:0:
160,96,64625,1,0,0:0:0:0:
352,96,64750,1,8,0:0:0:0:
352,96,65000,1,8,0:0:0:0:
352,96,65500,1,8,0:0:0:0:
352,96,65625,1,8,0:0:0:0:
352,96,65750,1,8,0:0:0:0:
160,96,65875,1,0,0:0:0:0:
352,96,66000,1,8,0:0:0:0:
160,96,66250,1,0,0:0:0:0:
160,96,66500,1,0,0:0:0:0:
160,96,66625,1,0,0:0:0:0:
352,96,66750,1,8,0:0:0:0:
352,96,67000,1,8,0:0:0:0:
160,96,67500,1,0,0:0:0:0:
160,96,67750,1,0,0:0:0:0:
352,96,68000,1,8,0:0:0:0:
160,96,68250,1,0,0:0:0:0:
352,96,68500,1,8,0:0:0:0:
352,96,68750,1,8,0:0:0:0:
160,96,69000,1,0,0:0:0:0:
160,96,69166,1,0,0:0:0:0:
160,96,69333,1,0,0:0:0:0:
160,96,69500,1,0,0:0:0:0:
352,96,70000,1,8,0:0:0:0:
352,96,70250,1,8,0:0:0:0:
352,96,70500,1,8,0:0:0:0:
352,96,70625,1,8,0:0:0:0:
160,96,70750,1,0,0:0:0:0:
352,96,71000,1,8,0:0:0:0:
160,288,71500,1,4,0:0:0:0:
352,96,71875,1,8,0:0:0:0:
352,96,72125,1,8,0:0:0:0:
352,96,72250,1,8,0:0:0:0:
352,96,72500,1,8,0:0:0:0:
352,96,72750,1,8,0:0:0:0:
160,96,72875,1,0,0:0:0:0:
352,96,73000,1,8,0:0:0:0:
352,96,73250,1,8,0:0:0:0:
160,96,73500,1,0,0:0:0:0:
352,96,73875,1,8,0:0:0:0:
352,96,74125,1,8,0:0:0:0:
160,96,74250,1,0,0:0:0:0:
160,96,74500,1,0,0:0:0:0:
352,96,74750,1,8,0:0:0:0:
160,96,74875,1,0,0:0:0:0:
352,96,75125,1,8,0:0:0:0:
160,96,75250,1,0,0:0:0:0:
160,288,75500,1,4,0:0:0:0:
352,96,75875,1,8,0:0:0:0:
160,96,76125,1,0,0:0:0:0:
352,96,76250,1,8,0:0:0:0:
352,96,76500,1,8,0:0:0:0:
352,96,76750,1,8,0:0:0:0:
352,96,76875,1,8,0:0:0:0:
160,96,77000,1,0,0:0:0:0:
352,96,77250,1,8,0:0:0:0:
160,288,77500,1,4,0:0:0:0:
352,96,77750,1,8,0:0:0:0:
160,96,78000,1,0,0:0:0:0:
352,96,78125,1,8,0:0:0:0:
352,96,78375,1,8,0:0:0:0:
160,288,78500,1,4,0:0:0:0:
352,96,78750,1,8,0:0:0:0:
160,288,79000,1,4,0:0:0:0:
352,288,79250,1,12,0:0:0:0:
160,288,79500,1,4,0:0:0:0:
160,96,79875,1,0,0:0:0:0:
352,96,80000,1,8,0:0:0:0:
352,96,80250,1,8,0:0:0:0:
352,96,80500,1,8,0:0:0:0:
352,96,80625,1,8,0:0:0:0:
160,96,80750,1,0,0:0:0:0:
160,96,80875,1,0,0:0:0:0:
352,96,81000,1,8,0:0:0:0:
352,96,81250,1,8,0:0:0:0:
160,96,81375,1,0,0:0:0:0:
352,96,81500,1,8,0:0:0:0:
352,96,81875,1,8,0:0:0:0:
160,96,82000,1,0,0:0:0:0:
352,96,82250,1,8,0:0:0:0:
160,96,82500,1,0,0:0:0:0:
352,96,82750,1,8,0:0:0:0:
160,96,82875,1,0,0:0:0:0:
352,96,83000,1,8,0:0:0:0:
160,96,83125,1,0,0:0:0:0:
352,96,83250,1,8,0:0:0:0:
160,288,83500,1,4,0:0:0:0:
160,96,83875,1,0,0:0:0:0:
352,96,84000,1,8,0:0:0:0:
352,96,84250,1,8,0:0:0:0:
352,96,84375,1,8,0:0:0:0:
352,96,84500,1,8,0:0:0:0:
352,96,84750,1,8,0:0:0:0:
352,96,85000,1,8,0:0:0:0:
352,96,85125,1,8,0:0:0:0:
160,96,85250,1,0,0:0:0:0:
352,96,85500,1,8,0:0:0:0:
160,96,85625,1,0,0:0:0:0:
352,96,85750,1,8,0:0:0:0:
352,96,86000,1,8,0:0:0:0:
352,96,86250,1,8,0:0:0:0:
160,96,86500,1,0,0:0:0:0:
160,96,86625,1,0,0:0:0:0:
352,96,86750,1,8,0:0:0:0:
160,96,87000,1,0,0:0:0:0:
160,96,87062,1,0,0:0:0:0:
160,96,87125,1,0,0:0:0:0:
352,96,87250,1,8,0:0:0:0:
160,288,87500,1,4,0:0:0:0:
160,288,88500,1,4,0:0:0:0:
352,96,88750,1,8,0:0:0:0:
160,96,89000,1,0,0:0:0:0:
352,96,89250,1,8,0:0:0:0:
352,96,89500,1,8,0:0:0:0:
352,96,89666,1,8,0:0:0:0:
352,96,89833,1,8,0:0:0:0:
160,96,90000,1,0,0:0:0:0:
352,96,90250,1,8,0:0:0:0:
160,96,90500,1,0,0:0:0:0:
352,96,90750,1,8,0:0:0:0:
160,96,91000,1,0,0:0:0:0:
352,96,91250,1,8,0:0:0:0:
352,96,91500,1,8,0:0:0:0:
352,96,91666,1,8,0:0:0:0:
352,96,91833,1,8,0:0:0:0:
160,96,92000,1,0,0:0:0:0:
352,96,92250,1,8,0:0:0:0:
352,96,92500,1,8,0:0:0:0:
160,96,93000,1,0,0:0:0:0:
352,96,93250,1,8,0:0:0:0:
160,96,93500,1,0,0:0:0:0:
160,96,93666,1,0,0:0:0:0:
352,96,93833,1,8,0:0:0:0:
352,96,94000,1,8,0:0:0:0:
160,96,94250,1,0,0:0:0:0:
160,96,94500,1,0,0:0:0:0:
352,96,94750,1,8,0:0:0:0:
160,96,95000,1,0,0:0:0:0:
352,96,95250,1,8,0:0:0:0:
352,96,95500,1,8,0:0:0:0:
160,96,95666,1,0,0:0:0:0:
352,96,95833,1,8,0:0:0:0:
352,96,96000,1,8,0:0:0:0:
352,96,96250,1,8,0:0:0:0:
352,96,96500,1,8,0:0:0:0:
160,96,97000,1,0,0:0:0:0:
352,96,97250,1,8,0:0:0:0:
160,96,97500,1,0,0:0:0:0:
352,96,97666,1,8,0:0:0:0:
352,96,97833,1,8,0:0:0:0:
160,96,98000,1,0,0:0:0:0:
352,96,98250,1,8,0:0:0:0:
160,96,98500,1,0,0:0:0:0:
352,96,98750,1,8,0:0:0:0:
160,96,99000,1,0,0:0:0:0:
352,96,99250,1,8,0:0:0:0:
352,96,99500,1,8,0:0:0:0:
352,96,99666,1,8,0:0:0:0:
352,96,99833,1,8,0:0:0:0:
352,96,100000,1,8,0:0:0:0:
160,96,100250,1,0,0:0:0:0:
352,96,100500,1,8,0:0:0:0:
160,96,101000,1,0,0:0:0:0:
352,96,101250,1,8,0:0:0:0:
160,96,101500,1,0,0:0:0:0:
352,96,101666,1,8,0:0:0:0:
160,96,101833,1,0,0:0:0:0:
352,96,102000,1,8,0:0:0:0:
160,96,102250,1,0,0:0:0:0:
160,288,102500,5,4,0:0:0:0:
352,96,102750,1,8,0:0:0:0:
160,288,103000,1,4,0:0:0:0:
352,96,103250,1,8,0:0:0:0:
352,288,103500,1,12,0:0:0:0:
352,96,103875,1,8,0:0:0:0:
160,96,104000,1,0,0:0:0:0:
352,96,104250,1,8,0:0:0:0:
352,96,104500,1,8,0:0:0:0:
352,96,104625,1,8,0:0:0:0:
160,96,104750,1,0,0:0:0:0:
352,96,105000,1,8,0:0:0:0:
352,96,105250,1,8,0:0:0:0:
160,96,105375,1,0,0:0:0:0:
352,96,105500,1,8,0:0:0:0:
160,96,105750,1,0,0:0:0:0:
160,96,105875,1,0,0:0:0:0:
352,96,106000,1,8,0:0:0:0:
352,96,106250,1,8,0:0:0:0:
352,96,106500,1,8,0:0:0:0:
352,96,106625,1,8,0:0:0:0:
160,96,106750,1,0,0:0:0:0:
352,96,107000,1,8,0:0:0:0:
352,96,107125,1,8,0:0:0:0:
160,96,107250,1,0,0:0:0:0:
160,288,107500,1,4,0:0:0:0:
352,96,107875,1,8,0:0:0:0:
160,96,108000,1,0,0:0:0:0:
352,96,108250,1,8,0:0:0:0:
352,96,108375,1,8,0:0:0:0:
160,96,108500,1,0,0:0:0:0:
352,96,108625,1,8,0:0:0:0:
160,96,108875,1,0,0:0:0:0:
352,96,109000,1,8,0:0:0:0:
352,96,109250,1,8,0:0:0:0:
352,96,109375,1,8,0:0:0:0:
160,288,109500,1,4,0:0:0:0:
160,288,109750,1,4,0:0:0:0:
160,96,110000,1,0,0:0:0:0:
160,96,110125,1,0,0:0:0:0:
352,288,110250,1,12,0:0:0:0:
352,96,110500,1,8,0:0:0:0:
352,96,110562,1,8,0:0:0:0:
352,96,110625,1,8,0:0:0:0:
160,96,110750,1,0,0:0:0:0:
160,96,111000,1,0,0:0:0:0:
160,96,111125,1,0,0:0:0:0:
352,288,111250,1,12,0:0:0:0:
352,288,111500,1,12,0:0:0:0:
352,96,112000,1,8,0:0:0:0:
160,96,112125,1,0,0:0:0:0:
352,96,112250,1,8,0:0:0:0:
352,96,112500,1,8,0:0:0:0:
160,96,112750,1,0,0:0:0:0:
160,96,112875,1,0,0:0:0:0:
352,96,113000,1,8,0:0:0:0:
160,96,113125,1,0,0:0:0:0:
352,96,113250,1,8,0:0:0:0:
160,288,113500,1,4,0:0:0:0:
352,96,114000,1,8,0:0:0:0:
160,96,114250,1,0,0:0:0:0:
352,96,114500,1,8,0:0:0:0:
352,96,114750,1,8,0:0:0:0:
352,96,115000,1,8,0:0:0:0:
160,96,115125,1,0,0:0:0:0:
352,96,115250,1,8,0:0:0:0:
160,288,115500,1,4,0:0:0:0:
352,96,116000,1,8,0:0:0:0:
160,96,116125,1,0,0:0:0:0:
352,96,116250,1,8,0:0:0:0:
160,96,116500,1,0,0:0:0:0:
160,96,116625,1,0,0:0:0:0:
352,96,116750,1,8,0:0:0:0:
160,96,116875,1,0,0:0:0:0:
352,96,117000,1,8,0:0:0:0:
352,96,117250,1,8,0:0:0:0:
352,288,117500,1,12,0:0:0:0:
352,96,118000,1,8,0:0:0:0:
160,96,118250,1,0,0:0:0:0:
352,96,118500,1,8,0:0:0:0:
352,96,118562,1,8,0:0:0:0:
352,96,118625,1,8,0:0:0:0:
160,96,118750,1,0,0:0:0:0:
352,96,119000,1,8,0:0:0:0:
352,288,119250,1,12,0:0:0:0:
352,96,119500,1,8,0:0:0:0:
352,96,119625,1,8,0:0:0:0:
160,96,119750,1,0,0:0:0:0:
160,96,119875,1,0,0:0:0:0:
352,96,120000,1,8,0:0:0:0:
160,96,120500,1,0,0:0:0:0:
160,96,120625,1,0,0:0:0:0:
352,96,120750,1,8,0:0:0:0:
352,96,121000,1,8,0:0:0:0:
160,96,121250,1,0,0:0:0:0:
352,96,121500,1,8,0:0:0:0:
352,96,121625,1,8,0:0:0:0:
352,96,121750,1,8,0:0:0:0:
160,96,121875,1,0,0:0:0:0:
352,96,122000,1,8,0:0:0:0:
160,96,122500,1,0,0:0:0:0:
160,96,122625,1,0,0:0:0:0:
352,96,122750,1,8,0:0:0:0:
352,96,123000,1,8,0:0:0:0:
160,96,123500,1,0,0:0:0:0:
352,96,123750,1,8,0:0:0:0:
352,96,124000,1,8,0:0:0:0:
160,96,124250,1,0,0:0:0:0:
352,96,124500,1,8,0:0:0:0:
160,96,124750,1,0,0:0:0:0:
352,96,125000,1,8,0:0:0:0:
352,96,125166,1,8,0:0:0:0:
352,96,125333,1,8,0:0:0:0:
160,96,125500,1,0,0:0:0:0:
160,96,126000,1,0,0:0:0:0:
160,96,126250,1,0,0:0:0:0:
160,288,126500,1,4,0:0:0:0:
160,288,126750,1,4,0:0:0:0:
352,288,127000,1,12,0:0:0:0:
352,288,127500,1,12,0:0:0:0:
160,96,127750,1,0,0:0:0:0:
352,96,128000,1,8,0:0:0:0:
160,96,128250,1,0,0:0:0:0:
160,96,128500,1,0,0:0:0:0:
160,96,128666,1,0,0:0:0:0:
160,96,128833,1,0,0:0:0:0:
352,96,129000,1,8,0:0:0:0:
352,96,129250,1,8,0:0:0:0:
160,288,129500,1,4,0:0:0:0:
352,96,129875,1,8,0:0:0:0:
352,96,130125,1,8,0:0:0:0:
160,96,130250,1,0,0:0:0:0:
160,96,130500,1,0,0:0:0:0:
352,96,130625,1,8,0:0:0:0:
160,96,130875,1,0,0:0:0:0:
352,96,131125,1,8,0:0:0:0:
352,96,131250,1,8,0:0:0:0:
160,96,131375,1,0,0:0:0:0:
352,96,131500,1,8,0:0:0:0:
352,96,131750,1,8,0:0:0:0:
160,96,131875,1,0,0:0:0:0:
352,96,132000,1,8,0:0:0:0:
352,96,132250,1,8,0:0:0:0:
160,96,132500,1,0,0:0:0:0:
352,96,132750,1,8,0:0:0:0:
160,96,133000,1,0,0:0:0:0:
160,96,133062,1,0,0:0:0:0:
160,96,133125,1,0,0:0:0:0:
352,96,133250,1,8,0:0:0:0:
160,96,133375,1,0,0:0:0:0:
352,96,133500,1,8,0:0:0:0:
160,96,134000,1,0,0:0:0:0:
160,96,134125,1,0,0:0:0:0:
352,96,134250,1,8,0:0:0:0:
160,96,134500,1,0,0:0:0:0:
160,96,134750,1,0,0:0:0:0:
160,96,135000,1,0,0:0:0:0:
160,96,135125,1,0,0:0:0:0:
352,96,135250,1,8,0:0:0:0:
160,96,135375,1,0,0:0:0:0:
352,96,135500,1,8,0:0:0:0:
160,96,135750,1,0,0:0:0:0:
160,96,135812,1,0,0:0:0:0:
160,96,135875,1,0,0:0:0:0:
352,96,136000,1,8,0:0:0:0:
352,96,136125,1,8,0:0:0:0:
160,96,136250,1,0,0:0:0:0:
352,96,136500,1,8,0:0:0:0:
160,96,136750,1,0,0:0:0:0:
352,96,137000,1,8,0:0:0:0:
160,96,137250,1,0,0:0:0:0:
160,96,137375,1,0,0:0:0:0:
352,96,137500,1,8,0:0:0:0:
352,96,137875,1,8,0:0:0:0:
160,96,138000,1,0,0:0:0:0:
352,96,138250,1,8,0:0:0:0:
160,96,138500,1,0,0:0:0:0:
352,96,138625,1,8,0:0:0:0:
352,96,138750,1,8,0:0:0:0:
352,96,139000,1,8,0:0:0:0:
352,96,139125,1,8,0:0:0:0:
160,96,139250,1,0,0:0:0:0:
352,96,139500,1,8,0:0:0:0:
160,96,139625,1,0,0:0:0:0:
352,96,139750,1,8,0:0:0:0:
160,96,140000,1,0,0:0:0:0:
352,96,140250,1,8,0:0:0:0:
160,96,140500,1,0,0:0:0:0:
352,96,140625,1,8,0:0:0:0:
160,96,140750,1,0,0:0:0:0:
352,96,140875,1,8,0:0:0:0:
160,96,141250,1,0,0:0:0:0:
160,96,141375,1,0,0:0:0:0:
352,288,141500,1,12,0:0:0:0:
160,96,141750,1,0,0:0:0:0:
352,96,141875,1,8,0:0:0:0:
160,96,142000,1,0,0:0:0:0:
352,96,142250,1,8,0:0:0:0:
160,96,142500,1,0,0:0:0:0:
160,96,142625,1,0,0:0:0:0:
352,96,142750,1,8,0:0:0:0:
160,96,143000,1,0,0:0:0:0:
160,96,143125,1,0,0:0:0:0:
352,96,143250,1,8,0:0:0:0:
352,96,143500,1,8,0:0:0:0:
352,96,143750,1,8,0:0:0:0:
160,96,143875,1,0,0:0:0:0:
352,96,144000,1,8,0:0:0:0:
352,96,144250,1,8,0:0:0:0:
160,96,144375,1,0,0:0:0:0:
352,96,144500,1,8,0:0:0:0:
352,96,144750,1,8,0:0:0:0:
256,192,145000,2,0,L|192:192,4,35
160,288,145500,1,4,0:0:0:0:
160,96,145875,1,0,0:0:0:0:
352,96,146000,1,8,0:0:0:0:
160,96,146125,1,0,0:0:0:0:
352,96,146250,1,8,0:0:0:0:
352,96,146500,1,8,0:0:0:0:
352,96,146678,1,8,0:0:0:0:
352,96,146857,1,8,0:0:0:0:
352,96,147035,1,8,0:0:0:0:
352,96,147500,1,8,0:0:0:0:
160,96,147625,1,0,0:0:0:0:
352,96,147750,1,8,0:0:0:0:
160,96,147875,1,0,0:0:0:0:
352,96,148000,1,8,0:0:0:0:
352,96,148250,1,8,0:0:0:0:
352,96,148375,1,8,0:0:0:0:
160,96,148500,1,0,0:0:0:0:
352,96,148750,1,8,0:0:0:0:
160,96,149000,1,0,0:0:0:0:
352,96,149125,1,8,0:0:0:0:
160,96,149250,1,0,0:0:0:0:
352,96,149375,1,8,0:0:0:0:
352,96,149500,1,8,0:0:0:0:
160,96,149875,1,0,0:0:0:0:
352,96,150000,1,8,0:0:0:0:
352,96,150250,1,8,0:0:0:0:
352,96,150375,1,8,0:0:0:0:
352,96,150500,1,8,0:0:0:0:
352,96,150625,1,8,0:0:0:0:
160,96,150750,1,0,0:0:0:0:
160,96,150875,1,0,0:0:0:0:
352,96,151000,1,8,0:0:0:0:
352,96,151250,1,8,0:0:0:0:
160,96,151375,1,0,0:0:0:0:
352,96,151500,1,8,0:0:0:0:
352,96,151875,1,8,0:0:0:0:
352,96,152250,1,8,0:0:0:0:
352,96,152500,1,8,0:0:0:0:
160,96,152750,1,0,0:0:0:0:
352,96,152875,1,8,0:0:0:0:
352,96,152937,1,8,0:0:0:0:
352,96,153000,1,8,0:0:0:0:
352,96,153125,1,8,0:0:0:0:
160,96,153250,1,0,0:0:0:0:
352,96,153500,1,8,0:0:0:0:
352,96,153562,1,8,0:0:0:0:
352,96,153625,1,8,0:0:0:0:
160,96,153750,1,0,0:0:0:0:
160,96,154000,1,0,0:0:0:0:
160,96,154062,1,0,0:0:0:0:
160,96,154125,1,0,0:0:0:0:
160,96,154250,1,0,0:0:0:0:
352,96,154375,1,8,0:0:0:0:
352,96,154500,1,8,0:0:0:0:
160,96,154750,1,0,0:0:0:0:
160,96,154875,1,0,0:0:0:0:
352,96,155000,1,8,0:0:0:0:
160,96,155125,1,0,0:0:0:0:
160,96,155250,1,0,0:0:0:0:
352,96,155500,1,8,0:0:0:0:
160,96,155750,1,0,0:0:0:0:
352,96,155875,1,8,0:0:0:0:
160,96,156000,1,0,0:0:0:0:
160,96,156125,1,0,0:0:0:0:
352,96,156250,1,8,0:0:0:0:
352,96,156500,1,8,0:0:0:0:
160,96,156625,1,0,0:0:0:0:
160,96,156750,1,0,0:0:0:0:
352,96,156875,1,8,0:0:0:0:
160,96,157000,1,0,0:0:0:0:
352,96,157250,1,8,0:0:0:0:
352,96,157500,1,8,0:0:0:0:
352,96,158000,1,8,0:0:0:0:
352,96,158250,1,8,0:0:0:0:
352,96,158375,1,8,0:0:0:0:
352,96,158500,1,8,0:0:0:0:
352,96,158625,1,8,0:0:0:0:
160,96,158750,1,0,0:0:0:0:
352,96,159000,1,8,0:0:0:0:
352,96,159125,1,8,0:0:0:0:
160,96,159250,1,0,0:0:0:0:
352,96,159500,1,8,0:0:0:0:
352,96,159625,1,8,0:0:0:0:
160,96,159750,1,0,0:0:0:0:
352,96,159875,1,8,0:0:0:0:
160,96,160000,1,0,0:0:0:0:
352,96,160250,1,8,0:0:0:0:
352,96,160500,1,8,0:0:0:0:
160,96,160666,1,0,0:0:0:0:
160,96,160833,1,0,0:0:0:0:
352,96,161000,1,8,0:0:0:0:
352,96,161500,1,8,0:0:0:0:
160,96,161666,1,0,0:0:0:0:
352,96,161833,1,8,0:0:0:0:
352,96,162000,1,8,0:0:0:0:
160,96,162333,1,0,0:0:0:0:
352,96,162500,1,8,0:0:0:0:
160,96,162666,1,0,0:0:0:0:
160,96,162833,1,0,0:0:0:0:
352,96,163000,1,8,0:0:0:0:
352,96,163500,1,8,0:0:0:0:
160,96,163666,1,0,0:0:0:0:
160,96,163833,1,0,0:0:0:0:
352,96,164000,1,8,0:0:0:0:
160,96,164333,1,0,0:0:0:0:
352,96,164500,1,8,0:0:0:0:
352,96,164666,1,8,0:0:0:0:
160,96,164833,1,0,0:0:0:0:
352,96,165000,1,8,0:0:0:0:
160,96,165500,1,0,0:0:0:0:
160,96,165666,1,0,0:0:0:0:
352,96,165833,1,8,0:0:0:0:
352,96,166000,1,8,0:0:0:0:
160,96,166250,1,0,0:0:0:0:
352,96,166500,1,8,0:0:0:0:
160,96,166666,1,0,0:0:0:0:
352,96,166833,1,8,0:0:0:0:
352,96,167000,1,8,0:0:0:0:
160,96,167500,1,0,0:0:0:0:
352,96,167666,1,8,0:0:0:0:
352,96,167833,1,8,0:0:0:0:
160,96,168000,1,0,0:0:0:0:
352,96,168166,1,8,0:0:0:0:
160,96,168333,1,0,0:0:0:0:
352,96,168500,1,8,0:0:0:0:
352,96,168750,1,8,0:0:0:0:
352,96,169000,1,8,0:0:0:0:
352,96,169250,1,8,0:0:0:0:
352,96,169500,1,8,0:0:0:0:
160,96,170000,1,0,0:0:0:0:
160,96,170166,1,0,0:0:0:0:
160,96,170333,1,0,0:0:0:0:
352,96,170500,1,8,0:0:0:0:
352,96,170666,1,8,0:0:0:0:
352,96,170833,1,8,0:0:0:0:
160,96,171000,1,0,0:0:0:0:
160,96,171500,1,0,0:0:0:0:
352,96,171666,1,8,0:0:0:0:
352,96,171833,1,8,0:0:0:0:
160,96,172000,1,0,0:0:0:0:
160,96,172333,1,0,0:0:0:0:
352,96,172500,1,8,0:0:0:0:
352,96,172666,1,8,0:0:0:0:
352,96,172833,1,8,0:0:0:0:
160,96,173000,1,0,0:0:0:0:
160,96,173333,1,0,0:0:0:0:
352,96,173500,1,8,0:0:0:0:
352,96,173666,1,8,0:0:0:0:
352,96,173833,1,8,0:0:0:0:
352,96,174000,1,8,0:0:0:0:
160,96,174333,1,0,0:0:0:0:
352,96,174500,1,8,0:0:0:0:
352,96,174666,1,8,0:0:0:0:
160,96,174833,1,0,0:0:0:0:
352,96,175000,1,8,0:0:0:0:
160,96,175166,1,0,0:0:0:0:
160,96,175333,1,0,0:0:0:0:
352,288,175500,1,12,0:0:0:0:
160,288,176000,1,4,0:0:0:0:
160,288,176166,1,4,0:0:0:0:
352,288,176333,1,12,0:0:0:0:
160,288,176500,1,4,0:0:0:0:
160,288,177500,1,4,0:0:0:0:
352,96,177875,1,8,0:0:0:0:
352,96,178125,1,8,0:0:0:0:
352,96,178250,1,8,0:0:0:0:
352,96,178500,1,8,0:0:0:0:
352,96,178750,1,8,0:0:0:0:
160,96,178875,1,0,0:0:0:0:
352,96,179000,1,8,0:0:0:0:
352,96,179250,1,8,0:0:0:0:
160,96,179500,1,0,0:0:0:0:
352,96,179875,1,8,0:0:0:0:
352,96,180125,1,8,0:0:0:0:
160,96,180250,1,0,0:0:0:0:
160,96,180500,1,0,0:0:0:0:
352,96,180750,1,8,0:0:0:0:
160,96,180875,1,0,0:0:0:0:
160,96,181000,1,0,0:0:0:0:
352,96,181125,1,8,0:0:0:0:
160,288,181500,1,4,0:0:0:0:
352,96,181875,1,8,0:0:0:0:
160,96,182125,1,0,0:0:0:0:
352,96,182250,1,8,0:0:0:0:
352,96,182500,1,8,0:0:0:0:
352,96,182750,1,8,0:0:0:0:
352,96,182875,1,8,0:0:0:0:
160,96,183000,1,0,0:0:0:0:
352,96,183250,1,8,0:0:0:0:
160,288,183500,1,4,0:0:0:0:
352,96,183750,1,8,0:0:0:0:
160,96,184000,1,0,0:0:0:0:
352,96,184125,1,8,0:0:0:0:
352,96,184375,1,8,0:0:0:0:
160,288,184500,1,4,0:0:0:0:
352,96,184750,1,8,0:0:0:0:
160,288,185000,1,4,0:0:0:0:
352,288,185250,1,12,0:0:0:0:
160,288,185500,1,4,0:0:0:0:
160,96,185875,1,0,0:0:0:0:
352,96,186000,1,8,0:0:0:0:
352,96,186250,1,8,0:0:0:0:
352,96,186500,1,8,0:0:0:0:
352,96,186625,1,8,0:0:0:0:
160,96,186750,1,0,0:0:0:0:
160,96,186875,1,0,0:0:0:0:
352,96,187000,1,8,0:0:0:0:
160,96,187250,1,0,0:0:0:0:
160,96,187375,1,0,0:0:0:0:
352,96,187500,1,8,0:0:0:0:
352,96,187875,1,8,0:0:0:0:
160,96,188000,1,0,0:0:0:0:
352,96,188250,1,8,0:0:0:0:
160,96,188500,1,0,0:0:0:0:
352,96,188750,1,8,0:0:0:0:
160,96,188875,1,0,0:0:0:0:
352,96,189000,1,8,0:0:0:0:
160,96,189125,1,0,0:0:0:0:
352,96,189250,1,8,0:0:0:0:
160,288,189500,1,4,0:0:0:0:
160,96,189875,1,0,0:0:0:0:
352,96,190000,1,8,0:0:0:0:
352,96,190250,1,8,0:0:0:0:
352,96,190375,1,8,0:0:0:0:
352,96,190500,1,8,0:0:0:0:
352,96,190750,1,8,0:0:0:0:
160,96,191000,1,0,0:0:0:0:
160,96,191125,1,0,0:0:0:0:
352,96,191250,1,8,0:0:0:0:
352,96,191500,1,8,0:0:0:0:
160,96,191625,1,0,0:0:0:0:
352,96,191750,1,8,0:0:0:0:
352,96,192000,1,8,0:0:0:0:
352,96,192250,1,8,0:0:0:0:
160,96,192500,1,0,0:0:0:0:
160,96,192625,1,0,0:0:0:0:
352,96,192750,1,8,0:0:0:0:
160,96,193000,1,0,0:0:0:0:
160,96,193062,1,0,0:0:0:0:
160,96,193125,1,0,0:0:0:0:
352,96,193250,1,8,0:0:0:0:
352,288,193500,1,12,0:0:0:0:
352,96,194000,1,8,0:0:0:0:
160,96,194125,1,0,0:0:0:0:
352,96,194250,1,8,0:0:0:0:
160,96,194375,1,0,0:0:0:0:
352,96,194500,1,8,0:0:0:0:
352,96,194750,1,8,0:0:0:0:
352,96,194875,1,8,0:0:0:0:
160,96,195000,1,0,0:0:0:0:
160,96,195125,1,0,0:0:0:0:
352,96,195250,1,8,0:0:0:0:
160,288,195500,1,4,0:0:0:0:
352,96,196000,1,8,0:0:0:0:
160,96,196250,1,0,0:0:0:0:
352,96,196500,1,8,0:0:0:0:
352,96,196750,1,8,0:0:0:0:
352,96,197000,1,8,0:0:0:0:
352,96,197125,1,8,0:0:0:0:
352,96,197250,1,8,0:0:0:0:
160,96,197375,1,0,0:0:0:0:
352,288,197500,1,12,0:0:0:0:
352,96,198000,1,8,0:0:0:0:
160,96,198125,1,0,0:0:0:0:
352,96,198250,1,8,0:0:0:0:
352,96,198500,1,8,0:0:0:0:
352,96,198625,1,8,0:0:0:0:
160,96,198750,1,0,0:0:0:0:
160,96,198875,1,0,0:0:0:0:
352,96,199000,1,8,0:0:0:0:
160,96,199250,1,0,0:0:0:0:
160,96,199375,1,0,0:0:0:0:
352,288,199500,1,12,0:0:0:0:
352,96,200000,1,8,0:0:0:0:
352,96,200250,1,8,0:0:0:0:
352,96,200500,1,8,0:0:0:0:
352,96,200562,1,8,0:0:0:0:
352,96,200625,1,8,0:0:0:0:
160,96,200750,1,0,0:0:0:0:
352,96,201000,1,8,0:0:0:0:
352,288,201250,1,12,0:0:0:0:
352,96,201500,1,8,0:0:0:0:
352,96,201625,1,8,0:0:0:0:
352,96,201750,1,8,0:0:0:0:
160,96,201875,1,0,0:0:0:0:
352,96,202000,1,8,0:0:0:0:
352,96,202250,1,8,0:0:0:0:
160,96,202375,1,0,0:0:0:0:
352,96,202500,1,8,0:0:0:0:
160,96,202625,1,0,0:0:0:0:
160,96,202750,1,0,0:0:0:0:
352,96,203000,1,8,0:0:0:0:
160,96,203125,1,0,0:0:0:0:
352,96,203250,1,8,0:0:0:0:
352,96,203375,1,8,0:0:0:0:
160,288,203500,1,4,0:0:0:0:
352,96,204000,1,8,0:0:0:0:
352,96,204250,1,8,0:0:0:0:
160,96,204375,1,0,0:0:0:0:
352,96,204500,1,8,0:0:0:0:
352,96,204750,1,8,0:0:0:0:
160,96,204875,1,0,0:0:0:0:
352,96,205000,1,8,0:0:0:0:
160,96,205125,1,0,0:0:0:0:
352,96,205250,1,8,0:0:0:0:
352,96,205500,1,8,0:0:0:0:
352,96,205625,1,8,0:0:0:0:
352,96,205750,1,8,0:0:0:0:
160,96,205875,1,0,0:0:0:0:
352,96,206000,1,8,0:0:0:0:
160,96,206250,1,0,0:0:0:0:
160,96,206375,1,0,0:0:0:0:
352,96,206500,1,8,0:0:0:0:
352,96,206625,1,8,0:0:0:0:
160,96,206750,1,0,0:0:0:0:
352,96,207000,1,8,0:0:0:0:
160,96,207125,1,0,0:0:0:0:
352,96,207250,1,8,0:0:0:0:
160,96,207375,1,0,0:0:0:0:
352,288,207500,1,12,0:0:0:0:
352,96,208000,1,8,0:0:0:0:
352,96,208250,1,8,0:0:0:0:
352,96,208500,1,8,0:0:0:0:
352,96,208562,1,8,0:0:0:0:
352,96,208625,1,8,0:0:0:0:
160,96,208750,1,0,0:0:0:0:
352,96,208875,1,8,0:0:0:0:
352,96,209000,1,8,0:0:0:0:
352,96,209062,1,8,0:0:0:0:
352,96,209125,1,8,0:0:0:0:
160,96,209250,1,0,0:0:0:0:
352,96,209500,1,8,0:0:0:0:
352,96,209625,1,8,0:0:0:0:
160,96,209750,1,0,0:0:0:0:
160,96,209875,1,0,0:0:0:0:
352,96,210000,1,8,0:0:0:0:
160,96,210500,1,0,0:0:0:0:
160,96,210625,1,0,0:0:0:0:
352,96,210750,1,8,0:0:0:0:
160,96,210875,1,0,0:0:0:0:
352,96,211000,1,8,0:0:0:0:
352,96,211250,1,8,0:0:0:0:
352,96,211500,1,8,0:0:0:0:
352,96,211625,1,8,0:0:0:0:
352,96,211750,1,8,0:0:0:0:
160,96,211875,1,0,0:0:0:0:
352,96,212000,1,8,0:0:0:0:
160,96,212500,1,0,0:0:0:0:
160,96,212625,1,0,0:0:0:0:
352,96,212750,1,8,0:0:0:0:
160,96,212875,1,0,0:0:0:0:
352,96,213000,1,8,0:0:0:0:
160,96,213500,1,0,0:0:0:0:
160,96,213750,1,0,0:0:0:0:
352,96,214000,1,8,0:0:0:0:
160,96,214250,1,0,0:0:0:0:
352,96,214500,1,8,0:0:0:0:
160,96,214750,1,0,0:0:0:0:
352,96,215000,1,8,0:0:0:0:
352,96,215166,1,8,0:0:0:0:
160,96,215333,1,0,0:0:0:0:
352,96,215500,1,8,0:0:0:0:
160,96,215750,1,0,0:0:0:0:
160,96,216000,1,0,0:0:0:0:
352,96,216125,1,8,0:0:0:0:
160,96,216250,1,0,0:0:0:0:
352,96,216375,1,8,0:0:0:0:
160,288,216500,1,4,0:0:0:0:
160,288,216750,1,4,0:0:0:0:
352,288,217000,1,12,0:0:0:0:
