osu file format v14

[General]
AudioFilename: audio.mp3
AudioLeadIn: 0
PreviewTime: 1622
Countdown: 0
SampleSet: Soft
StackLeniency: 0.7
Mode: 0
LetterboxInBreaks: 0
WidescreenStoryboard: 1

[Editor]
DistanceSpacing: 1.5
BeatDivisor: 4
GridSize: 4
TimelineZoom: 1.9

[Metadata]
Title:On Your Way (TV Size)
TitleUnicode:On Your Way (TV Size)
Artist:Obey Me! Boys
ArtistUnicode:Obey Me! Boys
Creator:Mafumafu
Version:Mono's Hard
Source:Obey Me! The Anime Season 2
Tags:おべいみー! obeimi-! otome ending ed anime short jpop pop japanese pop sins Hirotaka Kobayashi Mammon Greed 古林裕貴 マモン Satoshi Kada Leviathan Envy 加田智志 レヴィアタン Shinya Sumi Satan Wraith 角真也 サタン Miura Ayme Asmodeus Lust ミウラアイム アスモデウス Kyohei Kyouhei Yaguchi Beelzebub Gluttony 矢口恭平 ベルゼブブ Satoshi Onishi Belphegor Sloth 大西哲史 ベルフェゴール Kazuya Yamashita Lucifer Pride 山下和也 ルシファー OGAWA RYO regraz mononymous Addy2607 KaedeharaKazuha ascended -_ascended_- -ascended- two
BeatmapID:3760868
BeatmapSetID:1832074

[Difficulty]
HPDrainRate:4.5
CircleSize:4
OverallDifficulty:5.8
ApproachRate:7
SliderMultiplier:1.42
SliderTickRate:1

[Events]
//Background and Video events
0,0,"obeyme.jpg",0,0
//Break Periods
//Storyboard Layer 0 (Background)
//Storyboard Layer 1 (Fail)
//Storyboard Layer 2 (Pass)
//Storyboard Layer 3 (Foreground)
//Storyboard Layer 4 (Overlay)
//Storyboard Sound Samples

[TimingPoints]
-378,500,4,2,0,70,1,0
1622,-90.9090909090909,4,2,5,70,0,0
1997,-90.9090909090909,4,2,6,70,0,0
2122,-90.9090909090909,4,2,5,70,0,0
2997,-90.9090909090909,4,2,6,70,0,0
3122,-90.9090909090909,4,2,5,70,0,0
3997,-90.9090909090909,4,2,6,70,0,0
4122,-90.9090909090909,4,2,5,70,0,0
4497,-90.9090909090909,4,2,6,70,0,0
4622,-90.9090909090909,4,2,5,70,0,0
4997,-90.9090909090909,4,2,6,70,0,0
5122,-90.9090909090909,4,2,5,70,0,0
5997,-90.9090909090909,4,2,6,70,0,0
6122,-90.9090909090909,4,2,5,70,0,0
6997,-90.9090909090909,4,2,6,70,0,0
7122,-90.9090909090909,4,2,5,70,0,0
7997,-90.9090909090909,4,2,6,70,0,0
8122,-90.9090909090909,4,2,5,70,0,0
8997,-90.9090909090909,4,2,6,70,0,0
9122,-90.9090909090909,4,2,5,70,0,0
9997,-90.9090909090909,4,2,6,70,0,0
10122,-90.9090909090909,4,2,5,70,0,0
10997,-90.9090909090909,4,2,6,70,0,0
11122,-90.9090909090909,4,2,5,70,0,0
11997,-90.9090909090909,4,2,6,70,0,0
12122,-90.9090909090909,4,2,5,70,0,0
12997,-90.9090909090909,4,2,6,70,0,0
13122,-90.9090909090909,4,2,5,70,0,0
13997,-90.9090909090909,4,2,6,70,0,0
14122,-90.9090909090909,4,2,5,70,0,0
14997,-90.9090909090909,4,2,6,70,0,0
15122,-90.9090909090909,4,2,5,70,0,0
15997,-90.9090909090909,4,2,6,70,0,0
16122,-90.9090909090909,4,2,5,70,0,0
17622,-100,4,2,5,70,0,0
19622,-90.9090909090909,4,2,5,70,0,0
19997,-90.9090909090909,4,2,6,70,0,0
20122,-90.9090909090909,4,2,5,70,0,0
20497,-90.9090909090909,4,2,6,70,0,0
20622,-90.9090909090909,4,2,5,70,0,0
20872,-90.9090909090909,4,2,6,70,0,0
21122,-90.9090909090909,4,2,5,70,0,0
21247,-90.9090909090909,4,2,6,70,0,0
21622,-90.9090909090909,4,2,5,70,0,0
21997,-90.9090909090909,4,2,6,70,0,0
22122,-90.9090909090909,4,2,5,70,0,0
22997,-90.9090909090909,4,2,6,70,0,0
23122,-90.9090909090909,4,2,5,70,0,0
24997,-90.9090909090909,4,2,6,70,0,0
25122,-90.9090909090909,4,2,5,70,0,0
25997,-90.9090909090909,4,2,6,70,0,0
26122,-90.9090909090909,4,2,5,70,0,0
26997,-90.9090909090909,4,2,6,70,0,0
27122,-90.9090909090909,4,2,5,70,0,0
27997,-90.9090909090909,4,2,6,70,0,0
28122,-90.9090909090909,4,2,5,70,0,0
28872,-90.9090909090909,4,2,6,70,0,0
29122,-90.9090909090909,4,2,5,70,0,0
29247,-90.9090909090909,4,2,6,70,0,0
29622,-100,4,2,5,60,0,0
32622,-100,4,2,6,60,0,0
33122,-100,4,2,5,60,0,0

[Colours]
Combo1 : 14,66,114
Combo2 : 64,64,64
Combo3 : 202,202,202
Combo4 : 88,36,159
Combo5 : 201,216,22
Combo6 : 168,188,165
Combo7 : 209,167,54

[HitObjects]
210,201,1622,6,0,P|205:152|197:110,1,78.1000023834229,4|2,2:1|2:2,0:0:0:0:
182,79,1997,1,0,2:2:0:0:
182,79,2122,2,0,P|208:43|242:42,1,78.1000023834229,8|2,2:1|2:2,0:0:0:0:
322,85,2622,5,4,2:3:0:0:
403,38,2872,2,0,L|393:-11,2,39.0500011917115,2|0|8,2:2|2:2|2:1,0:0:0:0:
477,94,3372,1,2,2:2:0:0:
477,94,3622,6,0,P|466:151|455:209,1,117.150003575134,4|0,2:3|2:2,0:0:0:0:
419,240,4122,1,8,2:1:0:0:
487,336,4372,1,2,2:2:0:0:
487,336,4497,1,0,2:2:0:0:
487,336,4622,1,4,2:3:0:0:
369,384,4872,1,2,2:2:0:0:
300,294,5122,1,8,2:1:0:0:
101,350,5622,6,0,P|106:304|118:263,1,78.1000023834229,4|2,2:1|2:2,0:0:0:0:
148,240,5997,1,0,2:2:0:0:
148,240,6122,2,0,P|143:194|131:153,1,78.1000023834229,8|2,2:1|2:2,0:0:0:0:
54,114,6622,1,4,2:3:0:0:
120,47,6872,2,0,L|130:2,2,39.0500011917115,2|0|8,2:2|2:2|2:1,0:0:0:0:
200,94,7372,1,2,2:2:0:0:
281,47,7622,6,0,P|326:53|358:78,2,78.1000023834229,4|2|8,2:3|2:2|2:1,0:0:0:0:
200,94,8372,1,2,2:2:0:0:
200,94,8622,2,0,P|209:139|213:178,1,78.1000023834229,4|2,2:3|2:2,0:0:0:0:
165,252,9122,1,8,2:1:0:0:
244,301,9372,1,2,2:2:0:0:
334,204,9622,6,0,B|379:214|379:214|409:205|409:205|447:215,1,117.150003575134,4|0,2:1|2:2,0:0:0:0:
486,241,10122,2,0,P|503:202|495:169,1,78.1000023834229,8|2,2:1|2:2,0:0:0:0:
456,83,10622,1,4,2:3:0:0:
373,127,10872,1,2,2:2:0:0:
373,127,10997,1,0,2:2:0:0:
373,127,11122,2,0,P|315:114|254:100,1,117.150003575134,8|0,2:1|0:0,0:0:0:0:
217,77,11622,6,0,P|229:126|234:164,1,78.1000023834229,4|2,2:3|2:2,0:0:0:0:
168,221,12122,2,0,P|199:269|263:264,1,117.150003575134,8|0,2:1|0:0,0:0:0:0:
292,242,12622,1,4,2:3:0:0:
372,320,12872,1,2,2:2:0:0:
281,374,13122,1,8,2:1:0:0:
104,311,13622,6,0,P|64:321|25:330,1,78.1000023834229,4|2,2:1|2:2,0:0:0:0:
3,289,13997,1,0,2:2:0:0:
3,289,14122,2,0,P|0:250|28:217,1,78.1000023834229,8|2,2:1|2:2,0:0:0:0:
95,161,14622,1,4,2:3:0:0:
32,90,14872,2,0,L|22:52,2,39.0500011917115,2|0|8,2:2|2:2|2:1,0:0:0:0:
103,4,15372,5,2,2:2:0:0:
103,4,15622,2,0,P|148:16|187:24,1,78.1000023834229,4|2,2:3|2:2,0:0:0:0:
270,4,16122,1,8,2:1:0:0:
338,67,16372,1,2,2:2:0:0:
260,120,16622,2,0,B|240:153|240:153|261:186,1,78.1000023834229,4|0,2:3|0:0,0:0:0:0:
369,231,17122,2,0,B|389:198|389:198|368:165,1,78.1000023834229,8|0,2:1|0:0,0:0:0:0:
293,269,17622,5,4,2:1:0:0:
293,269,18622,1,4,2:3:0:0:
489,139,19372,5,2,0:0:0:0:
489,139,19622,2,0,P|480:97|477:62,2,78.1000023834229,4|2|8,2:3|2:2|2:1,0:0:0:0:
407,186,20372,1,2,2:2:0:0:
338,121,20622,2,0,B|267:125|314:166|234:173,1,117.150003575134,4|0,2:3|0:0,0:0:0:0:
211,151,21122,1,8,2:1:0:0:
134,205,21372,1,0,0:0:0:0:
42,124,21622,6,0,B|67:95|67:95|60:56,1,78.1000023834229,4|2,2:1|2:2,0:0:0:0:
142,10,22122,2,0,L|156:91,2,78.1000023834229,8|2|4,2:1|2:2|2:3,0:0:0:0:
59,55,22872,1,2,2:2:0:0:
59,55,23122,2,0,P|18:70|8:106,1,78.1000023834229,8|2,2:1|2:2,0:0:0:0:
39,188,23622,5,4,2:3:0:0:
125,151,23872,1,2,2:2:0:0:
125,151,24122,2,0,B|177:145|146:179|211:175,2,78.1000023834229,8|2|4,2:1|2:2|2:3,0:0:0:0:
39,188,24872,1,2,2:2:0:0:
95,262,25122,2,0,L|111:338,1,78.1000023834229,8|0,2:1|0:0,0:0:0:0:
200,367,25622,5,4,2:1:0:0:
282,322,25872,1,2,2:2:0:0:
282,322,25997,1,0,2:2:0:0:
282,322,26122,2,0,P|293:276|286:243,1,78.1000023834229,8|2,2:1|2:2,0:0:0:0:
218,182,26622,1,4,2:3:0:0:
303,142,26872,2,0,L|313:103,2,39.0500011917115,2|0|8,2:2|2:2|2:1,0:0:0:0:
218,182,27372,1,2,2:2:0:0:
143,125,27622,6,0,B|95:137|134:158|82:174,2,78.1000023834229,4|2|8,2:3|2:2|2:1,0:0:0:0:
236,99,28372,1,2,2:2:0:0:
236,99,28622,2,0,P|242:42|201:-2,1,117.150003575134,4|0,2:3|0:0,0:0:0:0:
160,17,29122,1,8,2:1:0:0:
67,0,29372,5,0,0:0:0:0:
67,0,29622,2,0,P|77:54|87:152,1,142,4|2,2:1|2:2,0:0:0:0:
154,296,30622,2,0,B|201:287|201:287|218:276|218:276|256:271,1,106.5,2|0,2:2|0:0,0:0:0:0:
372,323,31372,6,0,P|405:272|388:196,1,142,2|0,2:2|0:0,0:0:0:0:
330,134,32122,2,0,P|335:97|341:61,1,71,4|0,2:3|0:0,0:0:0:0:
262,28,32622,2,0,P|256:63|251:98,1,71,4|0,2:3|0:0,0:0:0:0:
177,141,33122,1,8,2:1:0:0:
419,32,33622,5,4,2:3:0:0:
