osu file format v14

[General]
AudioFilename: audio.mp3
AudioLeadIn: 0
PreviewTime: 1622
Countdown: 0
SampleSet: Soft
StackLeniency: 0.7
Mode: 0
LetterboxInBreaks: 0
WidescreenStoryboard: 1

[Editor]
DistanceSpacing: 0.9
BeatDivisor: 4
GridSize: 4
TimelineZoom: 1

[Metadata]
Title:On Your Way (TV Size)
TitleUnicode:On Your Way (TV Size)
Artist:Obey Me! Boys
ArtistUnicode:Obey Me! Boys
Creator:Mafumafu
Version:Kazuha's Normal
Source:Obey Me! The Anime Season 2
Tags:おべいみー! obeimi-! otome ending ed anime short jpop pop japanese pop sins Hirotaka Kobayashi Mammon Greed 古林裕貴 マモン Satoshi Kada Leviathan Envy 加田智志 レヴィアタン Shinya Sumi Satan Wraith 角真也 サタン Miura Ayme Asmodeus Lust ミウラアイム アスモデウス Kyohei Kyouhei Yaguchi Beelzebub Gluttony 矢口恭平 ベルゼブブ Satoshi Onishi Belphegor Sloth 大西哲史 ベルフェゴール Kazuya Yamashita Lucifer Pride 山下和也 ルシファー OGAWA RYO regraz mononymous Addy2607 KaedeharaKazuha ascended -_ascended_- -ascended- two
BeatmapID:3762857
BeatmapSetID:1832074

[Difficulty]
HPDrainRate:3
CircleSize:3
OverallDifficulty:4
ApproachRate:5
SliderMultiplier:1.1
SliderTickRate:1

[Events]
//Background and Video events
0,0,"obeyme.jpg",0,0
//Break Periods
//Storyboard Layer 0 (Background)
//Storyboard Layer 1 (Fail)
//Storyboard Layer 2 (Pass)
//Storyboard Layer 3 (Foreground)
//Storyboard Layer 4 (Overlay)
//Storyboard Sound Samples

[TimingPoints]
-378,500,4,2,0,70,1,0
1622,-100,4,2,5,70,0,0
1997,-100,4,2,6,70,0,0
2122,-100,4,2,5,70,0,0
2997,-100,4,2,6,70,0,0
3122,-100,4,2,5,70,0,0
3997,-100,4,2,6,70,0,0
4122,-100,4,2,5,70,0,0
4497,-100,4,2,6,70,0,0
4622,-100,4,2,5,70,0,0
4997,-100,4,2,6,70,0,0
5122,-100,4,2,5,70,0,0
5997,-100,4,2,6,70,0,0
6122,-100,4,2,5,70,0,0
6997,-100,4,2,6,70,0,0
7122,-100,4,2,5,70,0,0
7997,-100,4,2,6,70,0,0
8122,-100,4,2,5,70,0,0
8997,-100,4,2,6,70,0,0
9122,-100,4,2,5,70,0,0
9997,-100,4,2,6,70,0,0
10122,-100,4,2,5,70,0,0
10997,-100,4,2,6,70,0,0
11122,-100,4,2,5,70,0,0
11997,-100,4,2,6,70,0,0
12122,-100,4,2,5,70,0,0
12997,-100,4,2,6,70,0,0
13122,-100,4,2,5,70,0,0
13997,-100,4,2,6,70,0,0
14122,-100,4,2,5,70,0,0
14997,-100,4,2,6,70,0,0
15122,-100,4,2,5,70,0,0
15997,-100,4,2,6,70,0,0
16122,-100,4,2,5,70,0,0
17622,-105.263157894737,4,2,5,70,0,0
19622,-100,4,2,5,70,0,0
19997,-100,4,2,6,70,0,0
20122,-100,4,2,5,70,0,0
20497,-100,4,2,6,70,0,0
20622,-100,4,2,5,70,0,0
20872,-100,4,2,6,70,0,0
21122,-100,4,2,5,70,0,0
21247,-100,4,2,6,70,0,0
21622,-100,4,2,5,70,0,0
21997,-100,4,2,6,70,0,0
22122,-100,4,2,5,70,0,0
22997,-100,4,2,6,70,0,0
23122,-100,4,2,5,70,0,0
24997,-100,4,2,6,70,0,0
25122,-100,4,2,5,70,0,0
25997,-100,4,2,6,70,0,0
26122,-100,4,2,5,70,0,0
26997,-100,4,2,6,70,0,0
27122,-100,4,2,5,70,0,0
27997,-100,4,2,6,70,0,0
28122,-100,4,2,5,70,0,0
28872,-100,4,2,6,70,0,0
29122,-100,4,2,5,70,0,0
29247,-100,4,2,6,70,0,0
29622,-105.263157894737,4,2,5,60,0,0
32622,-105.263157894737,4,2,6,60,0,0
33122,-105.263157894737,4,2,5,60,0,0

[Colours]
Combo1 : 14,66,114
Combo2 : 64,64,64
Combo3 : 202,202,202
Combo4 : 88,36,159
Combo5 : 201,216,22
Combo6 : 168,188,165
Combo7 : 209,167,54

[HitObjects]
52,308,1622,6,0,P|111:299|174:294,1,110,4|8,2:1|2:1,0:0:0:0:
204,271,2372,1,2,2:2:0:0:
204,271,2622,2,0,P|198:227|194:199,1,55,4|2,2:3|2:2,0:0:0:0:
187,167,3122,1,8,2:1:0:0:
241,84,3622,2,0,P|278:64|335:101,1,110,4|8,2:3|2:1,0:0:0:0:
380,122,4372,1,2,2:2:0:0:
380,122,4622,2,0,P|422:118|442:115,1,55,4|2,2:3|2:2,0:0:0:0:
484,110,5122,1,8,2:1:0:0:
500,207,5622,6,0,P|508:280|513:325,1,110,4|8,2:1|2:1,0:0:0:0:
484,358,6372,1,2,2:2:0:0:
484,358,6622,2,0,P|411:366|365:372,1,110,4|8,2:3|2:1,0:0:0:0:
332,345,7372,1,2,2:2:0:0:
332,345,7622,2,0,P|288:338|266:335,1,55,4|2,2:3|2:2,0:0:0:0:
233,359,8122,1,8,2:1:0:0:
151,303,8622,2,0,P|158:259|161:237,1,55,4|2,2:3|2:2,0:0:0:0:
196,215,9122,2,0,P|189:171|186:149,1,55,8|2,2:1|2:2,0:0:0:0:
228,132,9622,6,0,P|276:125|346:116,1,110,4|8,2:1|2:1,0:0:0:0:
290,29,10622,2,0,P|265:32|230:36,1,55,4|2,2:3|2:2,0:0:0:0:
187,47,11122,1,8,2:1:0:0:
90,23,11622,2,0,P|54:45|77:110,1,110,4|8,2:3|2:1,0:0:0:0:
97,142,12372,1,2,2:2:0:0:
97,142,12622,2,0,P|91:189|87:215,1,55,4|2,2:3|2:2,0:0:0:0:
84,245,13122,1,8,2:1:0:0:
151,317,13622,6,0,P|208:296|256:326,1,110,4|8,2:1|2:1,0:0:0:0:
290,353,14372,1,2,2:2:0:0:
290,353,14622,2,0,P|347:374|395:344,1,110,4|8,2:3|2:1,0:0:0:0:
426,322,15372,1,2,2:2:0:0:
426,322,15622,2,0,P|421:272|417:249,1,55,4|2,2:3|2:2,0:0:0:0:
413,218,16122,1,8,2:1:0:0:
499,169,16622,2,0,P|504:119|508:96,1,55,4|0,2:3|0:0,0:0:0:0:
512,65,17122,1,8,2:1:0:0:
429,20,17622,5,4,2:1:0:0:
363,87,18122,1,2,2:2:0:0:
298,18,18622,1,4,2:3:0:0:
225,77,19122,1,2,2:2:0:0:
274,162,19622,2,0,L|263:228,1,55,4|2,2:3|2:2,0:0:0:0:
298,248,20122,2,0,L|309:314,1,55,8|2,2:1|2:2,0:0:0:0:
285,347,20622,1,4,2:3:0:0:
186,356,21122,2,0,P|142:361|108:367,1,55,8|0,2:1|0:0,0:0:0:0:
86,342,21622,5,4,2:1:0:0:
33,258,22122,2,0,P|37:224|40:200,1,55,8|2,2:1|2:2,0:0:0:0:
24,156,22622,2,0,P|28:122|31:98,1,55,4|2,2:3|2:2,0:0:0:0:
61,62,23122,1,8,2:1:0:0:
144,114,23622,2,0,P|140:148|137:172,1,55,4|2,2:3|2:2,0:0:0:0:
162,211,24122,2,0,P|158:245|155:269,1,55,8|2,2:1|2:2,0:0:0:0:
193,297,24622,2,0,P|227:293|251:290,1,55,4|2,2:3|2:2,0:0:0:0:
296,284,25122,1,8,2:1:0:0:
377,340,25622,5,4,2:1:0:0:
454,277,26122,2,0,P|450:230|447:207,1,55,8|2,2:1|2:2,0:0:0:0:
481,184,26622,2,0,P|485:137|488:114,1,55,4|2,2:3|2:2,0:0:0:0:
459,86,27122,1,8,2:1:0:0:
368,126,27622,2,0,P|321:122|298:119,1,55,4|2,2:3|2:2,0:0:0:0:
281,159,28122,2,0,P|285:206|288:229,1,55,8|2,2:1|2:2,0:0:0:0:
319,250,28622,1,4,2:3:0:0:
265,333,29122,1,8,2:1:0:0:
182,287,29622,6,0,P|118:292|70:300,1,104.499997209549,4|2,2:1|2:2,0:0:0:0:
8,235,30622,1,2,2:2:0:0:
2,141,31122,1,0,0:0:0:0:
63,70,31622,2,0,P|127:65|175:57,1,104.499997209549,2|4,2:2|2:3,0:0:0:0:
251,99,32622,2,0,P|255:140|258:165,1,52.2499986047745,4|0,2:3|0:0,0:0:0:0:
265,197,33122,1,8,2:1:0:0:
341,251,33622,5,4,2:3:0:0:
