osu file format v14

[General]
AudioFilename: audio.mp3
AudioLeadIn: 0
PreviewTime: 2945
Countdown: 0
SampleSet: Soft
StackLeniency: 0.7
Mode: 0
LetterboxInBreaks: 0
WidescreenStoryboard: 0

[Editor]
DistanceSpacing: 1.5
BeatDivisor: 4
GridSize: 16
TimelineZoom: 2.7

[Metadata]
Title:It's My Party (TV Size)
TitleUnicode:It's My Party (TV Size)
Artist:Obey Me! Boys
ArtistUnicode:Obey Me! Boys
Creator:Mafumafu
Version:Sinful
Source:Obey Me! The Anime
Tags:おべいみー! obeimi-! ending ed anime short jpop pop japanese pop sins Hirotaka Kobayashi Mammon Greed 古林裕貴 マモン Satoshi Kada Leviathan Envy 加田智志 レヴィアタン Shinya Sumi Satan Wraith 角真也 サタン Miura Ayme Asmodeus Lust ミウラアイム アスモデウス Kyohei Kyouhei Yaguchi Beelzebub Gluttony 矢口恭平 ベルゼブブ Satoshi Onishi Belphegor Sloth 大西哲史 ベルフェゴール Kazuya Yamashita Lucifer Pride 山下和也 ルシファー OGAWA RYO regraz
BeatmapID:3638002
BeatmapSetID:1776472

[Difficulty]
HPDrainRate:6
CircleSize:4.8
OverallDifficulty:7.7
ApproachRate:8.8
SliderMultiplier:1.9
SliderTickRate:1

[Events]
//Background and Video events
0,0,"obeyme.jpg",0,0
//Break Periods
//Storyboard Layer 0 (Background)
//Storyboard Layer 1 (Fail)
//Storyboard Layer 2 (Pass)
//Storyboard Layer 3 (Foreground)
//Storyboard Layer 4 (Overlay)
//Storyboard Sound Samples

[TimingPoints]
120,468.75,4,2,6,65,1,0
1995,-100,4,2,6,75,0,0
3401,-50,4,2,6,80,0,0
3635,-76.9230769230769,4,2,6,5,0,0
3870,-76.9230769230769,4,2,7,80,0,0
4221,-76.9230769230769,4,2,6,80,0,0
7620,-76.9230769230769,4,2,7,80,0,0
7971,-76.9230769230769,4,2,6,80,0,0
11370,-76.9230769230769,4,2,7,80,0,0
11721,-76.9230769230769,4,2,6,80,0,0
13245,-76.9230769230769,4,2,7,80,0,0
13596,-76.9230769230769,4,2,6,80,0,0
15120,-76.9230769230769,4,2,7,80,0,0
15471,-76.9230769230769,4,2,6,80,0,0
18401,-50,4,2,6,80,0,0
18635,-76.9230769230769,4,2,6,5,0,0
18870,-76.9230769230769,4,2,7,80,0,0
19221,-76.9230769230769,4,2,6,80,0,0
22620,-76.9230769230769,4,2,7,80,0,0
22971,-76.9230769230769,4,2,6,80,0,0
26370,-76.9230769230769,4,2,7,80,0,0
26721,-76.9230769230769,4,2,6,80,0,0
28245,-76.9230769230769,4,2,7,80,0,0
28596,-76.9230769230769,4,2,6,80,0,0
30120,-76.9230769230769,4,2,7,80,0,0
30471,-76.9230769230769,4,2,6,80,0,0
32932,-66.6666666666667,4,2,6,80,0,0
33870,-100,4,2,6,65,0,0
37620,-100,4,2,6,45,0,0
38088,-100,4,2,6,35,0,0
38557,-100,4,2,6,25,0,0
39026,-100,4,2,6,15,0,0
39495,-100,4,2,6,5,0,0

[Colours]
Combo1 : 14,66,114
Combo2 : 64,64,64
Combo3 : 202,202,202
Combo4 : 88,36,159
Combo5 : 201,216,22
Combo6 : 168,188,165
Combo7 : 209,167,54

[HitObjects]
147,47,120,5,4,2:1:0:0:
240,31,354,6,0,L|256:132,1,95,2|0,2:2|0:0,0:0:0:0:
160,138,823,2,0,L|262:123,1,95,2|0,2:2|0:0,0:0:0:0:
361,157,1291,6,0,L|375:224,1,47.5,2|0,2:2|0:0,0:0:0:0:
323,211,1526,2,0,L|381:201,1,47.5,2|0,2:2|0:0,0:0:0:0:
467,230,1760,2,0,L|501:224,2,23.75
383,281,1995,5,8,2:2:0:0:
358,285,2112,1,4,2:3:0:0:
334,290,2229,1,4,2:3:0:0:
279,357,2346,5,8,2:2:0:0:
243,348,2463,1,4,2:3:0:0:
206,337,2580,1,4,2:3:0:0:
163,274,2698,5,8,2:2:0:0:
113,285,2815,1,4,2:3:0:0:
24,305,2932,5,4,2:2:0:0:
24,305,3401,6,0,B|78:224|-24:215|39:110,1,190,2|0,2:1|0:0,0:0:0:0:
31,124,3870,6,0,P|103:130|116:175,1,123.499994346619,4|0,2:2|0:0,0:0:0:0:
119,241,4221,1,6,2:3:0:0:
119,241,4338,2,0,P|180:252|213:198,1,123.499994346619,4|8,2:3|2:1,0:0:0:0:
231,43,4807,1,4,2:3:0:0:
357,136,5041,1,0,0:0:0:0:
310,133,5159,1,6,2:3:0:0:
263,126,5276,1,4,2:3:0:0:
302,221,5510,1,8,2:1:0:0:
434,127,5745,6,0,P|449:54|400:19,1,123.499994346619,4|0,2:3|0:0,0:0:0:0:
352,51,6096,1,6,2:3:0:0:
352,51,6213,2,0,L|277:59,1,61.7499971733095,4|0,2:3|0:0,0:0:0:0:
197,69,6448,1,8,2:1:0:0:
135,165,6682,1,4,2:3:0:0:
74,34,6916,1,0,0:0:0:0:
80,60,7033,1,6,2:3:0:0:
86,85,7151,1,4,2:3:0:0:
1,129,7385,1,8,2:1:0:0:
123,235,7620,6,0,P|188:224|204:166,1,123.499994346619,4|0,2:2|0:0,0:0:0:0:
276,194,7971,1,6,2:3:0:0:
276,194,8088,2,0,P|342:214|354:266,1,123.499994346619,4|8,2:3|2:1,0:0:0:0:
233,342,8557,1,4,2:3:0:0:
385,357,8791,1,0,0:0:0:0:
347,345,8909,1,6,2:3:0:0:
310,333,9026,1,4,2:3:0:0:
452,310,9260,1,8,2:1:0:0:
261,266,9495,6,0,L|135:282,1,123.499994346619,4|0,2:3|0:0,0:0:0:0:
66,248,9846,1,6,2:3:0:0:
66,248,9963,2,0,L|68:184,1,61.7499971733095,4|0,2:3|0:0,0:0:0:0:
74,97,10198,1,8,2:1:0:0:
231,168,10432,1,4,2:3:0:0:
186,165,10549,1,0,0:0:0:0:
142,158,10666,1,0,0:0:0:0:
206,76,10901,1,4,2:3:0:0:
258,255,11135,2,0,L|327:245,1,61.7499971733095,8|0,2:1|0:0,0:0:0:0:
408,142,11370,6,0,P|447:196|420:275,1,123.499994346619,4|0,2:2|0:0,0:0:0:0:
378,294,11721,1,6,2:3:0:0:
378,294,11838,1,4,2:3:0:0:
267,339,12073,2,0,L|198:326,1,61.7499971733095,8|0,2:1|0:0,0:0:0:0:
109,187,12307,1,4,2:3:0:0:
144,361,12541,1,0,0:0:0:0:
196,190,12776,1,4,2:3:0:0:
64,326,13010,1,8,2:1:0:0:
258,239,13245,6,0,L|387:219,1,123.499994346619,4|0,2:2|0:0,0:0:0:0:
425,275,13596,1,6,2:3:0:0:
425,275,13713,2,0,P|375:330|317:307,1,123.499994346619,4|8,2:3|2:1,0:0:0:0:
310,153,14182,1,4,2:3:0:0:
152,249,14416,1,0,0:0:0:0:
196,254,14534,1,6,2:3:0:0:
239,258,14651,1,4,2:3:0:0:
333,321,14885,1,8,2:1:0:0:
157,335,15120,6,0,L|30:346,1,123.499994346619,4|0,2:2|0:0,0:0:0:0:
46,277,15471,1,6,2:3:0:0:
46,277,15588,2,0,B|14:235|14:235|51:146,1,123.499994346619,4|8,2:3|2:1,0:0:0:0:
126,76,16057,2,0,L|262:90,1,123.499994346619,4|0,2:3|0:0,0:0:0:0:
300,143,16409,1,6,2:3:0:0:
300,143,16526,1,4,2:3:0:0:
183,184,16760,1,8,2:1:0:0:
336,246,16995,5,4,2:3:0:0:
336,246,17112,2,0,P|298:300|237:278,1,123.499994346619,2|6,0:0|2:3,0:0:0:0:
185,333,17463,5,4,2:3:0:0:
185,333,17580,2,0,P|114:294|119:230,1,123.499994346619,2|0,0:0|0:0,0:0:0:0:
54,202,17932,5,4,2:3:0:0:
54,202,18049,2,0,P|94:131|157:138,1,123.499994346619,2|0,0:0|0:0,0:0:0:0:
163,63,18401,6,0,P|267:69|308:164,1,190,2|0,2:1|0:0,0:0:0:0:
308,152,18870,6,0,P|252:98|270:45,1,123.499994346619,4|0,2:2|0:0,0:0:0:0:
310,16,19221,1,6,2:3:0:0:
310,16,19338,2,0,P|298:86|233:106,1,123.499994346619,4|8,2:3|2:1,0:0:0:0:
395,102,19807,1,4,2:3:0:0:
286,196,20041,1,0,0:0:0:0:
323,189,20159,1,6,2:3:0:0:
360,181,20276,1,4,2:3:0:0:
453,257,20510,1,8,2:1:0:0:
313,303,20745,6,0,L|177:281,1,123.499994346619,4|0,2:3|0:0,0:0:0:0:
144,339,21096,1,6,2:3:0:0:
144,339,21213,2,0,L|62:353,2,61.7499971733095,4|0|8,2:3|0:0|2:1,0:0:0:0:
191,283,21565,1,0,0:0:0:0:
191,283,21682,2,0,L|180:188,1,61.7499971733095,4|0,2:3|0:0,0:0:0:0:
121,170,21916,2,0,L|112:88,1,61.7499971733095,0|6,0:0|2:3,0:0:0:0:
179,24,22151,1,4,2:3:0:0:
267,145,22385,2,0,L|194:138,1,61.7499971733095,8|0,2:1|0:0,0:0:0:0:
294,177,22620,6,0,L|284:44,1,123.499994346619,4|0,2:2|0:0,0:0:0:0:
366,62,22971,1,6,2:3:0:0:
366,62,23088,2,0,B|402:111|402:111|354:172,1,123.499994346619,4|8,2:3|2:1,0:0:0:0:
458,202,23557,1,4,2:3:0:0:
322,283,23791,1,0,0:0:0:0:
359,277,23909,1,6,2:3:0:0:
394,269,24026,1,4,2:3:0:0:
261,207,24260,1,8,2:1:0:0:
188,353,24495,6,0,P|170:280|208:237,1,123.499994346619,4|0,2:3|0:0,0:0:0:0:
261,207,24846,1,6,2:3:0:0:
261,207,24963,1,4,2:3:0:0:
394,269,25198,1,8,2:1:0:0:
295,99,25432,2,0,L|168:91,1,123.499994346619,4|0,2:3|0:0,0:0:0:0:
119,144,25784,1,6,2:3:0:0:
119,144,25901,2,0,P|119:216|165:238,1,123.499994346619,4|8,2:3|2:1,0:0:0:0:
377,191,26370,6,0,P|341:283|349:319,1,123.499994346619,4|0,2:2|0:0,0:0:0:0:
387,362,26721,1,6,2:3:0:0:
387,362,26838,1,4,2:3:0:0:
344,304,27073,2,0,L|278:292,1,61.7499971733095,8|0,2:1|0:0,0:0:0:0:
99,364,27308,1,4,2:3:0:0:
233,232,27541,1,0,0:0:0:0:
116,195,27776,1,4,2:3:0:0:
230,351,28010,1,8,2:1:0:0:
116,195,28245,6,0,P|76:140|118:101,1,123.499994346619,4|0,2:2|0:0,0:0:0:0:
169,64,28596,1,6,2:3:0:0:
169,64,28713,2,0,L|297:70,1,123.499994346619,4|8,2:3|2:1,0:0:0:0:
375,179,29182,1,4,2:3:0:0:
246,241,29416,1,0,0:0:0:0:
252,200,29534,1,6,2:3:0:0:
259,158,29651,1,4,2:3:0:0:
384,84,29885,1,8,2:1:0:0:
212,89,30120,6,0,P|145:86|101:45,1,123.499994346619,4|0,2:2|0:0,0:0:0:0:
72,118,30471,1,6,2:3:0:0:
72,118,30588,2,0,P|28:133|24:208,1,123.499994346619,4|8,2:3|2:1,0:0:0:0:
172,230,31057,1,4,2:3:0:0:
126,304,31291,1,0,0:0:0:0:
90,297,31409,1,6,2:3:0:0:
55,290,31526,1,4,2:3:0:0:
10,369,31760,1,8,2:1:0:0:
275,311,31995,6,0,B|327:275|343:338|411:297,1,123.499994346619,4|0,2:3|0:0,0:0:0:0:
441,252,32346,2,0,P|403:184|343:225,1,123.499994346619,6|0,2:3|0:0,0:0:0:0:
303,230,32698,1,8,2:1:0:0:
388,52,32932,6,0,P|348:181|363:319,1,213.750008153916,4|8,2:3|2:1,0:0:0:0:
363,328,33401,1,4,2:3:0:0:
363,328,33870,5,4,2:1:0:0:
273,342,34104,6,0,L|257:241,1,95,2|0,2:2|0:0,0:0:0:0:
353,235,34573,2,0,L|251:250,1,95,2|0,2:2|0:0,0:0:0:0:
152,216,35041,6,0,L|138:149,1,47.5,2|0,2:2|0:0,0:0:0:0:
190,162,35276,2,0,L|132:172,1,47.5,2|0,2:2|0:0,0:0:0:0:
59,117,35745,5,2,2:2:0:0:
172,44,36096,1,2,2:2:0:0:
270,156,36448,1,2,2:2:0:0:
270,156,36916,5,2,2:2:0:0:
172,44,37151,1,2,2:2:0:0:
59,117,37385,1,2,2:2:0:0:
270,156,37620,5,2,0:0:0:0:
256,192,37737,12,0,39495,0:0:0:0:
