osu file format v14

[General]
AudioFilename: audio.mp3
AudioLeadIn: 0
PreviewTime: 2945
Countdown: 0
SampleSet: Soft
StackLeniency: 0.7
Mode: 0
LetterboxInBreaks: 0
WidescreenStoryboard: 1

[Editor]
DistanceSpacing: 1.3
BeatDivisor: 4
GridSize: 16
TimelineZoom: 2.7

[Metadata]
Title:It's My Party (TV Size)
TitleUnicode:It's My Party (TV Size)
Artist:Obey Me! Boys
ArtistUnicode:Obey Me! Boys
Creator:Mafumafu
Version:Normal
Source:Obey Me! The Anime
Tags:おべいみー! obeimi-! ending ed anime short jpop pop japanese pop sins Hirotaka Kobayashi Mammon Greed 古林裕貴 マモン Satoshi Kada Leviathan Envy 加田智志 レヴィアタン Shinya Sumi Satan Wraith 角真也 サタン Miura Ayme Asmodeus Lust ミウラアイム アスモデウス Kyohei Kyouhei Yaguchi Beelzebub Gluttony 矢口恭平 ベルゼブブ Satoshi Onishi Belphegor Sloth 大西哲史 ベルフェゴール Kazuya Yamashita Lucifer Pride 山下和也 ルシファー OGAWA RYO regraz
BeatmapID:3638190
BeatmapSetID:1776472

[Difficulty]
HPDrainRate:3
CircleSize:3.2
OverallDifficulty:3.4
ApproachRate:4.7
SliderMultiplier:1.3
SliderTickRate:1

[Events]
//Background and Video events
0,0,"obeyme.jpg",0,0
//Break Periods
//Storyboard Layer 0 (Background)
//Storyboard Layer 1 (Fail)
//Storyboard Layer 2 (Pass)
//Storyboard Layer 3 (Foreground)
//Storyboard Layer 4 (Overlay)
//Storyboard Sound Samples

[TimingPoints]
120,468.75,4,2,6,65,1,0
1995,-100,4,2,6,75,0,0
3401,-100,4,2,6,80,0,0
3635,-100,4,2,6,80,0,0
3870,-100,4,2,7,80,0,0
4221,-100,4,2,6,80,0,0
7620,-100,4,2,7,80,0,0
7971,-100,4,2,6,80,0,0
11370,-100,4,2,7,80,0,0
11721,-100,4,2,6,80,0,0
13245,-100,4,2,7,80,0,0
13596,-100,4,2,6,80,0,0
14416,-100,4,2,6,5,0,0
14651,-100,4,2,6,80,0,0
15120,-100,4,2,7,80,0,0
15471,-100,4,2,6,80,0,0
18401,-100,4,2,6,80,0,0
18635,-100,4,2,6,80,0,0
18870,-100,4,2,7,80,0,0
19221,-100,4,2,6,80,0,0
20041,-100,4,2,6,5,0,0
20276,-100,4,2,6,80,0,0
22620,-100,4,2,7,80,0,0
22971,-100,4,2,6,80,0,0
26370,-100,4,2,7,80,0,0
26721,-100,4,2,6,80,0,0
28245,-100,4,2,7,80,0,0
28596,-100,4,2,6,80,0,0
30120,-100,4,2,7,80,0,0
30471,-100,4,2,6,80,0,0
32932,-100,4,2,6,80,0,0
33166,-100,4,2,6,5,0,0
33401,-100,4,2,6,80,0,0
33870,-100,4,2,6,65,0,0
37620,-100,4,2,6,45,0,0
39495,-100,4,2,6,45,0,0

[Colours]
Combo1 : 14,66,114
Combo2 : 64,64,64
Combo3 : 202,202,202
Combo4 : 88,36,159
Combo5 : 201,216,22
Combo6 : 168,188,165
Combo7 : 209,167,54

[HitObjects]
375,75,120,5,4,2:1:0:0:
375,75,1995,6,0,L|483:65,2,97.5,8|8|8,2:2|2:2|2:2,0:0:0:0:
301,32,2932,1,4,2:2:0:0:
40,35,3870,6,0,P|15:87|38:159,1,130,4|4,2:2|2:3,0:0:0:0:
100,206,4573,1,8,2:1:0:0:
100,206,4807,2,0,L|186:195,2,65,4|0|4,2:3|0:0|2:3,0:0:0:0:
37,263,5510,6,0,L|50:346,1,65,8|4,2:1|2:3,0:0:0:0:
214,350,6213,2,0,L|300:339,1,65,4|8,2:3|2:1,0:0:0:0:
340,284,6682,2,0,P|365:230|328:166,1,130,4|4,2:3|2:3,0:0:0:0:
279,106,7385,1,8,2:1:0:0:
279,106,7620,6,0,B|223:99|213:165|142:149,1,130,4|4,2:2|2:3,0:0:0:0:
89,105,8323,1,8,2:1:0:0:
26,261,8791,1,0,0:0:0:0:
81,324,9026,2,0,L|173:308,1,65,4|8,2:3|2:1,0:0:0:0:
208,256,9495,6,0,P|277:276|277:342,2,130,4|4|4,2:3|2:3|2:3,0:0:0:0:
155,189,10666,2,0,L|146:109,1,65,0|4,0:0|2:3,0:0:0:0:
301,53,11370,6,0,P|376:50|402:106,1,130,4|4,2:2|2:3,0:0:0:0:
370,169,12073,1,8,2:1:0:0:
370,169,12307,2,0,L|281:169,2,65,4|0|4,2:3|0:0|2:3,0:0:0:0:
417,239,13010,1,8,2:1:0:0:
417,239,13245,6,0,P|440:302|400:366,1,130,4|4,2:2|2:3,0:0:0:0:
249,318,14182,2,0,L|180:312,1,65,4|0,2:3|0:0,0:0:0:0:
126,250,14651,2,0,P|32:261|8:223,1,130,4|4,2:3|2:2,0:0:0:0:
15,157,15354,5,0,0:0:0:0:
15,157,15588,2,0,L|19:64,1,65,4|8,2:3|2:1,0:0:0:0:
89,46,16057,2,0,P|163:46|208:103,1,130,4|4,2:3|2:3,0:0:0:0:
298,220,16995,6,0,L|292:358,2,130,4|4|4,2:3|2:3|2:3,0:0:0:0:
363,166,18166,1,0,0:0:0:0:
363,166,18401,1,2,2:1:0:0:
232,57,18870,6,0,P|162:35|111:90,1,130,4|4,2:2|2:3,0:0:0:0:
71,134,19573,2,0,P|83:208|86:280,1,130,8|0,2:1|0:0,0:0:0:0:
140,327,20276,2,0,L|223:317,1,65,4|8,2:3|2:1,0:0:0:0:
251,248,20745,5,4,2:3:0:0:
376,135,21213,2,0,L|363:56,2,65,4|8|4,2:3|2:1|2:3,0:0:0:0:
435,195,21916,1,0,0:0:0:0:
435,195,22151,2,0,L|427:275,1,65,4|8,2:3|2:1,0:0:0:0:
360,309,22620,6,0,P|308:294|235:327,1,130,4|4,2:2|2:3,0:0:0:0:
165,281,23323,1,8,2:1:0:0:
79,135,23791,1,0,0:0:0:0:
114,58,24026,2,0,P|157:69|183:94,1,65,4|8,2:3|2:1,0:0:0:0:
239,133,24495,6,0,P|309:110|320:38,2,130,4|4|4,2:3|2:3|2:3,0:0:0:0:
191,202,25666,2,0,L|206:286,1,65,0|4,0:0|2:3,0:0:0:0:
367,305,26370,6,0,L|379:155,1,130,4|4,2:2|2:3,0:0:0:0:
338,100,27073,1,8,2:1:0:0:
338,100,27307,2,0,L|345:25,2,65,4|0|4,2:3|0:0|2:3,0:0:0:0:
168,98,28245,6,0,P|116:125|128:203,1,130,4|4,2:2|2:3,0:0:0:0:
190,230,28948,1,8,2:1:0:0:
190,230,29182,2,0,P|206:284|199:307,2,65,4|0|4,2:3|0:0|2:3,0:0:0:0:
348,170,30120,6,0,P|417:164|446:99,1,130,4|4,2:2|2:3,0:0:0:0:
407,40,30823,1,8,2:1:0:0:
407,40,31057,2,0,P|333:35|256:52,1,130,4|4,2:3|2:3,0:0:0:0:
144,148,31995,6,0,P|98:128|88:68,2,97.5,4|6|8,2:3|2:3|2:1,0:0:0:0:
213,195,32932,2,0,L|203:274,1,65,4|0,2:3|0:0,0:0:0:0:
228,340,33401,2,0,P|290:345|326:284,1,130,4|4,2:3|2:1,0:0:0:0:
289,163,35745,6,0,L|400:148,2,97.5,2|2|2,2:2|2:2|2:2,0:0:0:0:
140,82,36916,2,0,L|57:80,2,65,2|2|2,2:2|2:2|2:2,0:0:0:0:
207,30,37620,5,2,2:2:0:0:
