osu file format v14

[General]
AudioFilename: audio.mp3
AudioLeadIn: 0
PreviewTime: 2945
Countdown: 0
SampleSet: Soft
StackLeniency: 0.7
Mode: 0
LetterboxInBreaks: 0
WidescreenStoryboard: 1

[Editor]
DistanceSpacing: 1.5
BeatDivisor: 4
GridSize: 16
TimelineZoom: 2.7

[Metadata]
Title:It's My Party (TV Size)
TitleUnicode:It's My Party (TV Size)
Artist:Obey Me! Boys
ArtistUnicode:Obey Me! Boys
Creator:Mafumafu
Version:Hard
Source:Obey Me! The Anime
Tags:おべいみー! obeimi-! ending ed anime short jpop pop japanese pop sins Hirotaka Kobayashi Mammon Greed 古林裕貴 マモン Satoshi Kada Leviathan Envy 加田智志 レヴィアタン Shinya Sumi Satan Wraith 角真也 サタン Miura Ayme Asmodeus Lust ミウラアイム アスモデウス Kyohei Kyouhei Yaguchi Beelzebub Gluttony 矢口恭平 ベルゼブブ Satoshi Onishi Belphegor Sloth 大西哲史 ベルフェゴール Kazuya Yamashita Lucifer Pride 山下和也 ルシファー OGAWA RYO regraz
BeatmapID:3638192
BeatmapSetID:1776472

[Difficulty]
HPDrainRate:5
CircleSize:4
OverallDifficulty:6.6
ApproachRate:7.3
SliderMultiplier:1.5
SliderTickRate:1

[Events]
//Background and Video events
0,0,"obeyme.jpg",0,0
//Break Periods
//Storyboard Layer 0 (Background)
//Storyboard Layer 1 (Fail)
//Storyboard Layer 2 (Pass)
//Storyboard Layer 3 (Foreground)
//Storyboard Layer 4 (Overlay)
//Storyboard Sound Samples

[TimingPoints]
120,468.75,4,2,6,65,1,0
1995,-100,4,2,6,75,0,0
3401,-100,4,2,6,80,0,0
3870,-100,4,2,7,80,0,0
4221,-100,4,2,6,80,0,0
6213,-100,4,2,6,80,0,0
7620,-100,4,2,7,80,0,0
7971,-100,4,2,6,80,0,0
9963,-100,4,2,6,80,0,0
11370,-100,4,2,7,80,0,0
11721,-100,4,2,6,80,0,0
13245,-100,4,2,7,80,0,0
13596,-100,4,2,6,80,0,0
15120,-100,4,2,7,80,0,0
15471,-100,4,2,6,80,0,0
18401,-100,4,2,6,80,0,0
18635,-100,4,2,6,80,0,0
18870,-100,4,2,7,80,0,0
19221,-100,4,2,6,80,0,0
21213,-100,4,2,6,80,0,0
22620,-100,4,2,7,80,0,0
22971,-100,4,2,6,80,0,0
24846,-100,4,2,6,80,0,0
26370,-100,4,2,7,80,0,0
26721,-100,4,2,6,80,0,0
28245,-100,4,2,7,80,0,0
28596,-100,4,2,6,80,0,0
30120,-100,4,2,7,80,0,0
30471,-100,4,2,6,80,0,0
32932,-100,4,2,6,80,0,0
33870,-100,4,2,6,65,0,0
37620,-100,4,2,6,45,0,0
39495,-100,4,2,6,45,0,0

[Colours]
Combo1 : 14,66,114
Combo2 : 64,64,64
Combo3 : 202,202,202
Combo4 : 88,36,159
Combo5 : 201,216,22
Combo6 : 168,188,165
Combo7 : 209,167,54

[HitObjects]
41,194,120,5,4,2:1:0:0:
41,194,354,6,0,L|129:183,1,75,2|0,2:2|0:0,0:0:0:0:
169,248,823,2,0,L|160:337,1,75,2|0,2:2|0:0,0:0:0:0:
247,359,1291,2,0,L|312:346,1,37.5,2|0,2:2|0:0,0:0:0:0:
340,294,1526,2,0,L|384:301,1,37.5,2|0,2:2|0:0,0:0:0:0:
443,350,1760,1,0,0:0:0:0:
454,214,1995,6,0,L|464:152,2,37.5,8|4|4,2:2|2:3|2:3,0:0:0:0:
374,174,2346,2,0,L|387:116,2,37.5,8|4|4,2:2|2:3|2:3,0:0:0:0:
295,198,2698,2,0,L|282:248,1,37.5,8|4,2:2|2:3,0:0:0:0:
260,314,2932,5,4,2:2:0:0:
173,120,3401,6,0,P|112:122|91:142,1,75,2|0,2:1|0:0,0:0:0:0:
48,199,3870,6,0,L|61:312,1,112.5,4|6,2:2|2:3,0:0:0:0:
40,340,4338,2,0,L|134:329,1,75,4|8,2:3|2:1,0:0:0:0:
183,253,4807,1,4,2:3:0:0:
263,321,5041,2,0,L|255:369,2,37.5,0|6|4,0:0|2:3|2:3,0:0:0:0:
344,265,5510,1,8,2:1:0:0:
344,265,5745,6,0,P|395:261|425:229,1,75,4|0,2:3|0:0,0:0:0:0:
424,157,6213,2,0,L|409:76,1,75,4|8,2:3|2:1,0:0:0:0:
329,32,6682,1,4,2:3:0:0:
268,107,6916,1,0,0:0:0:0:
193,36,7151,1,4,2:3:0:0:
128,107,7385,1,8,2:1:0:0:
23,48,7620,6,0,L|40:177,1,112.5,4|6,2:2|2:3,0:0:0:0:
67,184,8088,2,0,L|51:271,1,75,4|8,2:3|2:1,0:0:0:0:
161,238,8557,2,0,L|249:246,2,75,4|0|4,2:3|0:0|2:3,0:0:0:0:
115,335,9260,1,8,2:1:0:0:
53,257,9495,6,0,L|44:166,1,75,4|0,2:3|0:0,0:0:0:0:
89,95,9963,2,0,L|184:104,1,75,4|8,2:3|2:1,0:0:0:0:
248,58,10432,2,0,L|239:11,2,37.5,4|0|0,2:3|0:0|0:0,0:0:0:0:
340,92,10901,2,0,L|329:185,1,75,4|8,2:3|2:1,0:0:0:0:
349,200,11252,1,0,0:0:0:0:
349,200,11370,6,0,P|283:186|229:228,1,112.5,4|6,2:2|2:3,0:0:0:0:
235,239,11838,2,0,P|184:249|152:234,1,75,4|8,2:3|2:1,0:0:0:0:
84,174,12307,2,0,L|-2:190,3,75,4|0|4|8,2:3|0:0|2:3|2:1,0:0:0:0:
18,319,13245,6,0,L|141:299,1,112.5,4|6,2:2|2:3,0:0:0:0:
123,335,13713,2,0,L|210:343,1,75,4|8,2:3|2:1,0:0:0:0:
254,257,14182,1,4,2:3:0:0:
336,321,14416,2,0,L|327:367,2,37.5,0|6|4,0:0|2:3|2:3,0:0:0:0:
254,257,14885,1,8,2:1:0:0:
139,195,15120,6,0,P|112:144|170:73,1,150,4|4,2:2|2:3,0:0:0:0:
250,34,15823,1,8,2:1:0:0:
329,91,16057,2,0,L|446:85,1,112.5,4|6,2:3|2:3,0:0:0:0:
466,58,16526,2,0,L|456:155,1,75,4|8,2:3|2:1,0:0:0:0:
405,235,16995,6,0,L|349:223,1,37.5,4|0,2:3|0:0,0:0:0:0:
244,307,17463,2,0,L|194:317,1,37.5,4|0,2:3|0:0,0:0:0:0:
249,159,17932,2,0,L|262:207,1,37.5,4|0,2:3|0:0,0:0:0:0:
358,359,18401,5,2,2:1:0:0:
358,359,18870,6,0,L|224:359,1,112.5,4|6,2:2|2:3,0:0:0:0:
218,374,19338,2,0,L|222:284,1,75,4|8,2:3|2:1,0:0:0:0:
283,188,19807,1,4,2:3:0:0:
354,273,20041,2,0,L|405:264,2,37.5,0|6|4,0:0|2:3|2:3,0:0:0:0:
283,188,20510,1,8,2:1:0:0:
176,166,20745,6,0,P|123:167|97:141,1,75,4|0,2:3|0:0,0:0:0:0:
49,70,21213,2,0,L|44:21,1,37.5,4|0,2:3|0:0,0:0:0:0:
29,72,21448,2,0,L|39:131,1,37.5,8|0,2:1|0:0,0:0:0:0:
32,184,21682,2,0,L|-15:176,2,37.5,4|0|0,2:3|0:0|0:0,0:0:0:0:
94,263,22151,1,4,2:3:0:0:
200,247,22385,1,8,2:1:0:0:
302,232,22620,6,0,P|337:284|309:356,1,112.5,4|6,2:2|2:3,0:0:0:0:
306,355,23088,2,0,L|217:342,1,75,4|8,2:3|2:1,0:0:0:0:
135,357,23557,1,4,2:3:0:0:
65,280,23791,2,0,L|10:289,2,37.5,0|6|4,0:0|2:3|2:3,0:0:0:0:
133,201,24260,1,8,2:1:0:0:
178,117,24495,6,0,L|164:30,1,75,4|0,2:3|0:0,0:0:0:0:
184,19,24846,1,6,2:3:0:0:
184,19,24963,2,0,P|247:31|265:61,1,75,4|8,2:3|2:1,0:0:0:0:
335,114,25432,2,0,L|420:100,2,75,4|2|4,2:3|0:0|2:3,0:0:0:0:
287,202,26135,2,0,L|233:193,1,37.5,8|0,2:1|0:0,0:0:0:0:
224,213,26370,6,0,L|130:226,1,75,4|0,2:2|0:0,0:0:0:0:
70,169,26838,1,4,2:3:0:0:
70,169,27073,1,8,2:1:0:0:
9,248,27307,2,0,L|28:337,3,75,4|0|4|8,2:3|0:0|2:3|2:1,0:0:0:0:
147,333,28245,6,0,P|199:322|240:348,1,75,4|0,2:2|0:0,0:0:0:0:
254,314,28596,1,6,2:3:0:0:
254,314,28713,2,0,P|299:338|350:330,1,75,4|8,2:3|2:1,0:0:0:0:
398,300,29182,1,4,2:3:0:0:
384,205,29416,1,0,0:0:0:0:
370,108,29651,2,0,P|324:102|291:118,1,75,4|8,2:3|2:1,0:0:0:0:
195,194,30120,6,0,P|144:155|150:99,1,112.5,4|6,2:2|2:3,0:0:0:0:
167,79,30588,2,0,P|112:86|80:75,1,75,4|8,2:3|2:1,0:0:0:0:
10,28,31057,1,4,2:3:0:0:
26,168,31291,2,0,L|38:218,1,37.5,0|6,0:0|2:3,0:0:0:0:
65,218,31526,2,0,L|52:317,1,75,4|8,2:3|2:1,0:0:0:0:
150,352,31995,6,0,L|270:336,2,112.5,4|6|8,2:3|2:3|2:1,0:0:0:0:
284,350,32932,2,0,P|213:297|290:219,1,225,4|0,2:3|0:0,0:0:0:0:
443,196,33870,5,4,2:1:0:0:
443,196,34104,2,0,L|355:207,1,75,2|0,2:2|0:0,0:0:0:0:
315,142,34573,2,0,L|324:53,1,75,2|0,2:2|0:0,0:0:0:0:
205,27,35041,2,0,L|140:40,1,37.5,2|0,2:2|0:0,0:0:0:0:
120,107,35276,2,0,L|157:112,1,37.5,2|0,2:2|0:0,0:0:0:0:
11,32,35745,6,0,L|35:176,2,112.5,2|2|2,2:2|2:2|2:2,0:0:0:0:
74,221,36916,2,0,L|-29:218,2,75,2|2|2,2:2|2:2|2:2,0:0:0:0:
181,225,37620,5,2,2:2:0:0:
