osu file format v14

[General]
AudioFilename: audio.mp3
AudioLeadIn: 0
PreviewTime: 69991
Countdown: 0
SampleSet: Soft
StackLeniency: 0.7
Mode: 0
LetterboxInBreaks: 0
WidescreenStoryboard: 1

[Editor]
Bookmarks: 306,13191,38905,71048,122476
DistanceSpacing: 0.8
BeatDivisor: 8
GridSize: 4
TimelineZoom: 2.2

[Metadata]
Title:Isabella no Uta
TitleUnicode:イザベラの唄
Artist:Obata Takahiro
ArtistUnicode:小畑貴裕
Creator:Crissa
Version:Hyper
Source:約束のネバーランド
Tags:yakusoku no the promised neverland anime instrumental 甲斐田裕子 kaida yuko lullaby isabella's leslie vocal mandolin [-Crissaegrim-] song
BeatmapID:2070221
BeatmapSetID:951897

[Difficulty]
HPDrainRate:5.5
CircleSize:4.9
OverallDifficulty:6.5
ApproachRate:8
SliderMultiplier:1.6
SliderTickRate:1

[Events]
//Background and Video events
0,0,"bg672.jpg",0,0
//Break Periods
//Storyboard Layer 0 (Background)
//Storyboard Layer 1 (Fail)
//Storyboard Layer 2 (Pass)
//Storyboard Layer 3 (Foreground)
//Storyboard Sound Samples

[TimingPoints]
315,571.428571428571,3,2,12,15,1,0
886,-100,3,2,12,25,0,0
1907,582.52427184466,3,2,12,15,1,0
2489,-100,3,2,12,25,0,0
3508,571.428571428571,3,2,12,15,1,0
4079,-100,3,2,12,25,0,0
5165,487.80487804878,3,2,12,15,1,0
5652,-100,3,2,12,25,0,0
6691,566.037735849057,3,2,12,15,1,0
7257,-100,3,2,12,25,0,0
8340,550.45871559633,3,2,12,15,1,0
8890,-100,3,2,12,25,0,0
9976,535.714285714286,3,2,12,15,1,0
10511,-100,3,2,12,25,0,0
11510,521.739130434783,3,2,12,15,1,0
11674,495.867768595041,3,2,12,15,1,0
12661,545.454545454546,3,2,12,15,1,0
13138,-100,3,2,12,5,0,0
13206,535.714285714286,3,2,12,20,1,0
13206,-125,3,2,12,20,0,0
14143,-125,3,2,12,5,0,0
14277,-125,3,2,12,20,0,0
14679,-125,3,2,12,5,0,0
14813,-125,3,2,12,20,0,0
15750,-125,3,2,12,5,0,0
15884,-125,3,2,12,20,0,0
16286,-125,3,2,12,5,0,0
16420,530.973451327434,3,2,12,20,1,0
16420,-125,3,2,12,20,0,0
17349,-125,3,2,12,5,0,0
17481,-125,3,2,12,20,0,0
17880,-125,3,2,12,5,0,0
18012,538.116591928251,3,2,12,20,1,0
18012,-125,3,2,12,20,0,0
19626,524.017467248908,3,2,12,20,1,0
19626,-125,3,2,12,20,0,0
20543,-125,3,2,12,5,0,0
20674,-125,3,2,12,20,0,0
21198,535.714285714286,3,2,12,20,1,0
21198,-125,3,2,12,20,0,0
22269,579.710144927536,3,2,12,20,1,0
22848,533.333333333333,3,2,12,20,1,0
22848,-125,3,2,12,20,0,0
25514,528.63436123348,3,2,12,20,1,0
25514,-125,3,2,12,20,0,0
25910,-125,3,2,12,5,0,0
26042,541.76072234763,3,2,12,20,1,0
26042,-125,3,2,12,20,0,0
26583,487.80487804878,3,2,12,20,1,0
26583,-125,3,2,12,20,0,0
26948,-125,3,2,12,5,0,0
27070,535.714285714286,3,2,12,20,1,0
27070,-125,3,2,12,20,0,0
27471,-125,3,2,12,5,0,0
27605,-125,3,2,12,20,0,0
28677,576.923076923077,3,2,12,20,1,0
29253,535.714285714286,3,2,12,20,1,0
29253,-125,3,2,12,20,0,0
30190,-125,3,2,12,5,0,0
30324,-125,3,2,12,20,0,0
30726,-125,3,2,12,5,0,0
30860,-125,3,2,12,20,0,0
32467,517.241379310345,3,2,12,20,1,0
32467,-125,3,2,12,20,0,0
33501,571.428571428571,3,2,12,20,1,0
34072,530.973451327434,3,2,12,20,1,0
34072,-125,3,2,12,20,0,0
35664,550.45871559633,3,2,12,20,1,0
35664,-125,3,2,12,20,0,0
36076,-125,3,2,12,5,0,0
36214,-125,3,2,12,20,0,0
36627,-125,3,2,12,5,0,0
36764,549.199084668192,3,2,12,20,1,0
37313,530.973451327434,3,2,12,15,1,0
37313,-125,3,2,12,15,0,0
38905,535.714285714286,3,2,12,20,1,0
38905,-125,3,2,12,20,0,0
39373,-125,3,2,12,5,0,0
39440,-125,3,2,12,20,0,0
40980,-125,3,2,12,5,0,0
41047,-125,3,2,12,20,0,0
42588,-125,3,2,12,5,0,0
42655,-125,3,2,12,20,0,0
44195,-125,3,2,12,5,0,0
44262,-125,3,2,12,20,0,0
45802,-125,3,2,12,5,0,0
45869,-125,3,2,12,20,0,0
47409,-125,3,2,12,5,0,0
47476,-125,3,2,12,20,0,0
48413,-125,3,2,12,5,0,0
48541,521.739130434783,3,2,12,24,1,0
48541,-100,3,2,12,24,0,0
51763,535.714285714286,3,2,12,20,1,0
51763,-100,3,2,12,20,0,0
52298,-100,3,2,12,23,0,0
52834,-100,3,2,12,26,0,0
53370,-100,3,2,12,25,0,0
53838,-100,3,2,12,5,0,0
53905,-100,3,2,12,25,0,0
54842,-100,3,2,12,5,0,0
54976,-100,3,2,12,25,0,0
55446,-100,3,2,12,5,0,0
55513,-100,3,2,12,25,0,0
56048,-100,3,2,12,30,0,0
56516,-100,3,2,12,5,0,0
56584,-100,3,2,12,35,0,0
57053,-100,3,2,12,5,0,0
57120,-100,3,2,12,25,0,0
58123,-100,3,2,12,5,0,0
58190,-100,3,2,12,20,0,0
58659,-100,3,2,12,5,0,0
58726,-100,3,2,12,20,0,0
60266,-100,3,2,12,5,0,0
60333,-100,3,2,12,20,0,0
61338,-100,3,2,12,5,0,0
61405,-100,3,2,12,20,0,0
61806,-100,3,2,12,5,0,0
61940,-100,3,2,12,23,0,0
62341,-100,3,2,12,5,0,0
62475,-100,3,2,12,26,0,0
62877,-100,3,2,12,5,0,0
63011,-83.3333333333333,3,2,12,30,0,0
63480,-83.3333333333333,3,2,12,5,0,0
63547,-83.3333333333333,3,2,12,30,0,0
64618,-125,3,2,12,20,0,0
66225,-71.4285714285714,3,2,12,30,0,0
67699,-71.4285714285714,3,2,12,5,0,0
67756,535.714285714286,3,2,12,20,1,0
69455,535.714285714286,3,2,12,30,1,0
69455,-100,3,2,12,30,0,0
69722,-100,3,2,12,35,0,0
69990,-100,3,2,12,30,0,0
70526,-100,3,2,12,25,0,0
70794,-100,3,2,12,35,0,0
71057,535.714285714286,3,2,12,50,1,0
71057,-71.4285714285714,3,2,12,50,0,0
72128,-83.3333333333333,3,2,12,50,0,0
72530,-100,3,2,12,5,0,0
72643,-100,3,2,12,50,0,0
72644,535.714285714286,3,2,12,50,1,0
73714,-100,3,2,12,45,0,0
74117,-100,3,2,12,5,0,0
74242,-100,3,2,12,40,0,0
74243,535.714285714286,3,2,12,40,1,0
75045,-100,3,2,12,35,0,0
75313,-100,3,2,12,40,0,0
75849,-100,3,2,12,45,0,0
77322,-100,3,2,12,5,0,0
77456,-100,3,2,12,35,0,0
78929,-100,3,2,12,5,0,0
79063,-100,3,2,12,40,0,0
80670,-100,3,2,12,45,0,0
82143,-100,3,2,12,5,0,0
82277,-100,3,2,12,40,0,0
83081,-100,3,2,12,25,0,0
83349,-100,3,2,12,35,0,0
83617,-100,3,2,12,45,0,0
83894,535.714285714286,3,2,12,55,1,0
83894,-71.4285714285714,3,2,12,55,0,0
84428,-100,3,2,12,20,0,0
84696,-83.3333333333333,3,2,12,55,0,0
85366,-100,3,2,12,5,0,0
85500,-100,3,2,12,50,0,0
86013,535.714285714286,3,2,12,40,1,0
86013,-83.3333333333333,3,2,12,40,0,0
87077,535.714285714286,3,2,12,50,1,0
87077,-76.9230769230769,3,2,12,50,0,0
87611,-100,3,2,12,20,0,0
87879,-100,3,2,12,50,0,0
88550,-100,3,2,12,5,0,0
88704,535.714285714286,3,2,12,45,1,0
88704,-100,3,2,12,45,0,0
89239,-100,3,2,12,40,0,0
90023,535.714285714286,3,2,12,35,1,0
90310,535.714285714286,3,2,12,35,1,0
90845,-100,3,2,12,15,0,0
91113,-100,3,2,12,35,0,0
91783,-100,3,2,12,5,0,0
91917,-100,3,2,12,35,0,0
93390,-100,3,2,12,5,0,0
93524,-100,3,2,12,35,0,0
94060,-100,3,2,12,20,0,0
94327,-100,3,2,12,35,0,0
94595,-83.3333333333333,3,2,12,40,0,0
94997,-100,3,2,12,5,0,0
95131,-100,3,2,12,40,0,0
95935,-100,3,2,12,25,0,0
96211,535.714285714286,3,2,12,35,1,0
96211,-100,3,2,12,35,0,0
96470,535.714285714286,3,2,12,45,1,0
96470,-100,3,2,12,45,0,0
96737,535.714285714286,3,2,12,55,1,0
96737,-71.4285714285714,3,2,12,55,0,0
97274,-90.9090909090909,3,2,12,20,0,0
97540,-90.9090909090909,3,2,12,55,0,0
98211,-90.9090909090909,3,2,12,5,0,0
98345,-90.9090909090909,3,2,12,55,0,0
98881,-90.9090909090909,3,2,12,45,0,0
99417,-90.9090909090909,3,2,12,40,0,0
99818,-90.9090909090909,3,2,12,5,0,0
99952,-90.9090909090909,3,2,12,35,0,0
101024,-90.9090909090909,3,2,12,40,0,0
101426,-90.9090909090909,3,2,12,5,0,0
101558,-90.9090909090909,3,2,12,45,0,0
102095,-90.9090909090909,3,2,12,40,0,0
102631,-90.9090909090909,3,2,12,45,0,0
103167,-90.9090909090909,3,2,12,35,0,0
103702,-90.9090909090909,3,2,12,20,0,0
103970,-90.9090909090909,3,2,12,35,0,0
104237,-100,3,2,12,35,0,0
104638,-100,3,2,12,5,0,0
104774,-100,3,2,12,40,0,0
106247,-100,3,2,12,5,0,0
106381,-100,3,2,12,45,0,0
106917,-100,3,2,12,20,0,0
107185,-100,3,2,12,45,0,0
107854,-100,3,2,12,5,0,0
107982,535.714285714286,3,2,12,45,1,0
107982,-100,3,2,12,45,0,0
108517,-90.9090909090909,3,2,12,20,0,0
108785,-90.9090909090909,3,2,12,25,0,0
109053,-90.9090909090909,3,2,12,35,0,0
109321,-90.9090909090909,3,2,12,45,0,0
109595,535.714285714286,3,2,12,55,1,0
109595,-71.4285714285714,3,2,12,55,0,0
110131,-90.9090909090909,3,2,12,20,0,0
110399,-76.9230769230769,3,2,12,55,0,0
111068,-100,3,2,12,5,0,0
111202,-90.9090909090909,3,2,12,55,0,0
111738,-90.9090909090909,3,2,12,45,0,0
112274,-76.9230769230769,3,2,12,50,0,0
112676,-100,3,2,12,5,0,0
112809,-66.6666666666667,3,2,12,60,0,0
113344,-90.9090909090909,3,2,12,20,0,0
113612,-71.4285714285714,3,2,12,60,0,0
114282,-100,3,2,12,5,0,0
114416,-76.9230769230769,3,2,12,55,0,0
114951,-90.9090909090909,3,2,12,20,0,0
115219,-90.9090909090909,3,2,12,45,0,0
115487,-76.9230769230769,3,2,12,60,0,0
115889,-90.9090909090909,3,2,12,20,0,0
116023,-83.3333333333333,3,2,12,60,0,0
116826,-90.9090909090909,3,2,12,30,0,0
117094,-90.9090909090909,3,2,12,60,0,0
117496,-90.9090909090909,3,2,12,20,0,0
117630,-90.9090909090909,3,2,12,60,0,0
118166,-90.9090909090909,3,2,12,55,0,0
118567,-100,3,2,12,5,0,0
118701,-90.9090909090909,3,2,12,60,0,0
119103,-100,3,2,12,5,0,0
119237,-90.9090909090909,3,2,12,60,0,0
119773,-90.9090909090909,3,2,12,30,0,0
120041,-90.9090909090909,3,2,12,60,0,0
120710,-90.9090909090909,3,2,12,20,0,0
120844,-90.9090909090909,3,2,12,55,0,0
121380,-76.9230769230769,3,2,12,65,0,0
122184,-90.9090909090909,3,2,12,40,0,0
122492,530.973451327434,3,2,12,70,1,0
122624,-100,3,2,12,20,0,0
124549,555.555555555556,3,2,12,20,1,0
125660,517.241379310345,3,2,12,20,1,0
127276,491.803278688525,3,2,12,20,1,0
128874,535.714285714286,3,2,12,15,1,0

[Colours]
Combo1 : 255,214,128
Combo2 : 155,155,206
Combo3 : 128,185,255
Combo4 : 201,159,223

[HitObjects]
181,225,315,6,0,P|231:211|282:258,1,120,8|0,0:0|0:0,0:0:0:0:
298,313,814,2,0,L|303:277,1,20,0|2,0:0|0:0,0:0:0:0:
444,173,1907,2,0,P|392:178|370:258,1,120,8|0,0:0|0:0,0:0:0:0:
371,297,2416,2,0,L|363:266,1,20,0|2,0:0|0:0,0:0:0:0:
230,56,3508,6,0,L|222:191,1,120,8|0,0:0|0:0,0:0:0:0:
259,229,4007,2,0,L|257:199,1,20,0|2,0:0|0:0,0:0:0:0:
121,94,5165,2,0,L|125:226,1,120,8|0,0:0|0:0,0:0:0:0:
95,273,5591,2,0,L|95:252,1,20,0|2,0:0|0:0,0:0:0:0:
324,282,6691,6,0,P|351:242|285:203,1,120,8|0,0:0|0:0,0:0:0:0:
247,184,7209,2,0,P|257:191|269:193,1,13.3333333333333,0|2,0:0|0:0,0:0:0:0:
71,162,8340,2,0,P|44:122|104:90,1,133.333333333333,8|0,0:0|0:0,0:0:0:0:
165,73,8844,2,0,P|156:77|145:79,1,13.3333333333333,0|2,0:0|0:0,0:0:0:0:
346,261,9976,6,0,P|355:212|350:132,1,120,8|0,0:0|0:0,0:0:0:0:
314,89,10444,2,0,L|320:117,1,20,0|2,0:0|0:0,0:0:0:0:
200,249,11510,2,0,L|233:240,1,20
131,234,11674,1,10,0:0:0:0:
147,259,12661,6,0,P|153:230|82:156,1,140,2|0,0:0|0:0,0:0:0:0:
23,123,13206,6,0,B|135:171|135:75|238:122,1,224,2|0,0:0|0:0,0:0:0:0:
314,262,14277,2,0,L|300:162,1,96,2|0,0:0|0:0,0:0:0:0:
390,67,14813,6,0,P|379:101|501:207,1,224,2|0,0:0|0:0,0:0:0:0:
478,295,15884,2,0,P|450:285|382:297,1,96,2|0,0:0|0:0,0:0:0:0:
301,371,16420,6,0,L|281:146,1,224,2|0,0:0|0:0,0:0:0:0:
274,60,17481,2,0,P|247:67|198:118,1,96,2|0,0:0|0:0,0:0:0:0:
166,207,18012,6,0,P|182:176|125:117,1,128,2|2,0:0|0:0,0:0:0:0:
168,138,19626,6,0,P|134:157|196:285,1,224,2|0,0:0|0:0,0:0:0:0:
277,267,20674,1,2,0:0:0:0:
277,267,21198,6,0,P|343:179|337:34,1,256,2|2,0:0|0:0,0:0:0:0:
215,5,22848,6,0,B|285:65|296:160|221:208|221:208|181:127|239:68,1,384,2|0,0:0|0:0,0:0:0:0:
450,187,25514,2,0,P|417:187|371:230,1,96,2|0,0:0|0:0,0:0:0:0:
350,309,26042,5,2,0:0:0:0:
350,309,26583,2,0,P|297:302|258:275,1,96,2|0,0:0|0:0,0:0:0:0:
305,224,27070,2,0,P|289:204|290:130,1,96,2|0,0:0|0:0,0:0:0:0:
376,84,27605,6,0,P|358:110|447:117,1,192,2|2,0:0|0:0,0:0:0:0:
440,38,28677,1,2,0:0:0:0:
440,38,29253,6,0,P|377:35|216:-2,1,224,2|0,0:0|0:0,0:0:0:0:
116,58,30324,2,0,P|158:56|210:96,1,96,2|0,0:0|0:0,0:0:0:0:
252,154,30860,5,2,0:0:0:0:
252,154,31931,1,2,0:0:0:0:
252,154,32467,6,0,P|249:215|146:199,1,192,2|2,0:0|0:0,0:0:0:0:
237,256,33501,1,2,0:0:0:0:
392,110,34072,6,0,P|394:171|497:155,1,192,2|2,0:0|0:0,0:0:0:0:
407,212,35133,1,2,0:0:0:0:
135,135,35664,6,0,P|149:161|209:199,1,96,2|0,0:0|0:0,0:0:0:0:
344,140,36214,2,0,P|329:165|270:200,1,96,2|0,0:0|0:0,0:0:0:0:
236,259,36764,1,2,0:0:0:0:
236,74,37313,6,0,B|204:167|282:167|236:261,1,192,2|0,0:0|0:0,0:0:0:0:
159,311,38374,1,0,0:0:0:0:
159,311,38905,6,0,B|211:306|211:306|256:348,1,112,10|0,0:0|0:0,0:0:0:0:
275,366,39440,1,2,0:0:0:0:
406,275,39976,2,0,P|367:275|336:253,1,64,2|0,0:0|0:0,0:0:0:0:
388,198,40512,6,0,P|440:204|479:247,1,112,10|0,0:0|0:0,0:0:0:0:
485,274,41047,1,2,0:0:0:0:
312,361,41583,2,0,P|307:331|291:299,1,64,2|0,0:0|0:0,0:0:0:0:
215,257,42119,6,0,P|240:268|309:222,1,112,10|0,0:0|0:0,0:0:0:0:
311,200,42655,1,2,0:0:0:0:
122,104,43190,2,0,P|143:116|185:119,1,64,2|0,0:0|0:0,0:0:0:0:
81,31,43726,6,0,P|57:51|45:134,1,112,10|0,0:0|0:0,0:0:0:0:
52,154,44262,1,2,0:0:0:0:
288,312,45333,6,0,P|296:290|306:194,1,112,10|0,0:0|0:0,0:0:0:0:
302,173,45869,1,2,0:0:0:0:
121,205,46405,2,0,P|124:226|140:269,1,64,2|0,0:0|0:0,0:0:0:0:
206,294,46940,6,0,P|168:289|115:338,1,112,10|0,0:0|0:0,0:0:0:0:
108,363,47476,1,2,0:0:0:0:
15,254,48012,2,0,P|34:257|63:194,1,96,2|0,0:0|0:0,0:0:0:0:
7,136,48541,6,0,B|24:174|74:172|74:172|99:134|78:95,2,160,10|2|2,0:0|0:0|0:0,0:0:0:0:
159,61,50106,6,0,P|175:116|85:269,1,240,10|0,0:0|0:0,0:0:0:0:
36,136,51149,1,2,0:0:0:0:
190,180,51763,5,8,0:0:0:0:
190,180,52298,2,0,P|221:150|230:110,1,80,2|0,0:0|0:0,0:0:0:0:
154,251,52834,2,0,P|195:262|234:250,1,80,2|0,0:0|0:0,0:0:0:0:
74,255,53370,6,0,P|99:300|187:335,1,140,10|0,0:0|0:0,0:0:0:0:
213,337,53905,1,2,0:0:0:0:
312,255,54172,1,0,0:0:0:0:
377,314,54441,2,0,P|361:297|302:349,1,120,2|0,0:0|0:0,0:0:0:0:
408,381,54977,6,0,P|401:317|411:234,1,140,10|0,0:0|0:0,0:0:0:0:
420,207,55513,2,0,P|425:158|417:116,1,80,2|0,0:0|0:0,0:0:0:0:
233,157,56048,2,0,B|255:181|255:181|270:127|226:70,1,140,2|0,0:0|0:0,0:0:0:0:
171,30,56584,6,0,B|195:49|219:50|219:50|256:18|310:27,1,140,10|0,0:0|0:0,0:0:0:0:
339,34,57120,2,0,P|375:66|390:109,1,80,2|0,0:0|0:0,0:0:0:0:
285,242,57655,2,0,P|267:286|339:345,1,140
360,345,58191,6,0,P|298:322|222:351,1,140,10|0,0:0|0:0,0:0:0:0:
203,369,58727,2,0,P|176:373|129:339,1,80,2|0,0:0|0:0,0:0:0:0:
127,198,59262,2,0,P|149:217|153:268,1,80,2|0,0:0|0:0,0:0:0:0:
50,172,59798,6,0,P|78:131|170:128,1,140,10|0,0:0|0:0,0:0:0:0:
194,141,60333,1,2,0:0:0:0:
331,65,60601,1,2,0:0:0:0:
430,236,60869,2,0,P|395:231|326:309,1,140,2|0,0:0|0:0,0:0:0:0:
322,335,61405,6,0,P|311:292|288:261,1,80,10|0,0:0|0:0,0:0:0:0:
359,167,61941,2,0,P|384:130|416:109,1,80,2|0,0:0|0:0,0:0:0:0:
231,68,62477,2,0,P|194:42|157:33,1,80,2|0,0:0|0:0,0:0:0:0:
24,213,63012,6,0,P|75:239|162:172,1,167.999994873047,10|0,0:0|0:0,0:0:0:0:
163,140,63548,2,0,L|174:242,1,95.9999970703126,2|0,0:0|0:0,0:0:0:0:
297,68,64084,2,0,L|286:170,1,95.9999970703126
266,349,64619,6,0,P|291:331|192:330,1,320,10|0,0:0|0:0,0:0:0:0:
459,182,66226,6,0,B|398:191|365:251|365:251|371:158|297:82|297:82|195:111|154:194|154:194|153:128|105:86,1,615.999981201172,10|0,0:0|0:0,0:0:0:0:
80,73,67756,6,0,P|67:65|52:55,4,20,2|2|2|2|0,0:0|0:0|0:0|0:0|0:0,0:0:0:0:
96,207,69455,6,0,L|114:196,4,13.3333333333333,2|0|0|0|0,0:0|0:0|0:0|0:0|0:0,0:0:0:0:
156,146,69722,2,0,L|138:135,4,13.3333333333333,2|0|0|0|0,0:0|0:0|0:0|0:0|0:0,0:0:0:0:
227,196,69990,6,0,P|257:197|241:132,1,120,8|0,0:0|0:0,0:0:0:0:
214,66,70526,2,0,L|222:118,1,40,10|0,0:0|0:0,0:0:0:0:
340,224,70794,2,0,L|348:172,1,40,10|0,0:0|0:0,0:0:0:0:
142,208,71057,6,0,P|191:192|197:312,1,223.999993164063,12|0,0:0|0:0,0:0:0:0:
65,298,71860,1,2,0:0:0:0:
201,330,72128,2,0,P|239:308|252:208,1,143.999995605469,2|0,0:0|0:0,0:0:0:0:
208,157,72644,5,10,0:0:0:0:
208,157,73179,1,2,0:0:0:0:
358,115,73447,1,0,0:0:0:0:
411,267,73715,2,0,P|404:221|407:177,1,80,2|0,0:0|0:0,0:0:0:0:
293,307,74243,6,0,P|320:266|283:160,1,160,10|0,0:0|0:0,0:0:0:0:
208,120,75046,1,2,0:0:0:0:
361,76,75314,1,2,0:0:0:0:
469,204,75850,6,0,B|428:190|428:190|396:220|396:220|315:224,1,160,10|0,0:0|0:0,0:0:0:0:
206,222,76653,1,0,0:0:0:0:
321,238,76921,2,0,B|404:235|404:235|364:255,1,120,2|0,0:0|0:0,0:0:0:0:
246,290,77457,6,0,P|233:257|290:151,1,160,10|0,0:0|0:0,0:0:0:0:
381,117,78260,1,0,0:0:0:0:
269,140,78528,2,0,P|242:159|211:240,1,120,2|0,0:0|0:0,0:0:0:0:
161,340,79064,6,0,P|150:297|130:251,1,80,10|0,0:0|0:0,0:0:0:0:
12,162,79600,1,2,0:0:0:0:
107,182,79868,1,0,0:0:0:0:
181,45,80135,2,0,P|189:84|208:125,1,80,2|0,0:0|0:0,0:0:0:0:
359,11,80671,6,0,P|355:70|315:169,1,160,10|0,0:0|0:0,0:0:0:0:
229,218,81475,1,2,0:0:0:0:
332,169,81743,2,0,P|356:132|375:51,1,120,2|0,0:0|0:0,0:0:0:0:
269,16,82278,6,0,P|282:69|364:34,1,160,10|0,0:0|0:0,0:0:0:0:
179,26,83082,6,0,P|169:47|160:76,1,40,2|0,0:0|0:0,0:0:0:0:
271,108,83350,2,0,P|281:129|290:158,1,40,2|0,0:0|0:0,0:0:0:0:
150,220,83618,2,0,P|140:241|131:270,1,40,2|0,0:0|0:0,0:0:0:0:
290,317,83894,6,0,P|322:299|230:252,1,223.999993164063,14|0,0:0|0:0,0:0:0:0:
177,360,84697,1,2,0:0:0:0:
70,228,84965,2,0,P|63:173|108:83,1,143.999995605469,2|0,0:0|0:0,0:0:0:0:
180,36,85501,1,10,0:0:0:0:
180,36,86013,5,2,0:0:0:0:
294,139,86280,1,0,0:0:0:0:
411,94,86548,2,0,P|456:94|498:131,1,95.9999970703126,2|0,0:0|0:0,0:0:0:0:
405,316,87077,6,0,B|302:346|318:252|210:281,1,207.999990478516,10|0,0:0|0:0,0:0:0:0:
76,365,87880,1,2,0:0:0:0:
210,264,88148,2,0,P|270:256|323:279,1,120,2|0,0:0|0:0,0:0:0:0:
391,355,88704,6,0,P|360:311|384:214,1,160,10|0,0:0|0:0,0:0:0:0:
460,148,89507,1,0,0:0:0:0:
343,98,89775,1,2,0:0:0:0:
339,2,90023,1,2,0:0:0:0:
362,182,90310,6,0,P|279:158|199:161,1,160,10|0,0:0|0:0,0:0:0:0:
88,188,91113,1,2,0:0:0:0:
199,149,91381,2,0,P|263:142|327:156,1,120,2|0,0:0|0:0,0:0:0:0:
411,214,91917,6,0,P|381:214|316:312,1,160,10|2,0:0|0:0,0:0:0:0:
381,375,92720,1,0,0:0:0:0:
482,262,92988,2,0,P|490:227|488:178,1,80,2|0,0:0|0:0,0:0:0:0:
306,94,93524,6,0,P|332:116|422:54,1,160,10|0,0:0|0:0,0:0:0:0:
341,0,94327,1,0,0:0:0:0:
245,144,94595,2,0,P|269:171|372:202,1,143.999995605469,2|0,0:0|0:0,0:0:0:0:
459,174,95131,6,0,P|415:190|417:295,1,160,10|0,0:0|0:0,0:0:0:0:
269,369,95935,6,0,P|238:358|216:352,1,40,2|0,0:0|0:0,0:0:0:0:
142,259,96211,2,0,P|111:270|89:276,1,40,2|0,0:0|0:0,0:0:0:0:
60,113,96470,2,0,P|79:118|97:126,1,40,2|0,0:0|0:0,0:0:0:0:
269,128,96737,6,0,B|267:80|204:68|176:104|176:161|200:200|245:225,1,223.999993164063,14|0,0:0|0:0,0:0:0:0:
385,221,97540,2,0,P|354:229|334:241,1,44.0000013427735,2|0,0:0|0:0,0:0:0:0:
190,324,97808,2,0,P|220:309|232:213,1,132.00000402832,2|0,0:0|0:0,0:0:0:0:
183,157,98344,5,10,0:0:0:0:
183,157,98879,1,2,0:0:0:0:
304,112,99147,1,0,0:0:0:0:
195,38,99415,1,2,0:0:0:0:
74,83,99683,1,0,0:0:0:0:
226,181,99951,6,0,P|255:171|291:277,1,176.000005371094,10|0,0:0|0:0,0:0:0:0:
161,305,100754,1,2,0:0:0:0:
307,278,101022,2,0,P|331:225|289:159,1,132.00000402832,2|0,0:0|0:0,0:0:0:0:
208,81,101558,6,0,B|250:94|250:94|290:68,1,88.000002685547,10|0,0:0|0:0,0:0:0:0:
120,169,102094,2,0,B|156:145|156:145|198:158,1,88.000002685547,2|0,0:0|0:0,0:0:0:0:
52,79,102629,2,0,B|94:92|94:92|134:66,1,88.000002685547,2|0,0:0|0:0,0:0:0:0:
16,186,103165,6,0,P|47:173|74:278,1,176.000005371094,10|0,0:0|0:0,0:0:0:0:
2,359,103969,1,2,0:0:0:0:
94,282,104237,2,0,P|118:244|88:168,1,120,2|0,0:0|0:0,0:0:0:0:
96,91,104772,6,0,P|80:117|89:170,1,80,10|0,0:0|0:0,0:0:0:0:
162,52,105308,1,2,0:0:0:0:
266,116,105576,1,0,0:0:0:0:
377,45,105844,2,0,P|410:58|434:101,1,80,2|0,0:0|0:0,0:0:0:0:
293,248,106379,6,0,P|291:216|363:116,1,160,10|0,0:0|0:0,0:0:0:0:
509,93,107183,1,2,0:0:0:0:
501,232,107451,2,0,P|450:232|393:191,1,120,2|0,0:0|0:0,0:0:0:0:
352,109,107982,6,0,P|294:162|283:240,1,160,10|0,0:0|0:0,0:0:0:0:
135,378,108785,6,0,P|149:349|153:318,1,44.0000013427735,2|0,0:0|0:0,0:0:0:0:
66,248,109053,2,0,P|44:223|33:194,1,44.0000013427735,2|0,0:0|0:0,0:0:0:0:
186,163,109321,2,0,P|207:138|218:109,1,44.0000013427735,2|0,0:0|0:0,0:0:0:0:
56,13,109595,6,0,B|-8:18|-23:88|-23:88|92:157|171:56,1,335.999989746094,14|2,0:0|0:0,0:0:0:0:
342,30,110666,2,0,P|299:24|262:115,1,155.999992858887,2|0,0:0|0:0,0:0:0:0:
319,195,111202,6,0,P|311:159|272:124,1,88.000002685547,10|0,0:0|0:0,0:0:0:0:
147,251,111737,2,0,P|188:239|241:238,1,88.000002685547,2|0,0:0|0:0,0:0:0:0:
384,331,112273,2,0,P|342:299|293:285,1,88.000002685547,2|0,0:0|0:0,0:0:0:0:
149,163,112809,6,0,B|257:226|270:131|378:195,1,240.000009155274,10|0,0:0|0:0,0:0:0:0:
479,318,113612,1,2,0:0:0:0:
383,179,113880,2,0,P|352:161|222:179,1,167.999994873047,2|0,0:0|0:0,0:0:0:0:
131,270,114416,6,0,P|116:226|198:89,1,207.999990478516,10|0,0:0|0:0,0:0:0:0:
304,41,115220,1,0,0:0:0:0:
126,126,115487,2,0,P|105:160|115:275,1,155.999992858887,2|0,0:0|0:0,0:0:0:0:
228,347,116023,6,0,P|273:330|198:281,1,191.999994140625,10|0,0:0|0:0,0:0:0:0:
100,361,116827,1,0,0:0:0:0:
197,256,117095,2,0,P|238:240|304:301,1,132.00000402832,2|0,0:0|0:0,0:0:0:0:
322,381,117630,5,10,0:0:0:0:
423,183,118166,2,0,B|378:186|378:186|341:154,1,88.000002685547,2|0,0:0|0:0,0:0:0:0:
434,195,118702,2,0,B|371:199|371:199|319:154,1,132.00000402832,2|0,0:0|0:0,0:0:0:0:
199,97,119237,6,0,B|214:52|214:52|224:190,1,176.000005371094,10|0,0:0|0:0,0:0:0:0:
230,272,120041,1,2,0:0:0:0:
235,176,120309,2,0,L|228:83,1,88.000002685547,2|0,0:0|0:0,0:0:0:0:
26,164,120845,6,0,P|68:161|103:194,1,88.000002685547,10|0,0:0|0:0,0:0:0:0:
22,280,121380,2,0,P|60:237|208:213,1,207.999990478516,2|0,0:0|0:0,0:0:0:0:
303,255,122184,1,2,0:0:0:0:
432,163,122492,5,14,0:0:0:0:
256,192,122624,12,8,128874,0:0:0:0:
