osu file format v14

[General]
AudioFilename: audio.mp3
AudioLeadIn: 0
PreviewTime: -1
Countdown: 1
SampleSet: None
StackLeniency: 0.2
Mode: 3
LetterboxInBreaks: 0
SpecialStyle: 0
WidescreenStoryboard: 0

[Editor]
DistanceSpacing: 0.8
BeatDivisor: 8
GridSize: 32
TimelineZoom: 1

[Metadata]
Title:Toccata
TitleUnicode:Toccata
Artist:OVERWERK
ArtistUnicode:OVERWERK
Creator:Ploiken
Version:Normal
Source:
Tags:Electro, OVERWERK
BeatmapID:1251040
BeatmapSetID:591137

[Difficulty]
HPDrainRate:5
CircleSize:4
OverallDifficulty:5
ApproachRate:6
SliderMultiplier:3.59999990463257
SliderTickRate:4

[Events]
//Background and Video events
//Break Periods
2,90355,104143
2,120432,134143
2,270374,284182
//Storyboard Layer 0 (Background)
//Storyboard Layer 1 (Fail)
//Storyboard Layer 2 (Pass)
//Storyboard Layer 3 (Foreground)
//Storyboard Sound Samples

[TimingPoints]
0,465.116279069767,4,1,0,100,1,0

[HitObjects]
64,192,30232,128,0,33953:0:0:0:0:
448,192,33953,128,0,35813:0:0:0:0:
64,192,35813,128,0,37674:0:0:0:0:
192,192,36744,128,0,37209:0:0:0:0:
448,192,37674,128,0,41395:0:0:0:0:
64,192,41395,128,0,43255:0:0:0:0:
192,192,43255,128,0,44186:0:0:0:0:
320,192,44186,128,0,45116:0:0:0:0:
448,192,45116,128,0,48837:0:0:0:0:
64,192,45193,1,0,0:0:0:0:
192,192,45658,1,0,0:0:0:0:
64,192,46124,1,0,0:0:0:0:
192,192,46589,1,0,0:0:0:0:
64,192,47054,1,0,0:0:0:0:
192,192,47519,1,0,0:0:0:0:
64,192,47984,1,0,0:0:0:0:
192,192,48449,1,0,0:0:0:0:
64,192,48837,128,0,52558:0:0:0:0:
448,192,48992,1,0,0:0:0:0:
320,192,49379,1,0,0:0:0:0:
448,192,49922,1,0,0:0:0:0:
320,192,50387,1,0,0:0:0:0:
448,192,50852,1,0,0:0:0:0:
320,192,51317,1,0,0:0:0:0:
448,192,51782,1,0,0:0:0:0:
320,192,52248,1,0,0:0:0:0:
448,192,52558,128,0,56279:0:0:0:0:
64,192,52713,1,0,0:0:0:0:
192,192,53178,1,0,0:0:0:0:
64,192,53643,1,0,0:0:0:0:
192,192,54108,1,0,0:0:0:0:
64,192,54573,1,0,0:0:0:0:
192,192,55038,1,0,0:0:0:0:
64,192,55503,1,0,0:0:0:0:
192,192,55968,1,0,0:0:0:0:
64,192,56279,128,0,58139:0:0:0:0:
448,192,56434,1,0,0:0:0:0:
320,192,56899,1,0,0:0:0:0:
448,192,57364,1,0,0:0:0:0:
320,192,57829,1,0,0:0:0:0:
192,192,58217,1,0,0:0:0:0:
320,192,58294,1,0,0:0:0:0:
448,192,58372,128,0,58759:0:0:0:0:
320,192,58837,1,0,0:0:0:0:
192,192,58992,128,0,59457:0:0:0:0:
448,192,59534,1,0,0:0:0:0:
320,192,59767,128,0,60232:0:0:0:0:
64,192,60232,128,0,60697:0:0:0:0:
192,192,60697,128,0,61085:0:0:0:0:
320,192,61085,128,0,61782:0:0:0:0:
64,192,61860,1,0,0:0:0:0:
192,192,61937,1,0,0:0:0:0:
320,192,62015,128,0,62480:0:0:0:0:
192,192,62480,128,0,62713:0:0:0:0:
64,192,62713,128,0,63178:0:0:0:0:
192,192,63178,128,0,63410:0:0:0:0:
64,192,63410,128,0,63643:0:0:0:0:
192,192,63643,128,0,63953:0:0:0:0:
320,192,63953,128,0,64418:0:0:0:0:
448,192,64418,128,0,64883:0:0:0:0:
320,192,64883,128,0,65503:0:0:0:0:
64,192,65581,1,0,0:0:0:0:
192,192,65658,1,0,0:0:0:0:
320,192,65736,1,0,0:0:0:0:
448,192,65813,128,0,66279:0:0:0:0:
320,192,66279,128,0,66511:0:0:0:0:
192,192,66511,128,0,66976:0:0:0:0:
320,192,66976,128,0,67209:0:0:0:0:
448,192,67209,128,0,67441:0:0:0:0:
192,192,67441,128,0,67674:0:0:0:0:
64,192,67674,128,0,68139:0:0:0:0:
192,192,68139,128,0,68604:0:0:0:0:
320,192,68604,128,0,69224:0:0:0:0:
448,192,69302,1,0,0:0:0:0:
320,192,69379,1,0,0:0:0:0:
192,192,69457,1,0,0:0:0:0:
64,192,69534,128,0,69999:0:0:0:0:
192,192,69999,128,0,70232:0:0:0:0:
320,192,70232,128,0,70697:0:0:0:0:
192,192,70697,128,0,71007:0:0:0:0:
320,192,71007,128,0,71162:0:0:0:0:
448,192,71162,128,0,71472:0:0:0:0:
320,192,71472,128,0,71937:0:0:0:0:
192,192,71937,128,0,72403:0:0:0:0:
64,192,72403,128,0,73023:0:0:0:0:
192,192,73100,1,0,0:0:0:0:
320,192,73178,1,0,0:0:0:0:
448,192,73333,128,0,73798:0:0:0:0:
320,192,73798,128,0,74031:0:0:0:0:
192,192,74031,128,0,74728:0:0:0:0:
320,192,74728,128,0,75193:0:0:0:0:
64,192,75193,128,0,75658:0:0:0:0:
192,192,75658,128,0,76124:0:0:0:0:
320,192,76124,128,0,76821:0:0:0:0:
448,192,76899,1,0,0:0:0:0:
320,192,76976,1,0,0:0:0:0:
192,192,77054,128,0,77519:0:0:0:0:
320,192,77519,128,0,77829:0:0:0:0:
448,192,77829,128,0,78217:0:0:0:0:
320,192,78217,128,0,78527:0:0:0:0:
448,192,78527,128,0,78759:0:0:0:0:
64,192,78759,128,0,78992:0:0:0:0:
192,192,78992,128,0,79457:0:0:0:0:
320,192,79457,128,0,79922:0:0:0:0:
448,192,79922,128,0,80542:0:0:0:0:
320,192,80620,1,0,0:0:0:0:
192,192,80697,1,0,0:0:0:0:
64,192,80775,128,0,81240:0:0:0:0:
192,192,81240,128,0,81550:0:0:0:0:
320,192,81550,128,0,81937:0:0:0:0:
192,192,81937,128,0,82248:0:0:0:0:
320,192,82248,128,0,82480:0:0:0:0:
64,192,82480,1,0,0:0:0:0:
192,192,82558,1,0,0:0:0:0:
320,192,82635,128,0,83178:0:0:0:0:
448,192,83178,128,0,83643:0:0:0:0:
64,192,83643,128,0,84341:0:0:0:0:
448,192,84418,1,0,0:0:0:0:
320,192,84496,1,0,0:0:0:0:
192,192,84573,128,0,85038:0:0:0:0:
320,192,85038,128,0,85271:0:0:0:0:
192,192,85271,128,0,85736:0:0:0:0:
448,192,85271,128,0,85736:0:0:0:0:
320,192,85736,128,0,85968:0:0:0:0:
64,192,85736,128,0,85968:0:0:0:0:
192,192,85968,128,0,86201:0:0:0:0:
448,192,85968,128,0,86201:0:0:0:0:
448,192,86201,1,0,0:0:0:0:
64,192,86201,128,0,86511:0:0:0:0:
192,192,86511,128,0,86899:0:0:0:0:
64,192,86899,128,0,87131:0:0:0:0:
448,192,87131,128,0,88062:0:0:0:0:
320,192,88062,128,0,88759:0:0:0:0:
64,192,88759,128,0,88992:0:0:0:0:
192,192,88992,128,0,89534:0:0:0:0:
64,192,89534,128,0,89689:0:0:0:0:
192,192,89689,128,0,90155:0:0:0:0:
320,192,105193,5,0,0:0:0:0:
448,192,105271,1,0,0:0:0:0:
192,192,105348,1,0,0:0:0:0:
320,192,105426,128,0,105658:0:0:0:0:
192,192,105736,128,0,105891:0:0:0:0:
320,192,105891,128,0,106124:0:0:0:0:
192,192,106124,128,0,106356:0:0:0:0:
320,192,106356,128,0,106589:0:0:0:0:
64,192,106589,128,0,106899:0:0:0:0:
448,192,106899,128,0,107131:0:0:0:0:
320,192,107131,128,0,107364:0:0:0:0:
192,192,107364,128,0,107519:0:0:0:0:
64,192,107519,128,0,107751:0:0:0:0:
320,192,107751,128,0,107984:0:0:0:0:
192,192,107984,128,0,108217:0:0:0:0:
64,192,108217,128,0,108449:0:0:0:0:
192,192,108449,128,0,108682:0:0:0:0:
320,192,108682,128,0,108914:0:0:0:0:
64,192,108914,128,0,109147:0:0:0:0:
320,192,109147,128,0,109379:0:0:0:0:
192,192,109379,128,0,109612:0:0:0:0:
320,192,109612,128,0,109844:0:0:0:0:
192,192,109844,128,0,110077:0:0:0:0:
448,192,110077,128,0,110310:0:0:0:0:
192,192,110310,128,0,110542:0:0:0:0:
448,192,110542,128,0,110775:0:0:0:0:
320,192,110775,128,0,111007:0:0:0:0:
448,192,111007,128,0,111240:0:0:0:0:
64,192,111240,128,0,111472:0:0:0:0:
448,192,111472,128,0,111705:0:0:0:0:
64,192,111705,128,0,112015:0:0:0:0:
320,192,112015,128,0,112248:0:0:0:0:
448,192,112015,128,0,112248:0:0:0:0:
192,192,112248,128,0,112480:0:0:0:0:
320,192,112480,128,0,112713:0:0:0:0:
448,192,112480,128,0,112713:0:0:0:0:
64,192,112713,128,0,112945:0:0:0:0:
320,192,112945,128,0,113178:0:0:0:0:
64,192,113178,128,0,113410:0:0:0:0:
192,192,113410,128,0,113643:0:0:0:0:
64,192,113643,128,0,113875:0:0:0:0:
320,192,113875,128,0,114108:0:0:0:0:
192,192,114108,128,0,114341:0:0:0:0:
448,192,114341,128,0,114573:0:0:0:0:
320,192,114573,128,0,114806:0:0:0:0:
448,192,114806,128,0,115038:0:0:0:0:
64,192,115038,128,0,115271:0:0:0:0:
320,192,115271,128,0,115503:0:0:0:0:
448,192,115813,128,0,116046:0:0:0:0:
320,192,116046,128,0,116279:0:0:0:0:
192,192,116279,128,0,116511:0:0:0:0:
64,192,116511,128,0,116744:0:0:0:0:
320,192,116744,128,0,116976:0:0:0:0:
64,192,116976,128,0,117209:0:0:0:0:
320,192,117209,128,0,117441:0:0:0:0:
192,192,117441,128,0,117674:0:0:0:0:
320,192,117674,128,0,117906:0:0:0:0:
192,192,117906,128,0,118139:0:0:0:0:
448,192,118139,128,0,118372:0:0:0:0:
320,192,118372,128,0,118604:0:0:0:0:
448,192,118604,128,0,118837:0:0:0:0:
64,192,118837,128,0,119069:0:0:0:0:
320,192,119069,128,0,119457:0:0:0:0:
448,192,119457,128,0,119767:0:0:0:0:
320,192,119767,128,0,119999:0:0:0:0:
448,192,119999,128,0,120232:0:0:0:0:
64,192,135193,132,0,135581:0:0:0:0:
192,192,135581,128,0,136124:0:0:0:0:
320,192,136124,128,0,138294:0:0:0:0:
448,192,138294,128,0,138682:0:0:0:0:
320,192,138759,1,0,0:0:0:0:
192,192,138837,1,0,0:0:0:0:
448,192,138914,128,0,139612:0:0:0:0:
192,192,139612,128,0,139922:0:0:0:0:
64,192,139922,128,0,140542:0:0:0:0:
192,192,140155,128,0,140542:0:0:0:0:
320,192,140620,1,0,0:0:0:0:
192,192,140697,1,0,0:0:0:0:
448,192,140775,128,0,141317:0:0:0:0:
320,192,141317,128,0,141550:0:0:0:0:
192,192,141550,128,0,141782:0:0:0:0:
64,192,141782,128,0,142015:0:0:0:0:
192,192,142015,128,0,142480:0:0:0:0:
448,192,142015,128,0,142480:0:0:0:0:
320,192,142480,128,0,142713:0:0:0:0:
448,192,142713,128,0,143178:0:0:0:0:
64,192,143178,128,0,143643:0:0:0:0:
320,192,143178,128,0,143643:0:0:0:0:
448,192,143643,128,0,145736:0:0:0:0:
320,192,145736,128,0,146124:0:0:0:0:
192,192,146201,1,0,0:0:0:0:
64,192,146279,1,0,0:0:0:0:
448,192,146434,128,0,146899:0:0:0:0:
320,192,146899,128,0,147131:0:0:0:0:
64,192,147131,128,0,147441:0:0:0:0:
192,192,147441,128,0,147596:0:0:0:0:
448,192,147441,128,0,147596:0:0:0:0:
320,192,147596,128,0,148062:0:0:0:0:
192,192,148139,1,0,0:0:0:0:
64,192,148217,1,0,0:0:0:0:
320,192,148294,128,0,148837:0:0:0:0:
448,192,148837,128,0,149069:0:0:0:0:
320,192,149069,128,0,149302:0:0:0:0:
192,192,149302,128,0,149534:0:0:0:0:
64,192,149534,128,0,150155:0:0:0:0:
448,192,150174,1,0,0:0:0:0:
64,192,150406,1,0,0:0:0:0:
320,192,150639,1,0,0:0:0:0:
192,192,150872,1,0,0:0:0:0:
448,192,151104,1,0,0:0:0:0:
64,192,151337,1,0,0:0:0:0:
320,192,151569,1,0,0:0:0:0:
192,192,151802,1,0,0:0:0:0:
448,192,152034,1,0,0:0:0:0:
64,192,152267,1,0,0:0:0:0:
320,192,152499,1,0,0:0:0:0:
192,192,152732,1,0,0:0:0:0:
448,192,152965,1,0,0:0:0:0:
64,192,153197,1,0,0:0:0:0:
320,192,153430,1,0,0:0:0:0:
192,192,153662,1,0,0:0:0:0:
448,192,153895,1,0,0:0:0:0:
64,192,154127,1,0,0:0:0:0:
320,192,154360,1,0,0:0:0:0:
192,192,154593,1,0,0:0:0:0:
448,192,154825,1,0,0:0:0:0:
64,192,155058,1,0,0:0:0:0:
320,192,155290,1,0,0:0:0:0:
192,192,155523,1,0,0:0:0:0:
448,192,155755,1,0,0:0:0:0:
64,192,155988,1,0,0:0:0:0:
320,192,156220,1,0,0:0:0:0:
192,192,156453,1,0,0:0:0:0:
448,192,156686,1,0,0:0:0:0:
64,192,156918,1,0,0:0:0:0:
320,192,157151,1,0,0:0:0:0:
192,192,157383,1,0,0:0:0:0:
448,192,157616,1,0,0:0:0:0:
64,192,157848,1,0,0:0:0:0:
320,192,158081,1,0,0:0:0:0:
192,192,158313,1,0,0:0:0:0:
448,192,158546,1,0,0:0:0:0:
64,192,158779,1,0,0:0:0:0:
320,192,159011,1,0,0:0:0:0:
192,192,159244,1,0,0:0:0:0:
448,192,159476,1,0,0:0:0:0:
64,192,159709,1,0,0:0:0:0:
320,192,159941,1,0,0:0:0:0:
192,192,160174,1,0,0:0:0:0:
448,192,160406,1,0,0:0:0:0:
64,192,160639,1,0,0:0:0:0:
320,192,160872,1,0,0:0:0:0:
192,192,161104,1,0,0:0:0:0:
448,192,161337,1,0,0:0:0:0:
64,192,161569,1,0,0:0:0:0:
320,192,161802,1,0,0:0:0:0:
192,192,162034,1,0,0:0:0:0:
448,192,162267,1,0,0:0:0:0:
64,192,162499,1,0,0:0:0:0:
320,192,162732,1,0,0:0:0:0:
192,192,162965,1,0,0:0:0:0:
448,192,163197,1,0,0:0:0:0:
64,192,163430,1,0,0:0:0:0:
320,192,163662,1,0,0:0:0:0:
192,192,163895,1,0,0:0:0:0:
448,192,164127,1,0,0:0:0:0:
64,192,164360,1,0,0:0:0:0:
320,192,164593,1,0,0:0:0:0:
192,192,164825,1,0,0:0:0:0:
192,192,165193,1,0,0:0:0:0:
320,192,165193,1,0,0:0:0:0:
64,192,165426,1,0,0:0:0:0:
448,192,165426,1,0,0:0:0:0:
192,192,165658,5,0,0:0:0:0:
320,192,165658,1,0,0:0:0:0:
64,192,165891,1,0,0:0:0:0:
448,192,165891,1,0,0:0:0:0:
192,192,166124,1,0,0:0:0:0:
320,192,166124,1,0,0:0:0:0:
64,192,166356,1,0,0:0:0:0:
448,192,166356,1,0,0:0:0:0:
192,192,166589,1,0,0:0:0:0:
320,192,166589,1,0,0:0:0:0:
64,192,166821,1,0,0:0:0:0:
448,192,166821,1,0,0:0:0:0:
192,192,167054,1,0,0:0:0:0:
320,192,167054,1,0,0:0:0:0:
64,192,167286,1,0,0:0:0:0:
448,192,167286,1,0,0:0:0:0:
192,192,167519,1,0,0:0:0:0:
320,192,167519,1,0,0:0:0:0:
64,192,167751,1,0,0:0:0:0:
448,192,167751,1,0,0:0:0:0:
192,192,167984,1,0,0:0:0:0:
320,192,167984,1,0,0:0:0:0:
64,192,168217,1,0,0:0:0:0:
448,192,168217,1,0,0:0:0:0:
192,192,168449,1,0,0:0:0:0:
320,192,168449,1,0,0:0:0:0:
448,192,168682,1,0,0:0:0:0:
64,192,168682,1,0,0:0:0:0:
192,192,168914,1,0,0:0:0:0:
320,192,168914,1,0,0:0:0:0:
64,192,169147,1,0,0:0:0:0:
448,192,169147,1,0,0:0:0:0:
192,192,169379,1,0,0:0:0:0:
320,192,169379,1,0,0:0:0:0:
64,192,169612,1,0,0:0:0:0:
448,192,169612,1,0,0:0:0:0:
192,192,169844,1,0,0:0:0:0:
320,192,169844,1,0,0:0:0:0:
448,192,170077,1,0,0:0:0:0:
64,192,170077,1,0,0:0:0:0:
192,192,170310,1,0,0:0:0:0:
320,192,170310,1,0,0:0:0:0:
64,192,170542,1,0,0:0:0:0:
448,192,170542,1,0,0:0:0:0:
192,192,170775,1,0,0:0:0:0:
320,192,170775,1,0,0:0:0:0:
64,192,171007,1,0,0:0:0:0:
448,192,171007,1,0,0:0:0:0:
320,192,171240,1,0,0:0:0:0:
192,192,171240,1,0,0:0:0:0:
448,192,171472,1,0,0:0:0:0:
64,192,171472,1,0,0:0:0:0:
192,192,171705,1,0,0:0:0:0:
320,192,171705,1,0,0:0:0:0:
64,192,171937,1,0,0:0:0:0:
448,192,171937,1,0,0:0:0:0:
320,192,172170,1,0,0:0:0:0:
192,192,172170,1,0,0:0:0:0:
64,192,172403,1,0,0:0:0:0:
448,192,172403,1,0,0:0:0:0:
192,192,172635,1,0,0:0:0:0:
320,192,172635,1,0,0:0:0:0:
64,192,172868,1,0,0:0:0:0:
448,192,172868,1,0,0:0:0:0:
64,192,173178,1,0,0:0:0:0:
448,192,173178,1,0,0:0:0:0:
64,192,173410,1,0,0:0:0:0:
448,192,173410,1,0,0:0:0:0:
64,192,173643,1,0,0:0:0:0:
448,192,173643,1,0,0:0:0:0:
64,192,173875,1,0,0:0:0:0:
448,192,173875,1,0,0:0:0:0:
448,192,174108,1,0,0:0:0:0:
64,192,174108,1,0,0:0:0:0:
64,192,174341,1,0,0:0:0:0:
448,192,174341,1,0,0:0:0:0:
64,192,174573,1,0,0:0:0:0:
448,192,174573,1,0,0:0:0:0:
64,192,174806,1,0,0:0:0:0:
448,192,174806,1,0,0:0:0:0:
64,192,175038,1,0,0:0:0:0:
448,192,175038,1,0,0:0:0:0:
64,192,175271,1,0,0:0:0:0:
448,192,175271,1,0,0:0:0:0:
64,192,175503,1,0,0:0:0:0:
448,192,175503,1,0,0:0:0:0:
64,192,175736,1,0,0:0:0:0:
448,192,175736,1,0,0:0:0:0:
64,192,175968,1,0,0:0:0:0:
448,192,175968,1,0,0:0:0:0:
64,192,176201,1,0,0:0:0:0:
448,192,176201,1,0,0:0:0:0:
64,192,176453,1,0,0:0:0:0:
448,192,176569,1,0,0:0:0:0:
64,192,176686,1,0,0:0:0:0:
448,192,176802,1,0,0:0:0:0:
64,192,176918,1,0,0:0:0:0:
448,192,177034,1,0,0:0:0:0:
64,192,177151,1,0,0:0:0:0:
448,192,177267,1,0,0:0:0:0:
64,192,177383,1,0,0:0:0:0:
448,192,177499,1,0,0:0:0:0:
64,192,177616,1,0,0:0:0:0:
448,192,177732,1,0,0:0:0:0:
64,192,177848,1,0,0:0:0:0:
448,192,177965,1,0,0:0:0:0:
64,192,178081,1,0,0:0:0:0:
448,192,178197,1,0,0:0:0:0:
64,192,178313,1,0,0:0:0:0:
448,192,178430,1,0,0:0:0:0:
64,192,178546,1,0,0:0:0:0:
448,192,178662,1,0,0:0:0:0:
64,192,178779,1,0,0:0:0:0:
448,192,178895,1,0,0:0:0:0:
64,192,179011,1,0,0:0:0:0:
448,192,179127,1,0,0:0:0:0:
64,192,179244,1,0,0:0:0:0:
448,192,179360,1,0,0:0:0:0:
64,192,179476,1,0,0:0:0:0:
448,192,179593,1,0,0:0:0:0:
64,192,179709,1,0,0:0:0:0:
64,192,180174,128,0,181627:0:0:0:0:
192,192,180174,128,0,181627:0:0:0:0:
448,192,180174,128,0,181627:0:0:0:0:
320,192,181627,128,0,182034:0:0:0:0:
64,192,182093,1,0,0:0:0:0:
192,192,182325,1,0,0:0:0:0:
64,192,182558,1,0,0:0:0:0:
320,192,182790,1,0,0:0:0:0:
64,192,183023,1,0,0:0:0:0:
448,192,183255,1,0,0:0:0:0:
64,192,183488,1,0,0:0:0:0:
192,192,183720,1,0,0:0:0:0:
448,192,183953,128,0,185581:0:0:0:0:
320,192,183953,128,0,185581:0:0:0:0:
64,192,183953,128,0,185581:0:0:0:0:
192,192,185581,128,0,185813:0:0:0:0:
192,192,186569,128,0,187209:0:0:0:0:
320,192,186569,128,0,187209:0:0:0:0:
448,192,186569,128,0,187209:0:0:0:0:
320,192,187732,128,0,189069:0:0:0:0:
64,192,187732,128,0,189069:0:0:0:0:
192,192,187732,128,0,189069:0:0:0:0:
64,192,191453,128,0,191918:0:0:0:0:
448,192,191453,128,0,191918:0:0:0:0:
192,192,192034,1,0,0:0:0:0:
320,192,192034,1,0,0:0:0:0:
192,192,192151,128,0,192674:0:0:0:0:
320,192,192151,128,0,192674:0:0:0:0:
64,192,192848,1,0,0:0:0:0:
320,192,192848,1,0,0:0:0:0:
64,192,193081,128,0,193372:0:0:0:0:
320,192,193081,128,0,193372:0:0:0:0:
448,192,193895,1,0,0:0:0:0:
192,192,193895,1,0,0:0:0:0:
192,192,194069,128,0,194709:0:0:0:0:
448,192,194069,128,0,194709:0:0:0:0:
64,192,194825,1,0,0:0:0:0:
320,192,195058,1,0,0:0:0:0:
64,192,195174,128,0,196627:0:0:0:0:
192,192,195174,128,0,196627:0:0:0:0:
448,192,195174,128,0,198313:0:0:0:0:
320,192,198313,128,0,198720:0:0:0:0:
192,192,198720,128,0,198837:0:0:0:0:
448,192,198837,128,0,200639:0:0:0:0:
64,192,198837,128,0,200581:0:0:0:0:
192,192,200639,1,0,0:0:0:0:
320,192,200697,1,0,0:0:0:0:
448,192,200813,128,0,201279:0:0:0:0:
320,192,201279,128,0,201918:0:0:0:0:
192,192,201918,128,0,202441:0:0:0:0:
320,192,202441,128,0,202732:0:0:0:0:
64,192,202732,128,0,204127:0:0:0:0:
192,192,202732,128,0,203197:0:0:0:0:
320,192,203197,128,0,203662:0:0:0:0:
448,192,203662,128,0,205755:0:0:0:0:
320,192,205755,128,0,206162:0:0:0:0:
192,192,206220,1,0,0:0:0:0:
64,192,206279,1,0,0:0:0:0:
192,192,206453,128,0,206918:0:0:0:0:
448,192,206453,128,0,207616:0:0:0:0:
64,192,207151,128,0,207616:0:0:0:0:
320,192,207616,128,0,208081:0:0:0:0:
192,192,208139,1,0,0:0:0:0:
64,192,208197,1,0,0:0:0:0:
448,192,208313,128,0,208779:0:0:0:0:
192,192,208779,128,0,209244:0:0:0:0:
320,192,209302,128,0,210174:0:0:0:0:
64,192,210232,1,0,0:0:0:0:
192,192,210290,1,0,0:0:0:0:
320,192,210348,1,0,0:0:0:0:
448,192,210406,128,0,210639:0:0:0:0:
320,192,210639,128,0,211104:0:0:0:0:
192,192,211104,128,0,213255:0:0:0:0:
448,192,213255,128,0,213662:0:0:0:0:
320,192,213255,128,0,213662:0:0:0:0:
192,192,213720,1,0,0:0:0:0:
64,192,213779,1,0,0:0:0:0:
448,192,213953,128,0,215348:0:0:0:0:
64,192,213953,128,0,214476:0:0:0:0:
192,192,214476,128,0,214651:0:0:0:0:
64,192,214651,128,0,214883:0:0:0:0:
192,192,214883,128,0,215116:0:0:0:0:
64,192,215116,128,0,215581:0:0:0:0:
192,192,215639,1,0,0:0:0:0:
320,192,215697,1,0,0:0:0:0:
448,192,215813,128,0,216279:0:0:0:0:
320,192,216279,128,0,216511:0:0:0:0:
448,192,216511,128,0,216744:0:0:0:0:
320,192,216744,128,0,216976:0:0:0:0:
192,192,216976,128,0,217499:0:0:0:0:
320,192,217499,128,0,217674:0:0:0:0:
448,192,217674,128,0,218139:0:0:0:0:
64,192,218139,128,0,218604:0:0:0:0:
192,192,218604,128,0,220755:0:0:0:0:
320,192,220755,128,0,221162:0:0:0:0:
64,192,221220,1,0,0:0:0:0:
192,192,221279,1,0,0:0:0:0:
320,192,221337,128,0,221918:0:0:0:0:
448,192,221918,128,0,222151:0:0:0:0:
64,192,222151,128,0,222383:0:0:0:0:
192,192,222383,128,0,222616:0:0:0:0:
64,192,222616,128,0,223081:0:0:0:0:
448,192,223139,1,0,0:0:0:0:
320,192,223197,1,0,0:0:0:0:
192,192,223255,1,0,0:0:0:0:
64,192,223313,128,0,223779:0:0:0:0:
192,192,223779,128,0,224011:0:0:0:0:
320,192,224011,128,0,224476:0:0:0:0:
192,192,224476,128,0,224709:0:0:0:0:
320,192,224709,128,0,225174:0:0:0:0:
448,192,225174,128,0,225639:0:0:0:0:
64,192,225639,128,0,226104:0:0:0:0:
192,192,226104,128,0,226744:0:0:0:0:
320,192,226802,1,0,0:0:0:0:
448,192,226918,1,0,0:0:0:0:
64,192,227093,128,0,227499:0:0:0:0:
192,192,227093,128,0,227499:0:0:0:0:
320,192,227499,128,0,227732:0:0:0:0:
448,192,227732,128,0,228255:0:0:0:0:
320,192,228255,128,0,228488:0:0:0:0:
448,192,228488,128,0,228720:0:0:0:0:
192,192,228720,128,0,228953:0:0:0:0:
448,192,228953,128,0,229418:0:0:0:0:
64,192,228953,128,0,230697:0:0:0:0:
320,192,229418,128,0,229883:0:0:0:0:
192,192,229883,128,0,230523:0:0:0:0:
320,192,230581,1,0,0:0:0:0:
448,192,230697,1,0,0:0:0:0:
192,192,230755,128,0,231279:0:0:0:0:
320,192,231279,128,0,231569:0:0:0:0:
448,192,231569,128,0,231976:0:0:0:0:
320,192,231976,128,0,232267:0:0:0:0:
448,192,232267,128,0,232499:0:0:0:0:
320,192,232499,128,0,232674:0:0:0:0:
64,192,232499,128,0,232674:0:0:0:0:
192,192,232674,128,0,233139:0:0:0:0:
320,192,233139,128,0,233604:0:0:0:0:
448,192,233604,128,0,234244:0:0:0:0:
320,192,234302,1,0,0:0:0:0:
192,192,234418,1,0,0:0:0:0:
64,192,234534,128,0,234999:0:0:0:0:
192,192,234999,128,0,235290:0:0:0:0:
320,192,235290,128,0,235755:0:0:0:0:
192,192,235755,128,0,235930:0:0:0:0:
320,192,235930,128,0,236220:0:0:0:0:
448,192,236220,128,0,236453:0:0:0:0:
64,192,236453,128,0,237209:0:0:0:0:
192,192,237209,128,0,238081:0:0:0:0:
448,192,237209,128,0,238081:0:0:0:0:
320,192,238081,128,0,238779:0:0:0:0:
64,192,238081,128,0,238779:0:0:0:0:
448,192,238779,128,0,239011:0:0:0:0:
192,192,239011,128,0,239476:0:0:0:0:
64,192,239476,128,0,239709:0:0:0:0:
192,192,239709,128,0,240232:0:0:0:0:
64,192,240232,128,0,240697:0:0:0:0:
192,192,240697,128,0,241104:0:0:0:0:
320,192,241104,128,0,241569:0:0:0:0:
320,192,243720,128,0,243953:0:0:0:0:
192,192,243953,128,0,244418:0:0:0:0:
320,192,244476,128,0,244883:0:0:0:0:
448,192,244883,128,0,245348:0:0:0:0:
192,192,247674,128,0,248139:0:0:0:0:
320,192,248139,128,0,248604:0:0:0:0:
448,192,248604,128,0,249069:0:0:0:0:
192,192,251220,128,0,251453:0:0:0:0:
320,192,251453,128,0,251860:0:0:0:0:
192,192,251860,128,0,252151:0:0:0:0:
64,192,252151,128,0,252790:0:0:0:0:
192,192,252790,128,0,253081:0:0:0:0:
448,192,252790,128,0,253081:0:0:0:0:
64,192,253081,128,0,254011:0:0:0:0:
320,192,254011,128,0,254534:0:0:0:0:
64,192,254534,128,0,254767:0:0:0:0:
192,192,254767,128,0,255174:0:0:0:0:
320,192,255174,128,0,255581:0:0:0:0:
448,192,255581,128,0,256046:0:0:0:0:
320,192,256046,128,0,256511:0:0:0:0:
64,192,256046,128,0,256511:0:0:0:0:
192,192,258720,128,0,258953:0:0:0:0:
64,192,258953,128,0,259418:0:0:0:0:
192,192,259418,128,0,259883:0:0:0:0:
320,192,259883,128,0,260290:0:0:0:0:
448,192,260290,128,0,260581:0:0:0:0:
320,192,260581,128,0,261279:0:0:0:0:
64,192,260581,128,0,261279:0:0:0:0:
192,192,261279,128,0,261569:0:0:0:0:
320,192,261569,128,0,262732:0:0:0:0:
192,192,262732,128,0,263081:0:0:0:0:
320,192,263081,128,0,263662:0:0:0:0:
448,192,263662,128,0,264069:0:0:0:0:
64,192,266220,128,0,266453:0:0:0:0:
192,192,266453,128,0,266860:0:0:0:0:
320,192,266860,128,0,267151:0:0:0:0:
192,192,267151,128,0,267848:0:0:0:0:
64,192,267848,128,0,268081:0:0:0:0:
192,192,268081,128,0,269069:0:0:0:0:
448,192,268081,128,0,269069:0:0:0:0:
320,192,269069,128,0,269476:0:0:0:0:
448,192,269476,128,0,269709:0:0:0:0:
320,192,269709,128,0,270174:0:0:0:0:
64,192,269709,128,0,270174:0:0:0:0:
448,192,285232,132,0,287093:0:0:0:0:
320,192,285232,128,0,287093:0:0:0:0:
64,192,287093,128,0,288837:0:0:0:0:
192,192,287093,128,0,288837:0:0:0:0:
448,192,288837,128,0,290523:0:0:0:0:
64,192,290523,128,0,291395:0:0:0:0:
192,192,291395,128,0,292732:0:0:0:0:
320,192,292732,128,0,294534:0:0:0:0:
448,192,292732,128,0,294534:0:0:0:0:
64,192,294534,128,0,296395:0:0:0:0:
320,192,296395,128,0,297209:0:0:0:0:
64,192,297209,128,0,298081:0:0:0:0:
448,192,297209,128,0,298081:0:0:0:0:
320,192,298081,128,0,299011:0:0:0:0:
448,192,299011,128,0,300174:0:0:0:0:
192,192,299011,128,0,300174:0:0:0:0:
64,192,300203,1,0,0:0:0:0:
192,192,300261,1,0,0:0:0:0:
320,192,300290,1,0,0:0:0:0:
448,192,300319,128,0,300697:0:0:0:0:
320,192,300697,128,0,301104:0:0:0:0:
192,192,301104,128,0,301569:0:0:0:0:
448,192,301860,128,0,301976:0:0:0:0:
320,192,301976,128,0,302093:0:0:0:0:
192,192,302093,128,0,302558:0:0:0:0:
64,192,302558,128,0,302790:0:0:0:0:
320,192,302790,128,0,303023:0:0:0:0:
448,192,303255,128,0,303488:0:0:0:0:
320,192,303488,128,0,303720:0:0:0:0:
192,192,303720,128,0,303953:0:0:0:0:
64,192,303953,128,0,304418:0:0:0:0:
192,192,304418,128,0,304883:0:0:0:0:
320,192,304883,128,0,305290:0:0:0:0:
448,192,305290,128,0,305581:0:0:0:0:
64,192,305581,128,0,306337:0:0:0:0:
192,192,305581,128,0,306337:0:0:0:0:
320,192,306337,128,0,306569:0:0:0:0:
448,192,306569,128,0,307732:0:0:0:0:
320,192,307732,128,0,308139:0:0:0:0:
448,192,308139,128,0,308662:0:0:0:0:
64,192,308662,128,0,309127:0:0:0:0:
192,192,311279,128,0,311453:0:0:0:0:
320,192,311453,128,0,311918:0:0:0:0:
192,192,311918,128,0,312151:0:0:0:0:
64,192,312151,128,0,312848:0:0:0:0:
192,192,312848,128,0,313081:0:0:0:0:
320,192,313081,128,0,314011:0:0:0:0:
448,192,314011,128,0,314534:0:0:0:0:
320,192,314534,128,0,314767:0:0:0:0:
192,192,314767,128,0,315174:0:0:0:0:
448,192,315232,1,0,0:0:0:0:
320,192,315290,1,0,0:0:0:0:
192,192,315348,1,0,0:0:0:0:
64,192,315406,128,0,316104:0:0:0:0:
192,192,316104,128,0,316569:0:0:0:0:
320,192,316860,128,0,317558:0:0:0:0:
192,192,317558,128,0,317790:0:0:0:0:
64,192,317790,128,0,318255:0:0:0:0:
448,192,318255,128,0,318488:0:0:0:0:
64,192,318546,128,0,318779:0:0:0:0:
448,192,318779,128,0,318953:0:0:0:0:
320,192,318953,128,0,319418:0:0:0:0:
448,192,319418,128,0,319883:0:0:0:0:
64,192,319883,128,0,320348:0:0:0:0:
192,192,320581,128,0,321511:0:0:0:0:
320,192,321511,128,0,322616:0:0:0:0:
192,192,322616,128,0,324069:0:0:0:0:
192,192,326220,128,0,326453:0:0:0:0:
320,192,326453,128,0,327151:0:0:0:0:
64,192,327151,128,0,327965:0:0:0:0:
448,192,328023,128,0,329011:0:0:0:0:
64,192,329011,128,0,329593:0:0:0:0:
192,192,329593,128,0,329767:0:0:0:0:
320,192,329767,128,0,330174:0:0:0:0:
448,192,334011,128,0,334883:0:0:0:0:
320,192,334011,128,0,334883:0:0:0:0:
192,192,334941,128,0,335465:0:0:0:0:
64,192,334941,128,0,335465:0:0:0:0:
320,192,335581,1,0,0:0:0:0:
448,192,335697,1,0,0:0:0:0:
192,192,335813,128,0,336279:0:0:0:0:
64,192,336279,128,0,336511:0:0:0:0:
448,192,336511,128,0,337034:0:0:0:0:
320,192,337034,128,0,337209:0:0:0:0:
448,192,337209,128,0,337499:0:0:0:0:
320,192,337499,128,0,337732:0:0:0:0:
448,192,337732,128,0,339360:0:0:0:0:
192,192,337732,128,0,338139:0:0:0:0:
320,192,338139,128,0,338604:0:0:0:0:
64,192,338604,128,0,339127:0:0:0:0:
192,192,339127,128,0,339360:0:0:0:0:
320,192,339360,128,0,340058:0:0:0:0:
64,192,339360,128,0,340058:0:0:0:0:
448,192,340058,128,0,340290:0:0:0:0:
192,192,340290,128,0,341453:0:0:0:0:
64,192,341453,128,0,342906:0:0:0:0:
64,192,343313,1,0,0:0:0:0:
192,192,343604,1,0,0:0:0:0:
64,192,343779,1,0,0:0:0:0:
320,192,344011,1,0,0:0:0:0:
64,192,344302,1,0,0:0:0:0:
448,192,344534,1,0,0:0:0:0:
64,192,344767,1,0,0:0:0:0:
64,192,344999,128,0,345174:0:0:0:0:
192,192,345174,128,0,345872:0:0:0:0:
64,192,345872,128,0,346569:0:0:0:0:
448,192,346569,128,0,346802:0:0:0:0:
320,192,346802,128,0,347558:0:0:0:0:
448,192,347558,128,0,347790:0:0:0:0:
64,192,347790,128,0,348081:0:0:0:0:
192,192,348081,128,0,348488:0:0:0:0:
320,192,348488,128,0,348953:0:0:0:0:
64,192,348953,128,0,349941:0:0:0:0:
192,192,349941,128,0,350406:0:0:0:0:
64,192,350523,1,0,0:0:0:0:
448,192,350639,1,0,0:0:0:0:
192,192,350813,128,0,351337:0:0:0:0:
64,192,351337,128,0,351569:0:0:0:0:
448,192,351569,128,0,351976:0:0:0:0:
320,192,351976,128,0,352267:0:0:0:0:
448,192,352267,128,0,352499:0:0:0:0:
192,192,352499,128,0,352732:0:0:0:0:
64,192,352732,128,0,353197:0:0:0:0:
448,192,352732,128,0,354360:0:0:0:0:
192,192,353197,128,0,354360:0:0:0:0:
320,192,354360,128,0,354593:0:0:0:0:
64,192,354360,128,0,354593:0:0:0:0:
448,192,354593,128,0,355058:0:0:0:0:
320,192,355058,128,0,355290:0:0:0:0:
448,192,355290,128,0,356453:0:0:0:0:
64,192,356453,128,0,357848:0:0:0:0:
448,192,358313,1,0,0:0:0:0:
320,192,358546,1,0,0:0:0:0:
448,192,358837,1,0,0:0:0:0:
192,192,359069,1,0,0:0:0:0:
448,192,359244,1,0,0:0:0:0:
64,192,359476,1,0,0:0:0:0:
448,192,359709,1,0,0:0:0:0:
192,192,359941,128,0,360174:0:0:0:0:
320,192,359941,128,0,360174:0:0:0:0:
448,192,360174,128,0,360930:0:0:0:0:
320,192,360930,128,0,361627:0:0:0:0:
192,192,361627,128,0,361802:0:0:0:0:
64,192,361802,128,0,362558:0:0:0:0:
192,192,362558,128,0,362790:0:0:0:0:
320,192,362790,128,0,363488:0:0:0:0:
448,192,363488,128,0,363953:0:0:0:0:
