osu file format v14

[General]
AudioFilename: audio.mp3
AudioLeadIn: 0
PreviewTime: 63393
Countdown: 0
SampleSet: Soft
StackLeniency: 0.7
Mode: 0
LetterboxInBreaks: 0
WidescreenStoryboard: 1

[Editor]
Bookmarks: 18900,29686,40473,56652,64742
DistanceSpacing: 1.3
BeatDivisor: 4
GridSize: 32
TimelineZoom: 2.699999

[Metadata]
Title:Mamama*Magical
TitleUnicode:魔魔魔☆マジカル
Artist:OSTER project feat. Sister MAYO
ArtistUnicode:OSTER project feat. Sister MAYO
Creator:ohm002
Version:OneShotFox's Insane
Source:魔けモン!
Tags:pop japanese Makemon Makemon! ばやちゃお 魔けモン! 春M3 BAYACHAO OneShotFox Wanpachi ケモノ kemono furry jpop j-pop novelty GalenTori Ma * Majikaru tv size
BeatmapID:2889396
BeatmapSetID:1355438

[Difficulty]
HPDrainRate:5
CircleSize:4
OverallDifficulty:8
ApproachRate:9
SliderMultiplier:1.6
SliderTickRate:1

[Events]
//Background and Video events
0,0,"83718042_p0.png",0,0
Video,0,"video.mp4"
//Break Periods
//Storyboard Layer 0 (Background)
//Storyboard Layer 1 (Fail)
//Storyboard Layer 2 (Pass)
//Storyboard Layer 3 (Foreground)
//Storyboard Layer 4 (Overlay)
//Storyboard Sound Samples

[TimingPoints]
23,337.078651685393,4,2,1,50,1,0
45,-100,4,2,1,50,0,0
1371,-125,4,2,1,50,0,0
4573,-125,4,2,1,50,0,0
5416,-111.111111111111,4,2,1,50,0,0
6596,-66.6666666666667,4,2,1,50,0,0
6848,-66.6666666666667,4,2,1,5,0,0
6933,-66.6666666666667,4,2,1,50,0,0
8112,-100,4,2,1,50,0,0
10135,-133.333333333333,4,2,1,50,0,0
10387,-133.333333333333,4,2,1,5,0,0
10472,-100,4,2,1,50,0,0
11735,-100,4,2,1,5,0,0
11820,-100,4,2,1,50,0,0
13506,-90.9090909090909,4,2,1,70,0,0
16117,-90.9090909090909,4,2,1,5,0,0
16202,-90.9090909090909,4,2,1,70,0,0
18225,-71.4285714285714,4,2,1,70,0,0
18478,-100,4,2,1,5,0,0
18562,-71.4285714285714,4,2,1,70,0,0
18899,-111.111111111111,4,2,1,50,0,0
21090,-83.3333333333333,4,2,1,50,0,0
21342,-83.3333333333333,4,2,1,5,0,0
21427,-83.3333333333333,4,2,1,50,0,0
23449,-100,4,2,1,50,0,0
27241,-100,4,2,1,5,0,0
27326,-100,4,2,1,50,0,0
29685,-90.9090909090909,4,2,1,60,0,0
34488,-90.9090909090909,4,2,1,5,0,0
34573,-90.9090909090909,4,2,1,60,0,0
36090,-90.9090909090909,4,2,1,60,0,0
39207,-90.9090909090909,4,2,1,5,0,0
39292,-90.9090909090909,4,2,1,60,0,0
40472,-111.111111111111,4,2,1,50,0,0
41315,-125,4,2,1,50,0,0
42072,-125,4,2,1,5,0,0
42157,-125,4,2,1,50,0,0
43000,-125,4,2,1,50,0,0
43169,-111.111111111111,4,2,1,50,0,0
43674,-125,4,2,1,50,0,0
55809,-125,4,2,1,50,0,0
56652,-133.333333333333,4,2,1,70,0,0
59011,-83.3333333333333,4,2,1,70,0,0
59600,-83.3333333333333,4,2,1,5,0,0
59685,-133.333333333333,4,2,1,70,0,0
59854,-83.3333333333333,4,2,1,70,0,0
60106,-83.3333333333333,4,2,1,5,0,0
60191,-111.111111111111,4,2,1,70,0,0
60528,-66.6666666666667,4,2,1,70,0,0
60780,-66.6666666666667,4,2,1,5,0,0
60865,-66.6666666666667,4,2,1,70,0,0
61117,-66.6666666666667,4,2,1,5,0,0
61202,-66.6666666666667,4,2,1,70,0,0
62214,-66.6666666666667,4,2,1,50,0,0
62383,-66.6666666666667,4,2,1,60,0,0
62551,-66.6666666666667,4,2,1,65,0,0
62720,-66.6666666666667,4,2,1,70,0,0
62888,-66.6666666666667,4,2,1,75,0,0
63057,-66.6666666666667,4,2,1,80,0,0
63225,-66.6666666666667,4,2,1,85,0,0
63394,-66.6666666666667,4,2,1,80,0,0
64742,-76.9230769230769,4,2,1,80,0,1
69039,-76.9230769230769,4,2,1,5,0,1
69124,-76.9230769230769,4,2,1,80,0,1
74854,-100,4,2,1,80,0,1
75528,-76.9230769230769,4,2,1,80,0,1
81510,-76.9230769230769,4,2,1,5,0,1
81596,-76.9230769230769,4,2,1,80,0,1
86315,-125,4,2,1,70,0,0
88506,-125,4,2,1,70,0,0

[Colours]
Combo1 : 79,149,255
Combo2 : 255,185,89
Combo3 : 230,230,230
Combo4 : 245,82,106

[HitObjects]
482,357,864,5,2,0:2:0:0:
482,357,1033,1,2,0:2:0:0:
482,357,1202,1,2,0:2:0:0:
342,328,1371,6,0,L|335:248,1,64,2|2,3:2|0:2,0:0:0:0:
278,188,1708,1,2,0:2:0:0:
209,263,1876,2,0,P|176:265|142:256,1,64,2|0,3:2|3:2,0:0:0:0:
15,134,2214,5,2,0:2:0:0:
49,204,2382,1,2,0:2:0:0:
122,157,2551,1,2,0:2:0:0:
86,58,2719,2,0,P|54:36|28:29,1,64,2|2,3:2|0:2,0:0:0:0:
150,0,3056,1,2,0:2:0:0:
211,49,3225,2,0,L|199:117,1,64,2|0,3:2|3:2,0:0:0:0:
236,186,3562,1,2,0:2:0:0:
302,134,3730,2,0,P|331:128|374:141,1,64,2|2,0:2|0:2,0:0:0:0:
446,180,4067,6,0,L|465:45,1,128,2|0,3:2|0:0,0:0:0:0:
389,22,4573,1,2,3:2:0:0:
502,68,4742,2,0,L|492:138,1,64,2|2,3:2|0:2,0:0:0:0:
502,251,5079,2,0,P|462:261|420:257,1,64,2|2,0:2|0:2,0:0:0:0:
293,207,5416,2,0,P|329:231|313:337,1,143.999995605469,2|2,3:2|0:2,0:0:0:0:
234,351,5921,2,0,P|183:301|199:232,1,143.999995605469,2|0,3:2|0:0,0:0:0:0:
292,96,6596,6,0,B|236:68|194:87|204:111|175:148|97:114,1,180.000006866455,4|0,3:2|0:0,0:0:0:0:
97,121,6933,1,4,3:2:0:0:
126,24,7101,1,4,3:2:0:0:
254,177,7270,1,4,3:2:0:0:
141,294,7607,5,8,0:2:0:0:
161,323,7692,1,8,0:0:0:0:
190,343,7776,1,8,0:2:0:0:
224,352,7860,1,8,0:2:0:0:
259,353,7944,1,8,0:2:0:0:
295,350,8029,1,8,0:2:0:0:
327,333,8112,6,0,P|353:304|375:251,1,80,6|2,3:2|0:2,0:0:0:0:
334,91,8449,2,0,P|346:128|380:173,1,80,2|2,0:2|0:2,0:0:0:0:
473,224,8787,1,2,0:2:0:0:
473,224,8955,1,2,0:2:0:0:
505,102,9124,1,2,0:2:0:0:
505,102,9292,1,2,0:2:0:0:
425,3,9461,6,0,B|397:-5|397:-5|323:11,1,80,2|2,0:2|0:2,0:0:0:0:
263,84,9798,1,2,0:2:0:0:
124,33,9966,5,2,0:2:0:0:
124,33,10051,1,2,0:2:0:0:
124,33,10135,2,0,L|133:137,1,90.0000034332277,2|0,0:2|0:0,0:0:0:0:
112,147,10472,1,2,0:2:0:0:
39,209,10640,1,2,0:2:0:0:
110,277,10809,2,0,L|193:247,1,80,2|2,0:2|0:2,0:0:0:0:
286,286,11146,1,2,0:2:0:0:
392,228,11315,5,2,0:2:0:0:
392,228,11399,1,2,0:2:0:0:
392,228,11483,2,0,P|413:268|396:372,1,120,2|0,0:2|0:0,0:0:0:0:
391,364,11820,1,2,0:2:0:0:
497,332,11989,1,2,0:2:0:0:
512,233,12157,2,0,L|502:136,1,80,2|2,0:2|0:2,0:0:0:0:
442,67,12494,1,2,0:2:0:0:
344,145,12663,5,2,0:2:0:0:
344,145,12747,1,2,0:2:0:0:
344,145,12831,2,0,P|281:131|244:100,1,80,2|2,0:2|0:2,0:0:0:0:
131,20,13169,2,0,P|173:68|184:101,1,80,2|2,0:2|0:2,0:0:0:0:
43,189,13506,6,0,P|41:132|68:95,1,88.000002685547,6|2,3:2|0:2,0:0:0:0:
78,95,13758,1,0,0:0:0:0:
78,95,13843,1,10,0:2:0:0:
168,181,14011,1,2,0:2:0:0:
134,297,14180,6,0,L|43:287,1,88.000002685547,2|2,3:2|0:2,0:0:0:0:
18,281,14433,1,0,0:0:0:0:
18,281,14517,1,10,0:2:0:0:
54,382,14685,1,2,0:2:0:0:
213,363,14854,6,0,P|230:308|266:295,1,88.000002685547,2|2,3:2|0:2,0:0:0:0:
346,371,15191,1,10,0:2:0:0:
441,303,15360,1,2,0:2:0:0:
441,303,15444,1,2,0:2:0:0:
441,303,15528,2,0,L|451:191,1,88.000002685547,2|0,3:2|0:0,0:0:0:0:
343,95,15865,2,0,B|377:117|377:117|481:100,1,132.00000402832,10|0,0:2|0:0,0:0:0:0:
490,90,16202,6,0,B|521:156|489:215|489:215|477:179|453:164,1,176.000005371094,2|10,3:2|0:2,0:0:0:0:
379,178,16708,1,2,0:2:0:0:
274,164,16877,1,2,3:2:0:0:
307,333,17046,1,2,0:2:0:0:
399,281,17214,1,10,0:2:0:0:
229,260,17382,1,2,0:2:0:0:
71,362,17551,6,0,L|-16:382,2,58.6666684570313,2|2|2,3:2|3:2|3:2,0:0:0:0:
161,382,17888,1,2,3:2:0:0:
233,343,18000,1,2,3:2:0:0:
213,267,18112,1,2,3:2:0:0:
142,230,18225,6,0,B|156:109|156:109|161:142|181:164,1,167.999994873047,6|0,3:2|0:0,0:0:0:0:
247,188,18562,2,0,B|291:182|313:143|313:143|341:177|390:176,1,167.999994873047,6|0,3:2|0:0,0:0:0:0:
374,88,18899,5,6,3:2:0:0:
374,88,19236,2,0,P|303:61|239:108,1,143.999995605469,8|0,0:1|0:0,0:0:0:0:
111,172,19910,5,8,0:1:0:0:
30,136,20079,1,0,0:0:0:0:
72,58,20247,1,0,0:0:0:0:
49,29,20584,1,8,0:1:0:0:
46,160,20753,1,0,0:0:0:0:
202,23,21090,6,0,B|237:0|237:0|342:23,1,143.999995605469,6|0,3:2|0:0,0:0:0:0:
351,47,21427,1,6,3:2:0:0:
512,2,21596,5,6,3:2:0:0:
512,2,21933,1,8,0:1:0:0:
512,2,22270,1,2,0:2:0:0:
473,182,22438,5,2,3:2:0:0:
409,119,22607,1,2,3:2:0:0:
271,181,22775,2,0,L|162:164,1,95.9999970703126,6|2,3:2|0:2,0:0:0:0:
250,209,23112,2,0,L|141:192,1,95.9999970703126,6|2,3:2|0:2,0:0:0:0:
10,209,23449,6,0,B|0:181|0:181|19:119,1,80,2|0,0:2|0:0,0:0:0:0:
99,52,23787,1,6,3:2:0:0:
99,52,23871,1,0,0:0:0:0:
99,52,23955,2,0,L|106:4,3,40,0|0|2|0,0:0|0:0|0:2|0:0,0:0:0:0:
112,83,24292,5,6,3:2:0:0:
278,38,24461,1,6,3:2:0:0:
366,251,24798,2,0,B|371:232|350:209|350:209|311:257|271:261|227:251,1,160,6|0,3:2|3:2,0:0:0:0:
219,347,25303,2,0,B|235:364|258:366|258:366|276:353|309:358,1,80,8|0,0:2|3:2,0:0:0:0:
426,384,25640,5,6,3:2:0:0:
426,384,25808,1,6,3:2:0:0:
512,253,26146,1,6,3:2:0:0:
408,68,26483,2,0,B|391:59|386:35|386:35|390:58|381:80,1,80,6|8,3:2|0:2,0:0:0:0:
336,161,26820,1,6,3:2:0:0:
212,43,26989,6,0,P|216:135|208:181,1,120,6|0,3:2|0:0,0:0:0:0:
199,197,27326,1,2,1:2:0:0:
177,207,27410,1,0,1:2:0:0:
153,212,27494,1,2,1:2:0:0:
128,210,27579,1,0,1:2:0:0:
106,200,27663,2,0,P|91:224|85:243,3,40,0|0|2|0,1:2|1:2|1:2|1:2,0:0:0:0:
54,128,28000,2,0,L|44:72,1,40,0|0,1:2|1:2,0:0:0:0:
149,39,28169,6,0,B|224:11|233:100|309:71,2,160,6|6|6,3:2|3:2|3:2,0:0:0:0:
176,113,29011,1,8,0:2:0:0:
282,1,29181,1,2,3:2:0:0:
426,73,29348,5,8,0:2:0:0:
424,97,29433,1,0,0:0:0:0:
422,120,29517,1,8,0:2:0:0:
420,143,29601,1,8,0:2:0:0:
418,166,29685,6,0,L|409:265,1,88.000002685547,6|0,3:2|0:0,0:0:0:0:
366,365,30022,1,10,3:2:0:0:
290,284,30191,1,0,0:0:0:0:
202,360,30360,2,0,P|159:376|102:371,1,88.000002685547,2|2,3:2|0:2,0:0:0:0:
9,257,30697,2,0,P|52:241|109:246,1,88.000002685547,10|2,3:2|0:2,0:0:0:0:
225,230,31034,5,2,3:2:0:0:
253,101,31202,1,2,0:2:0:0:
122,226,31371,1,10,3:2:0:0:
96,81,31539,6,0,P|45:60|18:151,1,176.000005371094,2|10,0:2|0:2,0:0:0:0:
122,226,32045,1,10,3:2:0:0:
210,107,32214,1,8,0:2:0:0:
233,95,32298,1,8,0:2:0:0:
258,87,32382,2,0,P|302:72|354:76,1,88.000002685547,2|2,3:2|0:2,0:0:0:0:
480,146,32719,2,0,L|472:46,1,88.000002685547,10|2,3:2|0:2,0:0:0:0:
392,150,33056,5,2,3:2:0:0:
442,243,33225,1,2,0:2:0:0:
378,322,33393,1,10,3:2:0:0:
378,322,33562,2,0,P|328:325|272:308,1,88.000002685547,2|0,0:2|3:2,0:0:0:0:
195,225,33899,1,2,0:2:0:0:
143,335,34067,1,10,3:2:0:0:
288,293,34236,6,0,L|298:177,1,88.000002685547,10|0,3:2|3:0,0:0:0:0:
330,95,34573,1,10,0:2:0:0:
330,95,34657,1,8,0:2:0:0:
330,95,34742,2,0,L|379:103,3,44.0000013427735,8|8|8|8,0:2|0:2|0:2|0:2,0:0:0:0:
212,16,35079,5,12,0:2:0:0:
203,156,35247,2,0,L|100:178,1,88.000002685547,2|8,0:2|3:2,0:0:0:0:
4,33,35584,2,0,P|57:26|14:112,1,176.000005371094,2|0,0:2|0:0,0:0:0:0:
0,219,36090,1,8,3:2:0:0:
67,291,36258,1,0,0:0:0:0:
174,273,36427,6,0,P|219:254|266:253,1,88.000002685547,2|2,3:2|0:2,0:0:0:0:
328,333,36764,1,8,3:2:0:0:
410,267,36933,2,0,L|421:141,1,88.000002685547,2|0,0:2|3:2,0:0:0:0:
328,119,37270,2,0,L|317:-7,1,88.000002685547,2|8,0:2|3:2,0:0:0:0:
506,43,37607,5,2,0:2:0:0:
506,43,37692,1,0,0:2:0:0:
506,43,37775,2,0,P|463:34|404:46,1,88.000002685547,2|0,3:2|0:0,0:0:0:0:
328,119,38112,2,0,P|294:106|265:46,1,88.000002685547,10|0,3:2|0:0,0:0:0:0:
472,144,38449,2,0,B|484:160|484:160|464:239,1,88.000002685547,2|8,3:2|0:2,0:0:0:0:
379,330,38787,1,8,3:2:0:0:
219,229,38955,6,0,P|164:231|194:310,1,132.00000402832,4|0,3:2|0:0,0:0:0:0:
196,316,39292,2,0,L|249:306,1,44.0000013427735,0|0,3:2|0:2,0:2:0:0:
314,376,39461,2,0,L|270:384,1,44.0000013427735,8|0,0:2|0:2,0:2:0:0:
74,361,39629,2,0,L|81:310,3,44.0000013427735,8|8|0|0,0:2|0:2|3:2|0:0,0:0:0:0:
30,241,39966,1,8,3:2:0:0:
23,210,40051,1,8,3:2:0:0:
25,179,40135,1,8,3:2:0:0:
38,151,40219,1,8,3:2:0:0:
62,131,40303,2,0,P|96:114|114:114,1,44.0000013427735,8|0,3:2|0:0,0:0:0:0:
254,44,40472,6,0,B|297:79|276:161|234:129|222:194|256:266,1,215.999993408203,0|0,3:2|3:2,0:0:0:0:
323,198,41146,1,8,3:2:0:0:
323,198,41315,2,0,L|387:190,1,64,0|0,0:0|0:2,0:0:0:0:
455,141,41652,1,0,0:0:0:0:
475,346,41820,2,0,P|432:328|387:343,1,96,0|0,3:2|0:0,0:0:0:0:
366,361,42157,1,0,0:0:0:0:
229,325,42326,1,0,3:2:0:0:
229,325,42663,2,0,L|215:170,1,128
106,301,43169,6,0,B|4:338|4:338|22:320|25:290,1,143.999995605469,0|0,3:2|0:0,0:0:0:0:
69,222,43674,2,0,L|75:143,1,64,0|8,3:2|3:2,0:0:0:0:
50,65,44011,2,0,P|86:76|116:67,1,64,0|0,0:0|0:2,0:0:0:0:
239,22,44348,2,0,P|253:69|350:85,1,128
472,17,45022,5,0,3:2:0:0:
485,95,45191,1,8,3:2:0:0:
409,72,45360,2,0,P|380:50|370:22,1,64,0|0,0:0|0:2,0:0:0:0:
310,211,45865,5,0,3:2:0:0:
380,258,46034,2,0,L|460:247,1,64
480,173,46371,1,0,3:2:0:0:
509,304,46539,1,8,3:2:0:0:
371,128,46708,2,0,P|293:87|259:119,1,128
193,176,47214,6,0,P|152:179|121:145,1,64,0|0,3:2|0:0,0:0:0:0:
98,54,47551,1,0,0:0:0:0:
12,145,47719,2,0,L|16:223,1,64,0|8,3:2|3:2,0:0:0:0:
85,259,48056,2,0,L|81:337,1,64,0|0,0:0|0:2,0:0:0:0:
3,384,48393,1,0,0:0:0:0:
175,362,48562,5,0,3:2:0:0:
280,179,49067,1,0,3:2:0:0:
280,179,49236,2,0,B|315:206|358:175|342:155|374:121|427:121|427:121|468:164|445:213,1,256,0|0,3:2|3:2,0:0:0:0:
328,337,50247,5,0,0:0:0:0:
328,337,50584,2,0,P|287:331|256:348,1,64,0|0,3:2|0:0,0:0:0:0:
193,287,50921,2,0,P|214:250|216:220,1,64,8|0,0:2|0:0,0:0:0:0:
286,151,51258,6,0,P|329:173|416:69,1,192,4|0,3:2|3:2,0:0:0:0:
337,90,51933,1,8,3:2:0:0:
337,90,52101,2,0,L|285:38,1,64,0|0,0:0|0:2,0:0:0:0:
189,15,52438,1,0,0:0:0:0:
123,118,52607,2,0,P|164:125|194:118,1,64,0|0,3:2|0:0,0:0:0:0:
41,44,52944,1,0,0:0:0:0:
33,151,53112,6,0,L|25:237,1,64,0|8,3:2|3:2,0:0:0:0:
60,313,53449,2,0,B|89:334|89:334|186:313,1,128
264,187,53955,2,0,L|256:269,1,64,0|0,3:2|0:0,0:0:0:0:
284,338,54292,1,0,0:0:0:0:
364,291,54461,2,0,P|409:283|449:291,1,64,0|8,3:2|3:2,0:0:0:0:
510,370,54798,2,0,P|465:378|425:370,1,64,0|0,0:0|0:2,0:0:0:0:
364,291,55135,2,0,B|348:226|348:226|372:150,1,128
472,17,55809,5,0,3:2:0:0:
485,95,55977,1,8,3:2:0:0:
408,71,56146,2,0,P|383:53|370:25,1,64,0|0,0:0|0:2,0:0:0:0:
192,316,56652,5,4,3:2:0:0:
211,234,56820,1,2,0:0:0:0:
278,332,56989,1,2,0:0:0:0:
297,250,57157,1,2,0:0:0:0:
369,348,57326,1,2,0:0:0:0:
388,266,57494,1,2,0:0:0:0:
146,152,58000,5,6,3:2:0:0:
72,128,58169,1,2,0:0:0:0:
72,51,58337,1,2,0:0:0:0:
146,27,58506,1,2,0:0:0:0:
191,89,58674,1,2,0:0:0:0:
261,119,58843,1,2,0:0:0:0:
319,68,59011,2,0,B|335:62|347:48|347:48|365:83|411:103,1,95.9999970703126,2|0,0:0|0:0,0:0:0:0:
462,257,59348,6,0,B|419:222|358:227|358:227|332:255,1,143.999995605469,6|0,3:2|0:0,0:0:0:0:
298,343,59685,2,0,P|273:339|247:324,1,30.0000011444092,2|0,0:0|0:0,0:0:0:0:
162,230,59854,6,0,P|180:264|94:334,1,143.999995605469,6|0,3:2|0:0,0:0:0:0:
57,243,60191,2,0,B|45:228|23:229|23:229|18:253|32:259,1,71.9999978027344,6|0,3:2|0:0,0:0:0:0:
110,132,60528,6,0,B|98:4|98:4|112:38|141:48,1,180.000006866455,6|0,3:2|0:0,0:0:0:0:
216,52,60865,2,0,B|281:57|301:17|301:17|330:48|411:36,1,180.000006866455,6|0,3:2|0:0,0:0:0:0:
467,108,61202,1,6,3:2:0:0:
256,192,61287,12,4,63393,3:2:0:0:
263,263,63562,5,2,0:2:0:0:
238,257,63730,1,2,0:2:0:0:
293,220,63899,1,2,0:2:0:0:
217,187,64067,1,2,0:2:0:0:
343,139,64236,1,2,0:2:0:0:
202,102,64405,1,2,0:2:0:0:
426,73,64573,1,2,0:2:0:0:
168,0,64742,6,0,P|98:6|45:46,1,103.999995239258,6|2,3:2|0:2,0:0:0:0:
47,195,65079,1,10,0:2:0:0:
133,84,65247,2,0,P|192:74|266:114,1,103.999995239258,2|0,0:2|3:2,0:0:0:0:
312,161,65584,1,2,0:2:0:0:
402,103,65753,2,0,L|397:-9,1,103.999995239258,10|2,0:2|0:2,0:0:0:0:
312,59,66090,5,2,3:2:0:0:
486,39,66258,1,2,0:2:0:0:
312,161,66427,1,10,0:2:0:0:
493,156,66596,2,0,P|494:207|478:256,1,103.999995239258,2|0,0:2|3:2,0:0:0:0:
314,350,66933,1,2,0:2:0:0:
383,240,67101,1,10,0:2:0:0:
432,363,67270,1,2,0:2:0:0:
269,267,67438,6,0,B|214:235|154:268|181:295|136:320|65:297,1,207.999990478516,2|8,3:2|0:2,0:0:0:0:
109,227,67944,1,2,0:2:0:0:
230,330,68112,2,0,P|285:337|343:298,1,103.999995239258,2|2,3:2|0:2,0:0:0:0:
379,167,68449,1,10,0:2:0:0:
346,284,68618,1,2,0:2:0:0:
243,149,68787,2,0,B|206:136|189:102|189:102|131:108|101:156,1,155.999992858887,2|0,3:2|0:0,0:0:0:0:
89,161,69124,1,10,0:2:0:0:
15,83,69292,2,0,B|2:39|20:-4|20:-4|56:9,1,103.999995239258,2|0,0:2|3:2,0:0:0:0:
160,30,69629,5,10,0:2:0:0:
275,7,69798,1,10,0:2:0:0:
445,54,69966,1,10,0:2:0:0:
292,200,70135,6,0,L|280:89,1,103.999995239258,6|2,3:2|0:2,0:0:0:0:
401,173,70472,1,10,0:2:0:0:
347,291,70640,2,0,P|296:279|249:298,1,103.999995239258,2|0,0:2|3:2,0:0:0:0:
140,360,70978,1,2,0:2:0:0:
112,223,71147,1,10,0:2:0:0:
37,330,71315,1,2,0:2:0:0:
181,288,71483,6,0,L|200:167,1,103.999995239258,2|2,3:2|0:2,0:0:0:0:
59,36,71820,1,10,0:2:0:0:
89,116,71989,2,0,B|119:119|119:119|196:68,1,103.999995239258,2|0,0:2|3:2,0:0:0:0:
251,15,72326,5,2,0:2:0:0:
310,77,72494,1,10,0:2:0:0:
382,30,72663,1,2,0:2:0:0:
450,93,72831,2,0,L|436:210,1,103.999995239258,2|2,3:2|0:2,0:0:0:0:
302,276,73169,2,0,L|314:172,1,103.999995239258,8|2,0:2|0:2,0:0:0:0:
404,371,73506,1,2,3:2:0:0:
404,371,73674,1,2,0:2:0:0:
499,281,73843,1,10,0:2:0:0:
499,281,74011,1,2,0:2:0:0:
337,127,74180,5,12,0:2:0:0:
383,262,74348,1,0,3:2:0:0:
261,222,74517,1,12,0:2:0:0:
467,158,74685,1,0,3:2:0:0:
425,343,74854,6,0,L|420:389,3,40,12|0|0|0,3:2|1:2|1:2|1:2,1:2:0:0:
331,315,75191,1,0,1:2:0:0:
291,315,75275,1,0,1:2:0:0:
252,328,75360,1,0,1:2:0:0:
225,357,75444,1,0,1:2:0:0:
219,384,75528,6,0,P|162:362|152:321,1,103.999995239258,6|2,3:2|0:2,0:0:0:0:
168,232,75865,1,10,0:2:0:0:
0,260,76034,2,0,P|36:288|91:277,1,103.999995239258,2|0,0:2|3:2,0:0:0:0:
97,144,76371,1,2,0:2:0:0:
9,106,76539,2,0,B|-1:-3,1,103.999995239258,10|2,0:2|0:2,0:0:0:0:
130,22,76876,5,2,3:2:0:0:
97,144,77045,1,2,0:2:0:0:
220,71,77214,1,10,0:2:0:0:
246,196,77382,2,0,P|296:215|353:203,1,103.999995239258,2|0,0:2|3:2,0:0:0:0:
410,67,77719,1,2,0:2:0:0:
366,186,77888,1,10,0:2:0:0:
487,145,78056,1,2,0:2:0:0:
306,93,78225,6,0,B|231:87|231:87|178:132|178:132|100:126,1,207.999990478516,2|8,3:2|0:2,0:0:0:0:
83,43,78730,1,2,0:2:0:0:
29,186,78899,1,2,3:2:0:0:
16,94,79067,1,2,0:2:0:0:
104,226,79236,2,0,P|132:278|148:333,1,103.999995239258,10|2,0:2|0:2,0:0:0:0:
265,363,79573,5,2,3:2:0:0:
287,248,79742,1,2,0:2:0:0:
362,313,79910,1,10,0:2:0:0:
401,325,79994,1,2,0:0:0:0:
441,319,80079,1,2,0:2:0:0:
475,301,80163,1,2,0:0:0:0:
496,265,80247,2,0,P|509:207|504:157,1,103.999995239258,0|10,3:2|0:2,0:0:0:0:
446,67,80584,1,10,0:2:0:0:
386,143,80753,1,10,0:2:0:0:
268,41,80921,6,0,B|293:88|293:88|276:147,1,103.999995239258,6|2,3:2|0:2,0:0:0:0:
107,68,81258,2,0,P|170:87|121:169,1,155.999992858887,14|0,0:2|0:0,0:0:0:0:
126,179,81596,2,0,P|188:167|231:203,1,103.999995239258,6|0,3:2|0:0,0:0:0:0:
356,288,81933,2,0,L|346:147,1,103.999995239258,10|0,0:2|3:2,0:0:0:0:
371,41,82270,5,2,3:2:0:0:
482,132,82438,1,2,3:2:0:0:
348,173,82607,1,10,0:2:0:0:
230,72,82775,2,0,L|92:42,1,103.999995239258,14|0,3:2|3:2,0:0:0:0:
17,219,83112,5,10,3:2:0:0:
52,241,83197,1,8,0:2:0:0:
93,240,83281,1,8,0:2:0:0:
125,214,83365,1,8,0:2:0:0:
164,201,83449,1,8,0:2:0:0:
204,209,83534,1,8,0:2:0:0:
229,241,83618,6,0,L|220:300,3,51.999997619629,6|0|2|0,3:2|3:0|3:2|3:0,3:0:0:0:
324,189,83955,2,0,L|316:137,3,51.999997619629,2|0|2|0,1:2|1:0|1:2|1:0,1:0:0:0:
431,260,84292,2,0,L|438:185,1,51.999997619629,2|0,3:2|3:0,3:0:0:0:
485,151,84461,2,0,L|478:76,1,51.999997619629,2|0,3:2|3:0,3:0:0:0:
432,42,84629,2,0,L|357:49,1,51.999997619629,2|0,1:2|1:0,1:0:0:0:
333,113,84798,2,0,L|258:106,1,51.999997619629,2|0,3:2|3:0,3:0:0:0:
125,73,84966,5,14,0:2:0:0:
159,243,85135,1,14,0:2:0:0:
45,172,85303,1,14,0:2:0:0:
225,29,85472,1,14,0:2:0:0:
225,29,85809,5,10,0:2:0:0:
194,161,85978,1,10,0:2:0:0:
341,189,86146,1,2,3:2:0:0:
365,39,86315,6,0,B|423:-15|479:36|479:36|511:75|505:128|460:110|452:170|480:237,1,320,6|0,3:2|0:0,0:0:0:0:
488,324,87326,1,8,0:2:0:0:
488,324,87663,2,0,B|379:221|331:382|234:321,1,256,0|0,3:2|0:0,0:0:0:0:
197,225,88506,1,0,3:2:0:0:
280,254,88674,2,0,P|295:218|295:178,1,64,8|0,0:2|3:2,0:0:0:0:
181,39,89011,5,6,3:2:0:0:
106,283,89348,1,6,3:2:0:0:
181,39,89685,1,6,3:2:0:0:
403,145,90022,1,6,3:2:0:0:
90,164,90527,5,4,3:2:0:0:
320,103,90696,1,4,3:2:0:0:
160,257,90865,1,4,3:2:0:0:
181,47,91034,1,4,3:2:0:0:
