osu file format v14

[General]
AudioFilename: audio.mp3
AudioLeadIn: 0
PreviewTime: 63393
Countdown: 0
SampleSet: Soft
StackLeniency: 0.7
Mode: 0
LetterboxInBreaks: 0
WidescreenStoryboard: 0

[Editor]
Bookmarks: 18900,29686,40473,56652,64742
DistanceSpacing: 1.3
BeatDivisor: 2
GridSize: 16
TimelineZoom: 1.8

[Metadata]
Title:Mamama*Magical
TitleUnicode:魔魔魔☆マジカル
Artist:OSTER project feat. Sister MAYO
ArtistUnicode:OSTER project feat. Sister MAYO
Creator:ohm002
Version:A World Full of Magic and Miracle!
Source:魔けモン!
Tags:pop japanese Makemon Makemon! ばやちゃお 魔けモン! 春M3 BAYACHAO OneShotFox Wanpachi ケモノ kemono furry jpop j-pop novelty GalenTori Ma * Majikaru tv size
BeatmapID:2805356
BeatmapSetID:1355438

[Difficulty]
HPDrainRate:6
CircleSize:4
OverallDifficulty:8.5
ApproachRate:9.2
SliderMultiplier:2
SliderTickRate:1

[Events]
//Background and Video events
Video,0,"video.mp4"
0,0,"83718042_p0.png",0,0
//Break Periods
//Storyboard Layer 0 (Background)
//Storyboard Layer 1 (Fail)
//Storyboard Layer 2 (Pass)
//Storyboard Layer 3 (Foreground)
//Storyboard Layer 4 (Overlay)
//Storyboard Sound Samples

[TimingPoints]
23,337.078651685393,4,2,1,50,1,0
45,-100,4,2,1,50,0,0
1372,-133.333333333333,4,2,1,50,0,0
2972,-133.333333333333,4,2,1,5,0,0
3057,-133.333333333333,4,2,1,50,0,0
4574,-133.333333333333,4,2,1,50,0,0
5668,-133.333333333333,4,2,1,5,0,0
5754,-133.333333333333,4,2,1,50,0,0
13506,-133.333333333333,4,2,1,70,0,0
18477,-133.333333333333,4,2,1,5,0,0
18563,-133.333333333333,4,2,1,70,0,0
18815,-133.333333333333,4,2,1,5,0,0
18900,-133.333333333333,4,2,1,50,0,0
21343,-133.333333333333,4,2,1,5,0,0
21428,-133.333333333333,4,2,1,50,0,0
21512,-133.333333333333,4,2,1,5,0,0
21596,-133.333333333333,4,2,1,50,0,0
22523,-133.333333333333,4,2,1,5,0,0
22608,-133.333333333333,4,2,1,50,0,0
22692,-133.333333333333,4,2,1,5,0,0
22776,-133.333333333333,4,2,1,50,0,0
24039,-133.333333333333,4,2,1,5,0,0
24124,-133.333333333333,4,2,1,50,0,0
25050,-133.333333333333,4,2,1,5,0,0
25136,-133.333333333333,4,2,1,50,0,0
26399,-133.333333333333,4,2,1,5,0,0
26484,-133.333333333333,4,2,1,50,0,0
29686,-133.333333333333,4,2,1,60,0,0
29938,-133.333333333333,4,2,1,5,0,0
30023,-133.333333333333,4,2,1,60,0,0
38028,-133.333333333333,4,2,1,5,0,0
38113,-133.333333333333,4,2,1,60,0,0
40473,-181.818181818181,4,2,1,50,0,0
51259,-133.333333333333,4,2,1,50,0,0
52859,-133.333333333333,4,2,1,5,0,0
52945,-133.333333333333,4,2,1,50,0,0
54208,-133.333333333333,4,2,1,5,0,0
54293,-133.333333333333,4,2,1,50,0,0
55556,-133.333333333333,4,2,1,5,0,0
55641,-133.333333333333,4,2,1,50,0,0
56652,-133.333333333333,4,2,1,70,0,0
59349,-100,4,2,1,70,0,0
59601,-100,4,2,1,5,0,0
59686,-100,4,2,1,70,0,0
59854,-100,4,2,1,70,0,0
60107,-66.6666666666667,4,2,1,5,0,0
60191,-133.333333333333,4,2,1,70,0,0
60528,-133.333333333333,4,2,1,70,0,0
60781,-66.6666666666667,4,2,1,5,0,0
60865,-66.6666666666667,4,2,1,70,0,0
61118,-66.6666666666667,4,2,1,5,0,0
61202,-100,4,2,1,70,0,0
61455,-66.6666666666667,4,2,1,5,0,0
61539,-133.333333333333,4,2,1,70,0,0
62214,-100,4,2,1,50,0,0
62298,-100,4,2,1,5,0,0
62383,-100,4,2,1,60,0,0
62467,-100,4,2,1,5,0,0
62551,-100,4,2,1,65,0,0
62635,-100,4,2,1,5,0,0
62720,-100,4,2,1,70,0,0
62888,-100,4,2,1,75,0,0
63057,-100,4,2,1,80,0,0
63225,-100,4,2,1,85,0,0
63394,-100,4,2,1,80,0,0
63563,-100,4,2,1,80,0,0
63647,-100,4,2,1,5,0,0
63731,-111.111111111111,4,2,1,80,0,0
63815,-111.111111111111,4,2,1,5,0,0
63900,-125,4,2,1,80,0,0
63984,-125,4,2,1,5,0,0
64068,-142.857142857143,4,2,1,80,0,0
64152,-142.857142857143,4,2,1,5,0,0
64237,-166.666666666667,4,2,1,80,0,0
64321,-166.666666666667,4,2,1,5,0,0
64405,-200,4,2,1,80,0,0
64489,-200,4,2,1,5,0,0
64574,-250,4,2,1,80,0,0
64658,-250,4,2,1,5,0,0
64742,-100,4,2,1,80,0,1
65500,-100,4,2,1,5,0,1
65585,-100,4,2,1,80,0,1
66848,-100,4,2,1,5,0,1
66933,-100,4,2,1,80,0,1
67691,-100,4,2,1,5,0,1
67776,-100,4,2,1,80,0,1
70893,-100,4,2,1,5,0,1
70978,-100,4,2,1,80,0,1
72241,-100,4,2,1,5,0,1
72327,-100,4,2,1,80,0,1
76286,-100,4,2,1,5,0,1
76371,-100,4,2,1,80,0,1
77635,-100,4,2,1,5,0,1
77720,-100,4,2,1,80,0,1
78477,-100,4,2,1,5,0,1
78563,-100,4,2,1,80,0,1
81511,-100,4,2,1,5,0,1
81596,-100,4,2,1,80,0,1
86315,-133.333333333333,4,2,1,70,0,0
89011,-100,4,2,1,70,0,0
89264,-100,4,2,1,5,0,0
89348,-66.6666666666667,4,2,1,70,0,0
89600,-66.6666666666667,4,2,1,5,0,0
89685,-133.333333333333,4,2,1,70,0,0
89938,-133.333333333333,4,2,1,5,0,0
90022,-66.6666666666667,4,2,1,70,0,0
90274,-66.6666666666667,4,2,1,5,0,0
90360,-66.6666666666667,4,2,1,70,0,0

[Colours]
Combo1 : 79,149,255
Combo2 : 255,185,89
Combo3 : 230,230,230
Combo4 : 245,82,106

[HitObjects]
182,120,1372,6,0,B|86:102|121:145|22:128,1,150.000005722046,2|2,3:2|0:2,0:0:0:0:
125,28,1877,1,2,3:2:0:0:
192,137,2046,2,0,P|184:174|177:211,1,75.0000028610231,0|2,3:2|0:2,0:0:0:0:
109,40,2383,1,2,0:2:0:0:
198,0,2551,1,2,0:2:0:0:
273,91,2720,2,0,B|336:114|383:58|383:58,1,112.500004291535,2|0,3:2|0:0,0:0:0:0:
383,50,3057,1,2,0:2:0:0:
460,14,3225,1,2,3:2:0:0:
383,49,3394,2,0,P|389:86|397:123,1,75.0000028610231,0|2,3:2|0:2,0:0:0:0:
401,197,3731,1,2,0:2:0:0:
418,277,3900,1,2,0:2:0:0:
360,367,4068,6,0,B|302:317|302:317|233:344,1,150.000005722046,2|0,3:2|0:0,0:0:0:0:
314,228,4574,1,2,3:2:0:0:
234,184,4742,2,0,P|220:218|231:253,1,75.0000028610231,2|2,3:2|0:2,0:0:0:0:
326,222,5079,1,2,0:2:0:0:
317,131,5248,1,2,0:2:0:0:
311,121,5416,2,0,L|322:-7,1,112.500004291535,2|0,3:2|0:0,0:0:0:0:
311,2,5754,1,2,0:2:0:0:
341,212,5922,2,0,B|426:200|399:267|497:243,1,150.000005722046,2|0,3:2|0:0,0:0:0:0:
201,89,6428,5,0,3:0:0:0:
203,99,6512,1,0,3:0:0:0:
203,99,6596,2,0,L|192:227,1,112.500004291535,4|0,3:2|0:0,0:0:0:0:
203,218,6934,1,4,3:2:0:0:
94,265,7102,1,4,3:2:0:0:
92,151,7270,2,0,B|51:127|8:154|8:154,1,75.0000028610231,4|0,3:2|0:0,0:0:0:0:
458,0,7607,5,8,0:2:0:0:
512,75,7776,1,8,0:2:0:0:
509,93,7860,1,8,0:2:0:0:
506,112,7944,1,8,0:2:0:0:
504,130,8028,1,8,0:2:0:0:
480,144,8113,5,6,3:2:0:0:
400,144,8282,1,2,0:2:0:0:
480,224,8450,5,2,0:2:0:0:
400,224,8619,1,2,0:2:0:0:
480,304,8787,5,2,0:2:0:0:
400,304,8956,1,2,0:2:0:0:
480,384,9124,5,2,0:2:0:0:
400,384,9293,1,2,0:2:0:0:
320,384,9461,5,2,0:2:0:0:
240,384,9630,1,2,0:2:0:0:
160,384,9798,5,2,0:2:0:0:
166,307,9967,1,2,0:2:0:0:
166,307,10051,1,2,0:2:0:0:
166,307,10136,1,2,0:2:0:0:
320,304,10473,5,2,0:2:0:0:
400,304,10641,1,2,0:2:0:0:
320,224,10810,5,2,0:2:0:0:
400,224,10978,1,2,0:2:0:0:
320,144,11147,5,2,0:2:0:0:
406,148,11315,1,2,0:2:0:0:
406,148,11400,1,2,0:2:0:0:
406,148,11484,1,2,0:2:0:0:
320,64,11652,1,0,0:0:0:0:
320,64,11820,5,2,0:2:0:0:
400,64,11989,1,2,0:2:0:0:
400,144,12158,5,2,0:2:0:0:
320,144,12327,1,2,0:2:0:0:
400,224,12495,5,2,0:2:0:0:
327,227,12664,1,2,0:2:0:0:
327,227,12748,1,2,0:2:0:0:
327,227,12832,1,2,0:2:0:0:
400,304,13001,1,2,0:2:0:0:
320,304,13169,5,2,0:2:0:0:
400,384,13338,1,2,0:2:0:0:
400,384,13506,6,0,P|351:373|328:345,1,75.0000028610231,6|2,3:2|0:2,0:0:0:0:
283,222,13843,2,0,B|307:252|307:252|299:290,1,75.0000028610231,10|2,0:2|0:2,0:0:0:0:
210,358,14180,2,0,L|128:345,1,75.0000028610231,2|2,3:2|0:2,0:0:0:0:
123,333,14433,1,0,0:0:0:0:
123,333,14518,1,10,0:2:0:0:
213,272,14686,1,2,0:2:0:0:
156,52,14855,5,2,3:2:0:0:
133,146,15023,1,2,0:2:0:0:
133,146,15107,1,2,0:0:0:0:
133,146,15192,1,10,0:2:0:0:
114,241,15360,1,2,0:2:0:0:
114,241,15445,1,2,0:2:0:0:
114,241,15529,2,0,P|57:249|7:258,1,75.0000028610231,2|0,3:2|0:0,0:0:0:0:
251,74,15866,2,0,P|288:79|325:84,1,75.0000028610231,10|2,0:2|0:2,0:0:0:0:
211,254,16203,5,2,3:2:0:0:
70,97,16371,1,2,0:2:0:0:
250,170,16540,1,10,0:2:0:0:
73,330,16709,1,2,0:2:0:0:
73,330,16793,1,2,0:2:0:0:
73,330,16876,6,0,L|69:292,1,37.5000014305115,2|0,3:2|0:0,0:0:0:0:
250,170,17045,2,0,L|253:132,1,37.5000014305115,2|0,0:2|0:0,0:0:0:0:
70,97,17214,5,10,0:2:0:0:
285,273,17383,1,2,0:2:0:0:
215,378,17551,6,0,P|195:362|185:339,1,50.0000019073487,2|2,3:2|3:2,0:0:0:0:
204,260,17775,1,2,3:2:0:0:
112,328,17888,6,0,P|116:303|130:283,1,50.0000019073487,2|2,3:2|3:2,0:0:0:0:
204,260,18112,1,2,3:2:0:0:
285,273,18225,6,0,B|346:294|386:245,1,112.500004291535,6|0,3:2|0:0,0:0:0:0:
394,253,18563,6,0,L|361:384,1,112.500004291535,6|0,3:2|0:0,0:0:0:0:
374,370,18900,5,6,3:2:0:0:
200,74,21091,6,0,B|158:22|86:40|86:40,1,112.500004291535,6|0,3:2|0:0,0:0:0:0:
98,37,21428,2,0,L|112:-8,1,37.5000014305115,6|0,3:2|0:0,0:0:0:0:
152,143,21596,1,6,3:2:0:0:
161,156,22439,6,0,L|154:192,1,37.5000014305115,2|0,3:2|0:0,0:0:0:0:
141,269,22608,6,0,L|134:305,1,37.5000014305115,2|0,3:2|0:0,0:0:0:0:
121,380,22776,5,6,3:2:0:0:
24,131,23113,5,6,3:2:0:0:
260,6,23787,6,0,L|369:29,1,112.500004291535,6|0,3:2|0:0,0:0:0:0:
388,28,24124,1,2,0:2:0:0:
500,60,24293,5,6,3:2:0:0:
417,141,24461,1,6,3:2:0:0:
427,154,24798,6,0,B|461:213|421:263|421:263,1,112.500004291535,6|0,3:2|0:0,0:0:0:0:
416,274,25136,1,0,3:2:0:0:
263,139,25304,1,8,0:2:0:0:
454,74,25472,1,0,3:2:0:0:
337,286,25641,5,6,3:2:0:0:
209,83,25810,1,6,3:2:0:0:
221,71,26147,6,0,L|331:52,1,112.500004291535,6|0,3:2|0:0,0:0:0:0:
343,61,26484,1,6,3:2:0:0:
233,213,26652,1,8,0:2:0:0:
165,23,26821,1,6,3:2:0:0:
363,59,26989,1,6,3:2:0:0:
128,186,27327,5,2,1:2:0:0:
123,186,27411,1,0,1:2:0:0:
118,187,27495,1,2,1:2:0:0:
114,187,27579,1,0,1:2:0:0:
109,188,27664,1,0,1:2:0:0:
104,189,27748,1,0,1:2:0:0:
100,189,27832,1,2,1:2:0:0:
95,190,27916,1,0,1:2:0:0:
90,190,28001,1,0,1:2:0:0:
24,144,28169,5,6,3:2:0:0:
408,7,28506,1,6,3:2:0:0:
145,185,28843,5,6,3:2:0:0:
104,22,29012,1,8,0:2:0:0:
104,22,29096,1,8,0:2:0:0:
104,22,29180,1,2,3:2:0:0:
252,118,29349,1,8,0:2:0:0:
0,284,29518,5,8,0:2:0:0:
0,284,29602,1,8,0:2:0:0:
0,284,29686,2,0,B|71:267|49:302|112:288,1,112.500004291535,6|0,3:2|0:0,0:0:0:0:
113,297,30023,2,0,P|105:347|103:388,1,75.0000028610231,2|0,3:2|0:0,0:0:0:0:
96,195,30360,1,2,3:2:0:0:
185,120,30529,1,2,0:2:0:0:
206,235,30697,1,2,3:2:0:0:
87,181,30866,1,2,0:2:0:0:
275,147,31034,5,2,3:2:0:0:
348,164,31203,1,2,0:2:0:0:
266,165,31371,1,2,3:2:0:0:
497,209,31540,6,0,B|518:258|479:297|479:297,1,75.0000028610231,2|0,0:2|3:2,0:0:0:0:
394,263,31877,5,10,0:2:0:0:
419,185,32046,1,2,3:2:0:0:
275,147,32214,6,0,L|290:198,1,37.5000014305115,8|8,0:2|0:2,0:0:0:0:
333,329,32383,1,2,3:2:0:0:
259,341,32551,1,2,0:2:0:0:
185,355,32720,1,2,3:2:0:0:
114,297,32888,5,2,0:2:0:0:
171,224,33057,1,2,3:2:0:0:
117,317,33225,1,2,0:2:0:0:
49,148,33394,5,2,3:2:0:0:
108,88,33563,2,0,B|193:86|152:130|277:138,1,150.000005722046,2|2,0:2|0:2,0:0:0:0:
293,71,34068,1,2,3:2:0:0:
379,86,34237,1,8,3:2:0:0:
379,86,34321,1,0,3:0:0:0:
379,86,34405,1,0,3:2:0:0:
481,40,34574,5,8,0:2:0:0:
481,40,34658,1,8,0:2:0:0:
481,40,34742,2,0,L|473:82,1,37.5000014305115,8|8,0:2|0:2,0:0:0:0:
424,201,34911,2,0,L|417:165,1,37.5000014305115,8|8,0:2|0:2,0:0:0:0:
506,161,35079,5,12,0:2:0:0:
467,269,35248,2,0,B|434:287|434:287|397:277,1,75.0000028610231,2|0,0:2|3:2,0:0:0:0:
284,202,35585,2,0,P|355:216|396:277,1,150.000005722046,2|0,0:2|0:0,0:0:0:0:
329,384,36091,1,0,3:2:0:0:
329,384,36428,5,2,3:2:0:0:
226,324,36596,2,0,B|209:291|209:291|226:257,1,75.0000028610231,2|0,0:2|3:2,0:0:0:0:
167,182,36934,2,0,P|116:193|75:202,1,75.0000028610231,2|0,0:2|3:2,0:0:0:0:
249,179,37270,5,10,0:2:0:0:
201,108,37439,1,0,3:2:0:0:
133,307,37607,5,10,0:2:0:0:
133,307,37692,1,8,0:2:0:0:
133,307,37776,2,0,B|70:315|87:282|17:294,1,112.500004291535,2|0,3:2|0:0,0:0:0:0:
18,289,38113,2,0,P|26:252|31:215,1,75.0000028610231,2|0,3:2|0:0,0:0:0:0:
121,105,38450,5,2,3:2:0:0:
218,113,38619,1,8,0:2:0:0:
314,122,38787,1,0,3:2:0:0:
471,303,38956,6,0,B|414:251|414:251|343:268,1,150.000005722046,4|0,3:2|3:2,0:0:0:0:
308,362,39461,1,8,0:2:0:0:
396,345,39630,1,8,0:2:0:0:
396,345,39714,1,8,0:2:0:0:
396,345,39798,1,0,3:2:0:0:
509,212,39967,5,8,0:2:0:0:
506,183,40051,1,8,0:2:0:0:
504,155,40135,1,8,0:2:0:0:
501,127,40219,1,8,0:2:0:0:
499,99,40304,1,8,0:2:0:0:
417,49,40473,6,0,B|350:42|369:70|306:63,1,110.000003356934,0|0,3:2|0:0,0:0:0:0:
237,20,40978,1,0,3:2:0:0:
294,76,41147,2,0,L|283:130,1,55.0000016784668,0|0,3:2|0:0,0:0:0:0:
265,207,41484,1,8,0:2:0:0:
245,275,41652,1,0,0:0:0:0:
365,370,41821,6,0,P|341:350|304:350,1,55.0000016784668,0|0,3:2|0:0,0:0:0:0:
241,378,42158,1,0,0:0:0:0:
163,328,42327,2,0,B|137:282|137:282|165:231,1,110.000003356934,0|0,3:2|0:0,0:0:0:0:
165,231,42832,2,0,L|106:202,1,55.0000016784668,8|0,0:2|0:0,0:0:0:0:
18,43,43169,6,0,P|53:96|40:148,1,110.000003356934,0|0,3:2|0:0,0:0:0:0:
6,212,43675,1,0,3:2:0:0:
89,277,43843,2,0,L|99:223,1,55.0000016784668,0|0,3:2|0:0,0:0:0:0:
2,299,44180,2,0,L|12:352,1,55.0000016784668,8|0,0:2|0:0,0:0:0:0:
116,383,44518,6,0,P|167:348|218:363,1,110.000003356934,0|0,3:2|0:0,0:0:0:0:
311,323,45023,1,0,3:2:0:0:
226,222,45192,2,0,B|241:250|243:282|243:282,1,55.0000016784668,0|0,3:2|0:0,0:0:0:0:
328,235,45529,2,0,B|329:210|339:179|339:179,1,55.0000016784668,8|0,0:2|0:0,0:0:0:0:
256,143,45866,6,0,B|197:148|158:99|158:99,1,110.000003356934,0|0,3:2|0:0,0:0:0:0:
239,31,46371,1,0,3:2:0:0:
265,159,46540,2,0,L|253:235,1,55.0000016784668,0|0,3:2|0:0,0:0:0:0:
211,291,46877,2,0,L|219:345,1,55.0000016784668,8|0,0:2|0:0,0:0:0:0:
303,379,47214,6,0,B|363:382|337:355|409:362,1,110.000003356934,0|0,3:2|0:0,0:0:0:0:
447,296,47720,1,0,3:2:0:0:
375,231,47888,1,0,3:2:0:0:
375,231,48057,1,0,0:0:0:0:
457,191,48226,2,0,P|483:192|507:205,1,55.0000016784668,8|0,0:2|0:0,0:0:0:0:
382,25,48563,6,0,B|401:93|404:152|404:152,1,110.000003356934,0|0,3:2|0:0,0:0:0:0:
403,133,49068,1,0,3:2:0:0:
318,167,49237,2,0,P|283:156|254:151,1,55.0000016784668,0|0,3:2|0:0,0:0:0:0:
197,269,49574,2,0,P|223:260|249:254,1,55.0000016784668,8|0,0:2|0:0,0:0:0:0:
178,78,49911,6,0,B|145:123|145:123|170:170,1,110.000003356934,0|0,3:2|0:0,0:0:0:0:
259,73,50416,1,0,3:2:0:0:
162,188,50585,2,0,L|96:208,1,55.0000016784668,0|0,3:2|0:0,0:0:0:0:
261,263,50922,2,0,L|327:283,1,55.0000016784668,8|0,0:2|0:0,0:0:0:0:
455,348,51259,6,0,B|364:330|400:381|302:360,1,150.000005722046,4|0,3:2|0:0,0:0:0:0:
403,259,51765,1,0,3:2:0:0:
319,107,51933,2,0,B|299:137|299:137|316:172,1,75.0000028610231,0|0,3:2|0:0,0:0:0:0:
408,149,52270,1,8,0:2:0:0:
408,149,52439,1,0,0:0:0:0:
336,26,52607,6,0,B|283:1|283:1|231:26,1,112.500004291535,0|0,3:2|0:0,0:0:0:0:
233,33,52945,2,0,L|243:119,1,75.0000028610231,0|0,0:0|3:2,0:0:0:0:
195,194,53282,1,0,3:2:0:0:
195,194,53450,2,0,B|155:177|105:192|105:192,1,75.0000028610231,0|8,0:0|0:2,0:0:0:0:
284,300,53787,1,0,0:0:0:0:
284,300,53956,6,0,B|327:255|288:192,1,112.500004291535,0|0,3:2|0:0,0:0:0:0:
291,197,54293,1,0,0:0:0:0:
381,206,54461,2,0,B|418:214|418:214|453:198,1,75.0000028610231,0|0,3:2|3:2,0:0:0:0:
268,66,54798,2,0,B|228:58|228:58|196:74,1,75.0000028610231,0|8,0:0|0:2,0:0:0:0:
372,21,55136,1,0,0:0:0:0:
372,21,55304,6,0,P|416:51|411:104,1,112.500004291535,0|0,3:2|0:0,0:0:0:0:
400,118,55641,1,0,0:0:0:0:
413,214,55810,1,0,3:2:0:0:
428,310,55978,1,0,3:2:0:0:
307,185,56147,5,0,0:0:0:0:
208,302,56315,2,0,P|245:307|282:314,1,75.0000028610231,8|0,0:2|0:0,0:0:0:0:
171,174,56652,6,0,P|134:180|97:185,1,75.0000028610231,4|2,3:2|0:0,0:0:0:0:
271,219,56989,1,2,0:0:0:0:
271,219,57157,1,2,0:0:0:0:
309,109,57326,2,0,P|311:74|290:30,1,75.0000028610231,2|2,0:0|0:0,0:0:0:0:
150,96,57663,6,0,L|109:102,3,37.5000014305115,2|2|2|2,0:0|0:0|0:0|0:0,0:0:0:0:
166,75,58000,5,6,3:2:0:0:
394,211,58169,1,2,0:0:0:0:
394,211,58337,2,0,P|385:247|378:284,1,75.0000028610231,2|2,0:0|0:0,0:0:0:0:
234,162,58674,2,0,P|269:150|305:138,1,75.0000028610231,2|2,0:0|0:0,0:0:0:0:
274,324,59011,2,0,P|246:298|218:273,1,75.0000028610231,2|0,0:0|0:0,0:0:0:0:
313,232,59349,6,0,P|362:291|458:274,1,150,6|0,3:2|0:0,0:0:0:0:
439,276,59686,1,2,0:0:0:0:
452,20,59854,6,0,B|382:50|382:50|414:147,1,150,6|0,3:2|0:0,0:0:0:0:
412,128,60191,2,0,P|441:158|435:203,1,75.0000028610231,6|0,3:2|0:0,0:0:0:0:
308,128,60528,6,0,P|269:75|218:81,1,112.500004291535,6|0,3:2|0:0,0:0:0:0:
220,82,60865,2,0,P|180:174|63:128,1,225.000008583069,6|0,3:2|0:0,0:0:0:0:
72,142,61202,6,0,B|130:97|130:97|90:31,1,150,6|0,3:2|0:0,0:0:0:0:
85,25,61539,6,0,L|3:10,1,75.0000028610231,4|0,3:2|0:0,0:0:0:0:
126,277,61876,2,0,L|199:263,1,75.0000028610231,4|0,3:2|0:0,0:0:0:0:
335,197,62214,6,0,L|341:246,1,50,4|0,3:2|0:0,0:0:0:0:
468,230,62383,2,0,L|474:180,1,50,4|0,3:2|0:0,0:0:0:0:
312,51,62551,2,0,L|318:100,1,50,4|0,3:2|0:0,0:0:0:0:
474,68,62720,2,0,L|480:18,1,50,4|0,3:2|0:0,0:0:0:0:
345,211,62888,5,0,3:2:0:0:
363,227,62972,1,0,3:2:0:0:
387,235,63056,1,0,3:2:0:0:
410,230,63140,1,0,3:2:0:0:
434,225,63225,1,0,3:2:0:0:
512,129,63394,5,4,3:2:0:0:
405,315,63563,6,0,L|404:366,1,50,2|0,0:2|0:0,0:0:0:0:
417,365,63731,6,0,L|418:320,1,44.999998626709,2|0,0:2|0:0,0:0:0:0:
435,325,63900,6,0,L|432:364,1,40,2|0,0:2|0:0,0:0:0:0:
446,361,64068,6,0,L|447:326,1,34.9999989318848,2|0,0:2|0:0,0:0:0:0:
464,329,64237,6,0,L|462:358,1,29.9999990844727,2|0,0:2|0:0,0:0:0:0:
478,355,64405,6,0,L|479:330,1,25,2|0,0:2|0:0,0:0:0:0:
495,336,64574,6,0,L|493:358,1,20,2|0,0:2|0:0,0:0:0:0:
494,356,64742,6,0,B|442:346|398:374,1,100,6|2,3:2|0:2,0:0:0:0:
417,279,65079,1,10,0:2:0:0:
308,364,65248,2,0,B|335:297|335:297|296:229,1,150,2|0,0:2|0:0,0:0:0:0:
285,235,65585,1,2,0:2:0:0:
156,289,65754,1,10,0:2:0:0:
232,311,65922,1,2,0:2:0:0:
215,165,66091,5,2,3:2:0:0:
69,334,66259,1,2,0:2:0:0:
289,376,66428,1,10,0:2:0:0:
225,69,66596,2,0,B|159:105|159:105|85:91,1,150,2|0,0:2|0:0,0:0:0:0:
86,80,66933,1,2,0:2:0:0:
126,9,67102,1,10,0:2:0:0:
239,150,67270,2,0,L|230:205,1,50,2|0,0:2|0:0,0:0:0:0:
45,275,67439,6,0,P|120:276|195:282,1,150,2|0,3:2|0:0,0:0:0:0:
204,287,67776,2,0,B|235:247|235:247|216:200,1,100,8|2,0:2|0:2,0:0:0:0:
167,372,68113,1,2,3:2:0:0:
307,273,68282,1,2,0:2:0:0:
149,352,68450,1,10,0:2:0:0:
309,384,68619,1,2,0:2:0:0:
498,207,68787,5,2,3:2:0:0:
368,118,68956,1,2,0:2:0:0:
280,248,69124,1,10,0:2:0:0:
409,336,69293,1,2,0:2:0:0:
409,336,69630,6,0,L|398:274,1,50,10|0,0:2|0:0,0:0:0:0:
368,118,69798,6,0,L|379:180,1,50,10|0,0:2|0:0,0:0:0:0:
413,356,69967,5,10,0:2:0:0:
361,100,70136,6,0,B|308:86|273:134,1,100,6|2,3:2|0:2,0:0:0:0:
467,211,70473,1,10,0:2:0:0:
207,347,70641,2,0,B|233:280|215:184,1,150,2|0,0:2|0:0,0:0:0:0:
207,192,70978,1,2,0:2:0:0:
195,357,71147,1,10,0:2:0:0:
323,264,71315,1,2,0:2:0:0:
131,225,71483,5,2,3:2:0:0:
0,179,71652,1,2,0:2:0:0:
26,316,71820,5,10,0:2:0:0:
87,374,71989,2,0,B|177:357|123:325|221:310,1,150,2|0,0:2|0:0,0:0:0:0:
234,320,72327,1,2,0:2:0:0:
305,369,72495,1,10,0:2:0:0:
213,339,72664,1,2,0:2:0:0:
447,239,72832,5,2,3:2:0:0:
398,115,73001,1,2,0:2:0:0:
291,165,73169,1,8,0:2:0:0:
263,248,73338,1,2,0:2:0:0:
131,96,73506,5,2,3:2:0:0:
214,62,73675,1,2,0:2:0:0:
243,233,73843,1,10,0:2:0:0:
83,169,74012,1,2,0:2:0:0:
388,20,74180,5,12,0:2:0:0:
227,263,74349,1,0,3:2:0:0:
93,43,74518,5,12,0:2:0:0:
400,236,74686,1,0,3:2:0:0:
118,369,74855,5,12,0:2:0:0:
339,132,75023,1,0,1:2:0:0:
337,141,75107,1,0,1:2:0:0:
335,150,75192,1,0,1:2:0:0:
333,159,75276,1,0,1:2:0:0:
331,168,75360,1,0,1:2:0:0:
329,177,75445,1,0,1:2:0:0:
316,202,75529,6,0,B|270:229|217:195,1,100,6|2,3:2|0:2,0:0:0:0:
263,97,75866,1,10,0:2:0:0:
24,291,76034,2,0,B|84:248|84:248|154:277,1,150,2|0,0:2|0:0,0:0:0:0:
158,286,76371,1,2,0:2:0:0:
103,358,76540,1,10,0:2:0:0:
9,187,76709,1,2,0:2:0:0:
9,187,76877,6,0,P|23:130|33:79,1,100,2|2,3:2|0:2,0:0:0:0:
206,207,77214,1,10,0:2:0:0:
257,78,77383,2,0,B|205:143|119:120|119:120,1,150,2|0,0:2|0:0,0:0:0:0:
121,120,77720,2,0,L|129:177,1,50,2|0,0:2|3:2,0:0:0:0:
309,158,77888,1,10,0:2:0:0:
213,8,78057,1,2,0:2:0:0:
251,278,78225,6,0,B|337:302|315:244|424:273,1,150,2|0,3:2|0:0,0:0:0:0:
397,267,78563,2,0,P|405:340|410:386,1,100,8|2,0:2|0:2,0:0:0:0:
260,197,78900,1,2,3:2:0:0:
352,162,79068,1,2,0:2:0:0:
275,211,79237,1,10,0:2:0:0:
242,114,79405,1,2,0:2:0:0:
453,89,79574,5,2,3:2:0:0:
398,292,79743,1,2,0:2:0:0:
195,237,79911,1,10,0:2:0:0:
249,34,80080,1,2,0:2:0:0:
249,34,80416,6,0,L|312:49,1,50,10|0,0:2|0:0,0:0:0:0:
453,89,80584,6,0,L|390:74,1,50,10|0,0:2|0:0,0:0:0:0:
226,30,80754,5,10,0:2:0:0:
472,96,80922,5,6,3:2:0:0:
287,306,81091,1,2,0:2:0:0:
61,123,81259,6,0,B|146:114|113:157|219:150,1,150,14|0,0:2|0:0,0:0:0:0:
216,142,81596,2,0,P|208:200|200:267,1,100,6|0,3:2|0:0,0:0:0:0:
209,252,81849,1,0,3:2:0:0:
213,262,81934,1,10,0:2:0:0:
323,188,82102,1,0,3:2:0:0:
201,27,82270,5,2,3:2:0:0:
102,235,82439,1,2,3:2:0:0:
332,217,82607,1,10,0:2:0:0:
38,74,82776,6,0,B|81:81|81:81|87:89|87:89|136:97,1,100,14|0,3:2|3:2,0:0:0:0:
186,61,83029,1,0,3:0:0:0:
157,51,83112,5,10,3:2:0:0:
108,62,83196,1,8,0:2:0:0:
69,99,83280,1,8,0:2:0:0:
26,119,83365,1,8,0:2:0:0:
0,111,83449,1,8,0:2:0:0:
308,74,83618,5,14,3:2:0:0:
331,218,83787,1,2,3:2:0:0:
186,242,83956,1,10,3:2:0:0:
163,97,84124,1,2,3:2:0:0:
324,53,84293,5,10,0:2:0:0:
351,234,84461,1,10,0:2:0:0:
170,262,84630,1,10,0:2:0:0:
142,80,84798,1,2,3:2:0:0:
329,134,84967,5,14,0:2:0:0:
247,377,85136,1,14,0:2:0:0:
76,186,85304,1,14,0:2:0:0:
329,134,85472,1,14,0:2:0:0:
329,134,85810,5,10,0:2:0:0:
287,304,85979,1,10,0:2:0:0:
175,196,86146,1,2,3:2:0:0:
211,112,86315,6,0,B|126:123|146:84|61:94,1,150.000005722046,6|0,3:2|0:0,0:0:0:0:
189,27,86821,1,0,3:2:0:0:
220,122,86989,2,0,P|216:161|214:196,1,75.0000028610231,0|0,3:2|0:0,0:0:0:0:
121,249,87327,2,0,P|119:211|115:174,1,75.0000028610231,8|0,0:2|0:0,0:0:0:0:
345,243,87664,6,0,B|297:186|297:186|223:205,1,150.000005722046,0|0,3:2|0:0,0:0:0:0:
0,317,88169,2,0,P|42:260|122:264,1,150.000005722046,0|0,3:2|3:2,0:0:0:0:
218,325,88675,5,8,0:2:0:0:
153,155,88843,1,0,3:2:0:0:
312,12,89011,6,0,B|385:42|385:42|347:136,1,150,6|0,3:2|0:0,0:0:0:0:
351,114,89348,6,0,P|293:164|393:178,1,225.000008583069,6|0,3:2|0:0,0:0:0:0:
398,187,89685,6,0,L|378:297,1,112.500004291535,6|0,3:2|0:0,0:0:0:0:
433,384,90022,6,0,B|473:297|473:297|281:364,1,300.000011444092,6|8,3:2|0:0,0:0:0:0:
133,229,90528,5,4,3:2:0:0:
356,261,90697,1,4,3:2:0:0:
387,38,90865,1,4,3:2:0:0:
165,6,91034,1,4,3:2:0:0:
