osu file format v14

[General]
AudioFilename: audio.ogg
AudioLeadIn: 0
PreviewTime: 86174
Countdown: 0
SampleSet: Soft
StackLeniency: 0.7
Mode: 3
LetterboxInBreaks: 0
SpecialStyle: 0
WidescreenStoryboard: 1

[Editor]
Bookmarks: 14657,17764,34800,42514,72514,106372,109479,124479,134229,164229,176229
DistanceSpacing: 0.2
BeatDivisor: 4
GridSize: 32
TimelineZoom: 1.9

[Metadata]
Title:piano x forte
TitleUnicode:piano×forte
Artist:OSTER project
ArtistUnicode:OSTER project
Creator:elexire
Version:Hyper
Source:
Tags:instrumental jazz recursive call ピアノ×フォルテ×スキャンダル piano x forte x scandal ballistic BallisticBubba Bubba
BeatmapID:4346092
BeatmapSetID:1791063

[Difficulty]
HPDrainRate:7
CircleSize:4
OverallDifficulty:6.8
ApproachRate:5
SliderMultiplier:1.4
SliderTickRate:1

[Events]
//Background and Video events
0,0,"84046566_p0.jpg",0,0
//Break Periods
//Storyboard Layer 0 (Background)
//Storyboard Layer 1 (Fail)
//Storyboard Layer 2 (Pass)
//Storyboard Layer 3 (Foreground)
//Storyboard Layer 4 (Overlay)
//Storyboard Sound Samples

[TimingPoints]
1317,428.571428571429,4,2,1,50,1,0
27031,-100,4,2,1,50,0,1
28745,-100,4,2,1,50,0,0
54459,-100,4,2,1,50,0,1
56174,-100,4,2,1,50,0,0
118745,-100,4,2,1,50,0,1
120459,-100,4,2,1,50,0,0
146388,-100,4,2,1,50,0,1
147888,-100,4,2,1,50,0,0
176067,-100,4,2,1,50,0,1
188067,-100,4,2,1,50,0,0

[HitObjects]
448,192,1317,128,0,1531:0:0:0:0:
64,192,1317,128,0,1745:0:0:0:0:
192,192,1638,1,0,0:0:0:0:
448,192,1745,128,0,1959:0:0:0:0:
64,192,1852,1,0,0:0:0:0:
320,192,1959,1,0,0:0:0:0:
448,192,2067,128,0,2174:0:0:0:0:
192,192,2281,128,0,2602:0:0:0:0:
320,192,2495,1,0,0:0:0:0:
448,192,2602,128,0,2817:0:0:0:0:
192,192,2709,1,0,0:0:0:0:
64,192,2852,1,0,0:0:0:0:
448,192,2924,1,0,0:0:0:0:
320,192,2977,1,0,0:0:0:0:
64,192,3031,128,0,3245:0:0:0:0:
320,192,3138,128,0,3352:0:0:0:0:
192,192,3245,1,0,0:0:0:0:
64,192,3352,1,0,0:0:0:0:
192,192,3567,128,0,3674:0:0:0:0:
320,192,3781,128,0,3888:0:0:0:0:
64,192,3888,128,0,3995:0:0:0:0:
64,192,4102,128,0,4317:0:0:0:0:
448,192,4102,128,0,4317:0:0:0:0:
192,192,4317,1,0,0:0:0:0:
448,192,4424,128,0,4531:0:0:0:0:
320,192,4424,128,0,4531:0:0:0:0:
64,192,4531,1,0,0:0:0:0:
192,192,4602,1,0,0:0:0:0:
320,192,4674,1,0,0:0:0:0:
448,192,4745,128,0,4959:0:0:0:0:
64,192,4745,128,0,4959:0:0:0:0:
192,192,4959,1,0,0:0:0:0:
64,192,5067,128,0,5281:0:0:0:0:
448,192,5281,1,0,0:0:0:0:
192,192,5495,1,0,0:0:0:0:
320,192,5602,1,0,0:0:0:0:
192,192,5709,128,0,5924:0:0:0:0:
448,192,5817,128,0,5924:0:0:0:0:
64,192,5924,1,0,0:0:0:0:
320,192,6031,128,0,6138:0:0:0:0:
64,192,6138,128,0,6245:0:0:0:0:
448,192,6245,1,0,0:0:0:0:
192,192,6352,128,0,6459:0:0:0:0:
320,192,6459,128,0,6567:0:0:0:0:
64,192,6567,128,0,6674:0:0:0:0:
448,192,6674,128,0,6888:0:0:0:0:
64,192,6781,128,0,7102:0:0:0:0:
320,192,6995,1,0,0:0:0:0:
192,192,7102,1,0,0:0:0:0:
448,192,7209,1,0,0:0:0:0:
64,192,7317,1,0,0:0:0:0:
320,192,7424,1,0,0:0:0:0:
448,192,7531,128,0,7745:0:0:0:0:
64,192,7531,128,0,7745:0:0:0:0:
320,192,7745,1,0,0:0:0:0:
64,192,7852,128,0,7959:0:0:0:0:
192,192,7852,128,0,7959:0:0:0:0:
448,192,7959,1,0,0:0:0:0:
320,192,8031,1,0,0:0:0:0:
192,192,8102,1,0,0:0:0:0:
64,192,8174,128,0,8388:0:0:0:0:
448,192,8174,128,0,8388:0:0:0:0:
320,192,8388,128,0,8495:0:0:0:0:
64,192,8495,128,0,8602:0:0:0:0:
192,192,8602,128,0,8817:0:0:0:0:
320,192,8709,128,0,8817:0:0:0:0:
448,192,8817,1,0,0:0:0:0:
64,192,8924,128,0,9031:0:0:0:0:
192,192,9138,128,0,9352:0:0:0:0:
448,192,9138,128,0,9245:0:0:0:0:
320,192,9352,128,0,9459:0:0:0:0:
64,192,9459,128,0,9567:0:0:0:0:
448,192,9567,128,0,9674:0:0:0:0:
320,192,9781,128,0,9995:0:0:0:0:
192,192,9781,128,0,9888:0:0:0:0:
448,192,9995,128,0,10102:0:0:0:0:
64,192,9995,128,0,10209:0:0:0:0:
320,192,10209,128,0,10317:0:0:0:0:
64,192,10317,128,0,10424:0:0:0:0:
448,192,10424,128,0,10531:0:0:0:0:
192,192,10531,128,0,10638:0:0:0:0:
320,192,10638,128,0,10852:0:0:0:0:
64,192,10852,128,0,10959:0:0:0:0:
448,192,10959,128,0,11067:0:0:0:0:
320,192,11031,1,0,0:0:0:0:
64,192,11102,1,0,0:0:0:0:
448,192,11174,1,0,0:0:0:0:
320,192,11281,128,0,11388:0:0:0:0:
192,192,11388,1,0,0:0:0:0:
448,192,11459,1,0,0:0:0:0:
64,192,11531,1,0,0:0:0:0:
192,192,11602,128,0,11817:0:0:0:0:
320,192,11602,128,0,11709:0:0:0:0:
320,192,11817,1,0,0:0:0:0:
64,192,11924,128,0,12031:0:0:0:0:
448,192,12031,128,0,12138:0:0:0:0:
192,192,12138,128,0,12245:0:0:0:0:
320,192,12245,128,0,12352:0:0:0:0:
448,192,12352,128,0,12459:0:0:0:0:
64,192,12352,128,0,12459:0:0:0:0:
192,192,12567,1,0,0:0:0:0:
64,192,12674,1,0,0:0:0:0:
448,192,12745,1,0,0:0:0:0:
320,192,12817,1,0,0:0:0:0:
192,192,12888,128,0,12995:0:0:0:0:
448,192,12995,128,0,13102:0:0:0:0:
64,192,13102,1,0,0:0:0:0:
320,192,13174,1,0,0:0:0:0:
192,192,13245,1,0,0:0:0:0:
448,192,13317,1,0,0:0:0:0:
64,192,13317,1,0,0:0:0:0:
320,192,13424,128,0,13531:0:0:0:0:
192,192,13531,1,0,0:0:0:0:
64,192,13638,128,0,13745:0:0:0:0:
448,192,13745,1,0,0:0:0:0:
192,192,13852,128,0,13959:0:0:0:0:
320,192,13959,1,0,0:0:0:0:
448,192,14067,128,0,14174:0:0:0:0:
64,192,14174,1,0,0:0:0:0:
320,192,14281,128,0,14388:0:0:0:0:
448,192,14388,1,0,0:0:0:0:
192,192,14495,128,0,14602:0:0:0:0:
64,192,14602,1,0,0:0:0:0:
448,192,14656,128,0,14817:0:0:0:0:
320,192,14709,128,0,14870:0:0:0:0:
192,192,14763,128,0,14924:0:0:0:0:
64,192,14817,128,0,14924:0:0:0:0:
320,192,15031,128,0,15138:0:0:0:0:
448,192,15031,128,0,15245:0:0:0:0:
64,192,15245,1,0,0:0:0:0:
320,192,15352,128,0,15459:0:0:0:0:
448,192,15459,1,0,0:0:0:0:
192,192,15459,1,0,0:0:0:0:
64,192,15674,128,0,15888:0:0:0:0:
448,192,15674,128,0,15888:0:0:0:0:
320,192,15888,1,0,0:0:0:0:
448,192,15995,1,0,0:0:0:0:
64,192,15995,1,0,0:0:0:0:
192,192,16102,128,0,16317:0:0:0:0:
64,192,16317,128,0,16531:0:0:0:0:
448,192,16317,1,0,0:0:0:0:
320,192,16531,128,0,16638:0:0:0:0:
64,192,16745,128,0,16959:0:0:0:0:
320,192,16745,128,0,16959:0:0:0:0:
448,192,16959,1,0,0:0:0:0:
64,192,17067,128,0,17174:0:0:0:0:
320,192,17174,1,0,0:0:0:0:
192,192,17174,1,0,0:0:0:0:
64,192,17281,128,0,17388:0:0:0:0:
448,192,17281,128,0,17388:0:0:0:0:
320,192,17495,128,0,17709:0:0:0:0:
192,192,17495,128,0,17602:0:0:0:0:
192,192,17709,128,0,17817:0:0:0:0:
64,192,17709,128,0,17817:0:0:0:0:
320,192,17817,128,0,18031:0:0:0:0:
64,192,17924,128,0,18031:0:0:0:0:
448,192,18031,1,0,0:0:0:0:
192,192,18031,1,0,0:0:0:0:
64,192,18138,128,0,18352:0:0:0:0:
320,192,18138,128,0,18245:0:0:0:0:
448,192,18352,128,0,18459:0:0:0:0:
64,192,18459,1,0,0:0:0:0:
192,192,18567,1,0,0:0:0:0:
64,192,18781,128,0,18995:0:0:0:0:
448,192,18781,128,0,18995:0:0:0:0:
192,192,18888,1,0,0:0:0:0:
320,192,18888,1,0,0:0:0:0:
320,192,19102,128,0,19317:0:0:0:0:
64,192,19209,128,0,19317:0:0:0:0:
448,192,19317,128,0,19424:0:0:0:0:
64,192,19424,128,0,19531:0:0:0:0:
320,192,19424,1,0,0:0:0:0:
192,192,19531,128,0,19638:0:0:0:0:
320,192,19638,128,0,19745:0:0:0:0:
448,192,19745,1,0,0:0:0:0:
64,192,19745,128,0,19852:0:0:0:0:
320,192,19852,128,0,19959:0:0:0:0:
192,192,19959,128,0,20067:0:0:0:0:
448,192,20067,128,0,20174:0:0:0:0:
320,192,20174,128,0,20388:0:0:0:0:
64,192,20174,128,0,20388:0:0:0:0:
448,192,20388,128,0,20495:0:0:0:0:
64,192,20495,128,0,20602:0:0:0:0:
320,192,20602,1,0,0:0:0:0:
192,192,20602,1,0,0:0:0:0:
448,192,20709,128,0,20817:0:0:0:0:
64,192,20817,128,0,20924:0:0:0:0:
448,192,20924,128,0,21031:0:0:0:0:
64,192,21031,128,0,21138:0:0:0:0:
320,192,21031,128,0,21138:0:0:0:0:
192,192,21138,128,0,21245:0:0:0:0:
320,192,21245,128,0,21459:0:0:0:0:
64,192,21352,128,0,21459:0:0:0:0:
448,192,21459,128,0,21567:0:0:0:0:
192,192,21459,128,0,21567:0:0:0:0:
64,192,21567,128,0,21781:0:0:0:0:
320,192,21781,128,0,21888:0:0:0:0:
448,192,21888,128,0,22102:0:0:0:0:
192,192,21888,128,0,22102:0:0:0:0:
320,192,22209,128,0,22317:0:0:0:0:
64,192,22317,1,0,0:0:0:0:
192,192,22317,1,0,0:0:0:0:
448,192,22531,128,0,22745:0:0:0:0:
192,192,22745,128,0,22852:0:0:0:0:
448,192,22852,1,0,0:0:0:0:
64,192,22852,1,0,0:0:0:0:
320,192,22959,128,0,23174:0:0:0:0:
64,192,23067,128,0,23174:0:0:0:0:
448,192,23174,1,0,0:0:0:0:
192,192,23174,1,0,0:0:0:0:
64,192,23281,128,0,23495:0:0:0:0:
448,192,23388,128,0,23495:0:0:0:0:
192,192,23495,128,0,23602:0:0:0:0:
320,192,23602,1,0,0:0:0:0:
448,192,23674,1,0,0:0:0:0:
64,192,23745,1,0,0:0:0:0:
192,192,23817,128,0,24031:0:0:0:0:
64,192,24031,1,0,0:0:0:0:
320,192,24031,1,0,0:0:0:0:
448,192,24138,128,0,24245:0:0:0:0:
192,192,24138,128,0,24245:0:0:0:0:
64,192,24352,128,0,24459:0:0:0:0:
448,192,24567,128,0,24674:0:0:0:0:
320,192,24567,128,0,24674:0:0:0:0:
64,192,24781,128,0,24888:0:0:0:0:
192,192,24781,128,0,24888:0:0:0:0:
448,192,24888,1,0,0:0:0:0:
192,192,24995,128,0,25209:0:0:0:0:
64,192,24995,128,0,25102:0:0:0:0:
320,192,25209,128,0,25317:0:0:0:0:
448,192,25209,128,0,25317:0:0:0:0:
192,192,25424,128,0,25531:0:0:0:0:
320,192,25531,128,0,25638:0:0:0:0:
64,192,25638,128,0,25745:0:0:0:0:
320,192,25745,128,0,25852:0:0:0:0:
448,192,25745,1,0,0:0:0:0:
192,192,25852,128,0,25959:0:0:0:0:
448,192,25959,128,0,26067:0:0:0:0:
64,192,26067,128,0,26174:0:0:0:0:
320,192,26174,128,0,26281:0:0:0:0:
64,192,26281,1,0,0:0:0:0:
192,192,26281,128,0,26388:0:0:0:0:
448,192,26388,128,0,26495:0:0:0:0:
64,192,26495,128,0,26602:0:0:0:0:
320,192,26602,1,0,0:0:0:0:
192,192,26602,128,0,26709:0:0:0:0:
448,192,26709,128,0,26817:0:0:0:0:
64,192,26817,1,0,0:0:0:0:
192,192,26888,1,0,0:0:0:0:
320,192,26959,1,0,0:0:0:0:
64,192,27031,128,0,27352:0:0:0:0:
448,192,27031,128,0,27245:0:0:0:0:
192,192,27245,128,0,27352:0:0:0:0:
448,192,27352,128,0,27674:0:0:0:0:
320,192,27459,1,0,0:0:0:0:
64,192,27567,128,0,27674:0:0:0:0:
320,192,27674,1,0,0:0:0:0:
64,192,27781,128,0,27888:0:0:0:0:
192,192,27888,1,0,0:0:0:0:
320,192,27959,1,0,0:0:0:0:
448,192,28031,1,0,0:0:0:0:
64,192,28102,128,0,28317:0:0:0:0:
448,192,28317,128,0,28424:0:0:0:0:
192,192,28317,128,0,28424:0:0:0:0:
320,192,28424,128,0,28745:0:0:0:0:
64,192,28424,128,0,28745:0:0:0:0:
448,192,28745,128,0,28852:0:0:0:0:
192,192,28745,128,0,28852:0:0:0:0:
320,192,28959,1,0,0:0:0:0:
192,192,29067,1,0,0:0:0:0:
320,192,29174,128,0,29388:0:0:0:0:
64,192,29281,128,0,29388:0:0:0:0:
448,192,29388,128,0,29495:0:0:0:0:
192,192,29495,128,0,29602:0:0:0:0:
320,192,29709,128,0,29817:0:0:0:0:
192,192,29924,128,0,30031:0:0:0:0:
448,192,30031,1,0,0:0:0:0:
64,192,30138,128,0,30245:0:0:0:0:
448,192,30352,128,0,30888:0:0:0:0:
64,192,30459,128,0,30567:0:0:0:0:
320,192,30459,128,0,30567:0:0:0:0:
64,192,30781,1,0,0:0:0:0:
320,192,30995,128,0,31209:0:0:0:0:
64,192,31102,128,0,31209:0:0:0:0:
448,192,31209,128,0,31317:0:0:0:0:
64,192,31317,1,0,0:0:0:0:
192,192,31388,1,0,0:0:0:0:
320,192,31459,1,0,0:0:0:0:
64,192,31531,128,0,31745:0:0:0:0:
192,192,31745,1,0,0:0:0:0:
448,192,31745,128,0,31852:0:0:0:0:
64,192,31852,128,0,32174:0:0:0:0:
320,192,32067,128,0,32174:0:0:0:0:
448,192,32174,128,0,32388:0:0:0:0:
64,192,32388,1,0,0:0:0:0:
192,192,32495,128,0,32709:0:0:0:0:
448,192,32709,1,0,0:0:0:0:
64,192,32817,128,0,33245:0:0:0:0:
320,192,32817,1,0,0:0:0:0:
448,192,33138,128,0,33245:0:0:0:0:
192,192,33245,128,0,33352:0:0:0:0:
320,192,33459,1,0,0:0:0:0:
64,192,33459,128,0,33567:0:0:0:0:
448,192,33567,128,0,33674:0:0:0:0:
64,192,33781,128,0,33888:0:0:0:0:
448,192,33888,128,0,34102:0:0:0:0:
192,192,33888,128,0,34102:0:0:0:0:
64,192,34102,1,0,0:0:0:0:
320,192,34209,1,0,0:0:0:0:
192,192,34317,1,0,0:0:0:0:
448,192,34424,1,0,0:0:0:0:
64,192,34531,1,0,0:0:0:0:
320,192,34638,1,0,0:0:0:0:
64,192,34745,128,0,34852:0:0:0:0:
448,192,34852,128,0,34959:0:0:0:0:
320,192,34959,1,0,0:0:0:0:
64,192,35031,1,0,0:0:0:0:
192,192,35102,1,0,0:0:0:0:
448,192,35174,128,0,35281:0:0:0:0:
320,192,35174,128,0,35281:0:0:0:0:
192,192,35281,128,0,35388:0:0:0:0:
64,192,35281,128,0,35388:0:0:0:0:
448,192,35388,128,0,35495:0:0:0:0:
64,192,35495,128,0,35602:0:0:0:0:
448,192,35602,1,0,0:0:0:0:
64,192,35709,1,0,0:0:0:0:
192,192,35763,1,0,0:0:0:0:
320,192,35817,128,0,35924:0:0:0:0:
448,192,35924,128,0,36031:0:0:0:0:
64,192,36031,128,0,36138:0:0:0:0:
320,192,36138,128,0,36245:0:0:0:0:
192,192,36245,128,0,36352:0:0:0:0:
448,192,36352,128,0,36459:0:0:0:0:
64,192,36459,128,0,36567:0:0:0:0:
320,192,36567,128,0,36674:0:0:0:0:
448,192,36674,128,0,36781:0:0:0:0:
64,192,36781,128,0,36888:0:0:0:0:
320,192,36888,128,0,36995:0:0:0:0:
448,192,36888,1,0,0:0:0:0:
64,192,36995,128,0,37102:0:0:0:0:
320,192,37102,128,0,37209:0:0:0:0:
192,192,37209,128,0,37317:0:0:0:0:
448,192,37317,128,0,37531:0:0:0:0:
64,192,37317,128,0,37424:0:0:0:0:
64,192,37531,128,0,37745:0:0:0:0:
448,192,37745,128,0,37852:0:0:0:0:
192,192,37852,128,0,38067:0:0:0:0:
320,192,38067,128,0,38174:0:0:0:0:
64,192,38067,1,0,0:0:0:0:
448,192,38281,1,0,0:0:0:0:
192,192,38281,128,0,38388:0:0:0:0:
64,192,38495,128,0,38709:0:0:0:0:
448,192,38495,128,0,38709:0:0:0:0:
320,192,38602,1,0,0:0:0:0:
192,192,38817,128,0,38924:0:0:0:0:
320,192,38924,128,0,39031:0:0:0:0:
64,192,39031,128,0,39138:0:0:0:0:
448,192,39138,128,0,39245:0:0:0:0:
64,192,39245,128,0,39352:0:0:0:0:
448,192,39352,128,0,39459:0:0:0:0:
192,192,39459,128,0,39567:0:0:0:0:
320,192,39567,128,0,39674:0:0:0:0:
192,192,39674,128,0,39781:0:0:0:0:
320,192,39781,128,0,39888:0:0:0:0:
192,192,39888,128,0,39995:0:0:0:0:
448,192,39995,128,0,40102:0:0:0:0:
64,192,40102,128,0,40209:0:0:0:0:
448,192,40209,128,0,40317:0:0:0:0:
320,192,40317,1,0,0:0:0:0:
64,192,40317,128,0,40424:0:0:0:0:
192,192,40424,128,0,40531:0:0:0:0:
320,192,40531,128,0,40638:0:0:0:0:
448,192,40638,128,0,40745:0:0:0:0:
64,192,40745,128,0,40959:0:0:0:0:
192,192,40852,128,0,40959:0:0:0:0:
320,192,40959,128,0,41067:0:0:0:0:
448,192,41067,128,0,41281:0:0:0:0:
64,192,41174,128,0,41281:0:0:0:0:
192,192,41281,128,0,41388:0:0:0:0:
320,192,41388,128,0,41602:0:0:0:0:
448,192,41495,128,0,41602:0:0:0:0:
64,192,41602,128,0,41709:0:0:0:0:
192,192,41709,128,0,41817:0:0:0:0:
448,192,41817,1,0,0:0:0:0:
64,192,41888,1,0,0:0:0:0:
192,192,41959,1,0,0:0:0:0:
448,192,42031,128,0,42138:0:0:0:0:
320,192,42031,128,0,42138:0:0:0:0:
192,192,42138,128,0,42245:0:0:0:0:
64,192,42138,128,0,42245:0:0:0:0:
320,192,42352,128,0,42459:0:0:0:0:
192,192,42459,128,0,42674:0:0:0:0:
448,192,42459,128,0,42567:0:0:0:0:
64,192,42674,128,0,42781:0:0:0:0:
320,192,42781,1,0,0:0:0:0:
192,192,42888,128,0,43102:0:0:0:0:
448,192,42995,128,0,43102:0:0:0:0:
64,192,43102,128,0,43209:0:0:0:0:
320,192,43209,128,0,43317:0:0:0:0:
192,192,43424,128,0,43531:0:0:0:0:
320,192,43638,128,0,43745:0:0:0:0:
64,192,43745,1,0,0:0:0:0:
448,192,43852,128,0,43959:0:0:0:0:
64,192,44067,128,0,44602:0:0:0:0:
448,192,44174,128,0,44281:0:0:0:0:
192,192,44174,128,0,44281:0:0:0:0:
448,192,44495,1,0,0:0:0:0:
192,192,44709,128,0,44924:0:0:0:0:
448,192,44817,128,0,44924:0:0:0:0:
64,192,44924,128,0,45031:0:0:0:0:
448,192,45031,1,0,0:0:0:0:
320,192,45102,1,0,0:0:0:0:
192,192,45174,1,0,0:0:0:0:
448,192,45245,128,0,45459:0:0:0:0:
320,192,45459,1,0,0:0:0:0:
64,192,45459,128,0,45567:0:0:0:0:
448,192,45567,128,0,45888:0:0:0:0:
192,192,45781,128,0,45888:0:0:0:0:
320,192,45888,1,0,0:0:0:0:
64,192,45888,128,0,46102:0:0:0:0:
448,192,46102,128,0,46209:0:0:0:0:
192,192,46209,128,0,46317:0:0:0:0:
320,192,46317,128,0,46424:0:0:0:0:
64,192,46424,128,0,46531:0:0:0:0:
448,192,46531,128,0,46638:0:0:0:0:
192,192,46638,128,0,46745:0:0:0:0:
320,192,46745,128,0,46852:0:0:0:0:
64,192,46852,128,0,46959:0:0:0:0:
448,192,46959,128,0,47067:0:0:0:0:
192,192,47067,128,0,47174:0:0:0:0:
320,192,47174,1,0,0:0:0:0:
448,192,47281,128,0,47495:0:0:0:0:
192,192,47388,128,0,47602:0:0:0:0:
64,192,47495,128,0,47602:0:0:0:0:
448,192,47602,128,0,47709:0:0:0:0:
320,192,47602,128,0,47709:0:0:0:0:
64,192,47709,128,0,47817:0:0:0:0:
320,192,47817,128,0,47924:0:0:0:0:
192,192,47924,128,0,48031:0:0:0:0:
64,192,48031,128,0,48138:0:0:0:0:
448,192,48031,1,0,0:0:0:0:
320,192,48138,128,0,48245:0:0:0:0:
192,192,48245,128,0,48352:0:0:0:0:
448,192,48352,128,0,48459:0:0:0:0:
64,192,48459,1,0,0:0:0:0:
192,192,48459,128,0,48567:0:0:0:0:
448,192,48567,1,0,0:0:0:0:
320,192,48567,128,0,48674:0:0:0:0:
192,192,48674,1,0,0:0:0:0:
320,192,48781,1,0,0:0:0:0:
64,192,48888,128,0,48995:0:0:0:0:
448,192,48888,128,0,48995:0:0:0:0:
320,192,48995,128,0,49102:0:0:0:0:
192,192,48995,128,0,49102:0:0:0:0:
64,192,49102,128,0,49317:0:0:0:0:
320,192,49209,128,0,49317:0:0:0:0:
448,192,49317,128,0,49531:0:0:0:0:
192,192,49317,128,0,49531:0:0:0:0:
64,192,49531,1,0,0:0:0:0:
192,192,49638,1,0,0:0:0:0:
448,192,49745,1,0,0:0:0:0:
64,192,49852,1,0,0:0:0:0:
192,192,49906,1,0,0:0:0:0:
320,192,49959,1,0,0:0:0:0:
64,192,50067,128,0,50174:0:0:0:0:
448,192,50174,128,0,50281:0:0:0:0:
192,192,50281,128,0,50388:0:0:0:0:
320,192,50388,128,0,50602:0:0:0:0:
64,192,50388,128,0,50495:0:0:0:0:
448,192,50495,128,0,50602:0:0:0:0:
192,192,50602,128,0,50709:0:0:0:0:
64,192,50709,128,0,50924:0:0:0:0:
320,192,50709,128,0,50817:0:0:0:0:
448,192,50817,128,0,50924:0:0:0:0:
192,192,50924,128,0,51031:0:0:0:0:
448,192,51031,128,0,51138:0:0:0:0:
320,192,51031,128,0,51138:0:0:0:0:
64,192,51245,128,0,51352:0:0:0:0:
448,192,51352,1,0,0:0:0:0:
320,192,51459,128,0,51567:0:0:0:0:
64,192,51459,1,0,0:0:0:0:
192,192,51567,128,0,51674:0:0:0:0:
64,192,51674,128,0,51781:0:0:0:0:
320,192,51781,1,0,0:0:0:0:
448,192,51781,128,0,51888:0:0:0:0:
320,192,51995,128,0,52102:0:0:0:0:
320,192,52209,128,0,52531:0:0:0:0:
448,192,52317,1,0,0:0:0:0:
192,192,52317,1,0,0:0:0:0:
64,192,52424,128,0,52531:0:0:0:0:
448,192,52531,1,0,0:0:0:0:
320,192,52638,128,0,52745:0:0:0:0:
448,192,52852,128,0,52959:0:0:0:0:
192,192,52959,128,0,53067:0:0:0:0:
448,192,53067,128,0,53388:0:0:0:0:
320,192,53174,1,0,0:0:0:0:
64,192,53174,1,0,0:0:0:0:
192,192,53281,128,0,53495:0:0:0:0:
448,192,53495,1,0,0:0:0:0:
64,192,53495,128,0,53709:0:0:0:0:
320,192,53709,128,0,53924:0:0:0:0:
448,192,53924,128,0,54138:0:0:0:0:
192,192,54031,1,0,0:0:0:0:
64,192,54031,1,0,0:0:0:0:
320,192,54138,128,0,54245:0:0:0:0:
64,192,54245,128,0,54352:0:0:0:0:
448,192,54352,128,0,54459:0:0:0:0:
64,192,54459,1,0,0:0:0:0:
192,192,54459,128,0,54567:0:0:0:0:
320,192,54567,128,0,54674:0:0:0:0:
192,192,54674,128,0,54781:0:0:0:0:
448,192,54781,128,0,54888:0:0:0:0:
64,192,54888,128,0,54995:0:0:0:0:
448,192,54995,128,0,55102:0:0:0:0:
192,192,55102,128,0,55209:0:0:0:0:
320,192,55209,128,0,55317:0:0:0:0:
192,192,55317,128,0,55424:0:0:0:0:
448,192,55424,128,0,55531:0:0:0:0:
320,192,55531,128,0,55638:0:0:0:0:
192,192,55638,128,0,55745:0:0:0:0:
448,192,55745,128,0,55959:0:0:0:0:
64,192,55745,128,0,55852:0:0:0:0:
320,192,55852,128,0,55959:0:0:0:0:
192,192,55959,128,0,56174:0:0:0:0:
448,192,56174,128,0,56388:0:0:0:0:
64,192,56174,1,0,0:0:0:0:
320,192,56388,128,0,56602:0:0:0:0:
192,192,56388,128,0,56602:0:0:0:0:
448,192,56602,1,0,0:0:0:0:
64,192,56602,1,0,0:0:0:0:
192,192,56709,128,0,56817:0:0:0:0:
448,192,56924,128,0,57031:0:0:0:0:
320,192,56924,128,0,57031:0:0:0:0:
192,192,57138,128,0,57245:0:0:0:0:
64,192,57352,128,0,57459:0:0:0:0:
448,192,57459,1,0,0:0:0:0:
320,192,57567,128,0,57888:0:0:0:0:
192,192,57567,128,0,57674:0:0:0:0:
64,192,57781,128,0,57888:0:0:0:0:
192,192,57888,128,0,58102:0:0:0:0:
448,192,57888,128,0,58102:0:0:0:0:
64,192,58102,128,0,58209:0:0:0:0:
448,192,58209,1,0,0:0:0:0:
64,192,58317,128,0,58424:0:0:0:0:
192,192,58317,128,0,58424:0:0:0:0:
320,192,58424,128,0,58531:0:0:0:0:
320,192,58638,128,0,58745:0:0:0:0:
448,192,58852,128,0,58959:0:0:0:0:
192,192,58959,1,0,0:0:0:0:
64,192,59067,128,0,59281:0:0:0:0:
320,192,59174,128,0,59388:0:0:0:0:
448,192,59174,1,0,0:0:0:0:
192,192,59281,128,0,59388:0:0:0:0:
64,192,59388,128,0,59495:0:0:0:0:
320,192,59495,128,0,59602:0:0:0:0:
448,192,59602,128,0,59817:0:0:0:0:
192,192,59602,1,0,0:0:0:0:
64,192,59817,128,0,60031:0:0:0:0:
192,192,60031,128,0,60245:0:0:0:0:
448,192,60031,1,0,0:0:0:0:
320,192,60138,128,0,60245:0:0:0:0:
192,192,60352,128,0,60459:0:0:0:0:
448,192,60352,128,0,60674:0:0:0:0:
64,192,60459,1,0,0:0:0:0:
320,192,60567,128,0,60674:0:0:0:0:
192,192,60674,128,0,60888:0:0:0:0:
64,192,60888,128,0,60995:0:0:0:0:
448,192,60888,1,0,0:0:0:0:
320,192,60995,128,0,61209:0:0:0:0:
192,192,61209,128,0,61317:0:0:0:0:
64,192,61317,128,0,61424:0:0:0:0:
448,192,61317,1,0,0:0:0:0:
320,192,61424,128,0,61531:0:0:0:0:
192,192,61531,128,0,61638:0:0:0:0:
64,192,61638,128,0,61852:0:0:0:0:
448,192,61638,128,0,61745:0:0:0:0:
320,192,61745,1,0,0:0:0:0:
448,192,61852,128,0,62067:0:0:0:0:
64,192,61959,128,0,62067:0:0:0:0:
320,192,62067,128,0,62174:0:0:0:0:
192,192,62174,1,0,0:0:0:0:
448,192,62281,1,0,0:0:0:0:
64,192,62281,1,0,0:0:0:0:
192,192,62388,128,0,62602:0:0:0:0:
64,192,62495,128,0,62602:0:0:0:0:
448,192,62602,1,0,0:0:0:0:
320,192,62674,1,0,0:0:0:0:
192,192,62745,1,0,0:0:0:0:
64,192,62817,128,0,63031:0:0:0:0:
448,192,62924,128,0,63031:0:0:0:0:
192,192,63031,1,0,0:0:0:0:
64,192,63138,128,0,63245:0:0:0:0:
448,192,63138,128,0,63352:0:0:0:0:
320,192,63245,128,0,63352:0:0:0:0:
64,192,63352,128,0,63459:0:0:0:0:
448,192,63459,128,0,63674:0:0:0:0:
192,192,63459,1,0,0:0:0:0:
320,192,63567,128,0,63674:0:0:0:0:
64,192,63674,128,0,63781:0:0:0:0:
192,192,63781,128,0,63888:0:0:0:0:
448,192,63888,128,0,63995:0:0:0:0:
64,192,63995,128,0,64209:0:0:0:0:
192,192,64102,128,0,64209:0:0:0:0:
320,192,64209,128,0,64424:0:0:0:0:
448,192,64209,128,0,64424:0:0:0:0:
192,192,64317,1,0,0:0:0:0:
64,192,64424,128,0,64638:0:0:0:0:
448,192,64531,128,0,64638:0:0:0:0:
320,192,64638,128,0,64745:0:0:0:0:
64,192,64745,128,0,64852:0:0:0:0:
64,192,64959,128,0,65067:0:0:0:0:
448,192,65067,128,0,65174:0:0:0:0:
64,192,65174,1,0,0:0:0:0:
192,192,65174,1,0,0:0:0:0:
448,192,65281,128,0,65388:0:0:0:0:
64,192,65495,128,0,65602:0:0:0:0:
320,192,65495,128,0,65602:0:0:0:0:
192,192,65709,128,0,65817:0:0:0:0:
64,192,65924,128,0,66138:0:0:0:0:
320,192,66031,1,0,0:0:0:0:
448,192,66031,1,0,0:0:0:0:
192,192,66138,128,0,66352:0:0:0:0:
320,192,66245,128,0,66352:0:0:0:0:
64,192,66352,128,0,66459:0:0:0:0:
448,192,66459,1,0,0:0:0:0:
64,192,66567,128,0,66674:0:0:0:0:
320,192,66567,128,0,66781:0:0:0:0:
192,192,66674,128,0,66781:0:0:0:0:
448,192,66781,128,0,66888:0:0:0:0:
64,192,66888,128,0,66995:0:0:0:0:
192,192,66888,128,0,67102:0:0:0:0:
320,192,66995,128,0,67102:0:0:0:0:
448,192,67102,128,0,67209:0:0:0:0:
64,192,67209,128,0,67424:0:0:0:0:
320,192,67317,1,0,0:0:0:0:
448,192,67424,128,0,67531:0:0:0:0:
192,192,67531,128,0,67638:0:0:0:0:
320,192,67638,128,0,67852:0:0:0:0:
448,192,67745,1,0,0:0:0:0:
64,192,67745,128,0,67852:0:0:0:0:
192,192,67852,128,0,67959:0:0:0:0:
320,192,67959,128,0,68067:0:0:0:0:
448,192,68067,128,0,68174:0:0:0:0:
64,192,68174,1,0,0:0:0:0:
448,192,68281,1,0,0:0:0:0:
320,192,68281,128,0,68388:0:0:0:0:
192,192,68388,128,0,68495:0:0:0:0:
64,192,68495,128,0,68709:0:0:0:0:
320,192,68602,1,0,0:0:0:0:
192,192,68709,128,0,68817:0:0:0:0:
448,192,68817,128,0,68924:0:0:0:0:
64,192,68924,128,0,69245:0:0:0:0:
320,192,68924,128,0,69245:0:0:0:0:
192,192,69459,128,0,69674:0:0:0:0:
64,192,69888,128,0,70317:0:0:0:0:
448,192,69888,128,0,70317:0:0:0:0:
192,192,70531,1,0,0:0:0:0:
320,192,70638,1,0,0:0:0:0:
448,192,70745,128,0,70959:0:0:0:0:
64,192,70745,128,0,70959:0:0:0:0:
192,192,70852,1,0,0:0:0:0:
320,192,70959,1,0,0:0:0:0:
64,192,71067,1,0,0:0:0:0:
320,192,71174,1,0,0:0:0:0:
192,192,71281,1,0,0:0:0:0:
448,192,71388,1,0,0:0:0:0:
64,192,71495,1,0,0:0:0:0:
320,192,71602,128,0,71817:0:0:0:0:
64,192,71817,128,0,72031:0:0:0:0:
320,192,72031,128,0,72245:0:0:0:0:
192,192,72138,128,0,72245:0:0:0:0:
64,192,72138,128,0,72245:0:0:0:0:
448,192,72245,128,0,72459:0:0:0:0:
64,192,72459,128,0,72674:0:0:0:0:
320,192,72459,128,0,72888:0:0:0:0:
448,192,72781,1,0,0:0:0:0:
64,192,72888,1,0,0:0:0:0:
192,192,72888,1,0,0:0:0:0:
320,192,72995,128,0,73317:0:0:0:0:
448,192,73317,128,0,73531:0:0:0:0:
64,192,73317,128,0,73424:0:0:0:0:
64,192,73531,128,0,73638:0:0:0:0:
448,192,73638,128,0,73745:0:0:0:0:
320,192,73638,128,0,73745:0:0:0:0:
64,192,73745,1,0,0:0:0:0:
192,192,73745,1,0,0:0:0:0:
320,192,73852,128,0,74174:0:0:0:0:
448,192,73852,128,0,73959:0:0:0:0:
448,192,74174,128,0,74602:0:0:0:0:
192,192,74174,128,0,74388:0:0:0:0:
192,192,74602,128,0,74817:0:0:0:0:
64,192,74602,1,0,0:0:0:0:
448,192,74709,128,0,75031:0:0:0:0:
64,192,75031,128,0,75245:0:0:0:0:
192,192,75031,128,0,75245:0:0:0:0:
448,192,75245,128,0,75459:0:0:0:0:
64,192,75459,128,0,75674:0:0:0:0:
320,192,75459,128,0,75674:0:0:0:0:
448,192,75674,128,0,75888:0:0:0:0:
64,192,75888,128,0,76102:0:0:0:0:
192,192,75888,128,0,76317:0:0:0:0:
320,192,76209,1,0,0:0:0:0:
64,192,76317,1,0,0:0:0:0:
448,192,76317,1,0,0:0:0:0:
192,192,76424,128,0,76745:0:0:0:0:
320,192,76531,1,0,0:0:0:0:
448,192,76745,128,0,77174:0:0:0:0:
64,192,76745,128,0,76959:0:0:0:0:
320,192,76959,128,0,77067:0:0:0:0:
64,192,77067,128,0,77174:0:0:0:0:
320,192,77174,1,0,0:0:0:0:
192,192,77174,1,0,0:0:0:0:
64,192,77281,128,0,77388:0:0:0:0:
448,192,77495,128,0,77817:0:0:0:0:
192,192,77495,128,0,77602:0:0:0:0:
320,192,77602,128,0,77817:0:0:0:0:
64,192,77817,128,0,77924:0:0:0:0:
192,192,77924,1,0,0:0:0:0:
448,192,78031,1,0,0:0:0:0:
320,192,78031,1,0,0:0:0:0:
64,192,78102,1,0,0:0:0:0:
192,192,78174,1,0,0:0:0:0:
320,192,78245,128,0,78459:0:0:0:0:
448,192,78459,128,0,78674:0:0:0:0:
64,192,78459,128,0,78674:0:0:0:0:
320,192,78674,1,0,0:0:0:0:
192,192,78674,128,0,78781:0:0:0:0:
64,192,78781,128,0,78888:0:0:0:0:
320,192,78888,1,0,0:0:0:0:
448,192,78888,1,0,0:0:0:0:
192,192,78995,128,0,79102:0:0:0:0:
64,192,79102,1,0,0:0:0:0:
320,192,79209,128,0,79745:0:0:0:0:
448,192,79317,128,0,79531:0:0:0:0:
192,192,79317,1,0,0:0:0:0:
64,192,79638,1,0,0:0:0:0:
448,192,79745,1,0,0:0:0:0:
192,192,79745,1,0,0:0:0:0:
320,192,79852,128,0,80174:0:0:0:0:
64,192,80174,128,0,80281:0:0:0:0:
448,192,80174,128,0,80388:0:0:0:0:
192,192,80388,128,0,80495:0:0:0:0:
448,192,80495,128,0,80602:0:0:0:0:
320,192,80495,128,0,80602:0:0:0:0:
192,192,80602,1,0,0:0:0:0:
64,192,80602,1,0,0:0:0:0:
448,192,80709,128,0,80924:0:0:0:0:
64,192,80924,128,0,81138:0:0:0:0:
448,192,81031,1,0,0:0:0:0:
192,192,81031,1,0,0:0:0:0:
320,192,81138,128,0,81245:0:0:0:0:
192,192,81245,128,0,81352:0:0:0:0:
64,192,81352,128,0,81459:0:0:0:0:
448,192,81459,1,0,0:0:0:0:
192,192,81459,1,0,0:0:0:0:
320,192,81567,128,0,81674:0:0:0:0:
64,192,81674,128,0,81781:0:0:0:0:
320,192,81781,128,0,81888:0:0:0:0:
448,192,81888,1,0,0:0:0:0:
192,192,81888,1,0,0:0:0:0:
64,192,81995,128,0,82102:0:0:0:0:
320,192,82102,128,0,82209:0:0:0:0:
192,192,82209,128,0,82317:0:0:0:0:
64,192,82317,128,0,82424:0:0:0:0:
448,192,82317,1,0,0:0:0:0:
320,192,82424,128,0,82531:0:0:0:0:
192,192,82531,128,0,82638:0:0:0:0:
448,192,82638,128,0,82745:0:0:0:0:
64,192,82745,128,0,83174:0:0:0:0:
320,192,82745,128,0,82959:0:0:0:0:
192,192,82959,128,0,83067:0:0:0:0:
448,192,83067,128,0,83281:0:0:0:0:
320,192,83174,1,0,0:0:0:0:
64,192,83281,128,0,83388:0:0:0:0:
192,192,83388,1,0,0:0:0:0:
448,192,83495,128,0,83602:0:0:0:0:
192,192,83602,1,0,0:0:0:0:
64,192,83602,1,0,0:0:0:0:
320,192,83709,128,0,83817:0:0:0:0:
448,192,83709,1,0,0:0:0:0:
64,192,83817,128,0,84031:0:0:0:0:
448,192,84031,128,0,84138:0:0:0:0:
64,192,84138,128,0,84245:0:0:0:0:
320,192,84138,128,0,84459:0:0:0:0:
64,192,84352,1,0,0:0:0:0:
448,192,84459,1,0,0:0:0:0:
192,192,84567,1,0,0:0:0:0:
320,192,84674,128,0,84888:0:0:0:0:
64,192,84781,128,0,84888:0:0:0:0:
448,192,84888,1,0,0:0:0:0:
192,192,84995,128,0,85209:0:0:0:0:
448,192,85102,128,0,85209:0:0:0:0:
64,192,85209,128,0,85317:0:0:0:0:
192,192,85459,1,0,0:0:0:0:
448,192,85531,1,0,0:0:0:0:
320,192,85602,1,0,0:0:0:0:
64,192,85674,1,0,0:0:0:0:
448,192,85745,128,0,85959:0:0:0:0:
192,192,85745,1,0,0:0:0:0:
320,192,85852,128,0,85959:0:0:0:0:
192,192,85959,128,0,86174:0:0:0:0:
64,192,86067,128,0,86174:0:0:0:0:
448,192,86174,1,0,0:0:0:0:
320,192,86174,1,0,0:0:0:0:
448,192,86388,1,0,0:0:0:0:
320,192,86388,1,0,0:0:0:0:
64,192,86602,1,0,0:0:0:0:
320,192,86709,1,0,0:0:0:0:
192,192,86763,1,0,0:0:0:0:
64,192,86817,128,0,86924:0:0:0:0:
448,192,86924,128,0,87031:0:0:0:0:
320,192,87031,128,0,87138:0:0:0:0:
192,192,87138,128,0,87245:0:0:0:0:
64,192,87245,128,0,87352:0:0:0:0:
320,192,87352,128,0,87459:0:0:0:0:
448,192,87459,128,0,87567:0:0:0:0:
192,192,87567,128,0,87674:0:0:0:0:
320,192,87674,128,0,87888:0:0:0:0:
64,192,87781,128,0,87888:0:0:0:0:
448,192,87888,128,0,87995:0:0:0:0:
192,192,87888,128,0,87995:0:0:0:0:
64,192,88102,128,0,88209:0:0:0:0:
320,192,88209,128,0,88317:0:0:0:0:
64,192,88317,1,0,0:0:0:0:
448,192,88317,1,0,0:0:0:0:
192,192,88424,128,0,88745:0:0:0:0:
448,192,88638,1,0,0:0:0:0:
320,192,88692,1,0,0:0:0:0:
64,192,88745,128,0,88852:0:0:0:0:
448,192,88852,128,0,88959:0:0:0:0:
64,192,88959,1,0,0:0:0:0:
320,192,89067,128,0,89281:0:0:0:0:
192,192,89174,1,0,0:0:0:0:
64,192,89281,128,0,89388:0:0:0:0:
448,192,89388,128,0,89495:0:0:0:0:
192,192,89495,128,0,89602:0:0:0:0:
64,192,89602,128,0,89709:0:0:0:0:
448,192,89709,128,0,89817:0:0:0:0:
192,192,89924,1,0,0:0:0:0:
320,192,90031,128,0,90138:0:0:0:0:
64,192,90031,1,0,0:0:0:0:
448,192,90138,128,0,90245:0:0:0:0:
192,192,90245,128,0,90352:0:0:0:0:
64,192,90352,128,0,90459:0:0:0:0:
320,192,90459,128,0,90674:0:0:0:0:
192,192,90567,128,0,90674:0:0:0:0:
448,192,90674,1,0,0:0:0:0:
192,192,90781,128,0,90888:0:0:0:0:
448,192,90888,128,0,90995:0:0:0:0:
64,192,90888,1,0,0:0:0:0:
320,192,90995,128,0,91317:0:0:0:0:
64,192,91209,128,0,91317:0:0:0:0:
192,192,91317,128,0,91424:0:0:0:0:
320,192,91424,128,0,91531:0:0:0:0:
448,192,91531,128,0,91638:0:0:0:0:
64,192,91638,128,0,91745:0:0:0:0:
320,192,91745,128,0,91852:0:0:0:0:
448,192,91745,1,0,0:0:0:0:
192,192,91852,128,0,91959:0:0:0:0:
64,192,91959,128,0,92067:0:0:0:0:
320,192,92067,128,0,92174:0:0:0:0:
448,192,92174,128,0,92281:0:0:0:0:
64,192,92281,128,0,92388:0:0:0:0:
320,192,92388,128,0,92495:0:0:0:0:
192,192,92495,128,0,92709:0:0:0:0:
64,192,92602,1,0,0:0:0:0:
448,192,92709,128,0,92817:0:0:0:0:
192,192,92817,128,0,92924:0:0:0:0:
64,192,92924,128,0,93031:0:0:0:0:
320,192,93031,128,0,93138:0:0:0:0:
192,192,93138,128,0,93245:0:0:0:0:
448,192,93245,128,0,93352:0:0:0:0:
64,192,93352,128,0,93459:0:0:0:0:
192,192,93459,1,0,0:0:0:0:
320,192,93459,128,0,93567:0:0:0:0:
64,192,93567,128,0,93674:0:0:0:0:
448,192,93674,128,0,93781:0:0:0:0:
320,192,93781,128,0,93888:0:0:0:0:
192,192,93888,128,0,93995:0:0:0:0:
64,192,93995,128,0,94102:0:0:0:0:
448,192,94102,128,0,94209:0:0:0:0:
192,192,94209,128,0,94317:0:0:0:0:
448,192,94317,1,0,0:0:0:0:
64,192,94317,128,0,94459:0:0:0:0:
320,192,94459,128,0,94602:0:0:0:0:
192,192,94602,128,0,94745:0:0:0:0:
64,192,94745,128,0,94888:0:0:0:0:
320,192,94888,128,0,95031:0:0:0:0:
192,192,95031,128,0,95174:0:0:0:0:
448,192,95174,128,0,95388:0:0:0:0:
64,192,95174,1,0,0:0:0:0:
192,192,95388,128,0,95602:0:0:0:0:
448,192,95602,1,0,0:0:0:0:
320,192,95674,1,0,0:0:0:0:
192,192,95745,1,0,0:0:0:0:
64,192,95817,1,0,0:0:0:0:
448,192,95924,1,0,0:0:0:0:
192,192,96031,128,0,96138:0:0:0:0:
320,192,96031,1,0,0:0:0:0:
64,192,96138,128,0,96352:0:0:0:0:
448,192,96352,128,0,96459:0:0:0:0:
64,192,96459,128,0,96567:0:0:0:0:
320,192,96459,128,0,96567:0:0:0:0:
320,192,96674,128,0,96781:0:0:0:0:
64,192,96781,128,0,96888:0:0:0:0:
192,192,96888,1,0,0:0:0:0:
320,192,96995,128,0,97102:0:0:0:0:
64,192,97102,128,0,97209:0:0:0:0:
448,192,97209,128,0,97317:0:0:0:0:
192,192,97317,128,0,97424:0:0:0:0:
320,192,97424,128,0,97531:0:0:0:0:
64,192,97531,128,0,97638:0:0:0:0:
448,192,97638,128,0,97745:0:0:0:0:
192,192,97745,1,0,0:0:0:0:
320,192,97852,128,0,97959:0:0:0:0:
64,192,97959,128,0,98067:0:0:0:0:
448,192,98067,128,0,98174:0:0:0:0:
64,192,98174,1,0,0:0:0:0:
192,192,98174,128,0,98281:0:0:0:0:
320,192,98281,128,0,98602:0:0:0:0:
64,192,98495,128,0,98602:0:0:0:0:
448,192,98602,1,0,0:0:0:0:
192,192,98709,128,0,98924:0:0:0:0:
64,192,98924,128,0,99031:0:0:0:0:
320,192,99031,128,0,99138:0:0:0:0:
448,192,99031,1,0,0:0:0:0:
192,192,99138,128,0,99459:0:0:0:0:
448,192,99352,128,0,99459:0:0:0:0:
320,192,99459,128,0,99781:0:0:0:0:
64,192,99459,128,0,99781:0:0:0:0:
448,192,99567,128,0,99781:0:0:0:0:
192,192,99781,128,0,99888:0:0:0:0:
64,192,99888,1,0,0:0:0:0:
448,192,99959,1,0,0:0:0:0:
320,192,100031,1,0,0:0:0:0:
192,192,100102,1,0,0:0:0:0:
64,192,100209,1,0,0:0:0:0:
448,192,100317,1,0,0:0:0:0:
320,192,100424,1,0,0:0:0:0:
64,192,100531,1,0,0:0:0:0:
192,192,100531,1,0,0:0:0:0:
448,192,100638,1,0,0:0:0:0:
320,192,100745,1,0,0:0:0:0:
192,192,100852,1,0,0:0:0:0:
64,192,100959,1,0,0:0:0:0:
448,192,101067,1,0,0:0:0:0:
192,192,101174,1,0,0:0:0:0:
320,192,101281,1,0,0:0:0:0:
448,192,101388,1,0,0:0:0:0:
64,192,101495,1,0,0:0:0:0:
320,192,101709,1,0,0:0:0:0:
320,192,101924,1,0,0:0:0:0:
64,192,102031,1,0,0:0:0:0:
448,192,102138,1,0,0:0:0:0:
192,192,102245,1,0,0:0:0:0:
320,192,102388,1,0,0:0:0:0:
64,192,102567,1,0,0:0:0:0:
192,192,102674,1,0,0:0:0:0:
448,192,102781,1,0,0:0:0:0:
320,192,102888,1,0,0:0:0:0:
64,192,103102,1,0,0:0:0:0:
192,192,103102,1,0,0:0:0:0:
192,192,103317,128,0,103531:0:0:0:0:
448,192,103317,128,0,103531:0:0:0:0:
64,192,103531,128,0,103638:0:0:0:0:
448,192,103638,128,0,103745:0:0:0:0:
192,192,103745,128,0,103959:0:0:0:0:
64,192,103852,128,0,103959:0:0:0:0:
320,192,103959,1,0,0:0:0:0:
448,192,103959,128,0,104174:0:0:0:0:
64,192,104174,128,0,104281:0:0:0:0:
320,192,104281,128,0,104388:0:0:0:0:
192,192,104388,128,0,104495:0:0:0:0:
448,192,104495,128,0,104602:0:0:0:0:
320,192,104602,128,0,104924:0:0:0:0:
64,192,104709,128,0,104817:0:0:0:0:
448,192,104817,128,0,104924:0:0:0:0:
192,192,104924,128,0,105031:0:0:0:0:
64,192,105031,1,0,0:0:0:0:
448,192,105031,1,0,0:0:0:0:
192,192,105138,128,0,105245:0:0:0:0:
320,192,105245,1,0,0:0:0:0:
448,192,105352,128,0,105459:0:0:0:0:
64,192,105459,1,0,0:0:0:0:
320,192,105567,128,0,105674:0:0:0:0:
192,192,105674,1,0,0:0:0:0:
64,192,105781,128,0,105888:0:0:0:0:
448,192,105888,1,0,0:0:0:0:
192,192,105995,128,0,106102:0:0:0:0:
64,192,106102,1,0,0:0:0:0:
320,192,106209,128,0,106317:0:0:0:0:
448,192,106317,1,0,0:0:0:0:
64,192,106370,128,0,106531:0:0:0:0:
192,192,106424,128,0,106584:0:0:0:0:
320,192,106477,128,0,106638:0:0:0:0:
448,192,106531,128,0,106638:0:0:0:0:
192,192,106745,128,0,106852:0:0:0:0:
64,192,106745,128,0,106959:0:0:0:0:
448,192,106959,1,0,0:0:0:0:
192,192,107067,128,0,107174:0:0:0:0:
64,192,107174,1,0,0:0:0:0:
320,192,107174,1,0,0:0:0:0:
448,192,107388,128,0,107602:0:0:0:0:
64,192,107388,128,0,107602:0:0:0:0:
192,192,107602,1,0,0:0:0:0:
64,192,107709,1,0,0:0:0:0:
448,192,107709,1,0,0:0:0:0:
320,192,107817,128,0,108031:0:0:0:0:
448,192,108031,128,0,108245:0:0:0:0:
64,192,108031,1,0,0:0:0:0:
192,192,108245,128,0,108352:0:0:0:0:
448,192,108459,128,0,108674:0:0:0:0:
192,192,108459,128,0,108674:0:0:0:0:
64,192,108674,1,0,0:0:0:0:
448,192,108781,128,0,108888:0:0:0:0:
192,192,108888,1,0,0:0:0:0:
320,192,108888,1,0,0:0:0:0:
448,192,108995,128,0,109102:0:0:0:0:
64,192,108995,128,0,109102:0:0:0:0:
192,192,109209,128,0,109424:0:0:0:0:
320,192,109209,128,0,109317:0:0:0:0:
320,192,109424,128,0,109531:0:0:0:0:
448,192,109424,128,0,109531:0:0:0:0:
192,192,109531,128,0,109745:0:0:0:0:
448,192,109638,128,0,109745:0:0:0:0:
64,192,109745,1,0,0:0:0:0:
320,192,109745,1,0,0:0:0:0:
448,192,109852,128,0,110067:0:0:0:0:
192,192,109852,128,0,109959:0:0:0:0:
64,192,110067,128,0,110174:0:0:0:0:
448,192,110174,1,0,0:0:0:0:
320,192,110281,1,0,0:0:0:0:
448,192,110495,128,0,110709:0:0:0:0:
64,192,110495,128,0,110709:0:0:0:0:
320,192,110602,1,0,0:0:0:0:
192,192,110602,1,0,0:0:0:0:
192,192,110817,128,0,111031:0:0:0:0:
448,192,110924,128,0,111031:0:0:0:0:
64,192,111031,128,0,111138:0:0:0:0:
448,192,111138,128,0,111245:0:0:0:0:
192,192,111138,1,0,0:0:0:0:
320,192,111245,128,0,111352:0:0:0:0:
192,192,111352,128,0,111459:0:0:0:0:
64,192,111459,1,0,0:0:0:0:
448,192,111459,128,0,111567:0:0:0:0:
192,192,111567,128,0,111674:0:0:0:0:
320,192,111674,128,0,111781:0:0:0:0:
64,192,111781,128,0,111888:0:0:0:0:
192,192,111888,128,0,112102:0:0:0:0:
448,192,111888,128,0,112102:0:0:0:0:
64,192,112102,128,0,112209:0:0:0:0:
448,192,112209,128,0,112317:0:0:0:0:
192,192,112317,1,0,0:0:0:0:
320,192,112317,1,0,0:0:0:0:
64,192,112424,128,0,112531:0:0:0:0:
448,192,112531,128,0,112638:0:0:0:0:
64,192,112638,128,0,112745:0:0:0:0:
448,192,112745,128,0,112852:0:0:0:0:
192,192,112745,128,0,112852:0:0:0:0:
320,192,112852,128,0,112959:0:0:0:0:
192,192,112959,128,0,113174:0:0:0:0:
448,192,113067,128,0,113174:0:0:0:0:
64,192,113174,128,0,113281:0:0:0:0:
320,192,113174,128,0,113281:0:0:0:0:
448,192,113281,128,0,113495:0:0:0:0:
192,192,113495,128,0,113602:0:0:0:0:
64,192,113602,128,0,113817:0:0:0:0:
320,192,113602,128,0,113817:0:0:0:0:
192,192,113924,128,0,114031:0:0:0:0:
448,192,114031,1,0,0:0:0:0:
320,192,114031,1,0,0:0:0:0:
64,192,114245,128,0,114459:0:0:0:0:
320,192,114459,128,0,114567:0:0:0:0:
64,192,114567,1,0,0:0:0:0:
448,192,114567,1,0,0:0:0:0:
192,192,114674,128,0,114888:0:0:0:0:
448,192,114781,128,0,114888:0:0:0:0:
64,192,114888,1,0,0:0:0:0:
320,192,114888,1,0,0:0:0:0:
448,192,114995,128,0,115209:0:0:0:0:
64,192,115102,128,0,115209:0:0:0:0:
320,192,115209,128,0,115317:0:0:0:0:
192,192,115317,1,0,0:0:0:0:
64,192,115388,1,0,0:0:0:0:
448,192,115459,1,0,0:0:0:0:
320,192,115531,128,0,115745:0:0:0:0:
448,192,115745,1,0,0:0:0:0:
192,192,115745,1,0,0:0:0:0:
64,192,115852,128,0,115959:0:0:0:0:
320,192,115852,128,0,115959:0:0:0:0:
448,192,116067,128,0,116174:0:0:0:0:
64,192,116281,128,0,116388:0:0:0:0:
192,192,116281,128,0,116388:0:0:0:0:
448,192,116495,128,0,116602:0:0:0:0:
320,192,116495,128,0,116602:0:0:0:0:
64,192,116602,1,0,0:0:0:0:
320,192,116709,128,0,116924:0:0:0:0:
448,192,116709,128,0,116817:0:0:0:0:
192,192,116924,128,0,117031:0:0:0:0:
64,192,116924,128,0,117031:0:0:0:0:
320,192,117138,128,0,117245:0:0:0:0:
192,192,117245,128,0,117352:0:0:0:0:
448,192,117352,128,0,117459:0:0:0:0:
192,192,117459,128,0,117567:0:0:0:0:
64,192,117459,1,0,0:0:0:0:
320,192,117567,128,0,117674:0:0:0:0:
64,192,117674,128,0,117781:0:0:0:0:
448,192,117781,128,0,117888:0:0:0:0:
192,192,117888,128,0,117995:0:0:0:0:
448,192,117995,1,0,0:0:0:0:
320,192,117995,128,0,118102:0:0:0:0:
64,192,118102,128,0,118209:0:0:0:0:
448,192,118209,128,0,118317:0:0:0:0:
192,192,118317,1,0,0:0:0:0:
320,192,118317,128,0,118424:0:0:0:0:
64,192,118424,128,0,118531:0:0:0:0:
448,192,118531,1,0,0:0:0:0:
320,192,118602,1,0,0:0:0:0:
192,192,118674,1,0,0:0:0:0:
448,192,118745,1,0,0:0:0:0:
64,192,118745,128,0,118959:0:0:0:0:
320,192,118852,128,0,118959:0:0:0:0:
448,192,118959,128,0,119174:0:0:0:0:
64,192,119067,128,0,119174:0:0:0:0:
192,192,119174,128,0,119388:0:0:0:0:
320,192,119281,128,0,119388:0:0:0:0:
448,192,119388,128,0,119602:0:0:0:0:
64,192,119495,128,0,119602:0:0:0:0:
192,192,119602,1,0,0:0:0:0:
320,192,119674,1,0,0:0:0:0:
448,192,119745,1,0,0:0:0:0:
64,192,119817,128,0,120031:0:0:0:0:
320,192,119924,128,0,120031:0:0:0:0:
448,192,120031,128,0,120138:0:0:0:0:
192,192,120031,128,0,120245:0:0:0:0:
64,192,120138,128,0,120245:0:0:0:0:
448,192,120245,128,0,120459:0:0:0:0:
64,192,120459,128,0,120567:0:0:0:0:
320,192,120459,128,0,120567:0:0:0:0:
192,192,120674,1,0,0:0:0:0:
320,192,120781,1,0,0:0:0:0:
192,192,120888,128,0,121102:0:0:0:0:
448,192,120995,128,0,121102:0:0:0:0:
64,192,121102,128,0,121209:0:0:0:0:
320,192,121209,128,0,121317:0:0:0:0:
192,192,121424,128,0,121531:0:0:0:0:
320,192,121638,128,0,121745:0:0:0:0:
64,192,121745,1,0,0:0:0:0:
448,192,121852,128,0,121959:0:0:0:0:
64,192,122067,128,0,122602:0:0:0:0:
448,192,122174,128,0,122281:0:0:0:0:
192,192,122174,128,0,122281:0:0:0:0:
448,192,122495,1,0,0:0:0:0:
192,192,122709,128,0,122924:0:0:0:0:
448,192,122817,128,0,122924:0:0:0:0:
64,192,122924,128,0,123031:0:0:0:0:
448,192,123031,1,0,0:0:0:0:
320,192,123102,1,0,0:0:0:0:
192,192,123174,1,0,0:0:0:0:
448,192,123245,128,0,123459:0:0:0:0:
320,192,123459,1,0,0:0:0:0:
64,192,123459,128,0,123567:0:0:0:0:
448,192,123567,128,0,123888:0:0:0:0:
192,192,123781,128,0,123888:0:0:0:0:
64,192,123888,128,0,124102:0:0:0:0:
448,192,124102,1,0,0:0:0:0:
320,192,124209,128,0,124424:0:0:0:0:
64,192,124424,1,0,0:0:0:0:
448,192,124531,128,0,124959:0:0:0:0:
192,192,124531,1,0,0:0:0:0:
64,192,124852,128,0,124959:0:0:0:0:
320,192,124959,128,0,125067:0:0:0:0:
192,192,125174,1,0,0:0:0:0:
448,192,125174,128,0,125281:0:0:0:0:
64,192,125281,128,0,125388:0:0:0:0:
448,192,125495,128,0,125602:0:0:0:0:
64,192,125602,128,0,125817:0:0:0:0:
320,192,125602,128,0,125817:0:0:0:0:
448,192,125817,1,0,0:0:0:0:
192,192,125924,1,0,0:0:0:0:
320,192,126031,1,0,0:0:0:0:
64,192,126138,1,0,0:0:0:0:
448,192,126245,1,0,0:0:0:0:
192,192,126352,1,0,0:0:0:0:
448,192,126459,128,0,126567:0:0:0:0:
64,192,126567,128,0,126674:0:0:0:0:
192,192,126674,1,0,0:0:0:0:
448,192,126745,1,0,0:0:0:0:
320,192,126817,1,0,0:0:0:0:
64,192,126888,128,0,126995:0:0:0:0:
192,192,126888,128,0,126995:0:0:0:0:
320,192,126995,128,0,127102:0:0:0:0:
448,192,126995,128,0,127102:0:0:0:0:
64,192,127102,128,0,127209:0:0:0:0:
448,192,127209,128,0,127317:0:0:0:0:
64,192,127317,1,0,0:0:0:0:
448,192,127424,1,0,0:0:0:0:
320,192,127477,1,0,0:0:0:0:
192,192,127531,128,0,127638:0:0:0:0:
64,192,127638,128,0,127745:0:0:0:0:
448,192,127745,128,0,127852:0:0:0:0:
192,192,127852,128,0,127959:0:0:0:0:
320,192,127959,128,0,128067:0:0:0:0:
64,192,128067,128,0,128174:0:0:0:0:
448,192,128174,128,0,128281:0:0:0:0:
192,192,128281,128,0,128388:0:0:0:0:
64,192,128388,128,0,128495:0:0:0:0:
448,192,128495,128,0,128602:0:0:0:0:
192,192,128602,128,0,128709:0:0:0:0:
64,192,128602,1,0,0:0:0:0:
448,192,128709,128,0,128817:0:0:0:0:
192,192,128817,128,0,128924:0:0:0:0:
320,192,128924,128,0,129031:0:0:0:0:
64,192,129031,128,0,129245:0:0:0:0:
448,192,129031,128,0,129138:0:0:0:0:
448,192,129245,128,0,129459:0:0:0:0:
64,192,129459,128,0,129567:0:0:0:0:
320,192,129567,128,0,129781:0:0:0:0:
192,192,129781,128,0,129888:0:0:0:0:
448,192,129781,1,0,0:0:0:0:
64,192,129995,1,0,0:0:0:0:
320,192,129995,128,0,130102:0:0:0:0:
448,192,130209,128,0,130424:0:0:0:0:
64,192,130209,128,0,130424:0:0:0:0:
192,192,130317,1,0,0:0:0:0:
320,192,130531,128,0,130638:0:0:0:0:
192,192,130638,128,0,130745:0:0:0:0:
448,192,130745,128,0,130852:0:0:0:0:
64,192,130852,128,0,130959:0:0:0:0:
448,192,130959,128,0,131067:0:0:0:0:
64,192,131067,128,0,131174:0:0:0:0:
320,192,131174,128,0,131281:0:0:0:0:
192,192,131281,128,0,131388:0:0:0:0:
320,192,131388,128,0,131495:0:0:0:0:
192,192,131495,128,0,131602:0:0:0:0:
320,192,131602,128,0,131709:0:0:0:0:
64,192,131709,128,0,131817:0:0:0:0:
448,192,131817,128,0,131924:0:0:0:0:
64,192,131924,128,0,132031:0:0:0:0:
192,192,132031,1,0,0:0:0:0:
448,192,132031,128,0,132138:0:0:0:0:
320,192,132138,128,0,132245:0:0:0:0:
192,192,132245,128,0,132352:0:0:0:0:
64,192,132352,128,0,132459:0:0:0:0:
448,192,132459,128,0,132674:0:0:0:0:
320,192,132567,128,0,132674:0:0:0:0:
192,192,132674,128,0,132781:0:0:0:0:
64,192,132781,128,0,132995:0:0:0:0:
448,192,132888,128,0,132995:0:0:0:0:
320,192,132995,128,0,133102:0:0:0:0:
192,192,133102,128,0,133317:0:0:0:0:
64,192,133209,128,0,133317:0:0:0:0:
448,192,133317,128,0,133424:0:0:0:0:
320,192,133424,128,0,133531:0:0:0:0:
64,192,133531,1,0,0:0:0:0:
448,192,133602,1,0,0:0:0:0:
320,192,133674,1,0,0:0:0:0:
64,192,133745,128,0,133852:0:0:0:0:
192,192,133745,128,0,133852:0:0:0:0:
320,192,133852,128,0,133959:0:0:0:0:
448,192,133852,128,0,133959:0:0:0:0:
192,192,134067,128,0,134174:0:0:0:0:
320,192,134174,128,0,134388:0:0:0:0:
64,192,134174,128,0,134281:0:0:0:0:
448,192,134388,128,0,134495:0:0:0:0:
192,192,134495,1,0,0:0:0:0:
320,192,134602,128,0,134817:0:0:0:0:
64,192,134709,128,0,134817:0:0:0:0:
448,192,134817,128,0,134924:0:0:0:0:
192,192,134924,128,0,135031:0:0:0:0:
320,192,135138,128,0,135245:0:0:0:0:
192,192,135352,128,0,135459:0:0:0:0:
448,192,135459,1,0,0:0:0:0:
64,192,135567,128,0,135674:0:0:0:0:
448,192,135781,128,0,136317:0:0:0:0:
64,192,135888,128,0,135995:0:0:0:0:
320,192,135888,128,0,135995:0:0:0:0:
64,192,136209,1,0,0:0:0:0:
320,192,136424,128,0,136638:0:0:0:0:
64,192,136531,128,0,136638:0:0:0:0:
448,192,136638,128,0,136745:0:0:0:0:
64,192,136745,1,0,0:0:0:0:
192,192,136817,1,0,0:0:0:0:
320,192,136888,1,0,0:0:0:0:
64,192,136959,128,0,137174:0:0:0:0:
192,192,137174,1,0,0:0:0:0:
448,192,137174,128,0,137281:0:0:0:0:
64,192,137281,128,0,137602:0:0:0:0:
320,192,137495,128,0,137602:0:0:0:0:
192,192,137602,1,0,0:0:0:0:
448,192,137602,128,0,137817:0:0:0:0:
64,192,137817,128,0,137924:0:0:0:0:
320,192,137924,128,0,138031:0:0:0:0:
192,192,138031,128,0,138138:0:0:0:0:
448,192,138138,128,0,138245:0:0:0:0:
64,192,138245,128,0,138352:0:0:0:0:
320,192,138352,128,0,138459:0:0:0:0:
192,192,138459,128,0,138567:0:0:0:0:
448,192,138567,128,0,138674:0:0:0:0:
64,192,138674,128,0,138781:0:0:0:0:
320,192,138781,128,0,138888:0:0:0:0:
192,192,138888,1,0,0:0:0:0:
64,192,138995,128,0,139209:0:0:0:0:
320,192,139102,128,0,139317:0:0:0:0:
448,192,139209,128,0,139317:0:0:0:0:
64,192,139317,128,0,139424:0:0:0:0:
192,192,139317,128,0,139424:0:0:0:0:
448,192,139424,128,0,139531:0:0:0:0:
192,192,139531,128,0,139638:0:0:0:0:
320,192,139638,128,0,139745:0:0:0:0:
448,192,139745,128,0,139852:0:0:0:0:
64,192,139745,1,0,0:0:0:0:
192,192,139852,128,0,139959:0:0:0:0:
320,192,139959,128,0,140067:0:0:0:0:
64,192,140067,128,0,140174:0:0:0:0:
448,192,140174,1,0,0:0:0:0:
320,192,140174,128,0,140281:0:0:0:0:
64,192,140281,1,0,0:0:0:0:
192,192,140281,128,0,140388:0:0:0:0:
320,192,140388,1,0,0:0:0:0:
192,192,140495,1,0,0:0:0:0:
448,192,140602,128,0,140709:0:0:0:0:
64,192,140602,128,0,140709:0:0:0:0:
192,192,140709,128,0,140817:0:0:0:0:
320,192,140709,128,0,140817:0:0:0:0:
448,192,140817,128,0,141031:0:0:0:0:
192,192,140924,128,0,141031:0:0:0:0:
64,192,141031,128,0,141245:0:0:0:0:
320,192,141031,128,0,141245:0:0:0:0:
448,192,141245,1,0,0:0:0:0:
320,192,141352,1,0,0:0:0:0:
64,192,141459,1,0,0:0:0:0:
448,192,141567,1,0,0:0:0:0:
320,192,141620,1,0,0:0:0:0:
192,192,141674,1,0,0:0:0:0:
448,192,141781,128,0,141888:0:0:0:0:
64,192,141888,128,0,141995:0:0:0:0:
320,192,141995,128,0,142102:0:0:0:0:
192,192,142102,128,0,142317:0:0:0:0:
448,192,142102,128,0,142209:0:0:0:0:
64,192,142209,128,0,142317:0:0:0:0:
320,192,142317,128,0,142424:0:0:0:0:
448,192,142424,128,0,142638:0:0:0:0:
192,192,142424,128,0,142531:0:0:0:0:
64,192,142531,128,0,142638:0:0:0:0:
320,192,142638,128,0,142745:0:0:0:0:
64,192,142745,128,0,142852:0:0:0:0:
192,192,142745,128,0,142852:0:0:0:0:
448,192,142959,128,0,143067:0:0:0:0:
64,192,143067,1,0,0:0:0:0:
448,192,143174,128,0,143388:0:0:0:0:
192,192,143174,128,0,143281:0:0:0:0:
320,192,143281,128,0,143388:0:0:0:0:
192,192,143495,1,0,0:0:0:0:
64,192,143495,128,0,143602:0:0:0:0:
192,192,143709,128,0,143817:0:0:0:0:
448,192,143709,1,0,0:0:0:0:
192,192,143924,128,0,144245:0:0:0:0:
448,192,143924,1,0,0:0:0:0:
320,192,144138,1,0,0:0:0:0:
448,192,144138,128,0,144245:0:0:0:0:
64,192,144245,128,0,144352:0:0:0:0:
192,192,144352,128,0,144459:0:0:0:0:
448,192,144459,128,0,144567:0:0:0:0:
64,192,144567,128,0,144674:0:0:0:0:
320,192,144674,128,0,144781:0:0:0:0:
64,192,144781,128,0,145102:0:0:0:0:
192,192,144888,1,0,0:0:0:0:
448,192,144888,1,0,0:0:0:0:
320,192,144995,128,0,145209:0:0:0:0:
64,192,145209,1,0,0:0:0:0:
448,192,145209,128,0,145531:0:0:0:0:
192,192,145424,128,0,145638:0:0:0:0:
64,192,145638,128,0,145852:0:0:0:0:
448,192,145745,1,0,0:0:0:0:
320,192,145745,1,0,0:0:0:0:
192,192,145852,128,0,145959:0:0:0:0:
448,192,145959,128,0,146067:0:0:0:0:
64,192,146067,128,0,146174:0:0:0:0:
320,192,146174,128,0,146281:0:0:0:0:
192,192,146281,128,0,146388:0:0:0:0:
448,192,146388,128,0,146495:0:0:0:0:
64,192,146388,128,0,146495:0:0:0:0:
320,192,146495,128,0,146602:0:0:0:0:
192,192,146602,128,0,146709:0:0:0:0:
64,192,146709,128,0,146817:0:0:0:0:
448,192,146709,128,0,146817:0:0:0:0:
320,192,146817,128,0,146924:0:0:0:0:
192,192,146924,128,0,147031:0:0:0:0:
64,192,147031,128,0,147138:0:0:0:0:
448,192,147138,128,0,147245:0:0:0:0:
320,192,147138,128,0,147245:0:0:0:0:
192,192,147245,128,0,147352:0:0:0:0:
64,192,147352,128,0,147459:0:0:0:0:
448,192,147459,128,0,147567:0:0:0:0:
320,192,147459,128,0,147567:0:0:0:0:
192,192,147567,128,0,147674:0:0:0:0:
320,192,147674,128,0,147781:0:0:0:0:
448,192,147781,128,0,147888:0:0:0:0:
64,192,147888,128,0,148102:0:0:0:0:
192,192,147888,1,0,0:0:0:0:
192,192,148102,128,0,148317:0:0:0:0:
320,192,148102,128,0,148317:0:0:0:0:
64,192,148317,1,0,0:0:0:0:
448,192,148317,1,0,0:0:0:0:
320,192,148424,128,0,148531:0:0:0:0:
64,192,148638,128,0,148745:0:0:0:0:
192,192,148638,128,0,148745:0:0:0:0:
320,192,148852,128,0,148959:0:0:0:0:
448,192,149067,128,0,149174:0:0:0:0:
64,192,149174,1,0,0:0:0:0:
192,192,149281,128,0,149602:0:0:0:0:
320,192,149281,128,0,149388:0:0:0:0:
448,192,149495,128,0,149602:0:0:0:0:
320,192,149602,128,0,149817:0:0:0:0:
64,192,149602,128,0,149817:0:0:0:0:
448,192,149817,128,0,149924:0:0:0:0:
64,192,149924,1,0,0:0:0:0:
448,192,150031,128,0,150138:0:0:0:0:
320,192,150031,128,0,150138:0:0:0:0:
192,192,150138,128,0,150245:0:0:0:0:
192,192,150352,128,0,150459:0:0:0:0:
64,192,150567,128,0,150674:0:0:0:0:
320,192,150674,1,0,0:0:0:0:
448,192,150781,128,0,150995:0:0:0:0:
192,192,150888,128,0,151102:0:0:0:0:
64,192,150888,1,0,0:0:0:0:
320,192,150995,128,0,151102:0:0:0:0:
448,192,151102,128,0,151209:0:0:0:0:
192,192,151209,128,0,151317:0:0:0:0:
64,192,151317,128,0,151531:0:0:0:0:
320,192,151317,1,0,0:0:0:0:
448,192,151531,128,0,151745:0:0:0:0:
320,192,151745,128,0,151959:0:0:0:0:
64,192,151745,1,0,0:0:0:0:
192,192,151852,128,0,151959:0:0:0:0:
320,192,152067,128,0,152174:0:0:0:0:
64,192,152067,128,0,152388:0:0:0:0:
448,192,152174,1,0,0:0:0:0:
192,192,152281,128,0,152388:0:0:0:0:
320,192,152388,128,0,152602:0:0:0:0:
448,192,152602,128,0,152709:0:0:0:0:
64,192,152602,1,0,0:0:0:0:
192,192,152709,128,0,152924:0:0:0:0:
320,192,152924,128,0,153031:0:0:0:0:
448,192,153031,128,0,153138:0:0:0:0:
64,192,153031,1,0,0:0:0:0:
192,192,153138,128,0,153245:0:0:0:0:
320,192,153245,128,0,153352:0:0:0:0:
448,192,153352,128,0,153567:0:0:0:0:
64,192,153352,128,0,153459:0:0:0:0:
192,192,153459,1,0,0:0:0:0:
64,192,153567,128,0,153781:0:0:0:0:
448,192,153674,128,0,153781:0:0:0:0:
192,192,153781,128,0,153888:0:0:0:0:
320,192,153888,1,0,0:0:0:0:
64,192,153995,1,0,0:0:0:0:
448,192,153995,1,0,0:0:0:0:
320,192,154102,128,0,154317:0:0:0:0:
448,192,154209,128,0,154317:0:0:0:0:
64,192,154317,1,0,0:0:0:0:
192,192,154388,1,0,0:0:0:0:
320,192,154459,1,0,0:0:0:0:
448,192,154531,128,0,154745:0:0:0:0:
64,192,154638,128,0,154745:0:0:0:0:
320,192,154745,1,0,0:0:0:0:
448,192,154852,128,0,154959:0:0:0:0:
64,192,154852,128,0,155067:0:0:0:0:
192,192,154959,128,0,155067:0:0:0:0:
448,192,155067,128,0,155174:0:0:0:0:
64,192,155174,128,0,155388:0:0:0:0:
320,192,155174,1,0,0:0:0:0:
192,192,155281,128,0,155388:0:0:0:0:
448,192,155388,128,0,155495:0:0:0:0:
320,192,155495,128,0,155602:0:0:0:0:
64,192,155602,128,0,155709:0:0:0:0:
448,192,155709,128,0,155924:0:0:0:0:
320,192,155817,128,0,155924:0:0:0:0:
192,192,155924,128,0,156138:0:0:0:0:
64,192,155924,128,0,156138:0:0:0:0:
320,192,156031,1,0,0:0:0:0:
448,192,156138,128,0,156352:0:0:0:0:
64,192,156245,128,0,156352:0:0:0:0:
192,192,156352,128,0,156459:0:0:0:0:
448,192,156459,128,0,156567:0:0:0:0:
448,192,156674,128,0,156781:0:0:0:0:
64,192,156781,128,0,156888:0:0:0:0:
448,192,156888,1,0,0:0:0:0:
320,192,156888,1,0,0:0:0:0:
64,192,156995,128,0,157102:0:0:0:0:
448,192,157209,128,0,157317:0:0:0:0:
192,192,157209,128,0,157317:0:0:0:0:
320,192,157424,128,0,157531:0:0:0:0:
448,192,157638,128,0,157852:0:0:0:0:
192,192,157745,1,0,0:0:0:0:
64,192,157745,1,0,0:0:0:0:
320,192,157852,128,0,158067:0:0:0:0:
192,192,157959,128,0,158067:0:0:0:0:
448,192,158067,128,0,158174:0:0:0:0:
64,192,158174,1,0,0:0:0:0:
448,192,158281,128,0,158388:0:0:0:0:
192,192,158281,128,0,158495:0:0:0:0:
320,192,158388,128,0,158495:0:0:0:0:
64,192,158495,128,0,158602:0:0:0:0:
448,192,158602,128,0,158709:0:0:0:0:
320,192,158602,128,0,158817:0:0:0:0:
192,192,158709,128,0,158817:0:0:0:0:
64,192,158817,128,0,158924:0:0:0:0:
448,192,158924,128,0,159138:0:0:0:0:
192,192,159031,1,0,0:0:0:0:
64,192,159138,128,0,159245:0:0:0:0:
320,192,159245,128,0,159352:0:0:0:0:
192,192,159352,128,0,159567:0:0:0:0:
64,192,159459,1,0,0:0:0:0:
448,192,159459,128,0,159567:0:0:0:0:
320,192,159567,128,0,159674:0:0:0:0:
192,192,159674,128,0,159781:0:0:0:0:
64,192,159781,128,0,159888:0:0:0:0:
448,192,159888,1,0,0:0:0:0:
64,192,159995,1,0,0:0:0:0:
192,192,159995,128,0,160102:0:0:0:0:
320,192,160102,128,0,160209:0:0:0:0:
448,192,160209,128,0,160424:0:0:0:0:
192,192,160317,1,0,0:0:0:0:
320,192,160424,128,0,160531:0:0:0:0:
64,192,160531,128,0,160638:0:0:0:0:
448,192,160638,128,0,160959:0:0:0:0:
192,192,160638,128,0,160959:0:0:0:0:
320,192,161174,128,0,161388:0:0:0:0:
448,192,161602,128,0,162031:0:0:0:0:
64,192,161602,128,0,162031:0:0:0:0:
320,192,162245,1,0,0:0:0:0:
192,192,162352,1,0,0:0:0:0:
64,192,162459,128,0,162674:0:0:0:0:
448,192,162459,128,0,162674:0:0:0:0:
320,192,162567,1,0,0:0:0:0:
192,192,162674,1,0,0:0:0:0:
448,192,162781,1,0,0:0:0:0:
192,192,162888,1,0,0:0:0:0:
320,192,162995,1,0,0:0:0:0:
64,192,163102,1,0,0:0:0:0:
448,192,163209,1,0,0:0:0:0:
192,192,163317,128,0,163531:0:0:0:0:
448,192,163531,128,0,163745:0:0:0:0:
192,192,163745,128,0,163959:0:0:0:0:
320,192,163852,128,0,163959:0:0:0:0:
448,192,163852,128,0,163959:0:0:0:0:
64,192,163959,128,0,164174:0:0:0:0:
448,192,164174,128,0,164388:0:0:0:0:
192,192,164174,128,0,164602:0:0:0:0:
64,192,164495,1,0,0:0:0:0:
448,192,164602,1,0,0:0:0:0:
320,192,164602,1,0,0:0:0:0:
192,192,164709,128,0,165031:0:0:0:0:
64,192,165031,128,0,165245:0:0:0:0:
448,192,165031,128,0,165138:0:0:0:0:
448,192,165245,128,0,165352:0:0:0:0:
64,192,165352,128,0,165459:0:0:0:0:
192,192,165352,128,0,165459:0:0:0:0:
448,192,165459,1,0,0:0:0:0:
320,192,165459,1,0,0:0:0:0:
192,192,165567,128,0,165888:0:0:0:0:
64,192,165567,128,0,165674:0:0:0:0:
64,192,165888,128,0,166317:0:0:0:0:
320,192,165888,128,0,166102:0:0:0:0:
320,192,166317,128,0,166531:0:0:0:0:
448,192,166317,1,0,0:0:0:0:
64,192,166424,128,0,166745:0:0:0:0:
448,192,166745,128,0,166959:0:0:0:0:
320,192,166745,128,0,166959:0:0:0:0:
64,192,166959,128,0,167174:0:0:0:0:
448,192,167174,128,0,167388:0:0:0:0:
192,192,167174,128,0,167388:0:0:0:0:
64,192,167388,128,0,167602:0:0:0:0:
448,192,167602,128,0,167817:0:0:0:0:
320,192,167602,128,0,168031:0:0:0:0:
192,192,167924,1,0,0:0:0:0:
448,192,168031,1,0,0:0:0:0:
64,192,168031,1,0,0:0:0:0:
320,192,168138,128,0,168459:0:0:0:0:
192,192,168245,1,0,0:0:0:0:
64,192,168459,128,0,168888:0:0:0:0:
448,192,168459,128,0,168674:0:0:0:0:
192,192,168674,128,0,168781:0:0:0:0:
448,192,168781,128,0,168888:0:0:0:0:
192,192,168888,1,0,0:0:0:0:
320,192,168888,1,0,0:0:0:0:
448,192,168995,128,0,169102:0:0:0:0:
64,192,169209,128,0,169531:0:0:0:0:
320,192,169209,128,0,169317:0:0:0:0:
192,192,169317,128,0,169531:0:0:0:0:
448,192,169531,128,0,169638:0:0:0:0:
320,192,169638,1,0,0:0:0:0:
64,192,169745,1,0,0:0:0:0:
192,192,169745,1,0,0:0:0:0:
448,192,169817,1,0,0:0:0:0:
320,192,169888,1,0,0:0:0:0:
192,192,169959,128,0,170174:0:0:0:0:
64,192,170174,128,0,170388:0:0:0:0:
448,192,170174,128,0,170388:0:0:0:0:
192,192,170388,1,0,0:0:0:0:
320,192,170388,128,0,170495:0:0:0:0:
448,192,170495,128,0,170602:0:0:0:0:
192,192,170602,1,0,0:0:0:0:
64,192,170602,1,0,0:0:0:0:
320,192,170709,128,0,170817:0:0:0:0:
448,192,170817,1,0,0:0:0:0:
192,192,170924,128,0,171459:0:0:0:0:
64,192,171031,128,0,171245:0:0:0:0:
320,192,171031,1,0,0:0:0:0:
448,192,171352,1,0,0:0:0:0:
64,192,171459,1,0,0:0:0:0:
320,192,171459,1,0,0:0:0:0:
192,192,171567,128,0,171888:0:0:0:0:
448,192,171888,128,0,171995:0:0:0:0:
64,192,171888,128,0,172102:0:0:0:0:
320,192,172102,128,0,172209:0:0:0:0:
64,192,172209,128,0,172317:0:0:0:0:
192,192,172209,128,0,172317:0:0:0:0:
320,192,172317,1,0,0:0:0:0:
448,192,172317,1,0,0:0:0:0:
64,192,172424,128,0,172638:0:0:0:0:
448,192,172638,128,0,172852:0:0:0:0:
64,192,172745,1,0,0:0:0:0:
320,192,172745,1,0,0:0:0:0:
192,192,172852,128,0,172959:0:0:0:0:
320,192,172959,128,0,173067:0:0:0:0:
448,192,173067,128,0,173174:0:0:0:0:
64,192,173174,1,0,0:0:0:0:
320,192,173174,1,0,0:0:0:0:
192,192,173281,128,0,173388:0:0:0:0:
448,192,173388,128,0,173495:0:0:0:0:
192,192,173495,128,0,173602:0:0:0:0:
64,192,173602,1,0,0:0:0:0:
320,192,173602,1,0,0:0:0:0:
448,192,173709,128,0,173817:0:0:0:0:
192,192,173817,128,0,173924:0:0:0:0:
320,192,173924,128,0,174031:0:0:0:0:
448,192,174031,128,0,174138:0:0:0:0:
64,192,174031,1,0,0:0:0:0:
192,192,174138,128,0,174245:0:0:0:0:
320,192,174245,128,0,174352:0:0:0:0:
64,192,174352,128,0,174459:0:0:0:0:
448,192,174459,128,0,174888:0:0:0:0:
192,192,174459,128,0,174674:0:0:0:0:
320,192,174674,128,0,174781:0:0:0:0:
64,192,174781,128,0,174995:0:0:0:0:
192,192,174888,1,0,0:0:0:0:
448,192,174995,128,0,175102:0:0:0:0:
320,192,175102,1,0,0:0:0:0:
64,192,175209,128,0,175317:0:0:0:0:
320,192,175317,1,0,0:0:0:0:
448,192,175317,1,0,0:0:0:0:
192,192,175424,128,0,175531:0:0:0:0:
64,192,175424,1,0,0:0:0:0:
448,192,175531,128,0,175745:0:0:0:0:
64,192,175745,128,0,175852:0:0:0:0:
448,192,175852,128,0,175959:0:0:0:0:
192,192,175852,128,0,176174:0:0:0:0:
64,192,176067,128,0,176388:0:0:0:0:
448,192,176174,1,0,0:0:0:0:
320,192,176174,1,0,0:0:0:0:
448,192,176388,128,0,176602:0:0:0:0:
192,192,176388,128,0,176602:0:0:0:0:
320,192,176602,1,0,0:0:0:0:
192,192,176745,128,0,176888:0:0:0:0:
64,192,176745,128,0,176888:0:0:0:0:
320,192,176888,128,0,177031:0:0:0:0:
448,192,176888,128,0,177031:0:0:0:0:
64,192,177031,128,0,177174:0:0:0:0:
192,192,177174,128,0,177317:0:0:0:0:
448,192,177174,128,0,177317:0:0:0:0:
64,192,177317,128,0,177459:0:0:0:0:
320,192,177317,128,0,177459:0:0:0:0:
448,192,177459,128,0,177602:0:0:0:0:
192,192,177602,128,0,177745:0:0:0:0:
64,192,177602,128,0,177745:0:0:0:0:
448,192,177745,128,0,177888:0:0:0:0:
320,192,177745,128,0,177888:0:0:0:0:
64,192,177888,128,0,177995:0:0:0:0:
448,192,178102,1,0,0:0:0:0:
64,192,178102,128,0,178209:0:0:0:0:
192,192,178317,128,0,178424:0:0:0:0:
448,192,178424,128,0,178531:0:0:0:0:
320,192,178424,128,0,178531:0:0:0:0:
192,192,178531,128,0,178638:0:0:0:0:
320,192,178638,128,0,178852:0:0:0:0:
64,192,178852,128,0,178959:0:0:0:0:
320,192,178959,128,0,179067:0:0:0:0:
448,192,179067,128,0,179281:0:0:0:0:
64,192,179174,1,0,0:0:0:0:
320,192,179281,128,0,179495:0:0:0:0:
64,192,179495,128,0,179602:0:0:0:0:
320,192,179602,128,0,179709:0:0:0:0:
192,192,179602,128,0,179709:0:0:0:0:
448,192,179709,128,0,179817:0:0:0:0:
64,192,179817,128,0,179924:0:0:0:0:
192,192,179924,128,0,180031:0:0:0:0:
320,192,180031,128,0,180245:0:0:0:0:
64,192,180138,128,0,180245:0:0:0:0:
448,192,180245,128,0,180352:0:0:0:0:
192,192,180352,128,0,180567:0:0:0:0:
64,192,180352,128,0,180567:0:0:0:0:
448,192,180567,128,0,180674:0:0:0:0:
320,192,180567,128,0,180674:0:0:0:0:
64,192,180674,128,0,180781:0:0:0:0:
192,192,180781,128,0,180888:0:0:0:0:
448,192,180888,128,0,180995:0:0:0:0:
192,192,180995,128,0,181102:0:0:0:0:
64,192,181102,128,0,181209:0:0:0:0:
448,192,181209,128,0,181424:0:0:0:0:
320,192,181209,128,0,181424:0:0:0:0:
192,192,181424,128,0,181531:0:0:0:0:
64,192,181531,128,0,181638:0:0:0:0:
320,192,181638,128,0,181745:0:0:0:0:
192,192,181745,128,0,181959:0:0:0:0:
448,192,181745,128,0,181852:0:0:0:0:
64,192,181959,128,0,182067:0:0:0:0:
448,192,182067,128,0,182174:0:0:0:0:
192,192,182174,128,0,182388:0:0:0:0:
64,192,182174,1,0,0:0:0:0:
448,192,182281,1,0,0:0:0:0:
64,192,182388,128,0,182495:0:0:0:0:
320,192,182495,128,0,182602:0:0:0:0:
192,192,182602,1,0,0:0:0:0:
448,192,182602,128,0,182709:0:0:0:0:
64,192,182709,128,0,182817:0:0:0:0:
320,192,182817,128,0,182924:0:0:0:0:
192,192,182924,128,0,183031:0:0:0:0:
448,192,183031,128,0,183138:0:0:0:0:
64,192,183031,1,0,0:0:0:0:
320,192,183138,128,0,183245:0:0:0:0:
192,192,183245,128,0,183459:0:0:0:0:
64,192,183352,128,0,183459:0:0:0:0:
320,192,183459,1,0,0:0:0:0:
448,192,183567,128,0,183674:0:0:0:0:
64,192,183567,128,0,183674:0:0:0:0:
192,192,183674,128,0,183781:0:0:0:0:
320,192,183781,128,0,183888:0:0:0:0:
192,192,183888,128,0,183995:0:0:0:0:
64,192,183888,128,0,183995:0:0:0:0:
448,192,183995,128,0,184102:0:0:0:0:
320,192,184102,128,0,184209:0:0:0:0:
448,192,184209,128,0,184317:0:0:0:0:
64,192,184209,128,0,184317:0:0:0:0:
192,192,184317,128,0,184424:0:0:0:0:
320,192,184424,128,0,184531:0:0:0:0:
192,192,184531,128,0,184638:0:0:0:0:
448,192,184638,128,0,184745:0:0:0:0:
64,192,184745,128,0,185067:0:0:0:0:
320,192,184745,128,0,184852:0:0:0:0:
192,192,184959,128,0,185067:0:0:0:0:
448,192,185067,128,0,185174:0:0:0:0:
320,192,185174,1,0,0:0:0:0:
64,192,185174,1,0,0:0:0:0:
192,192,185281,128,0,185388:0:0:0:0:
320,192,185388,1,0,0:0:0:0:
192,192,185495,128,0,185709:0:0:0:0:
448,192,185495,128,0,185602:0:0:0:0:
64,192,185602,1,0,0:0:0:0:
320,192,185709,128,0,185817:0:0:0:0:
64,192,185817,128,0,185924:0:0:0:0:
448,192,185924,128,0,186031:0:0:0:0:
64,192,186031,1,0,0:0:0:0:
192,192,186031,1,0,0:0:0:0:
448,192,186138,128,0,186245:0:0:0:0:
320,192,186138,128,0,186245:0:0:0:0:
64,192,186245,1,0,0:0:0:0:
192,192,186352,128,0,186567:0:0:0:0:
448,192,186459,128,0,186567:0:0:0:0:
64,192,186567,128,0,186781:0:0:0:0:
320,192,186674,128,0,186781:0:0:0:0:
192,192,186781,128,0,186888:0:0:0:0:
64,192,186888,128,0,186995:0:0:0:0:
448,192,186888,128,0,186995:0:0:0:0:
320,192,186995,128,0,187209:0:0:0:0:
192,192,187102,128,0,187209:0:0:0:0:
448,192,187209,128,0,187317:0:0:0:0:
192,192,187317,128,0,187424:0:0:0:0:
64,192,187317,128,0,187424:0:0:0:0:
448,192,187424,128,0,187531:0:0:0:0:
320,192,187424,128,0,187531:0:0:0:0:
64,192,187531,128,0,187638:0:0:0:0:
192,192,187638,128,0,187745:0:0:0:0:
448,192,187745,128,0,187959:0:0:0:0:
320,192,187852,128,0,187959:0:0:0:0:
64,192,187959,1,0,0:0:0:0:
448,192,188067,128,0,188174:0:0:0:0:
64,192,188174,1,0,0:0:0:0:
320,192,188281,128,0,188495:0:0:0:0:
192,192,188281,128,0,188388:0:0:0:0:
64,192,188495,1,0,0:0:0:0:
448,192,188602,128,0,188817:0:0:0:0:
192,192,188602,128,0,188709:0:0:0:0:
320,192,188817,1,0,0:0:0:0:
64,192,188924,128,0,189031:0:0:0:0:
192,192,188924,128,0,189138:0:0:0:0:
448,192,189031,128,0,189138:0:0:0:0:
320,192,189138,128,0,189245:0:0:0:0:
64,192,189138,128,0,189245:0:0:0:0:
448,192,189245,1,0,0:0:0:0:
192,192,189317,1,0,0:0:0:0:
320,192,189388,1,0,0:0:0:0:
64,192,189459,128,0,189674:0:0:0:0:
448,192,189567,128,0,189995:0:0:0:0:
64,192,189781,128,0,189995:0:0:0:0:
192,192,189781,128,0,189995:0:0:0:0:
320,192,189781,128,0,189995:0:0:0:0:
448,192,190102,1,0,0:0:0:0:
320,192,190174,1,0,0:0:0:0:
192,192,190245,1,0,0:0:0:0:
64,192,190317,1,0,0:0:0:0:
320,192,190388,1,0,0:0:0:0:
448,192,190459,1,0,0:0:0:0:
64,192,190531,1,0,0:0:0:0:
192,192,190531,1,0,0:0:0:0:
