osu file format v14

[General]
AudioFilename: audio.mp3
AudioLeadIn: 0
PreviewTime: 71642
Countdown: 0
SampleSet: Soft
StackLeniency: 0.7
Mode: 0
LetterboxInBreaks: 0
WidescreenStoryboard: 0

[Editor]
DistanceSpacing: 0.2
BeatDivisor: 8
GridSize: 32
TimelineZoom: 2.3

[Metadata]
Title:piano x forte
TitleUnicode:piano x forte
Artist:OSTER project
ArtistUnicode:OSTER project
Creator:DeviousPanda
Version:Fortissimo
Source:
Tags:instrumental jazz recursive call o!wc owc 2020 qf nm6 kowari kyrian ピアノ×フォルテ×スキャンダル Piano x Forte x Scandal
BeatmapID:2689460
BeatmapSetID:1296249

[Difficulty]
HPDrainRate:5
CircleSize:4
OverallDifficulty:9
ApproachRate:9.4
SliderMultiplier:2.8
SliderTickRate:1

[Events]
//Background and Video events
0,0,"flowers ethereal.jpg",0,0
//Break Periods
2,100893,102832
//Storyboard Layer 0 (Background)
//Storyboard Layer 1 (Fail)
//Storyboard Layer 2 (Pass)
//Storyboard Layer 3 (Foreground)
//Storyboard Layer 4 (Overlay)
//Storyboard Sound Samples

[TimingPoints]
1372,428.571428571429,4,2,1,50,1,0
1372,-125,4,2,1,50,0,0
14657,-125,4,2,1,60,0,0
15086,-66.6666666666667,4,2,1,70,0,0
15514,-90.9090909090909,4,2,1,70,0,0
16800,-71.4285714285714,4,2,1,70,0,0
17336,-90.9090909090909,4,2,1,70,0,0
28800,-125,4,2,1,60,0,0
42193,-83.3333333333333,4,2,1,60,0,0
42514,-125,4,2,1,65,0,0
48943,-100,4,2,1,65,0,0
49372,-90.9090909090909,4,2,1,65,0,0
49907,-100,4,2,1,65,0,0
56229,-200,4,2,1,80,0,1
56444,-66.6666666666667,4,2,1,80,0,1
65550,-76.9230769230769,4,2,1,80,0,1
66300,-66.6666666666667,4,2,1,80,0,1
68979,-66.6666666666667,4,2,1,60,0,0
72193,-58.8235294117647,4,2,1,70,0,0
72514,-83.3333333333333,4,2,1,90,0,1
73907,-62.5,4,2,1,90,0,1
74443,-83.3333333333333,4,2,1,90,0,1
83872,-125,4,2,1,90,0,1
84193,-83.3333333333333,4,2,1,90,0,1
84622,-71.4285714285714,4,2,1,90,0,1
84943,-55.5555555555556,4,2,1,90,0,1
85264,-100,4,2,1,90,0,1
86229,-100,4,2,1,60,0,0
105086,-100,4,2,1,50,0,0
106372,-125,4,2,1,60,0,0
106800,-66.6666666666667,4,2,1,70,0,0
107229,-90.9090909090909,4,2,1,70,0,0
108514,-71.4285714285714,4,2,1,70,0,0
109050,-90.9090909090909,4,2,1,70,0,0
111943,-76.9230769230769,4,2,1,70,0,0
112800,-71.4285714285714,4,2,1,70,0,0
113657,-90.9090909090909,4,2,1,70,0,0
118800,-111.111111111111,4,2,1,70,0,0
120514,-125,4,2,1,60,0,0
133907,-83.3333333333333,4,2,1,60,0,0
134228,-125,4,2,1,65,0,0
140657,-83.3333333333333,4,2,1,65,0,0
141086,-71.4285714285714,4,2,1,65,0,0
142800,-83.3333333333333,4,2,1,65,0,0
143336,-66.6666666666667,4,2,1,65,0,0
144943,-100,4,2,1,65,0,0
146229,-133.333333333333,4,2,1,65,0,0
146443,-66.6666666666667,4,2,1,65,0,0
146657,-133.333333333333,4,2,1,65,0,0
146979,-66.6666666666667,4,2,1,65,0,0
147943,-133.333333333333,4,2,1,80,0,1
148157,-66.6666666666667,4,2,1,80,0,1
152443,-58.8235294117647,4,2,1,80,0,1
153086,-66.6666666666667,4,2,1,80,0,1
157264,-76.9230769230769,4,2,1,80,0,1
158014,-66.6666666666667,4,2,1,80,0,1
160693,-66.6666666666667,4,2,1,60,0,0
163907,-66.6666666666667,4,2,1,70,0,0
164229,-66.6666666666667,4,2,1,90,0,1
165086,-76.9230769230769,4,2,1,90,0,1
165943,-66.6666666666667,4,2,1,90,0,1
166479,-76.9230769230769,4,2,1,90,0,1
175586,-125,4,2,1,90,0,1
175907,-83.3333333333333,4,2,1,90,0,1
176229,-66.6666666666667,4,2,1,100,0,1
177229,-125,4,2,1,100,0,1
177729,-66.6666666666667,4,2,1,100,0,1
188336,-62.5,4,2,1,100,0,1
188657,-50,4,2,1,100,0,1
188978,-100,4,2,1,100,0,1
189836,-125,4,2,1,100,0,0

[Colours]
Combo1 : 248,183,255
Combo2 : 137,254,227
Combo3 : 203,183,255
Combo4 : 141,218,254

[HitObjects]
189,30,1372,6,0,P|198:128|203:213,1,168,6|0,3:2|0:0,0:0:0:0:
258,295,1800,6,0,P|294:285|334:276,1,56,10|2,3:2|0:0,0:0:0:0:
315,178,2014,1,2,0:3:0:0:
315,178,2122,2,0,P|250:194|192:202,1,112,2|2,0:0|0:0,0:0:0:0:
456,119,2550,5,2,0:0:0:0:
456,119,2657,2,0,P|495:125|522:131,1,56,10|0,3:2|0:0,0:0:0:0:
376,23,2872,1,2,0:3:0:0:
376,23,2979,2,0,P|337:17|310:11,1,56,2|0,0:0|0:0,0:0:0:0:
487,6,3193,5,10,3:2:0:0:
487,6,3300,1,2,0:2:0:0:
487,6,3407,1,2,0:0:0:0:
356,99,3622,1,2,3:2:0:0:
440,185,3836,1,2,0:0:0:0:
440,185,3943,1,2,0:0:0:0:
331,273,4157,6,0,P|275:277|210:288,1,112,6|0,3:2|0:0,0:0:0:0:
148,264,4479,2,0,P|143:233|159:209,1,56,10|2,3:2|0:3,0:0:0:0:
250,197,4693,5,2,0:0:0:0:
250,197,4800,2,0,P|252:297|247:366,1,168,0|2,3:0|0:0,0:0:0:0:
323,352,5336,1,2,3:2:0:0:
390,384,5550,1,2,3:2:0:0:
457,345,5764,5,10,3:2:0:0:
470,331,5872,1,2,0:0:0:0:
474,313,5979,1,2,3:2:0:0:
469,295,6086,1,2,0:0:0:0:
457,284,6193,1,2,3:2:0:0:
439,278,6300,1,2,0:0:0:0:
423,278,6407,1,2,3:2:0:0:
411,287,6514,1,2,3:0:0:0:
405,300,6622,6,0,P|368:303|327:314,1,56,2|10,3:2|3:2,0:0:0:0:
300,209,6836,2,0,P|337:206|422:190,1,112,2|0,0:0|0:0,0:0:0:0:
512,231,7157,5,10,3:2:0:0:
512,231,7264,1,2,3:2:0:0:
512,231,7372,1,2,3:2:0:0:
477,148,7586,6,0,P|482:93|491:38,1,112,4|0,3:2|0:0,0:0:0:0:
326,27,7907,2,0,P|320:82|311:137,1,112,10|0,3:2|0:0,0:0:0:0:
401,86,8229,5,2,3:0:0:0:
258,196,8443,5,2,3:2:0:0:
226,199,8550,1,2,0:3:0:0:
199,183,8657,1,8,3:2:0:0:
190,155,8764,1,2,0:0:0:0:
267,78,8979,5,2,3:2:0:0:
112,182,9193,5,0,3:0:0:0:
164,82,9407,5,2,0:3:0:0:
132,101,9514,1,10,3:2:0:0:
96,93,9622,1,2,0:0:0:0:
56,7,9836,5,2,3:0:0:0:
115,185,10050,2,0,P|120:246|118:312,1,112,10|0,3:2|3:0,0:0:0:0:
222,241,10372,5,2,0:0:0:0:
222,241,10479,2,0,P|225:204|238:146,1,56,2|0,3:0|0:0,0:0:0:0:
21,230,10693,5,2,0:0:0:0:
21,230,10800,2,0,P|20:270|14:315,1,56,0|2,3:0|0:0,0:0:0:0:
210,317,11014,6,0,P|276:302|293:238,1,112,6|2,3:2|0:3,0:0:0:0:
365,231,11336,1,2,0:0:0:0:
379,207,11443,1,10,3:2:0:0:
373,184,11550,1,2,0:0:0:0:
295,188,11657,6,0,P|309:280|321:399,1,168,2|2,3:2|3:2,0:0:0:0:
317,354,12086,1,2,0:0:0:0:
436,281,12300,1,2,0:0:0:0:
436,281,12407,1,2,3:2:0:0:
186,229,12622,6,0,P|181:176|182:158,1,56,10|2,3:2|0:3,0:0:0:0:
186,168,12800,1,2,0:0:0:0:
192,163,12872,1,2,0:0:0:0:
198,158,12943,2,0,P|198:114|195:92,1,56,2|0,0:0|3:0,0:0:0:0:
256,46,13157,5,0,3:2:0:0:
260,39,13229,1,0,3:2:0:0:
264,32,13300,1,0,3:2:0:0:
268,26,13372,6,0,P|310:17|343:6,2,56,0|2|8,1:0|0:0|3:2,0:0:0:0:
278,117,13693,5,2,0:0:0:0:
303,133,13800,2,0,P|345:124|378:113,1,56,2|2,3:2|0:0,0:0:0:0:
272,222,14014,5,10,3:2:0:0:
321,250,14121,2,0,P|363:241|396:230,1,56,2|2,0:0|3:2,0:0:0:0:
207,361,14336,5,2,0:0:0:0:
282,349,14443,1,10,3:2:0:0:
358,338,14550,1,2,0:0:0:0:
443,294,14657,6,0,L|454:243,2,28,6|2|2,1:2|0:0|0:0,0:0:0:0:
507,337,14872,6,0,L|518:286,3,28,10|2|2|2,3:2|0:0|0:0|0:0,0:0:0:0:
504,340,15086,6,0,P|448:323|439:183,1,210.000008010865,6|8,1:2|0:0,0:0:0:0:
512,153,15407,1,2,3:0:0:0:
512,153,15514,2,0,P|505:196|504:243,1,77.0000023498536,8|0,3:1|0:0,0:0:0:0:
294,234,15729,5,10,3:2:0:0:
292,182,15836,1,2,0:3:0:0:
279,132,15943,1,0,1:0:0:0:
342,75,16050,5,8,0:1:0:0:
342,75,16157,2,0,P|386:94|391:144,1,77.0000023498536,10|0,3:2|0:0,0:0:0:0:
377,267,16372,5,8,3:1:0:0:
377,267,16586,1,10,0:0:0:0:
503,242,16800,6,0,B|426:204|381:280|385:304|390:332|361:402|280:371,1,293.999991027832,4|0,1:2|0:0,0:0:0:0:
205,384,17229,1,8,3:1:0:0:
279,365,17336,2,0,P|284:320|298:256,1,77.0000023498536,2|8,3:2|0:0,0:0:0:0:
149,329,17550,6,0,P|162:260|171:188,1,115.50000352478,2|0,3:2|0:0,0:0:0:0:
168,215,17764,1,0,3:0:0:0:
224,192,17872,1,10,1:2:0:0:
216,141,17979,1,2,3:2:0:0:
286,73,18086,5,8,3:1:0:0:
286,73,18193,2,0,P|352:79|364:168,1,154.000004699707,2|2,3:2|0:2,0:0:0:0:
316,294,18514,5,0,1:0:0:0:
272,274,18622,1,2,0:0:0:0:
225,292,18729,1,10,0:0:0:0:
184,361,18836,5,2,3:2:0:0:
184,361,18943,2,0,P|172:249|161:188,1,154.000004699707,8|2,3:1|3:2,0:0:0:0:
165,208,19264,1,0,3:0:0:0:
190,167,19372,1,2,1:2:0:0:
155,122,19479,1,8,0:1:0:0:
107,123,19586,1,2,3:2:0:0:
54,106,19693,1,2,3:2:0:0:
44,60,19800,1,8,3:1:0:0:
59,25,19907,1,2,0:0:0:0:
85,13,20014,1,2,0:0:0:0:
104,24,20122,1,2,0:0:0:0:
58,110,20229,6,0,P|41:204|36:275,1,154.000004699707,6|2,1:2|3:0,0:0:0:0:
110,366,20550,1,2,3:2:0:0:
110,366,20657,2,0,P|106:280|101:256,1,77.0000023498536,8|2,3:1|0:0,0:0:0:0:
12,187,20872,5,10,0:0:0:0:
12,187,20979,1,2,0:0:0:0:
69,122,21086,6,0,P|111:118|169:100,1,77.0000023498536,0|8,1:0|3:2,0:0:0:0:
144,109,21247,1,8,0:0:0:0:
144,109,21300,2,0,P|134:155|131:199,1,77.0000023498536,10|2,3:2|0:0,0:0:0:0:
302,87,21514,5,8,3:1:0:0:
302,87,21622,2,0,P|287:173|278:252,1,154.000004699707,2|2,3:2|0:3,0:0:0:0:
134,355,21943,5,6,1:2:0:0:
12,187,22264,5,2,3:2:0:0:
37,116,22372,2,0,B|87:112|100:149|98:153|97:156|110:200|166:192,1,154.000004699707,8|2,3:1|0:0,0:0:0:0:
157,192,22693,1,2,3:2:0:0:
187,163,22800,1,0,1:0:0:0:
228,160,22907,1,10,3:2:0:0:
268,183,23014,1,2,3:2:0:0:
299,230,23122,1,2,0:0:0:0:
339,264,23229,1,8,3:1:0:0:
395,262,23336,1,2,3:2:0:0:
422,208,23443,2,0,P|416:160|413:118,1,77.0000023498536,2|2,0:3|0:0,0:0:0:0:
279,59,23657,5,14,1:2:0:0:
277,71,23729,1,10,0:0:0:0:
276,84,23800,1,10,0:0:0:0:
274,96,23872,1,10,0:0:0:0:
512,321,24086,5,8,1:0:0:0:
503,245,24193,2,0,P|492:160|482:51,2,154.000004699707,2|2|8,3:2|3:2|0:1,0:0:0:0:
420,303,24729,5,8,3:3:0:0:
420,303,24836,1,4,0:3:0:0:
418,381,24943,2,0,P|351:341|349:266,1,154.000004699707,8|10,3:1|3:2,0:0:0:0:
439,170,25264,5,2,3:2:0:0:
439,170,25372,2,0,P|395:168|326:155,1,77.0000023498536,6|2,1:2|3:2,0:0:0:0:
267,371,25586,5,2,0:0:0:0:
193,342,25693,1,2,1:2:0:0:
267,371,25800,2,0,P|310:372|380:386,1,77.0000023498536,8|2,3:1|0:0,0:0:0:0:
344,267,26014,5,2,3:2:0:0:
344,267,26122,1,2,3:0:0:0:
344,267,26229,1,6,1:2:0:0:
295,290,26336,1,8,0:1:0:0:
235,278,26443,1,2,3:2:0:0:
206,227,26550,1,2,0:0:0:0:
222,167,26657,1,8,3:1:0:0:
200,112,26764,1,2,0:0:0:0:
146,109,26872,5,10,0:0:0:0:
139,114,26943,1,10,0:0:0:0:
133,121,27015,1,10,0:0:0:0:
130,127,27086,1,12,1:0:0:0:
114,203,27300,5,2,3:2:0:0:
114,203,27407,1,2,3:2:0:0:
168,256,27622,5,2,3:2:0:0:
240,230,27836,5,2,3:2:0:0:
258,159,27943,5,10,3:2:0:0:
258,150,28014,1,10,0:0:0:0:
257,142,28086,1,10,0:0:0:0:
255,135,28157,1,10,3:2:0:0:
377,251,28372,5,6,1:2:0:0:
377,251,28479,2,0,P|387:155|404:65,1,154.000004699707,2|2,3:2|0:0,0:0:0:0:
396,98,28800,5,6,1:2:0:0:
253,0,29122,5,2,3:2:0:0:
253,0,29229,1,8,0:1:0:0:
200,4,29336,1,2,0:0:0:0:
178,57,29443,1,2,3:2:0:0:
247,109,29550,5,2,0:0:0:0:
130,162,29764,5,2,0:3:0:0:
286,273,29979,5,2,0:0:0:0:
288,229,30086,1,10,3:2:0:0:
258,203,30193,1,2,0:0:0:0:
31,170,30407,5,2,0:0:0:0:
65,236,30514,2,0,P|80:323|83:374,1,112,6|2,1:2|0:0,0:0:0:0:
152,307,30836,2,0,P|145:254|142:203,1,56,2|0,3:2|0:0,0:0:0:0:
136,158,31050,5,2,3:2:0:0:
151,116,31157,1,2,3:0:0:0:
121,81,31264,1,2,0:0:0:0:
47,88,31372,5,10,1:2:0:0:
38,85,31443,1,10,0:0:0:0:
30,80,31514,1,10,0:0:0:0:
25,74,31586,1,10,3:2:0:0:
245,5,31800,5,8,0:1:0:0:
214,22,31907,1,2,0:0:0:0:
208,53,32014,1,2,3:0:0:0:
57,199,32229,6,0,P|172:178|254:173,2,168,0|2|10,1:0|3:2|3:2,0:0:0:0:
138,153,33193,5,10,0:0:0:0:
138,153,33246,1,10,0:0:0:0:
138,153,33300,1,10,0:0:0:0:
26,274,33514,5,8,0:1:0:0:
80,327,33622,2,0,P|108:325|133:283,1,56,2|2,0:0|3:0,0:0:0:0:
279,277,33836,5,2,0:0:0:0:
249,348,33943,2,0,P|256:269|267:212,1,112,6|2,1:2|3:2,0:0:0:0:
261,236,34264,1,0,1:0:0:0:
238,191,34372,1,8,0:1:0:0:
267,141,34479,1,2,0:0:0:0:
324,140,34586,1,2,0:3:0:0:
365,108,34693,1,2,0:0:0:0:
357,57,34800,5,6,1:2:0:0:
283,61,34907,1,0,3:0:0:0:
213,21,35014,5,10,3:2:0:0:
208,28,35086,1,10,3:2:0:0:
205,36,35157,1,10,3:2:0:0:
202,44,35229,6,0,P|210:99|210:134,1,56,8|8,1:0|3:0,0:0:0:0:
361,55,35443,2,0,P|353:0|353:-35,1,56,8|4,0:1|3:0,0:0:0:0:
277,158,35657,6,0,P|333:168|363:178,1,56,6|10,1:2|0:0,0:0:0:0:
332,167,35818,1,10,0:0:0:0:
332,167,35872,2,0,P|322:222|320:243,1,56,10|0,3:2|1:0,0:0:0:0:
480,245,36086,5,8,3:1:0:0:
498,285,36193,1,2,3:2:0:0:
483,334,36300,1,2,3:0:0:0:
425,346,36407,1,2,3:2:0:0:
378,301,36514,1,2,0:0:0:0:
361,239,36622,1,2,3:2:0:0:
304,214,36729,1,10,3:2:0:0:
242,230,36836,1,2,0:0:0:0:
219,299,36943,1,8,3:1:0:0:
291,384,37050,5,10,3:2:0:0:
298,361,37157,1,2,3:0:0:0:
308,340,37264,1,2,3:2:0:0:
380,303,37372,5,6,1:2:0:0:
207,190,37586,5,2,3:2:0:0:
437,113,37800,5,10,1:2:0:0:
437,113,37907,1,2,3:2:0:0:
268,0,38068,5,8,0:0:0:0:
268,0,38122,2,0,P|273:44|274:71,1,56,10|0,3:2|1:0,0:0:0:0:
349,74,38336,2,0,P|344:30|343:3,1,56,2|10,3:2|3:2,0:0:0:0:
202,86,38550,5,2,0:0:0:0:
202,86,38657,2,0,P|264:94|283:139,1,112,8|2,3:1|3:0,0:0:0:0:
282,134,38979,1,8,3:0:0:0:
312,211,39086,5,2,1:2:0:0:
287,218,39193,1,2,0:0:0:0:
261,228,39300,1,2,0:0:0:0:
235,243,39407,1,2,3:2:0:0:
170,306,39514,5,2,3:2:0:0:
156,292,39621,1,2,0:0:0:0:
140,279,39728,1,10,3:2:0:0:
120,268,39835,1,2,0:0:0:0:
30,270,39943,5,2,3:2:0:0:
33,254,40050,1,2,0:0:0:0:
34,238,40157,1,2,0:0:0:0:
34,220,40264,1,2,3:2:0:0:
0,146,40372,5,8,0:1:0:0:
9,142,40479,1,2,0:0:0:0:
21,136,40586,1,2,3:2:0:0:
32,129,40693,1,2,0:0:0:0:
102,148,40800,5,6,1:2:0:0:
294,286,41872,5,8,3:2:0:0:
291,295,41942,1,8,3:2:0:0:
289,306,42014,1,8,3:2:0:0:
289,316,42085,1,6,1:2:0:0:
252,384,42193,6,0,P|250:279|244:180,1,167.999994873047,8|2,0:1|3:2,0:0:0:0:
246,216,42514,5,6,1:2:0:0:
332,145,42729,5,2,3:2:0:0:
201,115,42943,5,8,3:1:0:0:
159,94,43050,1,2,0:0:0:0:
146,53,43157,1,2,3:0:0:0:
161,11,43264,1,2,0:0:0:0:
276,0,43479,5,2,3:2:0:0:
178,189,43693,5,2,0:0:0:0:
152,171,43800,1,10,3:2:0:0:
119,179,43907,1,2,0:0:0:0:
39,120,44122,5,2,0:0:0:0:
39,120,44229,2,0,P|54:52|63:-8,1,112,6|0,1:2|0:0,0:0:0:0:
39,202,44550,2,0,P|24:270|18:301,1,56,2|0,3:2|0:0,0:0:0:0:
50,344,44764,5,2,3:2:0:0:
105,365,44872,1,2,0:3:0:0:
145,327,44979,1,2,0:0:0:0:
218,309,45086,5,8,1:2:0:0:
227,314,45157,1,10,0:0:0:0:
233,320,45229,1,10,0:0:0:0:
237,328,45300,1,10,3:2:0:0:
111,248,45514,5,8,3:1:0:0:
111,248,45622,2,0,P|187:234|261:199,1,112,2|2,3:2|0:0,0:0:0:0:
293,227,45943,2,0,P|316:183|304:148,1,56,6|0,1:2|0:0,0:0:0:0:
255,107,46157,5,2,0:0:0:0:
253,59,46264,1,2,1:2:0:0:
294,23,46372,1,2,0:3:0:0:
348,35,46479,1,2,0:0:0:0:
380,73,46586,1,8,0:1:0:0:
377,131,46693,1,2,0:0:0:0:
393,178,46800,1,2,3:2:0:0:
436,206,46907,1,2,0:0:0:0:
485,201,47014,1,2,3:0:0:0:
511,158,47122,1,2,0:0:0:0:
491,107,47229,6,0,P|452:110|424:118,1,56,8|2,0:1|0:0,0:0:0:0:
310,39,47443,2,0,P|349:36|377:28,1,56,2|2,3:2|0:0,0:0:0:0:
391,183,47657,5,6,1:2:0:0:
352,199,47764,1,2,0:0:0:0:
302,194,47871,1,2,3:0:0:0:
259,163,47979,1,2,3:2:0:0:
232,109,48086,1,8,0:1:0:0:
195,54,48193,1,2,0:0:0:0:
128,27,48300,1,2,3:0:0:0:
55,37,48407,1,2,3:2:0:0:
10,101,48514,5,6,3:2:0:0:
10,101,48622,1,2,3:2:0:0:
60,169,48729,5,10,3:2:0:0:
64,176,48800,1,10,3:2:0:0:
67,183,48872,1,10,3:2:0:0:
69,191,48943,6,0,P|66:244|63:271,1,70,8|4,1:0|3:0,0:0:0:0:
257,109,49157,2,0,P|260:56|265:24,1,70,8|0,0:1|3:0,0:0:0:0:
148,0,49372,6,0,P|160:117|178:327,1,308.000009399414,6|10,1:2|3:2,0:0:0:0:
196,384,49907,5,10,1:2:0:0:
196,384,49961,1,10,0:0:0:0:
196,384,50014,2,0,P|244:369|251:335,1,70,10|2,3:2|0:0,0:0:0:0:
149,234,50229,2,0,P|101:249|94:283,1,70,2|2,3:2|0:0,0:0:0:0:
310,303,50443,5,4,1:2:0:0:
355,267,50550,1,2,0:0:0:0:
403,285,50657,1,2,0:0:0:0:
468,236,50764,5,8,3:1:0:0:
500,264,50872,1,2,0:0:0:0:
496,297,50979,1,2,0:0:0:0:
442,355,51086,5,6,1:2:0:0:
347,172,51300,5,2,3:2:0:0:
472,82,51514,5,8,3:1:0:0:
472,82,51622,2,0,P|485:27|494:-1,1,70,2|2,3:2|0:0,0:0:0:0:
278,119,51836,2,0,P|265:174|256:202,1,70,8|2,0:1|0:0,0:0:0:0:
506,158,52050,5,2,3:0:0:0:
232,51,52264,5,2,3:2:0:0:
186,34,52372,1,8,3:1:0:0:
148,60,52479,1,2,0:0:0:0:
143,104,52586,1,10,3:2:0:0:
168,137,52693,5,10,3:2:0:0:
168,137,52747,1,10,3:2:0:0:
168,137,52800,2,0,P|211:136|252:129,1,70,14|2,1:2|0:0,0:0:0:0:
170,245,53014,1,2,3:0:0:0:
170,245,53122,2,0,P|104:246|7:260,2,140,0|2|2,1:0|3:2|0:0,0:0:0:0:
244,291,53764,5,2,3:2:0:0:
308,239,53979,5,2,0:0:0:0:
308,239,54086,2,0,P|311:181|315:154,1,70,8|2,3:1|0:0,0:0:0:0:
233,5,54300,5,2,0:0:0:0:
233,5,54407,1,2,0:0:0:0:
233,5,54514,5,2,1:2:0:0:
258,12,54622,1,2,0:0:0:0:
281,15,54729,1,2,0:0:0:0:
305,14,54836,1,2,0:0:0:0:
276,97,54943,5,8,3:1:0:0:
257,91,55051,1,2,0:0:0:0:
239,88,55158,1,2,0:0:0:0:
219,90,55265,1,2,0:0:0:0:
163,38,55372,5,2,3:2:0:0:
163,38,55479,1,2,3:2:0:0:
122,104,55587,5,10,3:2:0:0:
130,116,55658,1,10,3:2:0:0:
136,130,55729,1,10,3:2:0:0:
137,143,55801,5,8,1:0:0:0:
90,203,55908,1,8,1:0:0:0:
33,153,56015,1,2,1:2:0:0:
151,265,56229,6,0,P|145:291|142:317,1,52.5,6|0,1:2|0:0,0:0:0:0:
142,317,56444,6,0,P|192:306|270:296,1,105.000004005432,10|2,3:2|1:2,0:0:0:0:
351,256,56658,5,8,1:0:0:0:
366,299,56765,1,2,0:0:0:0:
359,251,56872,1,2,3:0:0:0:
306,345,56979,6,0,P|384:355|442:374,1,105.000004005432,2|0,3:2|1:0,0:0:0:0:
280,228,57194,2,0,P|202:218|144:199,1,105.000004005432,2|8,3:2|3:0,0:0:0:0:
398,181,57408,5,2,3:2:0:0:
398,181,57514,2,0,P|436:220|418:294,1,105.000004005432,8|2,1:0|0:0,0:0:0:0:
145,287,57729,2,0,P|107:248|125:174,1,105.000004005432,10|10,3:2|0:0,0:0:0:0:
107,200,57890,1,10,0:0:0:0:
107,200,57944,6,0,P|209:175|322:139,1,210.000008010865,14|2,1:2|3:0,0:0:0:0:
343,76,58265,1,2,3:2:0:0:
343,76,58372,2,0,P|337:51|319:32,1,52.5000020027161,8|0,1:0|0:0,0:0:0:0:
307,29,58479,2,0,P|247:51|260:118,1,105.000004005432,0|2,3:0|3:0,0:0:0:0:
316,319,58694,6,0,P|326:243|344:184,1,105.000004005432,2|0,0:0|1:0,0:0:0:0:
127,99,58908,2,0,P|117:175|99:234,1,105.000004005432,2|4,0:0|3:0,0:0:0:0:
220,291,59122,5,2,0:0:0:0:
220,291,59229,1,8,1:0:0:0:
214,242,59336,1,2,3:2:0:0:
207,192,59444,1,2,2:3:0:0:
202,137,59551,1,2,0:0:0:0:
238,57,59658,6,0,P|288:86|252:152,1,105.000004005432,6|0,1:2|0:0,0:0:0:0:
114,208,59872,2,0,P|64:179|100:113,1,105.000004005432,2|4,3:0|0:3,0:0:0:0:
290,133,60087,5,8,1:0:0:0:
358,162,60194,2,0,P|435:145|498:137,1,105.000004005432,2|10,0:0|3:2,0:0:0:0:
512,18,60407,1,2,0:0:0:0:
512,18,60514,2,0,P|435:35|372:43,1,105.000004005432,6|8,1:2|0:0,0:0:0:0:
409,38,60675,1,8,0:0:0:0:
409,38,60729,6,0,P|399:161|392:270,1,210.000008010865,10|8,3:2|1:0,0:0:0:0:
103,346,61050,2,0,P|113:223|120:114,1,210.000008010865,2|2,3:2|0:0,0:0:0:0:
118,136,61372,5,6,1:2:0:0:
76,130,61479,1,2,0:0:0:0:
58,85,61586,1,2,2:3:0:0:
85,42,61693,1,2,3:2:0:0:
171,45,61800,5,8,1:0:0:0:
168,57,61872,1,10,3:2:0:0:
166,68,61943,1,10,3:2:0:0:
165,79,62014,1,2,3:0:0:0:
213,135,62122,5,2,3:2:0:0:
150,179,62229,5,6,1:2:0:0:
132,231,62336,1,8,0:1:0:0:
163,279,62443,1,10,3:0:0:0:
222,281,62550,1,2,3:2:0:0:
290,231,62657,5,8,1:0:0:0:
286,222,62729,1,10,3:2:0:0:
282,214,62800,1,10,3:2:0:0:
281,205,62872,2,0,P|289:128|306:56,1,105.000004005432,2|0,3:0|0:0,0:0:0:0:
35,0,63086,5,6,1:2:0:0:
94,44,63193,2,0,P|86:121|69:193,1,105.000004005432,2|10,3:2|0:0,0:0:0:0:
86,152,63354,2,0,P|88:181|94:213,1,52.5000020027161,8|8,0:0|3:2,0:0:0:0:
21,269,63514,5,8,1:0:0:0:
45,321,63622,1,2,0:0:0:0:
99,332,63729,1,10,3:2:0:0:
142,307,63836,1,2,0:0:0:0:
156,257,63943,5,6,1:2:0:0:
204,196,64050,1,2,0:0:0:0:
283,213,64157,1,4,3:0:0:0:
294,293,64264,2,0,P|191:274|87:261,1,210.000008010865,6|2,3:2|0:0,0:0:0:0:
169,116,64586,2,0,P|243:107|292:96,1,105.000004005432,2|2,3:0|0:0,0:0:0:0:
357,4,64800,6,0,P|402:42|380:106,1,105.000004005432,6|8,1:2|0:0,0:0:0:0:
394,92,64961,2,0,P|360:111|325:102,1,52.5000020027161,8|8,0:2|3:2,0:0:0:0:
428,167,65122,6,0,P|408:191|417:239,1,52.5000020027161,4|0,3:0|0:0,0:0:0:0:
406,224,65229,2,0,P|445:278|497:274,1,105.000004005432,8|2,1:0|0:0,0:0:0:0:
511,195,65443,5,10,3:2:0:0:
504,203,65550,2,0,P|395:220|292:244,2,181.999991668702,6|2|2,0:0|3:2|0:0,0:0:0:0:
422,177,66086,5,8,1:0:0:0:
388,141,66193,1,2,3:2:0:0:
409,103,66300,2,0,P|476:89|555:79,1,105.000004005432,2|2,0:3|0:0,0:0:0:0:
365,36,66514,5,6,1:2:0:0:
322,99,66622,2,0,P|255:113|176:123,1,105.000004005432,2|10,3:2|3:2,0:0:0:0:
215,124,66782,2,0,P|174:119|137:118,1,52.5000020027161,8|4,0:0|3:0,0:0:0:0:
89,167,66943,5,8,1:0:0:0:
38,154,67050,1,2,0:0:0:0:
31,109,67157,1,10,3:0:0:0:
0,46,67264,5,2,0:0:0:0:
0,46,67372,2,0,P|51:37|103:26,1,105.000004005432,6|10,1:2|3:2,0:0:0:0:
103,26,67532,1,8,0:0:0:0:
103,26,67586,2,0,P|84:86|76:148,1,105.000004005432,4|2,3:0|3:2,0:0:0:0:
199,235,67800,5,8,1:0:0:0:
188,158,67907,1,10,3:2:0:0:
105,193,68014,5,2,0:3:0:0:
109,197,68122,2,0,P|202:201|337:229,1,210.000008010865,2|2,3:2|0:2,0:0:0:0:
414,43,68443,6,0,P|366:36|308:19,1,105.000004005432,8|10,3:0|0:0,0:0:0:0:
311,20,68604,2,0,P|318:57|320:88,1,52.5000020027161,10|8,0:0|1:0,0:0:0:0:
333,146,68764,5,8,3:2:0:0:
260,162,68872,1,2,3:2:0:0:
244,91,68979,1,6,0:0:0:0:
247,94,69514,5,2,0:0:0:0:
251,97,69943,5,2,3:2:0:0:
258,6,70694,5,10,0:0:0:0:
258,6,70747,1,10,0:0:0:0:
258,6,70801,1,10,0:0:0:0:
184,22,70908,1,10,3:2:0:0:
155,69,71015,1,2,3:2:0:0:
165,111,71122,1,2,3:2:0:0:
192,131,71229,1,10,3:2:0:0:
216,147,71337,1,2,3:2:0:0:
227,170,71444,1,2,3:2:0:0:
225,187,71551,1,2,3:2:0:0:
158,231,71657,5,8,3:2:0:0:
331,211,71872,5,2,0:0:0:0:
512,187,72086,5,10,3:2:0:0:
512,187,72193,2,0,B|449:203|419:159|421:141|431:125|392:59|303:93,1,238.00000453949,6|0,3:2|0:0,0:0:0:0:
273,149,72514,6,0,P|291:219|306:377,1,167.999994873047,4|0,1:0|0:0,0:0:0:0:
304,313,72836,1,8,0:3:0:0:
372,354,72943,1,8,1:0:0:0:
424,327,73050,1,2,3:2:0:0:
425,294,73157,2,0,P|412:228|395:173,1,83.9999974365235,2|2,0:3|0:0,0:0:0:0:
264,146,73372,6,0,P|199:191|221:256,1,125.999996154785,6|0,1:2|0:0,0:0:0:0:
207,239,73586,2,0,P|227:258|264:255,1,41.9999987182618,4|0,3:0|0:0,0:0:0:0:
327,239,73693,6,0,P|331:186|339:136,1,83.9999974365235,10|8,3:2|1:0,0:0:0:0:
166,50,73907,2,0,P|182:170|197:384,1,335.999989746094,6|6,3:2|1:2,0:0:0:0:
51,193,74443,5,0,3:0:0:0:
22,203,74550,1,10,3:0:0:0:
14,248,74657,1,8,1:0:0:0:
70,311,74764,6,0,P|127:304|129:156,1,167.999994873047,6|0,3:2|0:0,0:0:0:0:
102,84,75086,6,0,L|49:76,1,41.9999987182618,6|0,1:2|0:0,0:0:0:0:
228,323,75300,6,0,L|281:331,1,41.9999987182618,4|0,3:0|0:0,0:0:0:0:
41,159,75514,6,0,L|-12:167,1,41.9999987182618,8|0,1:0|0:0,0:0:0:0:
290,251,75729,6,0,L|343:243,1,41.9999987182618,2|0,3:0|0:0,0:0:0:0:
156,286,75943,6,0,P|163:206|183:87,1,167.999994873047,6|2,1:2|0:0,0:0:0:0:
176,119,76264,1,8,3:0:0:0:
164,49,76372,1,8,1:0:0:0:
205,9,76479,1,2,3:2:0:0:
251,12,76586,1,2,3:0:0:0:
272,40,76693,5,10,0:0:0:0:
272,40,76747,1,10,0:0:0:0:
272,40,76800,2,0,P|298:92|378:68,1,125.999996154785,6|0,1:2|0:0,0:0:0:0:
367,83,77014,2,0,P|371:53|357:33,1,41.9999987182618,4|0,3:0|0:0,0:0:0:0:
469,26,77122,6,0,P|458:90|454:130,1,83.9999974365235,2|8,3:2|1:0,0:0:0:0:
258,204,77336,2,0,P|269:140|273:100,1,83.9999974365235,10|2,3:2|3:0,0:0:0:0:
367,192,77550,5,2,3:2:0:0:
418,252,77657,5,6,1:2:0:0:
417,265,77729,1,10,0:0:0:0:
417,277,77800,1,10,0:0:0:0:
415,289,77872,1,10,3:2:0:0:
238,384,78086,5,8,1:0:0:0:
235,371,78158,1,10,0:0:0:0:
234,359,78229,1,10,0:0:0:0:
231,347,78301,1,10,3:2:0:0:
282,275,78407,5,2,3:2:0:0:
282,275,78514,2,0,P|232:268|178:238,1,83.9999974365235,6|0,1:2|0:0,0:0:0:0:
77,367,78729,5,4,3:0:0:0:
77,367,78836,2,0,P|121:352|185:347,2,83.9999974365235,2|8|2,3:2|1:0|0:0,0:0:0:0:
56,259,79157,5,2,0:3:0:0:
46,220,79264,1,2,3:2:0:0:
84,194,79372,2,0,P|93:113|96:-1,1,167.999994873047,6|2,1:2|0:3,0:0:0:0:
205,53,79693,5,8,3:0:0:0:
278,43,79800,1,8,1:0:0:0:
203,60,79907,2,0,B|249:50|275:85|276:93|276:100|297:137|356:120,1,167.999994873047,2|2,3:2|0:0,0:0:0:0:
443,63,80229,6,0,P|507:81|492:161,1,125.999996154785,6|0,1:2|0:0,0:0:0:0:
511,142,80443,2,0,P|491:155|448:142,1,41.9999987182618,4|0,3:0|0:0,0:0:0:0:
402,224,80550,5,2,3:2:0:0:
402,224,80657,2,0,P|452:232|510:248,1,83.9999974365235,8|2,1:0|0:0,0:0:0:0:
352,127,80872,5,2,3:0:0:0:
284,160,80979,1,2,3:2:0:0:
321,229,81086,2,0,P|262:237|201:250,1,83.9999974365235,6|10,1:2|0:0,0:0:0:0:
232,237,81247,2,0,P|198:230|176:220,1,41.9999987182618,8|8,0:0|3:2,0:0:0:0:
67,343,81407,5,8,3:0:0:0:
67,343,81514,1,8,1:0:0:0:
32,310,81622,1,2,0:2:0:0:
25,257,81729,1,2,3:0:0:0:
52,200,81836,1,2,3:2:0:0:
109,162,81943,1,6,1:2:0:0:
178,139,82050,1,8,0:3:0:0:
210,72,82157,1,4,0:3:0:0:
177,3,82264,1,10,3:2:0:0:
96,0,82372,6,0,P|52:5|4:7,1,83.9999974365235,8|2,1:0|0:0,0:0:0:0:
235,210,82586,2,0,P|283:204|342:201,1,83.9999974365235,2|2,3:0|0:0,0:0:0:0:
29,317,82800,6,0,P|89:312|114:240,1,125.999996154785,6|0,1:2|0:0,0:0:0:0:
117,258,83014,1,2,0:3:0:0:
164,191,83122,5,8,3:0:0:0:
164,191,83229,2,0,P|158:162|118:139,1,41.9999987182618,6|0,1:2|0:0,0:0:0:0:
139,148,83336,2,0,P|89:144|40:239,1,167.999994873047,2|2,3:2|0:0,0:0:0:0:
132,337,83657,5,8,1:0:0:0:
214,318,83764,1,8,1:2:0:0:
214,318,83818,1,8,0:0:0:0:
214,318,83872,6,0,P|208:347|207:364,2,37.3333333333333,10|10|10,3:2|3:2|3:2,0:0:0:0:
299,291,84086,5,6,1:2:0:0:
299,291,84193,2,0,P|284:364|281:388,1,83.9999974365235,2|2,3:2|3:0,0:0:0:0:
220,207,84407,5,10,3:2:0:0:
199,129,84514,1,6,3:2:0:0:
297,184,84622,6,0,B|260:214|203:186|208:164|214:145|165:112|123:143,1,195.999994018555,6|2,1:2|3:2,0:0:0:0:
112,230,84943,6,0,B|175:250|221:190|209:170|197:155|223:89|297:98,1,251.999992309571,8|2,1:0|3:0,0:0:0:0:
180,21,85264,6,0,L|187:64,1,35,6|0,1:2|0:0,0:0:0:0:
226,281,85479,5,8,3:0:0:0:
226,281,85586,2,0,L|231:313,6,17.5,10|2|2|2|2|2|0,3:2|0:0|0:0|0:0|0:0|0:0|0:0,0:0:0:0:
212,202,85800,5,8,1:0:0:0:
212,202,85907,2,0,L|207:170,8,17.5,10|2|2|2|2|2|2|2|2,3:2|0:0|0:0|0:0|0:0|0:0|0:0|0:0|0:0,0:0:0:0:
244,375,86229,5,6,1:2:0:0:
244,375,86443,5,6,1:2:0:0:
189,58,87622,6,0,B|244:39|273:92|270:106|266:118|284:167|350:155,1,210,4|0,0:0|1:0,0:0:0:0:
349,155,88157,5,2,0:2:0:0:
404,107,88264,2,0,P|400:71|372:44,1,70,2|8,1:2|0:1,0:0:0:0:
297,220,88479,6,0,P|384:204|462:198,1,140,2|10,3:2|0:0,0:0:0:0:
435,199,88747,1,10,0:0:0:0:
435,199,88800,2,0,P|464:177|473:139,2,70,14|2|0,1:2|3:2|3:0,0:0:0:0:
297,220,89122,5,2,3:2:0:0:
297,220,89229,2,0,P|344:234|361:278,1,70,8|10,3:1|0:0,0:0:0:0:
358,258,89389,2,0,P|359:283|337:300,1,35,10|10,0:0|0:0,0:0:0:0:
218,247,89550,5,2,3:2:0:0:
218,247,89657,1,6,1:2:0:0:
263,308,89764,2,0,P|248:205|236:149,1,140,2|2,0:0|1:2,0:0:0:0:
231,76,90086,5,8,0:1:0:0:
200,52,90193,1,2,3:2:0:0:
157,54,90300,1,2,3:0:0:0:
134,79,90407,1,2,0:0:0:0:
58,88,90514,5,0,1:0:0:0:
58,88,90622,2,0,P|68:132|72:170,1,70,6|0,3:2|1:0,0:0:0:0:
239,82,90836,5,2,3:2:0:0:
303,44,90943,1,8,3:1:0:0:
239,82,91050,2,0,P|229:38|225:0,1,70,10|2,3:2|0:0,0:0:0:0:
260,185,91264,5,0,3:0:0:0:
260,185,91372,1,6,1:2:0:0:
284,158,91479,1,2,0:0:0:0:
339,152,91586,1,2,0:3:0:0:
389,179,91693,1,2,3:2:0:0:
418,231,91800,1,8,3:1:0:0:
455,253,91907,1,2,0:0:0:0:
489,252,92014,1,2,0:0:0:0:
512,237,92122,1,2,3:2:0:0:
497,130,92229,5,2,1:2:0:0:
479,149,92336,1,2,0:0:0:0:
468,175,92443,1,2,3:2:0:0:
423,237,92550,5,2,0:0:0:0:
457,302,92657,1,8,3:1:0:0:
422,236,92764,2,0,P|430:298|435:380,1,140,6|10,3:2|0:0,0:0:0:0:
348,340,93086,5,6,1:2:0:0:
319,373,93193,1,2,0:0:0:0:
276,373,93300,1,2,0:3:0:0:
244,342,93407,1,2,1:2:0:0:
232,301,93514,1,8,3:1:0:0:
245,259,93622,1,2,3:2:0:0:
264,218,93729,1,2,0:3:0:0:
252,169,93836,1,10,3:2:0:0:
213,134,93943,1,0,1:0:0:0:
163,135,94050,1,2,3:2:0:0:
124,161,94157,1,6,3:2:0:0:
74,163,94264,1,2,0:0:0:0:
32,133,94372,5,8,3:1:0:0:
49,53,94514,1,2,3:2:0:0:
130,56,94657,1,2,3:2:0:0:
216,6,94800,5,2,3:2:0:0:
286,73,94943,1,2,3:2:0:0:
217,139,95086,1,2,3:2:0:0:
36,130,95229,5,8,3:1:0:0:
26,173,95336,1,2,3:2:0:0:
42,217,95443,1,2,0:3:0:0:
81,241,95550,1,2,0:0:0:0:
126,246,95657,5,14,1:2:0:0:
134,251,95729,1,10,0:0:0:0:
141,258,95800,1,10,0:0:0:0:
145,267,95872,2,0,P|143:317|129:366,1,70,10|2,3:2|3:2,0:0:0:0:
224,384,96086,5,8,0:1:0:0:
224,384,96193,2,0,P|232:302|246:222,1,140,2|2,3:2|0:0,0:0:0:0:
292,118,96514,6,0,B|261:104|227:129|228:136|228:142|217:176|168:169,1,140,6|2,1:2|3:2,0:0:0:0:
172,170,96836,1,0,1:0:0:0:
115,207,96943,1,8,3:1:0:0:
63,185,97050,1,2,0:0:0:0:
51,133,97157,1,2,0:0:0:0:
70,95,97264,1,2,3:2:0:0:
146,70,97372,5,0,1:0:0:0:
167,35,97479,1,2,3:2:0:0:
212,27,97586,1,2,3:0:0:0:
240,38,97693,1,2,3:2:0:0:
252,55,97800,1,8,3:1:0:0:
254,72,97907,1,10,3:2:0:0:
251,84,98014,1,2,3:0:0:0:
245,90,98122,1,2,0:0:0:0:
246,168,98229,5,6,1:2:0:0:
246,168,98336,2,0,P|284:179|347:183,1,70,2|0,0:0|0:0,0:0:0:0:
181,216,98550,5,2,1:2:0:0:
181,216,98657,2,0,P|143:205|80:201,2,70,8|2|2,3:1|0:0|3:2,0:0:0:0:
233,282,98979,5,2,0:0:0:0:
233,282,99086,1,6,1:2:0:0:
236,356,99193,1,8,0:1:0:0:
300,318,99300,2,0,P|345:308|393:297,1,70,8|10,3:0|3:2,0:0:0:0:
368,302,99461,1,8,0:0:0:0:
368,302,99514,1,8,3:1:0:0:
419,248,99622,6,0,P|410:179|397:118,1,105,6|0,3:2|0:0,0:0:0:0:
403,144,99836,1,4,3:0:0:0:
471,109,99943,6,0,L|518:118,2,35,6|2|2,1:2|0:0|3:2,0:0:0:0:
406,74,100157,5,10,3:2:0:0:
406,74,100264,2,0,L|394:40,2,35,6|2|2,1:2|0:0|3:2,0:0:0:0:
413,155,100479,5,2,3:2:0:0:
413,155,100586,2,0,L|389:181,2,35,6|2|2,1:2|0:0|0:0,0:0:0:0:
0,310,103372,6,0,P|68:294|137:286,1,140,6|0,1:2|0:0,0:0:0:0:
265,120,103693,6,0,P|243:186|216:250,1,140,6|0,1:2|0:0,0:0:0:0:
245,384,104014,6,0,P|223:356|203:327,1,70,6|0,1:2|0:0,0:0:0:0:
221,256,104229,5,8,0:1:0:0:
289,229,104336,1,0,3:0:0:0:
350,270,104443,1,8,1:3:0:0:
339,342,104550,1,4,0:3:0:0:
347,347,104657,6,0,L|396:340,6,35,6|2|2|2|2|2|2,1:2|0:0|0:0|0:0|0:0|0:0|0:0,0:0:0:0:
350,270,105086,5,0,1:0:0:0:
331,263,105193,2,0,P|281:270|239:274,1,70,2|8,0:0|3:2,0:0:0:0:
386,188,105407,5,2,0:0:0:0:
352,178,105514,2,0,P|302:185|260:189,1,70,2|2,3:2|0:0,0:0:0:0:
436,107,105729,5,10,3:2:0:0:
388,83,105836,2,0,P|338:90|296:94,1,70,2|2,0:0|3:2,0:0:0:0:
451,0,106050,5,2,0:0:0:0:
378,6,106157,1,10,3:2:0:0:
305,12,106264,1,2,0:0:0:0:
235,77,106372,6,0,L|229:107,2,28,6|2|2,1:2|0:0|0:0,0:0:0:0:
171,21,106586,6,0,L|167:48,3,28,10|2|2|2,3:2|0:0|0:0|0:0,0:0:0:0:
174,24,106800,6,0,P|246:77|195:205,1,210.000008010865,6|8,1:2|0:0,0:0:0:0:
282,285,107122,1,2,3:0:0:0:
282,285,107229,2,0,P|226:265|181:263,1,77.0000023498536,8|0,3:1|0:0,0:0:0:0:
56,212,107443,5,10,3:2:0:0:
103,207,107550,1,2,0:3:0:0:
139,177,107657,1,0,1:0:0:0:
96,115,107764,5,8,0:1:0:0:
66,119,107872,1,10,3:2:0:0:
48,136,107979,1,2,0:0:0:0:
59,217,108086,6,0,P|67:281|68:382,1,154.000004699707,8|10,3:1|0:0,0:0:0:0:
217,351,108514,6,0,P|225:235|261:54,1,293.999991027832,4|8,1:2|0:0,0:0:0:0:
259,60,108889,1,8,0:0:0:0:
259,60,108943,1,8,3:1:0:0:
311,7,109050,2,0,P|363:11|380:60,1,77.0000023498536,2|8,3:2|0:0,0:0:0:0:
482,104,109264,6,0,B|449:99|429:124|431:130|432:138|406:157|371:149,1,115.50000352478,2|0,3:2|0:0,0:0:0:0:
382,150,109479,1,0,3:0:0:0:
355,198,109586,1,10,1:2:0:0:
380,244,109693,1,2,3:2:0:0:
477,290,109800,5,8,3:1:0:0:
422,342,109907,2,0,P|353:325|325:327,1,77.0000023498536,2|0,3:2|0:0,0:0:0:0:
161,345,110122,5,2,0:2:0:0:
161,345,110229,1,0,1:0:0:0:
200,372,110336,1,2,0:0:0:0:
255,348,110443,1,10,0:0:0:0:
263,286,110550,1,2,3:2:0:0:
215,222,110657,5,8,3:1:0:0:
215,222,110764,1,2,0:0:0:0:
164,211,110872,1,2,3:2:0:0:
150,157,110979,1,0,3:0:0:0:
191,85,111086,5,2,1:2:0:0:
261,71,111193,1,8,0:1:0:0:
191,85,111300,2,0,P|131:74|90:60,1,77.0000023498536,2|2,3:2|3:2,0:0:0:0:
293,216,111514,2,0,P|353:227|394:241,1,77.0000023498536,8|2,3:1|0:0,0:0:0:0:
149,323,111729,5,2,0:0:0:0:
149,323,111836,1,2,0:0:0:0:
149,323,111943,2,0,P|128:255|195:215,1,136.499993751526,6|0,1:2|0:0,0:0:0:0:
170,215,112157,2,0,P|224:246|222:290,1,90.9999958343508,2|2,3:0|3:2,0:0:0:0:
0,384,112372,5,8,3:1:0:0:
73,371,112479,1,2,0:0:0:0:
0,384,112586,2,0,P|9:315|12:267,1,90.9999958343508,10|2,0:0|0:0,0:0:0:0:
262,118,112800,6,0,P|250:209|248:253,1,97.9999970092774,0|8,1:0|3:2,0:0:0:0:
249,215,112961,1,8,0:0:0:0:
249,215,113014,2,0,P|320:195|319:165,1,97.9999970092774,10|2,3:2|0:0,0:0:0:0:
50,197,113229,5,8,3:1:0:0:
50,197,113336,2,0,B|103:193|120:242|118:258|113:275|147:324|210:300,1,195.999994018555,2|2,3:2|0:3,0:0:0:0:
261,374,113657,6,0,P|337:365|442:359,1,154.000004699707,6|2,1:2|0:0,0:0:0:0:
294,291,113979,1,2,3:2:0:0:
294,291,114086,2,0,P|344:287|387:281,1,77.0000023498536,8|0,3:1|0:0,0:0:0:0:
454,221,114300,5,2,0:0:0:0:
472,189,114407,1,2,3:2:0:0:
457,146,114514,1,0,1:0:0:0:
413,120,114622,1,10,3:2:0:0:
364,126,114729,1,2,3:2:0:0:
314,153,114836,1,2,0:0:0:0:
258,147,114943,1,8,3:1:0:0:
224,101,115050,1,2,3:2:0:0:
227,43,115157,1,2,0:3:0:0:
277,11,115264,1,2,0:0:0:0:
336,22,115372,5,14,1:2:0:0:
340,29,115443,1,10,0:0:0:0:
342,36,115514,1,10,0:0:0:0:
343,44,115586,1,10,0:0:0:0:
512,0,115800,5,8,1:0:0:0:
512,0,115907,2,0,P|496:37|483:105,1,77.0000023498536,2|0,3:2|0:0,0:0:0:0:
291,228,116122,2,0,P|307:191|320:123,1,77.0000023498536,2|0,3:2|0:0,0:0:0:0:
407,132,116336,6,0,L|421:271,1,115.50000352478,8|0,0:1|0:0,0:0:0:0:
418,246,116550,1,4,0:3:0:0:
475,305,116657,1,8,3:1:0:0:
418,354,116764,2,0,P|376:342|323:336,1,77.0000023498536,2|8,3:2|3:2,0:0:0:0:
145,202,116979,6,0,P|209:221|304:231,1,154.000004699707,2|2,3:2|3:2,0:0:0:0:
294,230,117300,1,2,0:0:0:0:
312,279,117407,1,2,1:2:0:0:
291,326,117514,1,8,3:1:0:0:
233,342,117622,1,2,0:0:0:0:
183,308,117729,1,2,3:2:0:0:
174,248,117836,1,2,3:0:0:0:
179,186,117943,1,6,1:2:0:0:
151,129,118050,1,8,0:1:0:0:
90,106,118157,1,2,3:2:0:0:
28,123,118264,1,2,0:0:0:0:
3,181,118372,1,8,3:1:0:0:
20,240,118479,1,2,0:0:0:0:
74,264,118586,5,10,0:0:0:0:
85,264,118657,1,10,0:0:0:0:
93,261,118729,1,10,0:0:0:0:
99,255,118800,6,0,P|93:192|92:165,1,62.9999980773926,12|2,1:0|3:2,0:0:0:0:
12,314,119014,2,0,P|18:377|19:404,1,62.9999980773926,2|2,3:2|3:2,0:0:0:0:
278,258,119229,6,0,P|293:196|302:171,1,62.9999980773926,2|0,3:2|3:2,0:0:0:0:
175,282,119443,2,0,P|159:343|150:368,1,62.9999980773926,2|2,3:2|3:2,0:0:0:0:
422,304,119657,5,10,3:2:0:0:
423,314,119729,1,10,0:0:0:0:
430,324,119800,1,10,0:0:0:0:
438,328,119872,6,0,P|473:275|490:254,1,62.9999980773926,10|2,3:2|3:2,0:0:0:0:
333,315,120086,2,0,P|297:367|280:388,2,62.9999980773926,6|2|2,1:2|3:2|0:0,0:0:0:0:
512,384,120407,5,2,0:0:0:0:
512,384,120514,1,6,1:2:0:0:
488,167,120836,5,2,3:2:0:0:
488,167,120943,1,8,0:1:0:0:
454,207,121050,1,2,0:0:0:0:
401,205,121157,1,2,3:2:0:0:
360,119,121264,5,2,0:0:0:0:
260,226,121479,5,2,0:3:0:0:
201,46,121693,5,2,0:0:0:0:
146,43,121800,1,10,3:2:0:0:
121,85,121907,1,2,0:0:0:0:
166,235,122121,5,2,0:0:0:0:
166,235,122229,2,0,P|176:307|183:385,1,112,6|2,1:2|0:0,0:0:0:0:
273,311,122550,2,0,P|263:239|260:208,1,84,2|0,3:2|0:0,0:0:0:0:
261,227,122764,5,2,3:2:0:0:
294,188,122872,1,2,3:0:0:0:
349,188,122979,1,2,0:0:0:0:
402,246,123086,5,10,1:2:0:0:
404,255,123157,1,10,0:0:0:0:
403,264,123229,1,10,0:0:0:0:
399,273,123300,1,10,3:2:0:0:
512,383,123514,5,8,0:1:0:0:
512,383,123622,2,0,P|505:305|509:236,1,112,2|0,0:0|0:0,0:0:0:0:
430,172,123943,6,0,P|367:144|395:28,2,168,0|2|10,1:0|3:2|3:2,0:0:0:0:
342,153,124907,5,10,0:0:0:0:
342,153,124961,1,10,0:0:0:0:
342,153,125014,2,0,P|297:140|268:137,1,56,10|0,0:0|0:0,0:0:0:0:
458,15,125229,5,8,0:1:0:0:
458,15,125336,2,0,P|503:28|532:31,1,56,2|2,0:0|3:0,0:0:0:0:
429,197,125550,5,2,0:0:0:0:
429,197,125657,2,0,P|422:136|418:76,1,112,6|2,1:2|3:2,0:0:0:0:
323,32,125979,5,0,1:0:0:0:
278,22,126086,1,8,0:1:0:0:
241,44,126193,1,2,0:0:0:0:
210,78,126300,1,2,0:3:0:0:
159,82,126407,1,2,0:0:0:0:
123,49,126514,5,6,1:2:0:0:
51,33,126622,1,2,3:2:0:0:
7,95,126729,5,10,3:2:0:0:
8,104,126800,1,10,3:2:0:0:
12,111,126872,1,10,3:2:0:0:
17,116,126943,6,0,P|69:110|116:108,1,56,8|8,1:0|3:0,0:0:0:0:
244,0,127157,2,0,P|192:6|145:8,1,56,8|4,0:1|3:0,0:0:0:0:
104,234,127372,6,0,P|145:206|143:161,1,56,6|10,1:2|0:0,0:0:0:0:
146,202,127532,1,10,0:0:0:0:
146,202,127586,2,0,P|160:165|147:131,1,56,10|0,3:2|1:0,0:0:0:0:
219,44,127800,5,8,3:1:0:0:
246,3,127907,1,2,3:2:0:0:
303,0,128014,1,2,3:0:0:0:
343,42,128122,1,2,3:2:0:0:
351,100,128229,1,2,0:0:0:0:
324,156,128336,1,2,3:2:0:0:
332,221,128443,1,10,3:2:0:0:
384,270,128550,1,2,0:0:0:0:
453,253,128657,1,8,3:1:0:0:
470,169,128764,5,10,3:2:0:0:
455,152,128872,1,2,3:0:0:0:
438,144,128979,1,2,3:2:0:0:
373,61,129086,6,0,P|416:53|446:39,1,56,6|0,1:2|0:0,0:0:0:0:
385,253,129300,2,0,P|342:261|312:275,1,56,2|0,3:2|0:0,0:0:0:0:
257,152,129514,5,10,1:2:0:0:
257,152,129622,1,2,3:2:0:0:
512,305,129782,5,8,0:0:0:0:
512,305,129836,2,0,P|505:342|501:384,1,56,10|0,3:2|1:0,0:0:0:0:
426,364,130050,2,0,P|433:327|437:285,1,56,2|10,3:2|3:2,0:0:0:0:
364,187,130264,5,2,0:0:0:0:
364,187,130372,2,0,B|336:180|310:200|312:204|312:209|298:227|260:227,1,112,8|2,3:1|3:0,0:0:0:0:
264,227,130693,1,8,3:0:0:0:
227,297,130800,5,2,1:2:0:0:
180,288,130907,1,2,0:0:0:0:
161,248,131014,1,2,0:0:0:0:
86,253,131122,5,2,3:2:0:0:
71,213,131229,1,2,3:2:0:0:
92,180,131336,1,2,0:0:0:0:
60,109,131443,5,10,3:2:0:0:
83,79,131550,1,2,0:0:0:0:
119,79,131657,1,2,3:2:0:0:
173,23,131764,5,2,0:0:0:0:
199,34,131871,1,2,0:0:0:0:
209,57,131978,1,2,3:2:0:0:
259,114,132086,5,8,0:1:0:0:
261,128,132193,1,2,0:0:0:0:
259,140,132300,1,2,3:2:0:0:
253,150,132407,1,2,0:0:0:0:
179,168,132514,5,6,1:2:0:0:
410,220,133586,5,8,3:2:0:0:
416,214,133657,1,8,3:2:0:0:
425,212,133729,1,8,3:2:0:0:
433,212,133800,1,6,1:2:0:0:
507,193,133907,6,0,P|405:187|306:168,1,167.999994873047,8|2,0:1|3:2,0:0:0:0:
340,176,134229,5,6,1:2:0:0:
269,74,134443,5,2,3:2:0:0:
171,208,134657,5,8,3:1:0:0:
129,190,134764,1,2,0:0:0:0:
86,205,134872,1,2,3:0:0:0:
68,246,134979,1,2,0:0:0:0:
149,333,135193,5,2,3:2:0:0:
226,144,135407,5,2,0:0:0:0:
190,120,135514,1,10,3:2:0:0:
189,78,135622,1,2,0:0:0:0:
0,22,135836,5,2,0:0:0:0:
0,22,135943,2,0,P|8:90|9:154,1,112,6|0,1:2|0:0,0:0:0:0:
85,114,136264,2,0,P|79:68|77:14,1,84,2|0,3:2|0:0,0:0:0:0:
77,30,136479,5,2,3:2:0:0:
128,3,136586,1,2,0:3:0:0:
178,24,136693,1,2,0:0:0:0:
241,72,136800,5,8,1:2:0:0:
251,73,136872,1,10,0:0:0:0:
259,70,136943,1,10,0:0:0:0:
265,65,137014,1,10,3:2:0:0:
381,187,137229,5,8,3:1:0:0:
381,187,137336,2,0,P|306:207|288:283,1,112,2|2,3:2|0:0,0:0:0:0:
216,242,137657,2,0,P|229:303|229:372,1,112,6|2,1:2|0:0,0:0:0:0:
230,352,137979,5,2,1:2:0:0:
193,382,138086,1,2,0:3:0:0:
141,366,138193,1,2,0:0:0:0:
124,318,138300,1,8,0:1:0:0:
137,266,138407,1,2,0:0:0:0:
168,225,138514,1,2,3:2:0:0:
169,166,138622,1,2,0:0:0:0:
127,126,138729,1,2,3:0:0:0:
62,167,138836,5,2,0:0:0:0:
62,167,138943,2,0,P|70:228|70:264,1,56,8|2,0:1|0:0,0:0:0:0:
258,253,139157,5,2,3:2:0:0:
258,253,139264,1,2,0:0:0:0:
258,253,139372,1,6,1:2:0:0:
234,211,139479,1,2,0:0:0:0:
252,161,139586,1,2,3:0:0:0:
300,147,139693,1,2,3:2:0:0:
346,168,139800,1,8,0:1:0:0:
394,197,139907,1,2,0:0:0:0:
449,186,140014,1,2,3:0:0:0:
486,133,140122,1,2,3:2:0:0:
487,63,140229,1,6,3:2:0:0:
432,15,140336,1,2,3:2:0:0:
355,28,140443,5,10,3:2:0:0:
350,35,140514,1,10,3:2:0:0:
347,43,140586,1,10,3:2:0:0:
346,50,140657,6,0,P|305:45|254:31,1,83.9999974365235,8|4,1:0|3:0,0:0:0:0:
350,265,140872,2,0,P|391:270|452:286,1,83.9999974365235,8|0,0:1|3:0,0:0:0:0:
488,137,141086,6,0,L|94:175,1,391.99998803711,6|10,1:2|3:2,0:0:0:0:
146,270,141622,5,10,1:2:0:0:
146,270,141675,1,10,0:0:0:0:
146,270,141729,2,0,P|190:230|173:169,1,97.9999970092774,10|2,3:2|0:0,0:0:0:0:
53,104,141943,2,0,P|9:144|26:205,1,97.9999970092774,2|2,3:2|0:0,0:0:0:0:
305,124,142157,5,4,1:2:0:0:
311,88,142264,1,2,0:0:0:0:
321,56,142372,1,2,0:0:0:0:
235,54,142479,5,8,3:1:0:0:
228,74,142587,1,2,0:0:0:0:
225,97,142694,1,2,0:0:0:0:
140,129,142800,6,0,P|133:38|126:0,1,83.9999974365235,6|0,1:2|0:0,0:0:0:0:
357,246,143014,2,0,P|364:337|371:375,1,83.9999974365235,6|8,3:2|3:0,0:0:0:0:
362,329,143175,1,4,3:0:0:0:
362,329,143229,1,8,3:1:0:0:
303,383,143336,6,0,B|252:389|240:354|243:349|246:341|220:295|171:310,1,157.500006008148,6|0,3:2|0:0,0:0:0:0:
176,312,143550,6,0,P|100:319|32:331,1,105.000004005432,8|0,3:1|0:0,0:0:0:0:
325,72,143764,2,0,P|401:65|469:53,1,105.000004005432,8|2,3:1|0:0,0:0:0:0:
299,201,143979,6,0,P|215:226|237:142,1,210.000008010865,2|2,3:0|0:0,0:0:0:0:
235,142,144300,1,10,3:2:0:0:
235,142,144407,1,10,3:2:0:0:
176,89,144514,5,14,1:2:0:0:
207,69,144622,1,2,0:0:0:0:
201,37,144729,1,2,3:0:0:0:
274,4,144836,5,0,1:0:0:0:
274,4,144943,2,0,P|331:16|430:23,1,140,8|2,3:1|3:2,0:0:0:0:
488,155,145264,1,2,0:0:0:0:
488,155,145371,2,0,P|431:143|332:136,1,140,2|0,1:2|0:0,0:0:0:0:
251,224,145693,5,2,0:0:0:0:
251,224,145800,2,0,P|258:279|261:327,1,70,8|2,3:1|0:0,0:0:0:0:
335,298,146014,2,0,P|328:243|325:195,1,70,2|2,0:0|0:0,0:0:0:0:
85,172,146229,6,0,P|39:172|-1:167,1,52.5000020027161,2|2,1:2|0:0,0:0:0:0:
156,140,146443,2,0,P|202:140|273:145,1,105.000004005432,2|2,0:0|0:0,0:0:0:0:
188,245,146657,5,8,3:1:0:0:
188,245,146764,2,0,P|142:245|102:240,1,52.5000020027161,2|2,0:0|0:0,0:0:0:0:
0,54,146979,1,2,0:0:0:0:
0,54,147086,2,0,P|46:54|117:59,1,105.000004005432,2|2,3:2|3:2,0:0:0:0:
308,78,147300,5,10,3:2:0:0:
291,88,147372,1,10,3:2:0:0:
281,108,147443,1,10,3:2:0:0:
283,127,147514,5,8,1:0:0:0:
344,179,147622,1,8,1:0:0:0:
405,128,147729,1,2,1:2:0:0:
381,0,147943,6,0,P|382:34|384:70,1,52.5000020027161,6|0,1:2|0:0,0:0:0:0:
192,384,148157,6,0,P|193:350|199:235,1,105.000004005432,10|2,3:2|1:2,0:0:0:0:
165,210,148372,5,8,1:0:0:0:
165,210,148479,2,0,P|105:218|23:222,1,105.000004005432,2|2,0:0|3:0,0:0:0:0:
371,126,148693,2,0,P|431:118|513:114,1,105.000004005432,2|0,3:2|1:0,0:0:0:0:
351,221,148907,6,0,B|300:231|268:188|273:172|278:154|266:101|198:110,1,210.000008010865,2|10,3:2|3:2,0:0:0:0:
199,109,149175,1,8,0:0:0:0:
199,109,149229,1,8,1:0:0:0:
133,167,149336,6,0,P|58:138|88:29,1,210.000008010865,2|10,3:2|0:0,0:0:0:0:
84,31,149604,1,10,0:0:0:0:
84,31,149657,6,0,P|143:39|211:40,1,105.000004005432,14|0,1:2|0:0,0:0:0:0:
354,224,149872,2,0,P|294:215|226:214,1,105.000004005432,2|2,3:0|3:2,0:0:0:0:
42,171,150086,6,0,P|18:180|3:202,1,52.5000020027161,8|0,1:0|0:0,0:0:0:0:
0,215,150193,2,0,P|34:276|87:270,1,105.000004005432,0|2,3:0|3:0,0:0:0:0:
308,129,150407,6,0,P|300:48|300:3,1,105.000004005432,2|0,3:2|1:0,0:0:0:0:
160,184,150622,2,0,P|168:265|168:310,1,105.000004005432,2|4,3:2|3:0,0:0:0:0:
126,108,150836,5,2,0:0:0:0:
179,102,150943,1,8,1:0:0:0:
226,134,151050,1,2,3:2:0:0:
243,185,151157,1,2,2:3:0:0:
294,210,151264,1,2,0:0:0:0:
371,182,151372,6,0,P|427:206|435:255,1,105.000004005432,6|0,1:2|0:0,0:0:0:0:
337,349,151586,2,0,P|281:325|273:276,1,105.000004005432,2|4,3:0|0:3,0:0:0:0:
375,179,151800,5,8,1:0:0:0:
338,115,151907,2,0,P|347:47|359:1,1,105.000004005432,2|10,0:0|3:2,0:0:0:0:
81,165,152122,5,2,0:0:0:0:
81,165,152229,2,0,P|72:233|60:279,1,105.000004005432,6|8,1:2|0:0,0:0:0:0:
63,268,152389,1,8,0:0:0:0:
63,268,152443,6,0,B|134:249|157:314|148:326|143:339|181:403|250:382,1,238.00000453949,10|8,3:2|1:0,0:0:0:0:
507,85,152764,2,0,B|436:66|413:131|422:143|427:156|389:220|320:199,1,238.00000453949,2|2,3:2|0:0,0:0:0:0:
328,201,153086,5,6,1:2:0:0:
304,247,153193,1,2,0:0:0:0:
318,294,153300,1,2,2:3:0:0:
364,306,153407,1,2,3:2:0:0:
428,260,153514,5,8,1:0:0:0:
431,247,153586,1,10,3:2:0:0:
435,235,153657,1,10,3:2:0:0:
440,223,153729,1,2,3:0:0:0:
411,151,153836,5,2,3:2:0:0:
482,114,153943,5,6,1:2:0:0:
510,76,154050,1,8,0:1:0:0:
501,31,154157,1,10,3:0:0:0:
458,5,154264,1,2,3:2:0:0:
389,40,154371,5,8,1:0:0:0:
394,52,154443,1,10,3:2:0:0:
398,64,154514,1,10,3:2:0:0:
401,76,154586,6,0,P|339:84|275:101,1,105.000004005432,2|0,3:0|0:0,0:0:0:0:
41,6,154800,5,6,1:2:0:0:
41,6,154907,2,0,P|103:14|167:31,1,105.000004005432,2|10,3:2|0:0,0:0:0:0:
144,23,155068,2,0,P|153:64|148:107,1,52.5000020027161,8|8,0:0|3:2,0:0:0:0:
210,152,155229,5,8,1:0:0:0:
162,192,155336,1,2,0:0:0:0:
179,250,155443,1,10,3:2:0:0:
230,268,155550,1,2,0:0:0:0:
293,222,155657,5,6,1:2:0:0:
370,216,155764,1,2,0:0:0:0:
406,287,155872,1,4,3:0:0:0:
380,365,155979,2,0,P|387:271|488:204,1,210.000008010865,6|10,3:2|0:0,0:0:0:0:
474,205,156247,1,8,0:0:0:0:
473,205,156300,2,0,P|475:164|417:124,1,105.000004005432,10|2,3:2|0:0,0:0:0:0:
262,98,156514,6,0,P|204:96|179:153,1,105.000004005432,6|8,1:2|0:0,0:0:0:0:
178,144,156675,2,0,P|188:173|212:189,1,52.5000020027161,8|8,0:2|3:2,0:0:0:0:
88,201,156836,6,0,P|61:225|19:214,1,52.5000020027161,4|0,3:0|0:0,0:0:0:0:
29,226,156943,2,0,P|-11:180|24:123,1,105.000004005432,8|2,1:0|0:0,0:0:0:0:
115,84,157157,5,10,3:2:0:0:
115,84,157264,2,0,P|135:222|135:301,2,181.999991668702,6|2|2,0:0|3:2|0:0,0:0:0:0:
188,12,157800,5,8,1:0:0:0:
251,0,157907,1,2,3:2:0:0:
291,46,158014,1,2,0:3:0:0:
276,104,158122,1,2,0:0:0:0:
325,189,158229,5,6,1:2:0:0:
325,189,158336,2,0,P|380:178|460:169,1,105.000004005432,2|10,3:2|3:2,0:0:0:0:
428,171,158497,2,0,P|455:187|483:192,1,52.5000020027161,8|4,0:0|3:0,0:0:0:0:
493,296,158657,5,8,1:0:0:0:
486,343,158764,1,2,0:0:0:0:
438,360,158872,1,10,3:0:0:0:
384,303,158979,6,0,B|320:279|297:343|300:356|299:366|256:408|211:383,1,210.000008010865,2|10,0:0|3:2,0:0:0:0:
214,384,159247,1,8,0:0:0:0:
214,384,159300,2,0,P|208:302|211:257,1,105.000004005432,4|2,3:0|3:2,0:0:0:0:
39,124,159514,2,0,P|45:206|42:251,1,105.000004005432,8|10,1:0|3:2,0:0:0:0:
135,229,159729,5,2,0:3:0:0:
182,171,159836,2,0,P|250:167|300:305,1,210.000008010865,2|10,3:2|0:2,0:0:0:0:
311,278,160104,1,8,0:0:0:0:
311,278,160157,2,0,P|368:313|420:273,1,105.000004005432,8|10,3:0|0:0,0:0:0:0:
505,225,160372,5,8,1:0:0:0:
496,151,160479,1,8,3:2:0:0:
485,77,160586,1,2,3:2:0:0:
471,3,160693,1,6,0:0:0:0:
474,6,161229,5,2,0:0:0:0:
477,9,161657,5,2,3:2:0:0:
407,63,162407,5,10,0:0:0:0:
407,63,162461,1,10,0:0:0:0:
407,63,162514,1,10,0:0:0:0:
331,45,162622,1,10,3:2:0:0:
286,75,162729,1,2,3:2:0:0:
271,123,162836,1,2,3:2:0:0:
240,159,162943,1,10,3:2:0:0:
198,171,163050,1,2,3:2:0:0:
166,156,163157,1,2,3:2:0:0:
155,134,163264,1,2,3:2:0:0:
195,63,163372,5,8,3:2:0:0:
224,288,163586,5,2,0:0:0:0:
236,0,163800,5,10,3:2:0:0:
236,0,163907,2,0,P|224:109|211:260,1,210.000008010865,6|0,3:2|0:0,0:0:0:0:
221,291,164229,6,0,B|170:316|138:261|143:242|144:226|126:174|67:187,1,210.000008010865,4|0,1:0|0:0,0:0:0:0:
68,186,164550,1,8,0:3:0:0:
14,241,164657,1,8,1:0:0:0:
23,288,164764,1,2,3:2:0:0:
50,308,164872,1,2,0:3:0:0:
76,305,164979,1,2,0:0:0:0:
156,220,165086,6,0,P|196:150|263:166,1,136.499993751526,6|0,1:2|0:0,0:0:0:0:
257,160,165300,2,0,P|281:191|276:222,1,45.4999979171754,4|0,3:0|0:0,0:0:0:0:
225,294,165407,6,0,P|300:283|340:284,1,90.9999958343508,10|8,3:2|1:0,0:0:0:0:
383,53,165622,2,0,P|204:74|164:73,1,181.999991668702,6|0,3:2|0:0,0:0:0:0:
80,178,165943,6,0,L|419:203,1,315.000012016297,6|2,1:2|3:2,0:0:0:0:
491,280,166372,5,8,1:0:0:0:
446,342,166479,2,0,P|396:326|381:273,1,90.9999958343508,6|0,3:2|0:0,0:0:0:0:
477,172,166693,5,0,3:0:0:0:
477,172,166800,2,0,L|492:98,1,45.4999979171754,6|0,1:2|0:0,0:0:0:0:
265,280,167014,6,0,L|280:354,1,45.4999979171754,4|0,3:0|0:0,0:0:0:0:
393,111,167229,6,0,L|378:37,1,45.4999979171754,8|0,1:0|0:0,0:0:0:0:
355,340,167443,6,0,L|340:414,1,45.4999979171754,2|0,3:0|0:0,0:0:0:0:
270,171,167657,6,0,B|219:184|192:142|197:129|203:118|180:79|121:87,1,181.999991668702,6|2,1:2|0:0,0:0:0:0:
127,86,167979,1,8,3:0:0:0:
52,95,168086,1,8,1:0:0:0:
12,128,168193,1,2,3:2:0:0:
15,180,168300,1,2,3:0:0:0:
47,207,168407,5,10,0:0:0:0:
47,207,168461,1,10,0:0:0:0:
47,207,168514,2,0,P|96:200|144:200,1,90.9999958343508,6|0,1:2|0:0,0:0:0:0:
272,16,168729,1,4,3:0:0:0:
272,16,168836,2,0,P|223:23|175:23,1,90.9999958343508,2|8,3:2|1:0,0:0:0:0:
99,109,169050,6,0,L|266:130,1,136.499993751526,10|0,3:2|0:0,0:0:0:0:
234,126,169264,1,2,3:2:0:0:
296,197,169372,5,6,1:2:0:0:
310,189,169443,1,10,0:0:0:0:
325,184,169514,1,10,0:0:0:0:
339,182,169586,1,10,3:2:0:0:
403,1,169800,5,8,1:0:0:0:
417,9,169871,1,10,0:0:0:0:
432,14,169942,1,10,0:0:0:0:
446,16,170014,1,10,3:2:0:0:
492,96,170122,5,2,3:2:0:0:
492,96,170229,2,0,P|484:138|480:208,1,90.9999958343508,6|0,1:2|0:0,0:0:0:0:
207,185,170443,5,4,3:0:0:0:
207,185,170550,2,0,P|225:91|235:-19,2,181.999991668702,2|2|2,3:2|0:0|3:2,0:0:0:0:
399,132,171086,6,0,B|317:124|296:195|302:212|315:234|270:292|198:284,1,272.999987503052,6|8,1:2|3:0,0:0:0:0:
131,254,171514,1,8,1:0:0:0:
200,289,171622,2,0,P|212:334|211:389,1,90.9999958343508,2|0,3:2|0:0,0:0:0:0:
433,384,171836,5,2,0:0:0:0:
433,384,171943,2,0,P|423:306|490:282,1,136.499993751526,6|0,1:2|0:0,0:0:0:0:
481,280,172157,2,0,P|509:301|510:335,1,45.4999979171754,4|0,3:0|0:0,0:0:0:0:
392,291,172264,5,2,3:2:0:0:
392,291,172372,2,0,P|380:246|381:191,1,90.9999958343508,8|2,1:0|0:0,0:0:0:0:
458,54,172586,5,2,3:0:0:0:
376,8,172693,1,2,3:2:0:0:
458,54,172800,2,0,P|400:71|354:118,1,90.9999958343508,6|10,1:2|0:0,0:0:0:0:
376,89,172961,1,8,0:0:0:0:
376,89,173014,2,0,P|320:80|284:30,1,90.9999958343508,8|8,3:2|3:0,0:0:0:0:
136,21,173229,5,8,1:0:0:0:
92,44,173336,1,2,0:2:0:0:
79,101,173443,1,2,3:0:0:0:
114,149,173550,1,2,3:2:0:0:
170,170,173657,1,6,1:2:0:0:
232,152,173764,1,8,0:3:0:0:
302,148,173872,1,4,0:3:0:0:
361,193,173979,1,10,3:2:0:0:
360,271,174086,6,0,P|348:335|345:365,1,90.9999958343508,8|2,1:0|0:0,0:0:0:0:
155,89,174300,2,0,P|167:25|170:-5,1,90.9999958343508,2|2,3:0|0:0,0:0:0:0:
455,81,174514,6,0,P|447:160|374:172,1,136.499993751526,6|0,1:2|0:0,0:0:0:0:
386,177,174729,2,0,P|349:157|341:133,1,45.4999979171754,2|0,0:3|0:0,0:0:0:0:
331,76,174836,5,8,3:0:0:0:
331,76,174943,2,0,P|303:46|284:43,1,45.4999979171754,6|0,1:2|0:0,0:0:0:0:
287,42,175050,2,0,P|232:65|254:175,1,181.999991668702,2|2,3:2|0:0,0:0:0:0:
469,193,175372,5,8,1:0:0:0:
473,275,175479,1,8,1:2:0:0:
473,275,175532,1,8,0:0:0:0:
473,275,175586,6,0,P|449:271|412:255,2,37.3333333333333,10|10|10,3:2|3:2|3:2,0:0:0:0:
480,362,175800,5,6,1:2:0:0:
480,362,175907,2,0,P|407:346|363:330,1,83.9999974365235,2|2,3:2|3:0,0:0:0:0:
218,245,176122,5,8,0:1:0:0:
248,173,176229,2,0,P|327:199|334:231,1,105.000004005432,6|0,1:2|0:0,0:0:0:0:
219,344,176443,5,8,3:1:0:0:
165,354,176550,1,0,3:0:0:0:
137,309,176657,1,2,1:3:0:0:
56,352,176800,5,2,3:2:0:0:
17,233,176943,1,2,3:2:0:0:
125,172,177086,1,2,1:2:0:0:
105,97,177229,5,2,3:2:0:0:
189,68,177372,1,2,3:2:0:0:
234,146,177515,1,2,1:3:0:0:
221,223,177622,5,2,3:2:0:0:
246,240,177729,2,0,P|333:230|386:233,1,105.000004005432,8|8,3:1|0:0,0:0:0:0:
350,230,177889,1,8,0:0:0:0:
350,230,177943,6,0,P|357:168|374:89,1,105.000004005432,12|0,1:2|0:0,0:0:0:0:
74,250,178157,2,0,P|67:312|50:391,1,105.000004005432,8|0,3:1|0:0,0:0:0:0:
288,344,178372,5,2,1:3:0:0:
345,332,178479,1,2,3:2:0:0:
397,321,178586,1,8,3:1:0:0:
434,251,178693,6,0,P|424:191|325:169,1,157.500006008148,6|8,3:2|0:0,0:0:0:0:
340,162,178907,1,8,0:0:0:0:
340,162,178961,2,0,P|310:133|312:105,1,52.5000020027161,8|8,0:0|3:1,0:0:0:0:
445,42,179122,5,2,3:2:0:0:
445,42,179229,2,0,P|428:118|424:154,1,105.000004005432,0|2,1:0|0:0,0:0:0:0:
163,192,179443,2,0,P|175:141|183:89,1,105.000004005432,8|2,3:1|0:0,0:0:0:0:
293,234,179657,6,0,P|277:282|232:306,1,105.000004005432,0|8,1:0|0:0,0:0:0:0:
218,306,179818,2,0,P|184:291|166:262,1,52.5000020027161,8|8,0:0|3:1,0:0:0:0:
137,111,179979,5,2,3:2:0:0:
88,73,180086,1,2,1:2:0:0:
31,100,180193,1,2,0:0:0:0:
19,168,180300,1,8,3:1:0:0:
56,235,180407,6,0,P|64:309|64:354,1,105.000004005432,6|0,3:2|1:0,0:0:0:0:
419,222,180622,2,0,P|411:148|411:103,1,105.000004005432,2|8,3:2|3:1,0:0:0:0:
410,117,180782,1,8,0:0:0:0:
410,117,180836,1,10,3:2:0:0:
351,67,180943,6,0,P|290:59|270:121,1,105.000004005432,2|8,1:2|0:0,0:0:0:0:
267,103,181104,2,0,P|279:140|309:156,1,52.5000020027161,8|8,0:0|3:1,0:0:0:0:
494,259,181264,5,4,3:0:0:0:
494,259,181372,2,0,P|405:276|360:396,1,210.000008010865,6|8,1:2|3:1,0:0:0:0:
350,295,181693,5,8,3:0:0:0:
350,295,181800,2,0,P|277:256|196:299,1,157.500006008148,2|0,1:2|0:0,0:0:0:0:
211,280,182014,1,8,3:1:0:0:
263,217,182122,6,0,P|230:168|182:161,1,105.000004005432,2|0,3:2|1:0,0:0:0:0:
47,133,182336,5,2,3:2:0:0:
27,93,182443,1,8,3:1:0:0:
46,44,182550,1,2,0:0:0:0:
103,33,182657,1,2,1:2:0:0:
153,64,182764,1,2,0:0:0:0:
211,89,182872,1,8,3:1:0:0:
278,65,182979,1,2,0:0:0:0:
311,0,183086,6,0,P|377:25|380:98,1,105.000004005432,6|8,1:2|0:0,0:0:0:0:
388,52,183247,1,8,0:0:0:0:
388,52,183300,2,0,P|381:122|386:182,1,105.000004005432,8|2,3:1|3:2,0:0:0:0:
221,339,183514,5,2,1:2:0:0:
221,339,183622,2,0,P|228:269|223:209,1,105.000004005432,2|8,3:2|3:1,0:0:0:0:
226,234,183782,1,8,0:0:0:0:
226,234,183836,1,10,3:2:0:0:
315,271,183943,6,0,B|376:281|398:231|392:220|386:210|415:147|475:164,1,210.000008010865,6|8,1:2|3:1,0:0:0:0:
483,241,184264,2,0,B|428:271|391:232|393:220|395:208|346:159|295:195,1,210.000008010865,2|2,3:2|0:0,0:0:0:0:
141,265,184586,5,8,3:1:0:0:
141,265,184693,1,2,3:2:0:0:
92,325,184800,2,0,P|23:292|46:157,1,210.000008010865,6|8,1:2|3:1,0:0:0:0:
154,383,185122,2,0,P|223:350|234:286,1,105.000004005432,2|0,3:2|1:0,0:0:0:0:
296,189,185336,5,2,3:2:0:0:
243,178,185443,1,8,3:1:0:0:
189,164,185550,1,2,0:0:0:0:
155,87,185657,5,6,1:2:0:0:
155,87,185764,2,0,P|154:46|146:-4,2,52.5000020027161,10|8|8,3:2|0:0|3:1,0:0:0:0:
125,220,185979,5,2,3:2:0:0:
125,220,186086,2,0,P|67:232|6:237,1,105.000004005432,2|2,1:2|0:0,0:0:0:0:
356,132,186300,2,0,P|414:120|475:115,1,105.000004005432,8|2,3:1|3:2,0:0:0:0:
246,181,186514,5,6,1:2:0:0:
246,181,186622,1,2,3:2:0:0:
304,235,186729,5,8,0:1:0:0:
310,250,186800,1,10,3:2:0:0:
314,265,186872,1,10,3:2:0:0:
315,282,186943,6,0,P|383:269|395:201,1,105.000004005432,10|2,1:2|0:0,0:0:0:0:
158,90,187157,2,0,P|90:103|78:171,1,105.000004005432,8|2,3:1|0:0,0:0:0:0:
361,0,187372,5,14,1:2:0:0:
298,38,187479,2,0,P|303:94|320:174,1,105.000004005432,8|2,3:1|3:2,0:0:0:0:
192,326,187693,5,8,3:2:0:0:
192,326,187747,1,8,3:2:0:0:
192,326,187800,2,0,P|188:271|170:190,2,105.000004005432,8|2|2,3:1|3:2|0:0,0:0:0:0:
411,249,188122,5,10,3:2:0:0:
483,232,188229,1,6,3:2:0:0:
381,163,188337,6,0,B|370:215|428:258|446:241|462:226|521:258|512:316,1,224,6|2,1:2|3:2,0:0:0:0:
430,373,188658,6,0,B|377:319|414:242|440:244|462:248|515:188|468:118,1,280,8|10,1:0|3:2,0:0:0:0:
473,126,188925,1,8,0:0:0:0:
473,126,188979,1,8,3:1:0:0:
224,147,189193,5,2,3:2:0:0:
209,224,189300,2,0,L|164:257,2,35,8|8|8,3:1|3:2|3:2,0:0:0:0:
306,164,189514,1,8,3:1:0:0:
287,241,189622,1,8,1:0:0:0:
255,48,189836,6,0,P|255:176|249:348,1,280,6|8,1:2|3:1,0:0:0:0:
253,336,190443,1,8,3:0:0:0:
257,345,190514,1,4,3:0:0:0:
262,352,190586,1,0,1:0:0:0:
