osu file format v14

[General]
AudioFilename: audio.mp3
AudioLeadIn: 0
PreviewTime: 71642
Countdown: 0
SampleSet: Soft
StackLeniency: 0.7
Mode: 0
LetterboxInBreaks: 0
WidescreenStoryboard: 1

[Editor]
DistanceSpacing: 1
BeatDivisor: 4
GridSize: 32
TimelineZoom: 2.3

[Metadata]
Title:piano x forte
TitleUnicode:piano x forte
Artist:OSTER project
ArtistUnicode:OSTER project
Creator:DeviousPanda
Version:Normal
Source:
Tags:instrumental jazz recursive call o!wc owc 2020 qf nm6 kowari kyrian ピアノ×フォルテ×スキャンダル Piano x Forte x Scandal
BeatmapID:2983636
BeatmapSetID:1296249

[Difficulty]
HPDrainRate:2.5
CircleSize:3
OverallDifficulty:4
ApproachRate:5
SliderMultiplier:1.3
SliderTickRate:1

[Events]
//Background and Video events
0,0,"flowers ethereal.jpg",0,0
//Break Periods
2,69178,70457
2,86643,98743
2,100785,102172
2,160893,162172
//Storyboard Layer 0 (Background)
//Storyboard Layer 1 (Fail)
//Storyboard Layer 2 (Pass)
//Storyboard Layer 3 (Foreground)
//Storyboard Layer 4 (Overlay)
//Storyboard Sound Samples

[TimingPoints]
1372,428.571428571429,4,2,1,50,1,0
14657,-100,4,2,1,60,0,0
15086,-100,4,2,1,70,0,0
28800,-100,4,2,1,60,0,0
42514,-100,4,2,1,65,0,0
56229,-95.2380952380952,4,2,1,80,0,1
68979,-95.2380952380952,4,2,1,60,0,0
72193,-95.2380952380952,4,2,1,70,0,0
72514,-95.2380952380952,4,2,1,90,0,1
86229,-100,4,2,1,60,0,0
105086,-100,4,2,1,50,0,0
106372,-100,4,2,1,60,0,0
106800,-100,4,2,1,70,0,0
120514,-100,4,2,1,60,0,0
134228,-100,4,2,1,65,0,0
147943,-95.2380952380952,4,2,1,80,0,1
160693,-95.2380952380952,4,2,1,60,0,0
163907,-95.2380952380952,4,2,1,70,0,0
164229,-95.2380952380952,4,2,1,90,0,1
176229,-95.2380952380952,4,2,1,100,0,1
189836,-100,4,2,1,100,0,0

[Colours]
Combo1 : 248,183,255
Combo2 : 137,254,227
Combo3 : 203,183,255
Combo4 : 141,218,254

[HitObjects]
70,46,1372,6,0,P|133:63|152:144,1,130,6|10,3:2|3:2,0:0:0:0:
234,178,2122,1,2,0:0:0:0:
298,177,2336,2,0,P|331:145|324:76,1,97.5,2|10,0:0|3:2,0:0:0:0:
456,51,3086,2,0,P|421:157|392:331,1,260,2|2,3:2|0:0,0:0:0:0:
343,342,4157,1,6,3:2:0:0:
261,288,4479,1,10,3:2:0:0:
169,320,4800,6,0,P|133:293|131:227,1,97.5,0|2,3:0|0:0,0:0:0:0:
156,186,5336,1,2,3:2:0:0:
133,125,5550,1,2,3:2:0:0:
68,116,5764,2,0,P|33:138|10:235,2,130,10|2|2,3:2|3:2|3:2,0:0:0:0:
351,41,7586,6,0,P|324:84|317:130,1,97.5,4|10,3:2|3:2,0:0:0:0:
378,205,8229,1,2,3:0:0:0:
345,261,8443,2,0,P|295:278|207:195,1,162.5,2|2,3:2|3:2,0:0:0:0:
156,184,9193,2,0,P|101:200|68:265,1,130,0|2,3:0|0:0,0:0:0:0:
105,314,9836,1,2,3:0:0:0:
75,371,10050,1,10,3:2:0:0:
365,341,11014,6,0,P|401:301|461:274,1,97.5,6|2,3:2|0:0,0:0:0:0:
494,199,11657,2,0,P|480:138|397:119,1,130,2|2,3:2|0:0,0:0:0:0:
364,142,12300,1,2,0:0:0:0:
272,106,12622,2,0,P|216:75|176:-4,2,130,10|0|2,3:2|3:0|0:0,0:0:0:0:
36,374,14657,6,0,P|35:320|30:283,1,65,6|10,1:2|3:2,0:0:0:0:
53,246,15086,1,6,1:2:0:0:
151,160,15514,1,8,3:1:0:0:
105,112,15729,2,0,P|111:55|177:19,1,130,10|10,3:2|3:2,0:0:0:0:
230,41,16372,1,8,3:1:0:0:
284,5,16586,1,10,0:0:0:0:
341,34,16800,6,0,P|357:85|368:183,1,130,4|8,1:2|3:1,0:0:0:0:
309,239,17550,1,2,3:2:0:0:
390,379,18086,1,8,3:1:0:0:
480,285,18514,6,0,P|487:225|511:137,1,130,0|8,1:0|3:1,0:0:0:0:
477,97,19157,1,2,3:2:0:0:
411,98,19372,1,2,1:2:0:0:
347,211,19800,1,8,3:1:0:0:
237,140,20229,6,0,P|180:173|168:234,1,130,6|8,1:2|3:1,0:0:0:0:
202,287,20872,1,10,0:0:0:0:
159,336,21086,1,0,1:0:0:0:
33,302,21514,1,8,3:1:0:0:
41,172,21943,6,0,P|41:115|20:23,1,130,6|8,1:2|3:1,0:0:0:0:
78,3,22586,1,2,0:0:0:0:
131,40,22800,1,0,1:0:0:0:
255,1,23229,1,8,3:1:0:0:
277,128,23657,6,0,P|316:127|397:73,1,130,14|8,1:2|1:0,0:0:0:0:
465,16,24407,1,2,3:2:0:0:
507,65,24622,1,8,0:1:0:0:
481,124,24836,2,0,P|484:173|491:214,1,65,4|0,0:3|0:0,0:0:0:0:
445,277,25372,6,0,P|372:286|332:241,1,130,6|8,1:2|3:1,0:0:0:0:
316,187,26014,1,2,3:2:0:0:
251,175,26229,2,0,P|190:193|168:255,1,130,6|8,1:2|3:1,0:0:0:0:
197,308,26872,1,10,0:0:0:0:
170,367,27086,1,12,1:0:0:0:
36,115,28800,6,0,P|119:99|163:68,1,130,6|8,1:2|0:1,0:0:0:0:
249,45,29550,2,0,P|304:75|322:147,1,130,2|2,0:0|0:0,0:0:0:0:
275,180,30193,1,2,0:0:0:0:
343,249,30514,6,0,P|319:312|309:370,1,97.5,6|2,1:2|3:2,0:0:0:0:
223,380,31157,1,2,3:0:0:0:
170,341,31372,2,0,P|167:295|241:249,1,130,10|8,1:2|0:1,0:0:0:0:
315,345,32229,2,0,P|365:343|411:294,2,97.5,0|2|10,1:0|3:2|3:2,0:0:0:0:
304,215,33300,5,10,0:0:0:0:
266,161,33514,2,0,P|267:124|284:70,1,65,8|2,0:1|3:0,0:0:0:0:
255,34,33943,2,0,P|183:18|146:74,1,130,6|8,1:2|0:1,0:0:0:0:
96,173,34800,6,0,P|107:215|111:247,1,65,6|10,1:2|3:2,0:0:0:0:
156,282,35229,2,0,P|146:323|143:358,1,65,8|8,1:0|0:1,0:0:0:0:
88,379,35657,1,6,1:2:0:0:
7,276,36086,1,8,3:1:0:0:
90,176,36514,6,0,P|92:114|116:26,1,130,2|8,0:0|3:1,0:0:0:0:
161,12,37157,1,2,3:0:0:0:
211,53,37372,1,6,1:2:0:0:
339,33,37800,6,0,P|320:91|319:134,1,97.5,10|10,1:2|3:2,0:0:0:0:
353,182,38336,1,2,3:2:0:0:
415,164,38550,1,2,0:0:0:0:
473,242,38872,5,2,3:0:0:0:
460,305,39086,1,2,1:2:0:0:
350,372,39514,1,2,3:2:0:0:
241,299,39943,1,2,3:2:0:0:
127,362,40372,1,8,0:1:0:0:
17,291,40800,1,6,1:2:0:0:
17,291,42514,6,0,P|66:252|86:179,1,130,6|8,1:2|3:1,0:0:0:0:
39,104,43264,1,2,0:0:0:0:
79,52,43479,1,2,3:2:0:0:
141,68,43693,2,0,P|195:55|215:35,1,65,2|2,0:0|0:0,0:0:0:0:
295,24,44229,6,0,P|332:52|318:141,1,130,6|0,1:2|0:0,0:0:0:0:
278,170,44872,1,2,0:3:0:0:
276,234,45086,2,0,P|299:275|396:281,2,130,8|8|6,1:2|3:1|1:2,0:0:0:0:
187,192,46264,6,0,P|146:207|125:269,1,97.5,2|8,1:2|0:1,0:0:0:0:
152,311,46800,1,2,3:2:0:0:
42,381,47229,1,8,0:1:0:0:
14,254,47657,6,0,P|26:198|36:122,1,130,6|8,1:2|0:1,0:0:0:0:
12,65,48300,1,2,3:0:0:0:
62,23,48514,2,0,P|109:27|126:65,1,65,6|10,3:2|3:2,0:0:0:0:
147,97,48943,2,0,P|195:92|220:58,1,65,8|8,1:0|0:1,0:0:0:0:
227,20,49372,1,6,1:2:0:0:
338,86,49800,6,0,P|377:81|410:57,1,65,10|10,3:2|3:2,0:0:0:0:
442,19,50229,1,2,3:2:0:0:
505,32,50443,2,0,P|515:78|507:142,1,97.5,4|8,1:2|3:1,0:0:0:0:
439,194,51086,2,0,P|414:222|406:257,1,65,6|2,1:2|3:2,0:0:0:0:
420,311,51514,1,8,3:1:0:0:
343,372,51836,1,8,0:1:0:0:
295,327,52050,2,0,P|266:315|194:318,1,97.5,2|8,3:0|3:1,0:0:0:0:
103,229,52800,6,0,P|101:169|154:106,1,130,14|8,1:2|1:0,0:0:0:0:
269,102,53657,2,0,P|299:144|301:235,1,130,0|8,1:0|3:1,0:0:0:0:
245,246,54300,1,2,0:0:0:0:
189,211,54514,1,2,1:2:0:0:
472,370,55586,5,10,3:2:0:0:
490,307,55800,1,8,1:0:0:0:
511,245,56014,1,2,1:2:0:0:
486,184,56229,6,0,P|426:174|366:236,1,136.499995834351,6|8,1:2|1:0,0:0:0:0:
378,322,56979,1,2,3:2:0:0:
318,355,57193,1,2,3:2:0:0:
259,320,57407,2,0,P|265:284|264:230,1,68.2499979171754,2|2,3:2|0:0,0:0:0:0:
227,157,57943,6,0,P|173:146|119:203,1,136.499995834351,14|8,1:2|1:0,0:0:0:0:
155,295,58693,1,2,0:0:0:0:
138,361,58907,1,2,0:0:0:0:
71,378,59122,1,2,0:0:0:0:
11,218,59657,6,0,P|21:154|31:52,1,136.499995834351,6|8,1:2|1:0,0:0:0:0:
91,0,60407,2,0,P|130:-2|172:70,1,102.374996875763,2|10,0:0|3:2,0:0:0:0:
160,109,60943,1,8,1:0:0:0:
248,213,61372,2,0,P|294:195|315:111,1,136.499995834351,6|8,1:2|1:0,0:0:0:0:
294,51,62014,1,2,3:0:0:0:
340,0,62229,2,0,P|389:-10|462:51,1,136.499995834351,6|8,1:2|1:0,0:0:0:0:
508,163,63086,6,0,P|478:226|466:318,1,136.499995834351,6|8,1:2|1:0,0:0:0:0:
476,359,63729,1,10,3:2:0:0:
411,380,63943,2,0,P|358:373|327:318,1,102.374996875763,6|6,1:2|3:2,0:0:0:0:
305,235,64586,1,2,3:0:0:0:
237,229,64800,2,0,P|194:268|186:324,1,102.374996875763,6|4,1:2|3:0,0:0:0:0:
139,361,65336,1,2,0:0:0:0:
76,333,65550,2,0,P|66:290|53:257,2,68.2499979171754,6|2|2,0:0|3:2|0:0,0:0:0:0:
240,379,66514,6,0,P|248:321|265:222,1,136.499995834351,6|8,1:2|1:0,0:0:0:0:
345,186,67264,2,0,P|340:135|325:78,1,102.374996875763,2|4,0:0|3:0,0:0:0:0:
362,26,67800,1,8,1:0:0:0:
427,8,68014,1,2,0:3:0:0:
470,60,68229,6,0,P|455:128|454:187,1,102.374996875763,6|10,1:2|0:0,0:0:0:0:
495,214,68764,2,0,P|503:270|502:306,1,68.2499979171754,8|6,3:2|0:0,0:0:0:0:
251,377,71657,6,0,P|254:328|269:218,1,136.499995834351,8|10,3:2|3:2,0:0:0:0:
253,208,72193,1,6,3:2:0:0:
260,106,72514,6,0,P|343:110|363:170,1,136.499995834351,4|8,1:0|1:0,0:0:0:0:
416,276,73372,2,0,P|471:284|516:228,1,102.374996875763,6|10,1:2|3:2,0:0:0:0:
505,189,73907,1,6,3:2:0:0:
425,123,74229,6,0,P|322:146|137:203,1,272.999991668701,6|6,1:2|1:2,0:0:0:0:
115,244,75300,1,4,3:0:0:0:
50,222,75514,1,8,1:0:0:0:
68,86,75943,6,0,P|111:64|191:115,1,136.499995834351,6|8,1:2|1:0,0:0:0:0:
259,214,76800,2,0,P|317:207|347:163,1,102.374996875763,6|2,1:2|3:2,0:0:0:0:
332,110,77336,1,10,3:2:0:0:
392,27,77657,6,0,P|462:31|506:90,2,136.499995834351,6|8|6,1:2|1:0|1:2,0:0:0:0:
322,102,78836,1,2,3:2:0:0:
282,46,79050,1,2,0:0:0:0:
180,29,79372,6,0,P|132:56|122:133,1,136.499995834351,6|8,1:2|1:0,0:0:0:0:
149,150,79907,1,2,3:2:0:0:
92,235,80229,6,0,P|116:286|126:341,1,102.374996875763,6|2,1:2|3:2,0:0:0:0:
179,371,80764,1,2,0:0:0:0:
244,291,81086,2,0,P|300:278|355:335,1,136.499995834351,6|8,1:2|1:0,0:0:0:0:
408,369,81729,1,2,3:0:0:0:
467,335,81943,2,0,P|491:296|489:261,1,68.2499979171754,6|4,1:2|0:3,0:0:0:0:
437,233,82372,2,0,P|415:195|416:148,1,68.2499979171754,8|2,1:0|3:0,0:0:0:0:
440,109,82800,6,0,P|420:69|354:58,1,102.374996875763,6|8,1:2|3:0,0:0:0:0:
313,96,83336,1,2,3:2:0:0:
216,128,83657,6,0,P|169:104|153:15,1,136.499995834351,8|6,1:0|1:2,0:0:0:0:
175,5,84193,1,2,3:2:0:0:
288,82,84622,6,0,P|300:144|300:198,2,102.374996875763,6|8|6,1:2|1:0|1:2,0:0:0:0:
356,5,85586,2,0,B|419:-1|444:46|438:62|431:78|468:127|534:110,1,204.749993751526,10|6,3:2|1:2,0:0:0:0:
487,173,86443,1,6,1:2:0:0:
243,287,99943,6,0,P|254:350|254:402,2,97.5,6|6|6,1:2|1:2|1:2,0:0:0:0:
269,97,103372,6,0,P|258:34|258:-18,2,97.5,6|6|6,1:2|1:2|1:2,0:0:0:0:
251,159,104229,2,0,P|193:164|147:92,1,130,8|6,0:1|1:2,0:0:0:0:
156,49,104872,1,2,0:0:0:0:
104,9,105086,1,0,1:0:0:0:
0,252,106372,6,0,P|13:316|14:341,1,65,6|10,1:2|3:2,0:0:0:0:
54,365,106800,2,0,P|132:355|172:308,1,130,6|8,1:2|3:1,0:0:0:0:
178,256,107443,1,10,3:2:0:0:
289,189,107872,1,10,3:2:0:0:
344,222,108086,2,0,P|353:261|347:298,1,65,8|10,3:1|0:0,0:0:0:0:
388,338,108514,6,0,P|455:339|487:268,1,130,4|8,1:2|3:1,0:0:0:0:
458,197,109264,2,0,P|462:151|479:83,1,97.5,2|10,3:2|1:2,0:0:0:0:
445,41,109800,1,8,3:1:0:0:
321,0,110229,6,0,P|269:22|238:107,1,130,0|8,1:0|3:1,0:0:0:0:
260,146,110872,1,2,3:2:0:0:
231,204,111086,2,0,P|172:206|134:146,1,130,2|8,1:2|3:1,0:0:0:0:
19,213,111943,6,0,P|38:272|44:344,1,130,6|8,1:2|3:1,0:0:0:0:
97,377,112586,1,10,0:0:0:0:
149,338,112800,2,0,P|206:322|269:369,1,130,0|8,1:0|3:1,0:0:0:0:
388,324,113657,6,0,P|435:292|439:216,1,130,6|8,1:2|3:1,0:0:0:0:
392,181,114300,1,2,0:0:0:0:
364,122,114514,2,0,P|372:85|394:41,1,65,0|2,1:0|3:2,0:0:0:0:
335,15,114943,2,0,P|300:26|249:29,1,65,8|2,3:1|0:3,0:0:0:0:
238,85,115372,5,14,1:2:0:0:
126,17,115800,1,8,1:0:0:0:
59,88,116122,2,0,P|70:131|75:169,1,65,2|8,3:2|0:1,0:0:0:0:
113,202,116550,1,4,0:3:0:0:
72,252,116764,1,2,3:2:0:0:
103,308,116979,2,0,P|166:317|239:249,1,162.5,2|8,3:2|3:1,0:0:0:0:
353,198,117943,6,0,P|403:218|440:297,1,130,6|8,1:2|3:1,0:0:0:0:
403,336,118586,1,10,0:0:0:0:
338,327,118800,2,0,P|322:256|328:46,2,260,12|10|6,1:0|3:2|1:2,0:0:0:0:
220,382,120943,6,0,P|165:360|147:311,1,97.5,8|2,0:1|0:0,0:0:0:0:
171,267,121479,1,2,0:3:0:0:
102,198,121800,6,0,P|99:143|85:53,1,130,10|6,3:2|1:2,0:0:0:0:
164,7,122550,1,2,3:2:0:0:
236,72,122872,1,2,3:0:0:0:
297,92,123086,2,0,P|328:70|337:34,1,65,10|10,1:2|3:2,0:0:0:0:
390,8,123514,6,0,P|452:20|481:90,1,130,8|0,0:1|1:0,0:0:0:0:
419,150,124264,1,2,3:2:0:0:
478,227,124586,1,10,3:2:0:0:
377,309,125014,5,10,0:0:0:0:
318,337,125229,2,0,P|294:318|285:283,1,65,8|2,0:1|3:0,0:0:0:0:
235,243,125657,2,0,P|178:231|127:298,1,130,6|8,1:2|0:1,0:0:0:0:
29,194,126514,6,0,P|29:148|23:118,1,65,6|10,1:2|3:2,0:0:0:0:
6,67,126943,1,8,1:0:0:0:
51,20,127157,1,8,0:1:0:0:
115,31,127372,6,0,P|163:66|168:141,1,130,6|8,1:2|3:1,0:0:0:0:
141,190,128014,1,2,3:0:0:0:
166,249,128229,2,0,P|208:272|251:261,1,65,2|10,0:0|3:2,0:0:0:0:
277,235,128657,1,8,3:1:0:0:
398,282,129086,6,0,P|404:237|429:136,1,130,6|10,1:2|1:2,0:0:0:0:
409,124,129622,1,2,3:2:0:0:
337,58,129943,6,0,P|289:62|253:135,1,130,0|8,1:0|3:1,0:0:0:0:
283,185,130586,1,2,3:0:0:0:
258,245,130800,2,0,P|179:227|-4:208,2,260,2|2|6,1:2|3:2|1:2,0:0:0:0:
357,329,132943,1,10,0:0:0:0:
471,267,133372,1,2,0:0:0:0:
463,137,133800,1,6,1:2:0:0:
362,53,134229,6,0,P|308:68|259:138,1,130,6|8,1:2|3:1,0:0:0:0:
315,206,134979,1,2,0:0:0:0:
351,259,135193,1,2,3:2:0:0:
319,315,135407,2,0,P|259:321|232:302,1,65,2|2,0:0|0:0,0:0:0:0:
163,349,135943,6,0,P|125:304|69:282,1,97.5,6|2,1:2|3:2,0:0:0:0:
17,223,136586,1,2,0:3:0:0:
3,159,136800,2,0,P|37:111|115:112,1,130,8|8,1:2|3:1,0:0:0:0:
221,161,137657,6,0,P|260:153|309:76,1,130,6|2,1:2|0:3,0:0:0:0:
273,27,138300,1,8,0:1:0:0:
213,52,138514,1,2,3:2:0:0:
92,2,138943,1,8,0:1:0:0:
24,113,139372,6,0,P|36:144|57:261,1,130,6|8,1:2|0:1,0:0:0:0:
49,303,140014,1,2,3:0:0:0:
89,354,140229,2,0,P|131:367|157:356,1,65,6|10,3:2|3:2,0:0:0:0:
181,304,140657,1,8,1:0:0:0:
164,240,140872,1,8,0:1:0:0:
200,186,141086,6,0,P|272:185|336:235,1,130,6|10,1:2|3:2,0:0:0:0:
409,309,141943,1,2,3:2:0:0:
464,275,142157,2,0,P|467:240|487:171,1,97.5,4|8,1:2|3:1,0:0:0:0:
446,89,142800,5,6,1:2:0:0:
388,58,143014,1,6,3:2:0:0:
328,85,143229,1,8,3:1:0:0:
258,153,143550,5,8,3:1:0:0:
198,127,143764,1,8,3:1:0:0:
190,62,143979,1,2,3:0:0:0:
104,15,144300,5,10,3:2:0:0:
63,66,144514,2,0,P|82:141|88:191,1,97.5,14|0,1:2|1:0,0:0:0:0:
47,214,145050,1,2,0:0:0:0:
82,268,145264,1,2,0:0:0:0:
220,367,145800,5,8,3:1:0:0:
260,316,146014,1,2,0:0:0:0:
324,305,146229,1,2,1:2:0:0:
447,264,146657,1,8,3:1:0:0:
364,160,147086,1,2,3:2:0:0:
480,102,147514,1,8,1:0:0:0:
369,21,147943,6,0,P|314:19|225:-5,1,136.499995834351,6|8,1:2|1:0,0:0:0:0:
140,37,148693,1,2,3:2:0:0:
128,104,148907,1,2,3:2:0:0:
180,148,149122,2,0,P|218:158|256:147,1,68.2499979171754,10|2,3:2|3:2,0:0:0:0:
338,195,149657,6,0,P|357:242|303:316,1,136.499995834351,14|8,1:2|1:0,0:0:0:0:
229,366,150407,1,2,3:2:0:0:
184,314,150622,1,2,3:2:0:0:
116,306,150836,1,2,0:0:0:0:
27,255,151157,5,2,2:3:0:0:
2,191,151372,2,0,P|7:142|35:47,1,136.499995834351,6|8,1:2|1:0,0:0:0:0:
160,15,152229,1,6,1:2:0:0:
236,127,152657,6,0,P|304:108|322:72,1,102.374996875763,8|2,1:0|0:0,0:0:0:0:
321,49,153086,1,6,1:2:0:0:
449,2,153514,1,8,1:0:0:0:
490,132,153943,2,0,P|469:185|454:272,1,136.499995834351,6|8,1:2|1:0,0:0:0:0:
416,319,154586,1,2,3:0:0:0:
348,330,154800,6,0,P|286:297|268:233,1,136.499995834351,6|8,1:2|1:0,0:0:0:0:
303,178,155443,1,10,3:2:0:0:
274,115,155657,1,6,1:2:0:0:
175,87,155979,1,6,3:2:0:0:
112,167,156300,5,10,3:2:0:0:
143,227,156514,2,0,P|150:264|149:348,1,102.374996875763,6|4,1:2|3:0,0:0:0:0:
105,379,157050,1,2,0:0:0:0:
41,354,157264,1,6,0:0:0:0:
8,186,157800,6,0,P|37:139|128:127,1,136.499995834351,8|6,1:0|1:2,0:0:0:0:
168,160,158443,1,10,3:2:0:0:
236,160,158657,2,0,P|280:140|300:76,1,102.374996875763,8|2,1:0|0:0,0:0:0:0:
229,19,159300,1,4,3:0:0:0:
166,45,159514,2,0,P|154:95|154:160,1,102.374996875763,8|2,1:0|3:2,0:0:0:0:
202,235,160157,5,8,3:0:0:0:
257,195,160372,2,0,P|321:201|356:247,1,102.374996875763,8|6,1:0|0:0,0:0:0:0:
273,0,163372,6,0,P|261:57|255:147,1,136.499995834351,8|10,3:2|3:2,0:0:0:0:
237,164,163907,1,6,3:2:0:0:
292,249,164229,6,0,P|362:257|406:193,1,136.499995834351,4|8,1:0|1:0,0:0:0:0:
477,97,165086,2,0,P|453:47|405:22,1,102.374996875763,6|10,1:2|3:2,0:0:0:0:
351,52,165622,1,6,3:2:0:0:
262,103,165943,2,0,P|205:96|133:43,1,136.499995834351,6|8,1:2|1:0,0:0:0:0:
18,113,166800,5,6,1:2:0:0:
0,176,167014,1,4,3:0:0:0:
39,226,167229,2,0,P|94:222|120:194,1,68.2499979171754,8|2,1:0|3:0,0:0:0:0:
170,226,167657,6,0,P|218:239|261:326,1,136.499995834351,6|8,1:2|1:0,0:0:0:0:
391,350,168514,2,0,P|425:317|435:261,1,102.374996875763,6|2,1:2|3:2,0:0:0:0:
384,218,169050,1,10,3:2:0:0:
447,137,169372,1,6,1:2:0:0:
369,24,169800,1,8,1:0:0:0:
238,63,170229,6,0,P|176:44|140:0,1,102.374996875763,6|2,1:2|3:2,0:0:0:0:
82,22,170764,1,2,0:0:0:0:
47,118,171086,6,0,P|62:175|74:271,1,136.499995834351,6|8,1:2|1:0,0:0:0:0:
100,271,171622,1,2,3:2:0:0:
135,366,171943,6,0,P|188:376|231:337,1,102.374996875763,6|2,1:2|3:2,0:0:0:0:
233,281,172479,1,2,0:0:0:0:
296,200,172800,2,0,P|360:209|396:273,1,136.499995834351,6|8,1:2|1:0,0:0:0:0:
392,334,173443,1,2,3:0:0:0:
444,377,173657,2,0,P|493:363|511:330,1,68.2499979171754,6|4,1:2|0:3,0:0:0:0:
500,282,174086,1,8,1:0:0:0:
417,173,174514,6,0,P|402:96|402:52,1,102.374996875763,6|8,1:2|3:0,0:0:0:0:
445,20,175050,1,2,3:2:0:0:
509,42,175264,1,2,0:0:0:0:
301,264,176229,6,0,P|250:247|227:218,1,68.2499979171754,6|8,1:2|3:1,0:0:0:0:
237,169,176657,1,2,1:3:0:0:
132,78,177086,6,0,P|71:100|53:182,1,136.499995834351,2|2,1:2|1:3,0:0:0:0:
86,220,177729,1,8,3:1:0:0:
52,279,177943,2,0,P|34:339|34:371,1,68.2499979171754,12|8,1:2|3:1,0:0:0:0:
91,380,178372,2,0,P|151:365|179:349,1,68.2499979171754,2|8,1:3|3:1,0:0:0:0:
176,334,178693,1,6,3:2:0:0:
342,371,179229,6,0,P|351:306|379:218,1,136.499995834351,0|0,1:0|1:0,0:0:0:0:
350,172,179872,1,8,3:1:0:0:
281,171,180086,2,0,P|237:201|230:235,1,68.2499979171754,2|8,1:2|3:1,0:0:0:0:
246,243,180407,1,6,3:2:0:0:
96,325,180943,6,0,P|48:300|39:204,1,136.499995834351,2|6,1:2|1:2,0:0:0:0:
81,178,181586,1,8,3:1:0:0:
64,111,181800,1,2,1:2:0:0:
125,28,182122,6,0,P|184:32|213:85,1,102.374996875763,2|8,3:2|3:1,0:0:0:0:
252,115,182657,2,0,P|239:158|235:191,1,68.2499979171754,2|8,1:2|3:1,0:0:0:0:
281,232,183086,6,0,P|341:230|373:138,1,136.499995834351,6|2,1:2|1:2,0:0:0:0:
364,138,183622,1,2,3:2:0:0:
373,36,183943,2,0,P|424:35|473:83,2,102.374996875763,6|2|8,1:2|3:2|3:1,0:0:0:0:
310,63,184800,6,0,P|237:43|214:9,1,102.374996875763,6|2,1:2|3:2,0:0:0:0:
153,16,185336,1,2,3:2:0:0:
103,63,185550,2,0,P|93:125|124:217,1,136.499995834351,2|2,0:0|3:2,0:0:0:0:
171,228,186193,1,2,0:0:0:0:
114,312,186514,6,0,P|52:318|-7:381,2,136.499995834351,6|10|14,1:2|1:2|1:2,0:0:0:0:
141,333,187479,1,8,3:1:0:0:
237,299,187800,6,0,P|270:245|264:193,1,102.374996875763,8|10,3:1|3:2,0:0:0:0:
229,151,188336,1,6,1:2:0:0:
276,60,188657,1,8,1:0:0:0:
377,73,188979,1,8,3:1:0:0:
469,29,189300,5,8,3:1:0:0:
512,84,189514,1,8,3:1:0:0:
449,160,189836,2,0,P|418:269|399:390,1,227.5,6|0,1:2|1:0,0:0:0:0:
