osu file format v14

[General]
AudioFilename: audio.mp3
AudioLeadIn: 0
PreviewTime: 71642
Countdown: 0
SampleSet: Soft
StackLeniency: 0.7
Mode: 0
LetterboxInBreaks: 0
WidescreenStoryboard: 1

[Editor]
DistanceSpacing: 0.2
BeatDivisor: 4
GridSize: 32
TimelineZoom: 2.3

[Metadata]
Title:piano x forte
TitleUnicode:piano x forte
Artist:OSTER project
ArtistUnicode:OSTER project
Creator:DeviousPanda
Version:Hard
Source:
Tags:instrumental jazz recursive call o!wc owc 2020 qf nm6 kowari kyrian ピアノ×フォルテ×スキャンダル Piano x Forte x Scandal
BeatmapID:2983635
BeatmapSetID:1296249

[Difficulty]
HPDrainRate:3.4
CircleSize:3.4
OverallDifficulty:6.5
ApproachRate:7.7
SliderMultiplier:1.6
SliderTickRate:1

[Events]
//Background and Video events
0,0,"flowers ethereal.jpg",0,0
//Break Periods
2,100785,102577
//Storyboard Layer 0 (Background)
//Storyboard Layer 1 (Fail)
//Storyboard Layer 2 (Pass)
//Storyboard Layer 3 (Foreground)
//Storyboard Layer 4 (Overlay)
//Storyboard Sound Samples

[TimingPoints]
1372,428.571428571429,4,2,1,50,1,0
14657,-100,4,2,1,60,0,0
15086,-90.9090909090909,4,2,1,70,0,0
28800,-90.9090909090909,4,2,1,60,0,0
29229,-100,4,2,1,60,0,0
42514,-100,4,2,1,65,0,0
56229,-83.3333333333333,4,2,1,80,0,1
68979,-83.3333333333333,4,2,1,60,0,0
72193,-83.3333333333333,4,2,1,70,0,0
72514,-76.9230769230769,4,2,1,90,0,1
86229,-100,4,2,1,60,0,0
105086,-100,4,2,1,50,0,0
106372,-100,4,2,1,60,0,0
106800,-90.9090909090909,4,2,1,70,0,0
120514,-95.2380952380952,4,2,1,60,0,0
134228,-95.2380952380952,4,2,1,65,0,0
147943,-80,4,2,1,80,0,1
160693,-80,4,2,1,60,0,0
163907,-80,4,2,1,70,0,0
164229,-74.0740740740741,4,2,1,90,0,1
176122,-71.4285714285714,4,2,1,90,0,1
176229,-71.4285714285714,4,2,1,100,0,1
189836,-133.333333333333,4,2,1,100,0,0

[Colours]
Combo1 : 248,183,255
Combo2 : 137,254,227
Combo3 : 203,183,255
Combo4 : 141,218,254

[HitObjects]
382,358,1372,6,0,P|430:333|456:232,1,160,6|10,3:2|3:2,0:0:0:0:
375,178,2015,1,2,0:3:0:0:
357,187,2122,2,0,P|303:174|272:128,1,80,2|2,0:0|0:0,0:0:0:0:
100,247,2657,6,0,P|80:287|92:347,1,80,10|2,3:2|0:3,0:0:0:0:
80,321,2979,1,2,0:0:0:0:
80,321,3086,2,0,P|145:317|292:238,1,200,2|2,0:0|3:2,0:0:0:0:
416,308,3836,1,2,0:0:0:0:
422,330,3943,1,2,0:0:0:0:
353,233,4157,6,10,P|361:191|384:112,2,120,14|10|10,3:2|3:2|3:2,3:2:0:0:
245,319,5122,1,2,0:0:0:0:
169,263,5336,1,2,3:2:0:0:
213,177,5550,1,2,3:2:0:0:
146,101,5764,5,10,3:2:0:0:
146,101,5872,1,2,0:0:0:0:
146,101,5979,2,0,P|86:89|62:64,1,80,2|2,3:2|3:2,0:0:0:0:
2,147,6407,1,2,3:2:0:0:
14,161,6514,2,0,P|24:209|24:237,3,40,2|2|10|2,3:0|3:2|3:2|0:0,0:0:0:0:
200,301,7586,6,0,P|204:249|219:165,2,120,4|10|2,3:2|3:2|3:0,0:0:0:0:
277,365,8443,2,0,P|317:358|344:312,1,80,2|8,3:2|3:2,0:0:0:0:
337,299,8764,1,2,0:0:0:0:
408,234,8979,1,2,3:2:0:0:
492,281,9193,2,0,P|507:327|507:370,1,80,0|2,3:0|0:3,0:0:0:0:
508,358,9514,1,10,3:2:0:0:
508,358,9622,2,0,P|448:356|432:332,1,80,2|2,0:0|3:0,0:0:0:0:
343,187,10050,6,0,P|296:190|265:234,1,80,10|0,3:2|3:0,0:0:0:0:
273,211,10372,1,2,0:0:0:0:
273,211,10479,2,0,P|276:248|282:273,2,40,2|0|2,3:0|0:0|0:0,0:0:0:0:
470,169,11014,6,0,P|482:113|515:31,2,120,6|2|2,3:2|0:0|3:2,0:0:0:0:
279,214,12086,2,0,P|246:197|237:145,1,80,2|2,0:0|0:0,0:0:0:0:
249,132,12407,1,2,3:2:0:0:
354,84,12622,6,0,P|376:151|392:287,1,200,10|0,3:2|3:2,0:0:0:0:
392,279,13264,1,0,3:0:0:0:
392,279,13372,1,0,1:0:0:0:
184,378,14657,6,0,P|113:360|97:292,1,120,6|2,1:2|0:0,0:0:0:0:
103,305,15086,2,0,P|129:238|135:166,1,132.00000402832,6|2,1:2|3:0,0:0:0:0:
128,161,15514,1,8,3:1:0:0:
91,46,15729,5,10,3:2:0:0:
68,39,15836,2,0,P|22:56|-5:115,1,88.000002685547,2|8,0:3|0:1,0:0:0:0:
9,101,16157,2,0,P|28:156|35:212,2,88.000002685547,10|8|10,3:2|3:1|0:0,0:0:0:0:
161,6,16800,6,0,P|224:9|255:81,1,132.00000402832,4|0,1:2|0:0,0:0:0:0:
249,81,17229,1,8,3:1:0:0:
235,91,17336,1,8,0:0:0:0:
243,224,17550,6,0,P|307:211|334:166,2,88.000002685547,2|0|2,3:2|3:0|3:2,0:0:0:0:
185,278,18086,2,0,P|137:288|88:337,1,88.000002685547,8|0,3:1|0:0,0:0:0:0:
230,375,18514,6,0,P|279:368|372:314,1,132.00000402832,0|2,1:0|3:2,0:0:0:0:
358,316,18943,1,8,3:1:0:0:
438,383,19157,1,2,3:2:0:0:
478,288,19372,2,0,P|485:220|505:84,1,176.000005371094,2|8,1:2|3:1,0:0:0:0:
424,40,20014,1,2,0:0:0:0:
328,69,20229,6,0,P|309:127|368:179,1,132.00000402832,6|2,1:2|3:2,0:0:0:0:
377,175,20657,1,8,3:1:0:0:
394,269,20872,1,10,0:0:0:0:
302,293,21086,2,0,P|246:268|194:265,1,88.000002685547,0|10,1:0|3:2,0:0:0:0:
219,264,21407,1,2,0:0:0:0:
219,264,21514,1,8,3:1:0:0:
96,354,21836,5,2,0:3:0:0:
70,359,21943,2,0,P|26:324|38:233,1,132.00000402832,6|2,1:2|3:2,0:0:0:0:
44,236,22372,2,0,P|59:174|51:134,1,88.000002685547,8|2,3:1|0:0,0:0:0:0:
13,51,22800,6,0,P|65:12|103:19,1,88.000002685547,0|2,1:0|3:2,0:0:0:0:
84,13,23122,1,2,0:0:0:0:
84,13,23229,2,0,P|120:53|178:53,1,88.000002685547,8|2,3:1|0:3,0:0:0:0:
277,0,23657,6,0,P|262:49|257:113,1,88.000002685547,14|10,1:2|0:0,0:0:0:0:
334,185,24086,1,8,1:0:0:0:
362,199,24193,2,0,P|408:189|457:142,2,88.000002685547,2|2|8,3:2|3:2|0:1,0:0:0:0:
299,277,24836,2,0,P|255:250|200:239,2,88.000002685547,4|2|2,0:3|3:2|3:2,0:0:0:0:
309,301,25372,1,6,1:2:0:0:
497,321,25586,5,2,0:0:0:0:
497,321,25693,1,2,1:2:0:0:
497,321,25800,2,0,P|501:293|510:253,3,44.0000013427735,8|2|2|2,3:1|0:0|3:2|3:0,0:0:0:0:
454,214,26229,2,0,P|450:186|441:146,3,44.0000013427735,6|8|2|2,1:2|0:1|3:2|0:0,0:0:0:0:
475,133,26657,1,8,3:1:0:0:
367,93,26872,6,0,P|308:80|292:35,1,88.000002685547,10|12,0:0|1:0,0:0:0:0:
208,97,27300,2,0,P|214:127|217:162,1,44.0000013427735,2|2,3:2|3:2,0:0:0:0:
293,200,27622,1,2,3:2:0:0:
213,259,27836,5,2,3:2:0:0:
197,267,27943,2,0,P|130:245|-4:225,2,176.000005371094,10|6|6,3:2|1:2|1:2,0:0:0:0:
311,384,29229,6,0,P|356:371|369:334,1,80,8|2,0:1|3:2,0:0:0:0:
387,325,29550,2,0,P|377:274|375:224,2,80,2|2|2,0:0|0:3|0:0,0:0:0:0:
387,325,30086,1,10,3:2:0:0:
387,325,30193,1,2,0:0:0:0:
214,271,30514,6,0,P|226:210|236:128,2,120,6|2|2,1:2|3:2|3:0,0:0:0:0:
220,279,31264,1,2,0:0:0:0:
220,279,31372,2,0,P|276:292|303:266,1,80,10|10,1:2|3:2,0:0:0:0:
348,186,31800,1,8,0:1:0:0:
359,176,31907,2,0,P|407:183|427:224,1,80,2|0,0:0|0:0,0:0:0:0:
494,252,32229,6,0,P|435:259|356:278,2,120,0|2|10,1:0|3:2|3:2,0:0:0:0:
494,252,33300,1,10,0:0:0:0:
446,172,33514,5,8,0:1:0:0:
446,172,33622,2,0,P|426:131|430:91,1,80,2|2,0:0|0:0,0:0:0:0:
420,81,33943,2,0,P|344:62|290:124,1,160,6|8,1:2|0:1,0:0:0:0:
329,212,34586,1,2,0:3:0:0:
241,256,34800,2,0,P|178:226|174:196,1,80,6|10,1:2|3:2,0:0:0:0:
176,222,35122,1,2,3:2:0:0:
176,222,35229,1,8,1:0:0:0:
208,144,35443,1,8,0:1:0:0:
142,71,35657,6,0,P|103:78|74:106,1,80,6|10,1:2|3:2,0:0:0:0:
74,106,35979,1,0,1:0:0:0:
74,106,36086,2,0,P|84:144|84:160,3,40,8|2|2|2,3:1|3:2|3:0|3:2,0:0:0:0:
30,200,36514,2,0,P|20:238|20:254,3,40,2|2|10|2,0:0|3:2|3:2|0:0,0:0:0:0:
33,261,36943,1,8,3:1:0:0:
105,319,37157,1,2,3:0:0:0:
29,380,37372,6,0,P|110:359|208:352,1,160,6|10,1:2|1:2,0:0:0:0:
207,370,37907,1,2,3:2:0:0:
277,293,38122,2,0,P|288:242|286:181,2,80,10|2|2,3:2|3:2|0:0,0:0:0:0:
289,316,38657,1,8,3:1:0:0:
361,384,38872,1,2,3:0:0:0:
443,325,39086,6,0,P|442:246|355:210,3,160,2|2|2|8,1:2|3:2|3:2|0:1,0:0:0:0:
328,131,40586,1,2,3:2:0:0:
328,131,40693,1,2,0:0:0:0:
328,131,40800,1,6,1:2:0:0:
79,289,41872,6,0,L|37:281,3,26.6666666666667,8|8|8|6,3:2|3:2|3:2|1:2,0:0:0:0:
85,295,42193,2,0,P|127:286|173:280,1,80,8|2,0:1|3:2,0:0:0:0:
177,259,42514,1,6,1:2:0:0:
248,321,42729,1,2,3:2:0:0:
311,250,42943,2,0,P|314:207|291:167,1,80,8|2,3:1|3:0,0:0:0:0:
275,162,43264,1,2,0:0:0:0:
184,129,43479,6,0,P|201:75|233:51,1,80,2|2,3:2|0:0,0:0:0:0:
217,59,43800,1,10,3:2:0:0:
216,60,43907,1,2,0:0:0:0:
397,102,44229,6,0,P|451:86|495:42,2,120,6|2|2,1:2|3:2|0:3,0:0:0:0:
397,102,44979,1,2,0:0:0:0:
397,102,45086,1,8,1:2:0:0:
327,168,45300,1,10,3:2:0:0:
408,219,45514,1,8,3:1:0:0:
426,231,45622,2,0,P|438:277|438:321,1,80,2|2,3:2|0:0,0:0:0:0:
424,328,45943,6,0,P|363:329|324:302,1,80,6|2,1:2|0:0,0:0:0:0:
346,321,46264,1,2,1:2:0:0:
346,321,46372,1,2,0:3:0:0:
273,377,46586,1,8,0:1:0:0:
225,285,46800,6,0,P|231:249|239:228,3,40,2|2|2|2,3:2|0:0|3:0|0:0,0:0:0:0:
219,221,47229,1,8,0:1:0:0:
151,156,47443,1,2,3:2:0:0:
248,117,47657,6,0,P|316:109|403:39,1,160,6|8,1:2|0:1,0:0:0:0:
481,119,48300,1,2,3:0:0:0:
481,119,48407,1,2,3:2:0:0:
481,119,48514,2,0,P|469:162|463:198,1,80,6|10,3:2|3:2,0:0:0:0:
388,251,48943,1,8,1:0:0:0:
388,251,49050,1,4,3:0:0:0:
388,251,49157,2,0,P|394:299|390:315,1,40,8|0,0:1|3:0,0:0:0:0:
374,319,49372,6,0,B|314:323|279:277|283:262|284:244|273:186|182:198,1,240,6|10,1:2|3:2,0:0:0:0:
190,197,50122,1,2,0:0:0:0:
190,197,50229,1,2,3:2:0:0:
123,265,50443,2,0,P|133:317|141:397,2,120,4|8|6,1:2|3:1|1:2,0:0:0:0:
49,212,51300,5,2,3:2:0:0:
127,148,51514,1,8,3:1:0:0:
66,69,51729,1,2,0:0:0:0:
66,69,51836,2,0,P|100:33|142:32,1,80,8|2,0:1|3:0,0:0:0:0:
236,0,52264,1,2,3:2:0:0:
236,0,52372,1,8,3:1:0:0:
236,0,52479,2,0,P|224:50|221:79,1,80,2|10,0:0|3:2,0:0:0:0:
201,104,52800,1,14,1:2:0:0:
338,177,53122,5,0,1:0:0:0:
425,212,53336,2,0,P|477:185|486:149,2,80,2|2|2,3:2|0:0|3:2,0:0:0:0:
379,297,53979,1,2,0:0:0:0:
379,297,54086,2,0,P|318:270|281:271,1,80,8|2,3:1|0:0,0:0:0:0:
276,286,54407,1,2,0:0:0:0:
264,316,54514,1,2,1:2:0:0:
251,202,55586,6,0,L|259:137,1,40,10|10,3:2|3:2,0:0:0:0:
253,145,55800,2,0,L|248:83,2,40,8|8|2,1:0|1:0|1:2,0:0:0:0:
151,229,56229,6,0,P|95:216|78:109,1,143.999995605469,6|2,1:2|1:2,0:0:0:0:
85,117,56657,1,8,1:0:0:0:
85,117,56764,1,2,0:0:0:0:
199,0,56979,2,0,P|192:67|179:131,1,95.9999970703126,2|2,3:2|3:2,0:0:0:0:
187,95,57300,1,8,3:0:0:0:
187,95,57407,2,0,P|250:106|284:69,1,95.9999970703126,2|2,3:2|0:0,0:0:0:0:
374,16,57836,5,10,0:0:0:0:
374,16,57943,2,0,P|429:44|432:101,1,95.9999970703126,14|2,1:2|3:0,0:0:0:0:
378,142,58372,1,8,1:0:0:0:
378,142,58479,1,0,3:0:0:0:
448,212,58693,2,0,P|459:260|459:324,2,95.9999970703126,2|2|2,0:0|0:0|0:0,0:0:0:0:
468,85,59336,5,2,3:2:0:0:
484,72,59443,1,2,2:3:0:0:
494,58,59550,1,2,0:0:0:0:
499,38,59657,2,0,P|446:16|353:126,1,191.999994140625,6|8,1:2|1:0,0:0:0:0:
298,180,60300,1,10,3:2:0:0:
298,180,60407,2,0,P|245:178|195:100,1,143.999995605469,2|10,0:0|3:2,0:0:0:0:
188,15,60943,1,8,1:0:0:0:
188,15,61050,1,2,3:2:0:0:
101,79,61264,5,2,0:0:0:0:
101,79,61372,2,0,P|116:152|125:314,1,191.999994140625,6|8,1:2|1:0,0:0:0:0:
189,354,62014,1,2,3:0:0:0:
189,354,62122,1,2,3:2:0:0:
189,354,62229,2,0,P|231:347|255:337,3,47.9999985351563,6|8|10|2,1:2|0:1|3:0|3:2,0:0:0:0:
255,355,62657,2,0,P|273:359|291:366,3,31.9999990234375,8|10|10|2,1:0|3:2|3:2|3:0,0:0:0:0:
367,317,63086,5,6,1:2:0:0:
380,321,63193,2,0,P|438:287|436:239,1,95.9999970703126,2|8,3:2|3:2,0:0:0:0:
432,239,63514,1,8,1:0:0:0:
497,167,63729,1,10,3:2:0:0:
403,127,63943,2,0,P|350:94|345:37,1,95.9999970703126,6|4,1:2|3:0,0:0:0:0:
341,64,64264,1,6,3:2:0:0:
341,64,64372,1,8,1:0:0:0:
272,16,64586,5,2,3:0:0:0:
272,16,64693,1,2,0:0:0:0:
272,16,64800,2,0,P|213:37|179:91,1,95.9999970703126,6|8,1:2|3:2,0:0:0:0:
191,60,65122,1,4,3:0:0:0:
191,60,65229,2,0,P|203:132|201:240,2,143.999995605469,8|6|2,1:0|0:0|0:0,0:0:0:0:
108,2,66086,6,0,P|49:25|38:109,1,143.999995605469,8|2,1:0|0:0,0:0:0:0:
53,110,66514,1,6,1:2:0:0:
5,198,66729,1,10,3:2:0:0:
90,240,66943,2,0,P|113:286|115:338,1,95.9999970703126,8|10,1:0|3:0,0:0:0:0:
104,344,67264,2,0,P|44:342|-5:293,1,95.9999970703126,2|10,0:0|3:2,0:0:0:0:
8,299,67586,1,4,3:0:0:0:
94,233,67800,6,0,P|105:189|107:163,2,47.9999985351563,8|10|2,1:0|3:2|0:3,0:0:0:0:
102,247,68122,2,0,P|155:264|215:224,1,95.9999970703126,2|2,3:2|0:2,0:0:0:0:
234,157,68550,5,10,0:0:0:0:
252,146,68657,2,0,P|307:167|329:212,1,95.9999970703126,8|2,1:0|3:2,0:0:0:0:
329,217,68979,1,6,0:0:0:0:
471,326,70693,5,10,3:2:0:0:
456,336,70800,2,0,P|422:331|390:317,3,47.9999985351563,10|10|2|2,0:0|3:2|3:2|3:2,0:0:0:0:
374,306,71229,2,0,P|340:311|308:325,3,47.9999985351563,10|2|2|2,3:2|3:2|3:2|3:2,0:0:0:0:
311,341,71657,5,8,3:2:0:0:
223,384,71872,1,2,0:0:0:0:
170,298,72086,1,10,3:2:0:0:
170,298,72193,2,0,P|173:246|191:179,1,95.9999970703126,6|0,3:2|0:0,0:0:0:0:
120,114,72514,6,0,P|57:120|36:209,1,155.999992858887,4|8,1:0|0:3,0:0:0:0:
31,199,72943,1,8,1:0:0:0:
31,199,73050,1,2,3:2:0:0:
35,295,73264,5,2,0:0:0:0:
26,303,73372,2,0,P|34:351|108:367,1,103.999995239258,6|4,1:2|3:0,0:0:0:0:
101,384,73693,2,0,P|135:354|139:321,1,51.999997619629,10|8,3:2|1:0,0:0:0:0:
165,333,73907,2,0,P|159:259|160:198,1,103.999995239258,6|0,3:2|0:0,0:0:0:0:
176,205,74229,1,6,1:2:0:0:
366,37,74657,5,8,1:0:0:0:
372,51,74764,2,0,P|315:96|275:78,1,103.999995239258,6|0,3:2|0:0,0:0:0:0:
284,78,75086,1,6,1:2:0:0:
201,27,75300,1,4,3:0:0:0:
147,100,75514,1,8,1:0:0:0:
64,60,75729,1,2,3:0:0:0:
16,152,75943,6,0,P|28:214|29:286,1,103.999995239258,6|2,1:2|0:0,0:0:0:0:
30,254,76264,1,8,3:0:0:0:
30,254,76372,2,0,P|84:270|130:238,1,103.999995239258,8|2,1:0|3:0,0:0:0:0:
227,178,76800,6,0,P|284:199|305:247,1,103.999995239258,6|4,1:2|3:0,0:0:0:0:
299,252,77122,1,2,3:2:0:0:
365,320,77336,1,10,3:2:0:0:
440,254,77550,5,2,3:2:0:0:
436,241,77657,2,0,P|439:215|445:198,3,34.6666650797527,6|10|10|10,1:2|0:0|0:0|3:2,0:0:0:0:
363,129,78086,6,0,P|360:103|354:86,3,34.6666650797527,8|10|10|10,1:0|0:0|0:0|3:2,0:0:0:0:
497,3,78514,6,0,P|480:58|477:121,1,103.999995239258,6|4,1:2|3:0,0:0:0:0:
486,121,78836,1,2,3:2:0:0:
421,186,79050,1,2,0:0:0:0:
500,232,79264,1,2,3:2:0:0:
512,249,79372,2,0,P|515:314|510:357,1,103.999995239258,6|2,1:2|0:3,0:0:0:0:
419,382,79800,5,8,1:0:0:0:
396,384,79907,2,0,P|344:354|327:302,1,103.999995239258,2|2,3:2|0:0,0:0:0:0:
336,300,80229,1,6,1:2:0:0:
343,205,80443,1,4,3:0:0:0:
343,205,80550,1,2,3:2:0:0:
248,163,80764,2,0,P|256:228|255:277,1,103.999995239258,2|2,0:0|3:2,0:0:0:0:
257,285,81086,6,0,P|186:273|165:212,1,103.999995239258,6|8,1:2|3:2,0:0:0:0:
169,250,81407,1,8,3:0:0:0:
169,250,81514,2,0,P|130:249|99:257,3,51.999997619629,8|2|2|2,1:0|0:2|3:0|3:2,0:0:0:0:
72,185,81943,2,0,P|33:186|2:178,3,51.999997619629,6|8|4|10,1:2|0:3|0:3|3:2,0:0:0:0:
0,206,82372,1,8,1:0:0:0:
44,288,82586,1,2,3:0:0:0:
16,378,82800,6,0,P|88:361|194:348,2,155.999992858887,6|8|2,1:2|3:0|3:2,0:0:0:0:
4,370,83550,1,2,0:0:0:0:
4,370,83657,2,0,P|-3:310|39:267,1,103.999995239258,8|10,1:0|3:2,0:0:0:0:
21,276,83979,1,0,3:2:0:0:
21,276,84086,2,0,P|79:257|81:142,1,155.999992858887,6|10,1:2|3:2,0:0:0:0:
1,76,84622,5,6,1:2:0:0:
68,7,84836,1,2,3:2:0:0:
68,7,84943,1,8,1:0:0:0:
152,58,85157,1,2,3:0:0:0:
152,58,85264,1,6,1:2:0:0:
244,8,85479,6,0,P|261:3|275:-3,12,25.9999988098145,8|2|10|2|2|2|2|2|2|2|2|2|2,3:0|0:0|0:2|0:0|0:0|0:0|0:0|0:0|0:2|0:0|0:0|0:0|0:0,0:0:0:0:
238,22,86229,2,0,P|297:27|329:36,1,80,6|6,1:2|1:2,0:0:0:0:
499,125,87622,6,0,P|442:135|367:160,1,120,4|0,0:0|1:0,0:0:0:0:
327,220,88157,1,2,0:2:0:0:
323,228,88264,2,0,P|350:268|413:271,2,80,2|2|10,1:2|3:2|0:0,0:0:0:0:
246,239,88800,2,0,P|185:228|127:304,1,160,14|8,1:2|3:1,0:0:0:0:
7,381,89550,5,2,3:2:0:0:
0,366,89657,2,0,P|9:321|13:228,1,120,6|2,1:2|1:2,0:0:0:0:
8,238,90086,2,0,P|31:185|80:167,1,80,8|2,0:1|3:0,0:0:0:0:
47,173,90407,1,2,0:0:0:0:
47,171,90514,2,0,P|104:156|111:80,2,120,0|2|2,1:0|3:2|0:0,0:0:0:0:
0,78,91372,6,0,P|19:33|65:17,1,80,6|2,1:2|0:3,0:0:0:0:
44,18,91693,1,2,3:2:0:0:
44,18,91800,2,0,P|76:26|104:25,3,40,8|2|2|2,3:1|0:0|0:0|3:2,0:0:0:0:
116,98,92229,2,0,P|168:85|219:79,1,80,2|2,1:2|3:2,0:0:0:0:
194,81,92550,1,2,0:0:0:0:
194,81,92657,1,8,3:1:0:0:
271,163,92872,1,0,0:0:0:0:
345,94,93086,6,0,P|405:111|430:191,1,120,6|2,1:2|1:2,0:0:0:0:
421,180,93514,2,0,P|401:225|393:266,1,80,8|2,3:1|0:3,0:0:0:0:
394,254,93836,1,10,3:2:0:0:
394,254,93943,1,0,1:0:0:0:
470,331,94157,1,6,3:2:0:0:
353,384,94479,1,6,0:0:0:0:
242,316,94800,6,0,P|173:318|58:347,1,160,2|8,3:2|3:1,0:0:0:0:
19,263,95443,1,2,0:3:0:0:
83,188,95657,2,0,P|87:170|89:135,2,40,14|2|10,1:2|3:2|3:2,0:0:0:0:
83,188,95979,1,2,3:2:0:0:
83,188,96086,2,0,P|145:198|199:146,1,120,8|2,0:1|0:0,0:0:0:0:
210,163,96514,6,0,P|261:171|282:203,1,80,6|2,1:2|3:2,0:0:0:0:
277,191,96836,1,0,1:0:0:0:
277,191,96943,2,0,P|271:226|266:247,3,40,8|2|2|2,3:1|0:0|0:0|3:2,0:0:0:0:
345,262,97372,2,0,P|350:297|355:318,3,40,0|2|2|2,1:0|3:2|3:0|3:2,0:0:0:0:
277,327,97800,2,0,P|271:362|266:383,3,40,8|10|2|2,3:1|3:2|3:0|0:0,0:0:0:0:
248,384,98229,6,0,P|189:365|191:252,1,160,6|8,1:2|3:1,0:0:0:0:
183,271,98764,1,2,0:0:0:0:
136,192,98979,1,2,0:0:0:0:
123,187,99086,2,0,P|62:199|9:231,2,120,6|10|2,1:2|3:2|0:0,0:0:0:0:
212,138,99943,6,0,P|224:96|235:18,2,120,6|6|6,1:2|1:2|1:2,0:0:0:0:
300,246,103372,6,0,P|288:288|277:366,2,120,6|6|6,1:2|1:2|1:2,0:0:0:0:
329,163,104229,2,0,P|374:153|436:201,1,120,8|4,0:1|0:3,0:0:0:0:
432,204,104657,2,0,P|428:233|428:240,8,20,6|2|2|2|2|2|2|0|0,1:2|0:0|0:0|0:0|0:0|0:0|0:0|0:0|1:0,0:0:0:0:
198,383,106372,6,0,P|150:377|121:293,1,120,6|2,1:2|0:0,0:0:0:0:
120,295,106800,2,0,P|131:241|130:178,1,88.000002685547,6|8,1:2|0:0,0:0:0:0:
132,208,107122,1,2,3:0:0:0:
132,208,107229,1,8,3:1:0:0:
92,149,107443,6,0,P|80:102|124:44,1,88.000002685547,10|0,3:2|1:0,0:0:0:0:
94,66,107764,1,8,0:1:0:0:
94,66,107872,2,0,P|150:57|180:44,2,88.000002685547,10|8|10,3:2|3:1|0:0,0:0:0:0:
31,172,108514,6,0,P|84:172|170:202,1,132.00000402832,4|8,1:2|0:0,0:0:0:0:
158,195,108943,1,8,3:1:0:0:
158,195,109050,1,2,3:2:0:0:
252,214,109264,6,0,P|296:189|310:148,1,88.000002685547,2|0,3:2|3:0,0:0:0:0:
303,137,109586,1,10,1:2:0:0:
348,49,109800,1,8,3:1:0:0:
367,39,109907,2,0,P|410:52|436:105,1,88.000002685547,2|2,3:2|0:2,0:0:0:0:
451,101,110229,6,0,P|437:159|432:239,1,132.00000402832,0|2,1:0|3:2,0:0:0:0:
438,243,110657,1,8,3:1:0:0:
362,318,110872,1,2,3:2:0:0:
362,318,110979,1,0,3:0:0:0:
362,318,111086,2,0,P|322:312|304:305,3,44.0000013427735,2|8|2|2,1:2|0:1|3:2|3:2,0:0:0:0:
248,348,111514,2,0,P|208:354|190:361,3,44.0000013427735,8|2|2|2,3:1|0:0|0:0|0:0,0:0:0:0:
186,342,111943,6,0,P|155:298|172:229,1,88.000002685547,6|2,1:2|3:0,0:0:0:0:
148,248,112264,2,0,P|170:207|220:183,1,88.000002685547,2|2,3:2|0:0,0:0:0:0:
218,192,112586,1,10,0:0:0:0:
328,229,112800,6,0,P|381:208|391:163,1,88.000002685547,0|10,1:0|3:2,0:0:0:0:
391,182,113122,1,2,0:0:0:0:
391,182,113229,2,0,P|382:122|385:60,1,88.000002685547,8|2,3:1|0:0,0:0:0:0:
279,22,113657,6,0,P|212:26|171:74,1,132.00000402832,6|2,1:2|3:2,0:0:0:0:
176,86,114086,1,8,3:1:0:0:
91,136,114300,1,2,0:0:0:0:
91,136,114407,1,2,3:2:0:0:
91,136,114514,2,0,P|100:170|101:206,3,44.0000013427735,0|10|2|2,1:0|3:2|3:2|0:0,0:0:0:0:
160,234,114943,2,0,P|151:268|150:304,3,44.0000013427735,8|2|2|2,3:1|3:2|0:3|0:0,0:0:0:0:
136,303,115372,2,0,P|140:326|142:345,3,29.3333342285157,14|10|10|10,1:2|0:0|0:0|0:0,0:0:0:0:
247,199,115800,5,8,1:0:0:0:
263,193,115907,2,0,P|305:222|327:277,2,88.000002685547,2|2|8,3:2|3:2|0:1,0:0:0:0:
204,118,116550,2,0,P|157:139|99:131,2,88.000002685547,4|2|2,0:3|3:2|3:2,0:0:0:0:
314,107,117193,5,2,3:2:0:0:
302,95,117300,2,0,P|306:44|342:-2,1,88.000002685547,2|8,0:0|3:1,0:0:0:0:
324,13,117622,1,2,0:0:0:0:
324,13,117729,2,0,P|363:10|400:-1,1,44.0000013427735,2|2,3:2|3:0,0:0:0:0:
381,18,117943,6,0,P|446:37|463:80,1,88.000002685547,6|2,1:2|3:2,0:0:0:0:
418,139,118372,1,8,3:1:0:0:
485,206,118586,2,0,P|504:198|535:188,3,29.3333342285157,10|10|10|12,0:0|0:0|0:0|1:0,0:0:0:0:
260,331,120514,5,6,1:2:0:0:
136,380,120943,2,0,P|107:330|115:294,1,83.9999974365235,8|2,0:1|3:2,0:0:0:0:
130,294,121264,1,2,0:0:0:0:
65,221,121479,1,2,0:3:0:0:
150,164,121693,1,2,0:0:0:0:
136,133,121800,2,0,P|139:84|150:34,1,83.9999974365235,10|2,3:2|0:0,0:0:0:0:
0,49,122229,6,0,P|16:123|21:188,2,125.999996154785,6|2|2,1:2|3:2|3:0,0:0:0:0:
6,43,122979,1,2,0:0:0:0:
12,36,123086,2,0,P|16:9|20:-2,3,27.9999991455078,10|10|10|10,1:2|0:0|0:0|3:2,0:0:0:0:
128,65,123514,5,8,0:1:0:0:
154,82,123622,2,0,P|201:77|231:27,1,83.9999974365235,2|0,0:0|0:0,0:0:0:0:
244,39,123943,2,0,P|311:44|358:104,2,125.999996154785,0|2|10,1:0|3:2|3:2,0:0:0:0:
183,174,125014,5,10,0:0:0:0:
263,231,125229,1,8,0:1:0:0:
275,248,125336,2,0,P|276:300|265:345,1,83.9999974365235,2|2,0:0|0:0,0:0:0:0:
253,346,125657,6,0,B|201:349|187:315|189:310|190:305|179:262|118:261,1,167.999994873047,6|8,1:2|0:1,0:0:0:0:
37,306,126300,1,2,0:3:0:0:
99,384,126514,2,0,P|144:361|158:322,1,83.9999974365235,6|10,1:2|3:2,0:0:0:0:
157,332,126836,1,0,1:0:0:0:
157,332,126943,1,8,1:0:0:0:
117,253,127157,1,8,0:1:0:0:
165,163,127372,6,0,P|214:165|250:198,1,83.9999974365235,6|10,1:2|3:2,0:0:0:0:
241,184,127693,1,0,1:0:0:0:
241,184,127800,2,0,P|304:191|336:148,1,83.9999974365235,8|2,3:1|3:0,0:0:0:0:
405,198,128229,6,0,P|386:279|383:312,1,83.9999974365235,2|10,0:0|3:2,0:0:0:0:
385,279,128550,1,2,0:0:0:0:
385,279,128657,2,0,P|423:275|442:267,3,41.9999987182618,8|10|2|2,3:1|3:2|3:0|3:2,0:0:0:0:
465,292,129086,5,6,1:2:0:0:
436,384,129300,1,2,3:2:0:0:
344,356,129514,1,10,1:2:0:0:
344,356,129622,1,2,3:2:0:0:
251,380,129836,2,0,P|211:354|205:308,2,83.9999974365235,10|2|2,3:2|3:2|0:0,0:0:0:0:
301,236,130586,5,2,3:0:0:0:
301,236,130693,1,8,3:0:0:0:
301,236,130800,2,0,P|305:201|313:174,3,41.9999987182618,2|2|2|2,1:2|0:0|0:0|3:2,0:0:0:0:
240,157,131229,2,0,P|236:122|228:95,3,41.9999987182618,2|2|10|2,3:2|0:0|3:2|0:0,0:0:0:0:
303,77,131657,2,0,P|307:42|315:15,3,41.9999987182618,2|2|2|2,3:2|0:0|0:0|3:2,0:0:0:0:
291,13,132086,1,8,0:1:0:0:
201,30,132300,1,2,3:2:0:0:
114,51,132514,1,6,1:2:0:0:
184,327,133586,6,0,P|199:325|222:319,3,27.9999991455078,8|8|8|6,3:2|3:2|3:2|1:2,0:0:0:0:
170,335,133907,2,0,P|121:322|50:312,1,83.9999974365235,8|2,0:1|3:2,0:0:0:0:
68,329,134229,1,6,1:2:0:0:
0,266,134443,1,2,3:2:0:0:
64,185,134657,6,0,P|78:134|74:89,1,83.9999974365235,8|2,3:1|3:0,0:0:0:0:
60,79,134979,1,2,0:0:0:0:
128,11,135193,1,2,3:2:0:0:
196,75,135407,1,2,0:0:0:0:
280,20,135622,1,2,0:0:0:0:
343,94,135836,5,2,0:0:0:0:
356,110,135943,2,0,P|341:181|334:243,1,125.999996154785,6|2,1:2|3:2,0:0:0:0:
399,313,136479,1,2,3:2:0:0:
429,331,136586,2,0,P|477:310|491:278,2,83.9999974365235,2|8|10,0:3|1:2|3:2,0:0:0:0:
326,384,137229,1,8,3:1:0:0:
316,351,137336,2,0,P|273:319|239:323,1,83.9999974365235,2|2,3:2|0:0,0:0:0:0:
221,341,137657,1,6,1:2:0:0:
150,266,137872,5,2,0:0:0:0:
150,266,137979,1,2,1:2:0:0:
150,266,138086,2,0,P|146:227|138:201,3,41.9999987182618,2|2|8|2,0:3|0:0|0:1|0:0,0:0:0:0:
190,159,138514,2,0,P|194:120|202:94,3,41.9999987182618,2|2|2|2,3:2|0:0|3:0|0:0,0:0:0:0:
178,91,138943,1,8,0:1:0:0:
259,41,139157,1,2,3:2:0:0:
339,117,139372,6,0,P|402:104|422:70,1,83.9999974365235,6|2,1:2|3:0,0:0:0:0:
412,91,139693,1,2,3:2:0:0:
412,91,139800,2,0,P|470:109|492:149,1,83.9999974365235,8|2,0:1|3:0,0:0:0:0:
456,251,140229,5,6,3:2:0:0:
456,251,140336,1,2,3:2:0:0:
456,251,140443,2,0,P|414:295|395:338,1,83.9999974365235,10|8,3:2|1:0,0:0:0:0:
398,329,140764,1,4,3:0:0:0:
386,337,140872,2,0,P|349:324|337:307,1,41.9999987182618,8|0,0:1|3:0,0:0:0:0:
306,332,141086,6,0,P|297:243|265:146,1,167.999994873047,6|10,1:2|3:2,0:0:0:0:
154,129,141729,2,0,P|111:152|98:213,1,83.9999974365235,10|2,3:2|3:2,0:0:0:0:
96,182,142050,1,2,0:0:0:0:
96,182,142157,2,0,P|102:221|104:246,3,41.9999987182618,4|2|2|8,1:2|0:0|0:0|3:1,0:0:0:0:
35,307,142693,5,2,0:0:0:0:
35,307,142800,1,6,1:2:0:0:
100,382,143014,1,6,3:2:0:0:
177,320,143229,1,8,3:1:0:0:
177,320,143336,1,6,3:2:0:0:
253,384,143550,5,8,3:1:0:0:
346,370,143764,1,8,3:1:0:0:
437,361,143979,1,2,3:0:0:0:
495,265,144193,6,0,P|501:233|514:201,2,41.9999987182618,2|10|10,0:0|3:2|3:2,0:0:0:0:
473,279,144514,2,0,P|415:263|395:198,1,125.999996154785,14|0,1:2|1:0,0:0:0:0:
401,195,144943,1,8,3:1:0:0:
412,187,145050,2,0,P|422:126|422:93,2,83.9999974365235,2|2|2,0:0|0:0|0:0,0:0:0:0:
305,219,145693,5,2,0:0:0:0:
292,208,145800,2,0,P|241:215|213:237,1,83.9999974365235,8|2,3:1|0:0,0:0:0:0:
212,247,146122,2,0,P|217:282|219:318,1,41.9999987182618,2|2,0:0|1:2,0:0:0:0:
156,358,146443,5,2,0:0:0:0:
36,302,146764,1,2,0:0:0:0:
81,177,147086,1,2,3:2:0:0:
13,60,147300,6,0,P|16:111|13:124,1,41.9999987182618,10|10,3:2|3:2,0:0:0:0:
8,118,147514,2,0,P|0:156|0:175,2,41.9999987182618,8|8|2,1:0|1:0|1:2,0:0:0:0:
102,187,147943,6,0,P|154:166|184:115,1,100,6|10,1:2|3:2,0:0:0:0:
255,65,148372,1,8,1:0:0:0:
273,53,148479,2,0,P|311:59|354:126,2,100,2|2|2,0:0|3:2|3:2,0:0:0:0:
252,165,149122,5,10,3:2:0:0:
264,181,149229,2,0,P|251:239|246:281,1,100,8|2,1:0|3:2,0:0:0:0:
258,295,149550,1,10,0:0:0:0:
284,302,149657,1,14,1:2:0:0:
370,239,149872,1,2,3:0:0:0:
431,317,150086,5,8,1:0:0:0:
458,307,150193,2,0,P|470:256|472:192,2,100,0|2|2,3:0|3:2|3:2,0:0:0:0:
324,372,150836,2,0,P|262:342|154:333,1,150,2|2,0:0|2:3,0:0:0:0:
160,338,151264,1,2,0:0:0:0:
140,355,151372,1,6,1:2:0:0:
46,322,151586,1,2,3:0:0:0:
96,239,151800,2,0,P|102:205|103:182,1,50,8|2,1:0|0:0,0:0:0:0:
34,99,152122,5,2,0:0:0:0:
20,74,152229,2,0,P|54:25|117:28,1,100,6|10,1:2|3:2,0:0:0:0:
194,73,152657,1,8,1:0:0:0:
197,99,152764,2,0,P|242:134|289:141,1,100,2|2,3:2|0:0,0:0:0:0:
304,136,153086,6,0,P|338:101|349:27,1,100,6|2,1:2|2:3,0:0:0:0:
351,52,153407,1,2,3:2:0:0:
351,52,153514,1,8,1:0:0:0:
443,12,153729,1,2,3:0:0:0:
504,100,153943,2,0,P|487:152|479:216,1,100,6|10,1:2|3:0,0:0:0:0:
480,196,154264,1,2,3:2:0:0:
480,196,154372,2,0,P|485:230|485:246,3,33.3333333333333,8|10|10|2,1:0|3:2|3:2|3:0,0:0:0:0:
357,197,154800,6,0,P|319:216|298:281,1,100,6|10,1:2|0:0,0:0:0:0:
296,266,155122,1,8,3:2:0:0:
296,266,155229,1,8,1:0:0:0:
242,350,155443,1,10,3:2:0:0:
147,327,155657,2,0,P|121:294|117:269,3,50,6|2|4|6,1:2|0:0|3:0|3:2,0:0:0:0:
204,214,156193,5,10,0:0:0:0:
215,204,156300,2,0,P|226:144|226:121,1,50,10|2,3:2|0:0,0:0:0:0:
217,139,156514,2,0,P|167:125|86:194,1,150,6|4,1:2|3:0,0:0:0:0:
70,181,156943,2,0,P|18:165|1:116,1,100,8|10,1:0|3:2,0:0:0:0:
11,116,157264,1,6,0:0:0:0:
0,25,157479,1,2,3:2:0:0:
92,0,157693,1,2,0:0:0:0:
224,140,158229,6,0,P|275:119|302:46,1,100,6|10,1:2|3:2,0:0:0:0:
298,82,158550,1,4,3:0:0:0:
298,82,158657,1,8,1:0:0:0:
405,109,158872,1,10,3:0:0:0:
419,128,158979,2,0,P|423:185|411:228,1,100,2|10,0:0|3:2,0:0:0:0:
399,234,159300,2,0,P|357:225|335:199,3,50,4|2|8|10,3:0|3:2|1:0|3:2,0:0:0:0:
281,254,159729,5,2,0:3:0:0:
266,263,159836,2,0,P|206:270|155:306,1,100,2|10,3:2|0:2,0:0:0:0:
172,289,160157,1,8,3:0:0:0:
172,289,160264,1,10,0:0:0:0:
126,371,160479,5,8,3:2:0:0:
103,357,160586,1,2,3:2:0:0:
77,352,160693,1,6,0:0:0:0:
88,5,162300,6,0,P|97:62|91:90,1,50,10|10,3:2|3:2,0:0:0:0:
76,74,162514,2,0,P|67:111|67:138,3,50,10|10|2|2,0:0|3:2|3:2|3:2,0:0:0:0:
0,168,162943,2,0,P|9:205|9:232,3,50,10|2|2|2,3:2|3:2|3:2|3:2,0:0:0:0:
25,239,163372,1,8,3:2:0:0:
119,263,163586,1,2,0:0:0:0:
196,199,163800,1,10,3:2:0:0:
196,199,163907,2,0,P|259:203|313:256,1,100,6|0,3:2|0:0,0:0:0:0:
328,217,164229,6,0,P|389:201|409:113,1,162.000000617981,4|8,1:0|0:3,0:0:0:0:
409,113,164657,1,8,1:0:0:0:
409,113,164764,1,2,3:2:0:0:
356,44,164979,1,2,0:0:0:0:
334,55,165086,2,0,P|272:41|228:5,1,108.000000411987,6|4,1:2|3:0,0:0:0:0:
221,24,165407,2,0,P|230:72|228:135,1,108.000000411987,10|6,3:2|3:2,0:0:0:0:
142,285,165943,6,0,P|134:204|120:124,1,162.000000617981,6|2,1:2|3:2,0:0:0:0:
108,115,166372,1,8,1:0:0:0:
91,108,166479,1,6,3:2:0:0:
0,229,166800,6,0,P|20:286|67:291,1,108.000000411987,6|4,1:2|3:0,0:0:0:0:
150,342,167229,2,0,P|194:289|171:221,1,108.000000411987,8|2,1:0|3:0,0:0:0:0:
258,153,167657,6,0,P|323:163|356:221,1,108.000000411987,6|2,1:2|0:0,0:0:0:0:
348,193,167979,1,8,3:0:0:0:
348,193,168086,1,8,1:0:0:0:
316,288,168300,1,2,3:0:0:0:
390,350,168514,2,0,P|453:330|476:274,1,108.000000411987,6|4,1:2|3:0,0:0:0:0:
481,289,168836,2,0,P|468:228|462:150,1,108.000000411987,2|10,3:2|3:2,0:0:0:0:
486,51,169264,5,2,3:2:0:0:
475,58,169372,2,0,P|443:45|433:38,3,36.0000001373291,6|10|10|10,1:2|0:0|0:0|3:2,0:0:0:0:
342,96,169800,6,0,P|310:109|300:116,3,36.0000001373291,8|10|10|10,1:0|0:0|0:0|3:2,0:0:0:0:
230,0,170229,6,0,P|166:18|148:84,1,108.000000411987,6|4,1:2|3:0,0:0:0:0:
147,51,170550,1,2,3:2:0:0:
204,127,170764,1,2,0:0:0:0:
121,173,170979,1,2,3:2:0:0:
110,185,171086,2,0,P|127:258|135:364,1,162.000000617981,6|8,1:2|3:0,0:0:0:0:
144,359,171514,5,8,1:0:0:0:
159,367,171622,2,0,P|224:349|242:288,1,108.000000411987,2|2,3:2|0:0,0:0:0:0:
232,297,171943,1,6,1:2:0:0:
315,227,172157,1,4,3:0:0:0:
315,227,172264,1,2,3:2:0:0:
368,313,172479,2,0,P|419:323|470:355,1,108.000000411987,2|2,0:0|3:2,0:0:0:0:
476,347,172800,6,0,P|482:310|492:273,3,54.0000002059937,6|10|8|8,1:2|0:0|3:2|3:0,0:0:0:0:
425,244,173229,2,0,P|419:207|409:170,3,54.0000002059937,8|2|2|2,1:0|0:2|3:0|3:2,0:0:0:0:
485,155,173657,2,0,P|491:118|501:81,3,54.0000002059937,6|8|4|10,1:2|0:3|0:3|3:2,0:0:0:0:
426,61,174086,2,0,P|420:24|410:-13,3,54.0000002059937,8|2|2|2,1:0|0:0|3:0|0:0,0:0:0:0:
393,0,174514,6,0,P|328:13|234:66,2,162.000000617981,6|8|0,1:2|3:0|3:2,0:0:0:0:
499,85,175372,2,0,P|507:143|480:206,1,108.000000411987,8|10,1:0|3:2,0:0:0:0:
479,197,175693,2,0,P|438:187|415:167,2,54.0000002059937,2|6|2,0:0|1:2|3:2,0:0:0:0:
432,282,176122,5,8,0:1:0:0:
422,296,176229,2,0,P|358:316|296:367,1,111.999996582031,6|8,1:2|3:1,0:0:0:0:
306,337,176550,2,0,P|268:314|257:283,1,55.9999982910157,0|2,3:0|1:3,0:0:0:0:
173,285,176800,6,0,P|187:358|186:388,2,74.6666643880209,2|2|2,3:2|3:2|1:2,0:0:0:0:
217,217,177229,2,0,P|231:144|230:114,2,74.6666643880209,2|2|2,3:2|3:2|1:3,0:0:0:0:
217,217,177622,1,2,3:2:0:0:
217,217,177729,1,8,3:1:0:0:
93,262,177943,6,0,P|37:228|34:163,1,111.999996582031,12|8,1:2|3:1,0:0:0:0:
73,102,178372,2,0,P|74:65|69:38,2,55.9999982910157,2|2|8,1:3|3:2|3:1,0:0:0:0:
96,119,178693,1,6,3:2:0:0:
195,49,178907,5,8,0:0:0:0:
195,49,179014,1,8,3:1:0:0:
195,49,179122,2,0,P|260:44|326:12,1,111.999996582031,2|2,3:2|0:0,0:0:0:0:
317,35,179443,1,8,3:1:0:0:
396,98,179657,6,0,P|370:166|362:215,1,111.999996582031,0|8,1:0|3:1,0:0:0:0:
363,204,179979,1,2,3:2:0:0:
363,204,180086,2,0,P|406:203|432:189,2,55.9999982910157,2|2|8,1:2|0:0|3:1,0:0:0:0:
302,257,180407,2,0,P|231:279|210:335,2,111.999996582031,6|2|10,3:2|3:2|3:2,0:0:0:0:
368,319,180943,1,2,1:2:0:0:
368,319,181050,1,8,0:0:0:0:
368,319,181157,1,8,3:1:0:0:
470,262,181372,6,0,P|475:192|492:104,1,111.999996582031,6|8,1:2|3:1,0:0:0:0:
474,129,181693,1,8,3:0:0:0:
447,105,181800,2,0,P|385:118|353:186,1,111.999996582031,2|8,1:2|3:1,0:0:0:0:
344,163,182122,2,0,P|290:145|273:81,1,111.999996582031,2|2,3:2|3:2,0:0:0:0:
277,83,182443,1,8,3:1:0:0:
209,18,182657,1,2,1:2:0:0:
137,75,182872,1,8,3:1:0:0:
44,17,183086,6,0,P|58:110|62:169,1,111.999996582031,6|8,1:2|3:1,0:0:0:0:
54,146,183407,1,2,3:2:0:0:
137,202,183622,2,0,P|121:261|110:346,1,111.999996582031,2|10,3:2|3:2,0:0:0:0:
96,326,183943,2,0,P|30:307|38:254,1,111.999996582031,6|8,1:2|3:1,0:0:0:0:
35,261,184264,1,2,3:2:0:0:
145,209,184479,1,2,0:0:0:0:
145,209,184586,1,8,3:1:0:0:
208,304,184800,6,0,P|280:288|298:231,1,111.999996582031,6|8,1:2|3:1,0:0:0:0:
289,245,185122,1,2,3:2:0:0:
231,174,185336,1,2,3:2:0:0:
314,137,185550,1,2,0:0:0:0:
329,130,185657,2,0,P|334:68|354:9,1,111.999996582031,6|8,1:2|3:1,0:0:0:0:
362,9,185979,2,0,P|431:24|458:89,1,111.999996582031,2|2,3:2|0:0,0:0:0:0:
512,158,186407,5,2,3:2:0:0:
493,150,186514,2,0,P|425:190|417:269,1,111.999996582031,6|8,1:2|0:1,0:0:0:0:
413,217,186836,1,0,3:2:0:0:
413,217,186943,2,0,P|420:258|417:304,3,55.9999982910157,10|2|8|2,1:2|0:0|3:1|0:0,0:0:0:0:
492,331,187372,5,14,1:2:0:0:
492,331,187479,1,8,3:1:0:0:
492,331,187586,2,0,P|484:370|485:383,3,37.3333321940105,10|8|8|8,3:2|0:0|0:0|3:1,0:0:0:0:
498,322,187907,2,0,P|499:243|490:189,1,111.999996582031,2|10,3:2|3:2,0:0:0:0:
444,149,188229,5,6,3:2:0:0:
444,149,188336,1,6,1:2:0:0:
319,174,188550,1,2,3:2:0:0:
319,174,188657,1,8,1:0:0:0:
196,201,188872,1,10,3:2:0:0:
196,201,188979,1,8,3:1:0:0:
80,230,189193,5,2,3:2:0:0:
80,230,189300,2,0,P|73:253|68:276,3,37.3333321940105,8|10|10|8,3:1|0:0|0:0|3:1,0:0:0:0:
98,218,189622,1,8,1:0:0:0:
35,150,189836,6,0,P|49:227|63:378,1,210.000008010865,6|0,1:2|1:0,0:0:0:0:
