osu file format v14

[General]
AudioFilename: audio.mp3
AudioLeadIn: 0
PreviewTime: 71642
Countdown: 0
SampleSet: Soft
StackLeniency: 0.7
Mode: 0
LetterboxInBreaks: 0
WidescreenStoryboard: 1

[Editor]
Bookmarks: 1372,28800,54514,86229,120514,146229,176122,189836
DistanceSpacing: 0.9
BeatDivisor: 8
GridSize: 32
TimelineZoom: 2.999999

[Metadata]
Title:piano x forte
TitleUnicode:piano x forte
Artist:OSTER project
ArtistUnicode:OSTER project
Creator:DeviousPanda
Version:Collab Insane
Source:
Tags:instrumental jazz recursive call o!wc owc 2020 qf nm6 kowari kyrian ピアノ×フォルテ×スキャンダル Piano x Forte x Scandal
BeatmapID:2700470
BeatmapSetID:1296249

[Difficulty]
HPDrainRate:4.5
CircleSize:3.7
OverallDifficulty:7.7
ApproachRate:8.8
SliderMultiplier:2
SliderTickRate:1

[Events]
//Background and Video events
0,0,"flowers ethereal.jpg",0,0
//Break Periods
2,69179,70064
2,100893,102743
2,119000,119885
2,160893,161778
//Storyboard Layer 0 (Background)
//Storyboard Layer 1 (Fail)
//Storyboard Layer 2 (Pass)
//Storyboard Layer 3 (Foreground)
//Storyboard Layer 4 (Overlay)
//Storyboard Sound Samples

[TimingPoints]
1372,428.571428571429,4,2,1,50,1,0
1372,-125,4,2,1,50,0,0
14657,-125,4,2,1,60,0,0
15086,-100,4,2,1,70,0,0
28800,-111.111111111111,4,2,1,60,0,0
42514,-111.111111111111,4,2,1,65,0,0
55586,-100,4,2,1,65,0,0
56229,-71.4285714285714,4,2,1,80,0,1
56657,-83.3333333333333,4,2,1,80,0,1
61800,-125,4,2,1,80,0,1
63086,-83.3333333333333,4,2,1,80,0,1
68979,-83.3333333333333,4,2,1,60,0,0
72193,-83.3333333333333,4,2,1,70,0,0
72514,-66.6666666666667,4,2,1,90,0,1
72943,-76.9230769230769,4,2,1,90,0,1
83764,-125,4,2,1,90,0,1
84193,-76.9230769230769,4,2,1,90,0,1
84943,-62.5,4,2,1,90,0,1
85586,-125,4,2,1,90,0,1
86229,-125,4,2,1,60,0,0
87943,-100,4,2,1,60,0,0
94372,-166.666666666667,4,2,1,60,0,0
94800,-125,4,2,1,60,0,0
95229,-100,4,2,1,60,0,0
96729,-100,4,2,1,60,0,0
105086,-100,4,2,1,50,0,0
106372,-100,4,2,1,60,0,0
106800,-100,4,2,1,70,0,0
109907,-100,4,2,1,70,0,0
113979,-125,4,2,1,70,0,0
116229,-111.111111111111,4,2,1,70,0,0
120514,-111.111111111111,4,2,1,60,0,0
134228,-111.111111111111,4,2,1,65,0,0
147300,-100,4,2,1,65,0,0
147943,-71.4285714285714,4,2,1,80,0,1
148372,-83.3333333333333,4,2,1,80,0,1
160693,-83.3333333333333,4,2,1,60,0,0
163907,-83.3333333333333,4,2,1,70,0,0
164229,-66.6666666666667,4,2,1,90,0,1
165086,-74.0740740740741,4,2,1,90,0,1
167657,-105.263157894737,4,2,1,90,0,1
168193,-68.9655172413793,4,2,1,90,0,1
171086,-74.0740740740741,4,2,1,90,0,1
176122,-62.5,4,2,1,90,0,1
176229,-62.5,4,2,1,100,0,1
189836,-100,4,2,1,100,0,0

[Colours]
Combo1 : 248,183,255
Combo2 : 137,254,227
Combo3 : 203,183,255
Combo4 : 141,218,254

[HitObjects]
97,355,1372,6,0,P|155:305|153:212,1,160,6|10,3:2|3:2,0:0:0:0:
97,183,2014,1,2,0:3:0:0:
97,183,2122,1,2,0:0:0:0:
152,127,2336,2,0,P|179:139|243:149,1,80,2|2,0:0|0:0,0:0:0:0:
228,148,2657,1,10,3:2:0:0:
228,148,2764,1,0,0:0:0:0:
386,156,2979,5,2,0:0:0:0:
386,156,3086,1,0,0:0:0:0:
386,156,3193,2,0,P|392:119|398:103,1,40,10|2,3:2|0:2,0:0:0:0:
325,206,3407,2,0,P|319:243|313:259,1,40,2|0,0:0|0:0,0:0:0:0:
318,245,3622,1,2,3:2:0:0:
372,316,3836,1,2,0:0:0:0:
372,316,3943,1,2,0:0:0:0:
312,368,4157,6,0,P|256:351|190:344,2,120,6|10|0,3:2|3:2|3:0,0:0:0:0:
375,319,5122,1,2,0:0:0:0:
447,356,5336,1,2,3:2:0:0:
505,301,5550,1,2,3:2:0:0:
489,222,5764,5,10,3:2:0:0:
489,222,5872,1,2,0:0:0:0:
489,222,5979,2,0,P|494:186|505:160,1,40,2|2,3:2|0:0,0:0:0:0:
478,166,6193,2,0,P|473:130|462:104,1,40,2|2,3:2|0:0,0:0:0:0:
500,52,6407,5,2,3:2:0:0:
486,33,6514,1,2,3:0:0:0:
461,22,6622,1,2,3:2:0:0:
440,18,6729,1,10,3:2:0:0:
422,23,6836,1,2,0:0:0:0:
303,169,7157,5,10,3:2:0:0:
285,163,7264,1,2,3:2:0:0:
272,149,7372,1,2,3:2:0:0:
266,135,7479,1,0,0:0:0:0:
267,120,7586,2,0,P|276:65|280:-2,2,120,4|10|2,3:2|3:2|3:0,0:0:0:0:
152,98,8443,5,2,3:2:0:0:
130,112,8550,1,2,0:3:0:0:
115,137,8657,1,8,3:2:0:0:
111,157,8764,2,0,P|121:204|125:256,1,80,2|2,0:0|3:2,0:0:0:0:
206,347,9193,6,0,P|215:289|225:254,1,80,0|2,3:0|0:3,0:0:0:0:
234,258,9514,1,10,3:2:0:0:
263,254,9622,1,2,0:0:0:0:
296,161,9836,5,2,3:0:0:0:
396,279,10050,6,0,P|440:264|469:228,1,80,10|0,3:2|3:0,0:0:0:0:
462,240,10372,1,2,0:0:0:0:
462,240,10479,2,0,P|500:256|511:271,2,40,2|0|2,3:0|0:0|0:0,0:0:0:0:
414,358,10907,5,2,0:0:0:0:
372,376,11014,2,0,P|307:357|268:353,1,80,6|2,3:2|0:3,0:0:0:0:
239,302,11336,2,0,P|190:318|138:324,1,80,2|2,0:0|0:0,0:0:0:0:
162,322,11657,1,2,3:2:0:0:
67,365,11872,5,0,0:0:0:0:
51,352,11979,1,2,3:2:0:0:
46,336,12086,1,2,0:0:0:0:
101,253,12300,5,2,0:0:0:0:
109,246,12407,2,0,P|116:214|114:184,1,40,2|0,3:2|0:0,0:0:0:0:
53,163,12622,5,10,3:2:0:0:
47,154,12729,2,0,P|43:129|45:119,3,26.6666666666667,2|2|2|2,0:3|0:0|0:0|0:0,0:0:0:0:
102,74,13050,1,0,3:0:0:0:
104,65,13157,2,0,P|98:40|94:32,3,26.6666666666667,0|0|0|0,3:2|3:2|3:2|1:0,0:0:0:0:
24,22,13479,1,2,0:0:0:0:
19,25,14657,6,0,L|-4:19,6,20,6|2|2|0|10|2|2,1:2|0:0|0:0|0:0|3:2|0:0|0:0,0:0:0:0:
109,61,15086,6,0,P|151:53|212:16,1,100,6|8,1:2|0:0,0:0:0:0:
258,21,15407,1,2,3:0:0:0:
282,61,15514,1,8,3:1:0:0:
436,60,15729,5,10,3:2:0:0:
400,76,15836,2,0,P|376:134|364:200,1,100,2|8,0:3|0:1,0:0:0:0:
303,211,16157,1,10,3:2:0:0:
421,298,16372,1,8,3:1:0:0:
349,358,16586,1,10,0:0:0:0:
484,240,16800,6,0,P|411:251|326:289,1,150,4|0,1:2|0:0,0:0:0:0:
269,254,17229,1,8,3:1:0:0:
243,223,17336,2,0,P|252:187|271:170,1,50,2|8,3:2|0:0,0:0:0:0:
360,174,17550,2,0,P|395:124|390:72,1,100,2|0,3:2|3:0,0:0:0:0:
338,39,17872,1,10,1:2:0:0:
338,39,17979,1,2,3:2:0:0:
338,39,18086,2,0,P|299:33|260:17,1,50,8|2,3:1|3:2,0:0:0:0:
179,108,18407,5,2,0:2:0:0:
179,108,18514,1,0,1:0:0:0:
145,85,18622,1,2,0:0:0:0:
104,86,18729,1,10,0:0:0:0:
72,108,18836,1,2,3:2:0:0:
52,141,18943,2,0,P|71:197|82:262,1,100,8|2,3:1|3:2,0:0:0:0:
149,285,19264,5,0,3:0:0:0:
165,293,19372,2,0,P|205:281|222:268,1,50,2|8,1:2|0:1,0:0:0:0:
99,348,19586,2,0,P|129:376|149:384,1,50,2|2,3:2|3:2,0:0:0:0:
273,349,19800,6,0,P|286:315|299:294,3,50,8|2|2|2,3:1|0:0|0:0|0:0,0:0:0:0:
360,263,20229,2,0,P|348:200|323:149,1,100,6|2,1:2|3:0,0:0:0:0:
256,148,20550,5,2,3:2:0:0:
237,151,20657,2,0,P|215:114|222:90,1,50,8|2,3:1|0:0,0:0:0:0:
340,74,20872,2,0,P|296:74|279:56,1,50,10|2,0:0|0:0,0:0:0:0:
182,37,21086,6,0,P|126:46|109:102,1,100,0|10,1:0|3:2,0:0:0:0:
107,80,21407,1,2,0:0:0:0:
131,122,21514,1,8,3:1:0:0:
123,135,21622,2,0,P|137:196|142:249,1,100,2|2,3:2|0:3,0:0:0:0:
103,303,21943,6,0,P|150:344|205:324,1,100,6|0,1:2|0:0,0:0:0:0:
253,384,22264,1,2,3:2:0:0:
253,384,22372,2,0,P|260:345|277:312,1,50,8|0,3:1|0:0,0:0:0:0:
253,233,22586,5,2,0:0:0:0:
270,215,22693,1,2,3:2:0:0:
292,200,22800,1,0,1:0:0:0:
319,192,22907,1,10,3:2:0:0:
350,191,23014,1,2,3:2:0:0:
380,198,23122,1,2,0:0:0:0:
409,218,23229,2,0,P|414:255|414:279,3,50,8|2|2|2,3:1|3:2|0:3|0:0,0:0:0:0:
468,324,23657,2,0,P|463:347|461:373,3,33.3333333333333,14|10|10|10,1:2|0:0|0:0|0:0,0:0:0:0:
512,149,24086,5,8,1:0:0:0:
488,162,24193,2,0,P|445:144|424:105,1,50,2|0,3:2|0:0,0:0:0:0:
368,117,24407,2,0,P|362:70|385:33,1,50,2|0,3:2|0:0,0:0:0:0:
427,21,24622,1,8,0:1:0:0:
263,85,24836,5,4,0:3:0:0:
242,93,24943,2,0,P|184:68|166:44,1,50,8|0,3:1|0:0,0:0:0:0:
130,36,25157,1,10,3:2:0:0:
114,19,25264,2,0,P|52:35|24:91,1,100,2|2,3:2|3:2,0:0:0:0:
91,127,25586,5,2,0:0:0:0:
91,127,25693,1,2,1:2:0:0:
91,127,25800,2,0,P|100:170|101:193,1,50,8|2,3:1|0:0,0:0:0:0:
169,206,26014,2,0,P|155:255|154:271,1,50,2|2,3:2|3:0,0:0:0:0:
66,296,26229,5,6,1:2:0:0:
59,327,26336,1,8,0:1:0:0:
75,357,26443,1,2,3:2:0:0:
107,378,26550,1,2,0:0:0:0:
141,382,26657,1,8,3:1:0:0:
168,368,26764,1,2,0:0:0:0:
189,342,26872,2,0,P|208:324|233:309,3,33.3333333333333,10|10|10|12,0:0|0:0|0:0|1:0,0:0:0:0:
309,335,27300,5,2,3:2:0:0:
309,335,27407,1,2,3:2:0:0:
153,263,27622,1,2,3:2:0:0:
268,218,27836,1,2,3:2:0:0:
262,208,27943,2,0,P|266:180|272:160,3,33.3333333333333,10|10|10|10,3:2|0:0|0:0|3:2,0:0:0:0:
190,337,28372,5,6,1:2:0:0:
213,324,28479,2,0,P|283:331|350:349,1,100,2|2,3:2|0:0,0:0:0:0:
439,383,28800,6,0,P|499:359|508:295,1,134.999995880127,6|2,1:2|3:2,0:0:0:0:
464,230,29229,1,8,0:1:0:0:
434,258,29336,1,2,0:0:0:0:
394,264,29443,1,2,3:2:0:0:
357,244,29550,2,0,P|344:164|339:139,2,89.9999972534181,2|2|2,0:0|0:3|0:0,0:0:0:0:
302,305,30086,5,10,3:2:0:0:
302,305,30193,1,2,0:0:0:0:
192,234,30407,1,2,0:0:0:0:
182,250,30514,2,0,P|131:265|92:269,1,89.9999972534181,6|2,1:2|0:0,0:0:0:0:
33,326,30836,2,0,P|17:310|9:289,1,44.999998626709,2|0,3:2|0:0,0:0:0:0:
35,211,31050,5,2,3:2:0:0:
13,173,31157,1,2,3:0:0:0:
22,129,31264,1,2,0:0:0:0:
58,101,31372,2,0,L|105:91,2,29.9999990844727,10|10|10,1:2|0:0|0:0,0:0:0:0:
176,9,31800,5,8,0:1:0:0:
199,41,31907,2,0,P|183:86|175:135,1,89.9999972534181,2|0,0:0|0:0,0:0:0:0:
210,241,32229,6,0,P|262:218|265:181,1,89.9999972534181,0|0,1:0|0:0,0:0:0:0:
175,127,32550,2,0,P|134:167|145:202,1,89.9999972534181,2|0,3:2|0:0,0:0:0:0:
255,104,32872,1,10,3:2:0:0:
386,251,33193,5,10,0:0:0:0:
378,262,33300,2,0,P|356:265|336:254,1,44.999998626709,10|0,0:0|0:0,0:0:0:0:
266,187,33514,5,8,0:1:0:0:
242,214,33622,2,0,P|256:271|258:322,1,89.9999972534181,2|2,0:0|0:0,0:0:0:0:
326,367,33943,6,0,P|396:357|416:327,1,89.9999972534181,6|2,1:2|3:2,0:0:0:0:
415,351,34264,1,0,1:0:0:0:
415,351,34372,2,0,P|433:350|463:368,1,44.999998626709,8|2,0:1|0:0,0:0:0:0:
508,297,34586,5,2,0:3:0:0:
508,297,34693,1,2,0:0:0:0:
508,297,34800,2,0,P|485:276|473:254,1,44.999998626709,6|0,1:2|3:0,0:0:0:0:
443,194,35014,6,0,L|449:158,3,29.9999990844727,10|10|10|8,3:2|3:2|3:2|1:0,0:0:0:0:
381,245,35336,1,8,3:0:0:0:
340,262,35443,1,8,0:1:0:0:
298,253,35550,1,4,3:0:0:0:
270,219,35657,6,0,P|224:242|194:238,1,44.999998626709,6|10,1:2|0:0,0:0:0:0:
220,238,35818,2,0,P|201:232|194:212,1,22.4999993133545,10|10,0:0|3:2,0:0:0:0:
96,234,35979,5,0,1:0:0:0:
124,202,36086,1,8,3:1:0:0:
127,159,36193,1,2,3:2:0:0:
99,126,36300,1,2,3:0:0:0:
58,113,36407,1,2,3:2:0:0:
21,129,36514,6,0,P|33:150|39:185,1,44.999998626709,2|2,0:0|3:2,0:0:0:0:
78,274,36729,2,0,P|83:252|96:234,1,44.999998626709,10|2,3:2|0:0,0:0:0:0:
212,153,36943,5,8,3:1:0:0:
218,141,37050,1,10,3:2:0:0:
220,127,37157,1,2,3:0:0:0:
216,114,37264,1,2,3:2:0:0:
190,99,37372,5,6,1:2:0:0:
379,188,37586,1,2,3:2:0:0:
230,327,37800,5,10,1:2:0:0:
210,284,37907,1,2,3:2:0:0:
315,97,38122,5,10,3:2:0:0:
280,218,38336,1,2,3:2:0:0:
245,349,38550,1,2,0:0:0:0:
245,349,38657,2,0,P|273:353|300:363,1,44.999998626709,8|0,3:1|0:0,0:0:0:0:
315,274,38872,2,0,P|286:269|260:260,1,44.999998626709,2|8,3:0|3:0,0:0:0:0:
161,237,39086,6,0,P|173:255|181:276,2,44.999998626709,2|2|2,1:2|0:0|0:0,0:0:0:0:
144,155,39407,2,0,P|153:134|167:117,2,44.999998626709,2|2|2,3:2|3:2|0:0,0:0:0:0:
76,213,39729,1,10,3:2:0:0:
76,213,39836,1,2,0:0:0:0:
76,213,39943,2,0,P|46:218|-1:230,1,44.999998626709,2|2,3:2|0:0,0:0:0:0:
46,298,40157,2,0,P|68:294|90:289,1,44.999998626709,2|2,0:0|3:2,0:0:0:0:
148,366,40372,5,8,0:1:0:0:
173,336,40479,1,2,0:0:0:0:
209,322,40586,1,2,3:2:0:0:
248,324,40693,1,2,0:0:0:0:
281,343,40800,1,6,1:2:0:0:
475,45,41872,6,0,P|471:57|467:80,2,29.9999990844727,8|8|8,3:2|3:2|3:2,0:0:0:0:
467,34,42086,2,0,P|442:36|387:52,1,44.999998626709,6|8,1:2|0:1,0:0:0:0:
351,5,42300,1,0,0:0:0:0:
350,5,42514,6,0,P|316:32|272:31,1,89.9999972534181,6|2,1:2|3:2,0:0:0:0:
200,82,42836,1,0,0:0:0:0:
189,74,42943,1,8,3:1:0:0:
166,113,43050,1,2,0:0:0:0:
182,157,43157,1,2,3:0:0:0:
221,171,43264,2,0,P|267:149|317:145,2,89.9999972534181,2|2|2,0:0|3:2|0:0,0:0:0:0:
182,248,43800,5,10,3:2:0:0:
182,248,43907,1,2,0:0:0:0:
239,359,44122,5,2,0:0:0:0:
246,369,44229,2,0,P|272:359|306:295,1,89.9999972534181,6|0,1:2|0:0,0:0:0:0:
384,325,44550,2,0,P|385:294|369:266,1,44.999998626709,2|0,3:2|0:0,0:0:0:0:
382,202,44764,5,2,3:2:0:0:
448,196,44872,1,2,0:3:0:0:
472,144,44979,1,2,0:0:0:0:
464,128,45086,2,0,P|468:101|475:85,3,29.9999990844727,8|10|10|10,1:2|0:0|0:0|3:2,0:0:0:0:
390,3,45514,5,8,3:1:0:0:
366,31,45622,2,0,P|313:45|270:68,1,89.9999972534181,2|2,3:2|0:0,0:0:0:0:
224,124,45943,6,0,P|159:76|162:30,1,89.9999972534181,6|2,1:2|0:0,0:0:0:0:
72,14,46264,1,2,1:2:0:0:
80,27,46372,1,2,0:3:0:0:
80,66,46479,1,2,0:0:0:0:
50,94,46586,2,0,P|31:88|3:82,1,44.999998626709,8|2,0:1|0:0,0:0:0:0:
15,199,46800,5,2,3:2:0:0:
54,176,46907,1,2,0:0:0:0:
102,186,47014,1,2,3:0:0:0:
127,221,47122,1,2,0:0:0:0:
50,316,47336,5,2,0:0:0:0:
35,325,47443,1,2,3:2:0:0:
31,343,47550,1,2,0:0:0:0:
54,370,47657,6,0,P|81:355|139:349,1,89.9999972534181,6|2,1:2|3:0,0:0:0:0:
208,294,47979,1,2,3:2:0:0:
238,322,48086,2,0,P|259:313|272:295,1,44.999998626709,8|2,0:1|0:0,0:0:0:0:
346,248,48300,5,2,3:0:0:0:
316,220,48407,1,2,3:2:0:0:
316,179,48514,1,6,3:2:0:0:
341,148,48622,1,2,3:2:0:0:
375,137,48729,2,0,L|424:148,3,29.9999990844727,10|10|10|8,3:2|3:2|3:2|1:0,0:0:0:0:
457,212,49050,5,4,3:0:0:0:
512,172,49157,1,8,0:1:0:0:
512,109,49264,1,0,3:0:0:0:
460,74,49372,6,0,P|436:238|436:262,1,179.999994506836,6|10,1:2|3:2,0:0:0:0:
389,337,49907,6,0,P|392:353|402:375,2,22.4999993133545,10|10|10,1:2|0:0|3:2,0:0:0:0:
371,309,50122,1,2,0:0:0:0:
334,298,50229,1,2,3:2:0:0:
306,309,50336,1,2,0:0:0:0:
281,337,50443,2,0,P|260:338|222:346,1,44.999998626709,4|2,1:2|0:0,0:0:0:0:
152,245,50657,1,2,0:0:0:0:
179,270,50764,2,0,P|199:268|238:261,1,44.999998626709,8|2,3:1|0:0,0:0:0:0:
292,219,50979,1,2,0:0:0:0:
292,219,51086,6,0,P|305:163|325:119,1,89.9999972534181,6|2,1:2|3:2,0:0:0:0:
383,75,51407,1,0,0:0:0:0:
394,94,51514,1,8,3:1:0:0:
449,98,51622,1,2,3:2:0:0:
483,52,51729,2,0,P|479:29|477:7,1,44.999998626709,2|8,0:0|0:1,0:0:0:0:
394,180,52050,6,0,P|395:202|399:224,1,44.999998626709,2|0,3:0|0:0,0:0:0:0:
465,288,52264,1,2,3:2:0:0:
491,306,52372,2,0,P|503:249|518:203,1,89.9999972534181,8|10,3:1|3:2,0:0:0:0:
479,142,52693,2,0,P|475:130|472:106,1,22.4999993133545,10|10,3:2|3:2,0:0:0:0:
465,94,52800,2,0,P|445:79|410:78,1,44.999998626709,14|2,1:2|0:0,0:0:0:0:
332,95,53015,5,2,3:0:0:0:
302,122,53122,1,0,1:0:0:0:
261,121,53229,1,0,0:0:0:0:
230,92,53336,2,0,P|235:48|248:-1,2,89.9999972534181,2|2|2,3:2|0:0|3:2,0:0:0:0:
188,164,53871,5,0,0:0:0:0:
207,187,53978,2,0,P|217:225|219:247,1,44.999998626709,2|8,0:0|3:1,0:0:0:0:
127,264,54192,1,2,0:0:0:0:
94,232,54299,1,2,0:0:0:0:
89,185,54407,1,2,0:0:0:0:
106,141,54514,5,2,1:2:0:0:
106,141,55586,2,0,P|107:111|118:80,2,33.3333333333333,10|10|10,3:2|3:2|3:2,0:0:0:0:
112,147,55800,2,0,P|156:141|173:136,1,50,8|8,1:0|1:0,0:0:0:0:
173,217,56014,2,0,P|129:223|104:229,1,50,2|0,1:2|0:0,0:0:0:0:
41,186,56229,6,0,L|250:198,1,209.999993591309,6|2,1:2|1:2,0:0:0:0:
340,152,56657,1,8,1:0:0:0:
340,152,56764,2,0,P|318:112|269:107,1,59.9999981689454,2|2,0:0|3:0,0:0:0:0:
305,262,56979,6,0,P|369:246|404:241,1,59.9999981689454,2|0,3:2|1:0,0:0:0:0:
296,105,57193,2,0,P|232:121|200:126,1,59.9999981689454,2|8,3:2|3:0,0:0:0:0:
185,200,57407,5,2,3:2:0:0:
185,200,57514,2,0,L|259:205,1,59.9999981689454,8|2,1:0|0:0,0:0:0:0:
437,293,57729,5,10,3:2:0:0:
437,293,57836,2,0,L|470:297,2,29.9999990844727,10|10|14,0:0|0:0|1:2,0:0:0:0:
370,250,58050,1,0,0:0:0:0:
370,250,58157,2,0,B|338:248|321:266|320:278|321:290|294:311|265:302,1,119.999996337891,2|8,3:0|1:0,0:0:0:0:
271,304,58479,1,0,3:0:0:0:
435,197,58693,6,0,P|445:142|452:122,1,59.9999981689454,2|0,0:0|1:0,0:0:0:0:
360,170,58907,2,0,P|367:128|376:99,1,59.9999981689454,2|4,0:0|3:0,0:0:0:0:
242,177,59122,5,2,0:0:0:0:
242,177,59336,5,2,3:2:0:0:
202,165,59443,1,2,2:3:0:0:
160,155,59550,1,2,0:0:0:0:
129,114,59657,5,6,1:2:0:0:
202,248,59872,1,2,3:0:0:0:
65,384,60086,5,8,1:0:0:0:
65,384,60193,2,0,P|55:326|47:301,1,59.9999981689454,2|10,0:0|3:2,0:0:0:0:
147,380,60407,1,2,0:0:0:0:
147,380,60514,2,0,P|135:313|128:296,1,59.9999981689454,6|8,1:2|0:0,0:0:0:0:
143,313,60675,2,0,P|169:320|192:322,1,29.9999990844727,8|10,0:0|3:2,0:0:0:0:
299,233,60943,5,8,1:0:0:0:
299,233,61050,2,0,P|319:329|325:375,1,119.999996337891,2|2,3:2|0:0,0:0:0:0:
397,383,61372,5,6,1:2:0:0:
455,384,61479,1,2,0:0:0:0:
482,337,61586,1,2,2:3:0:0:
466,285,61693,1,2,3:2:0:0:
422,258,61800,2,0,P|424:235|428:222,3,26.6666666666667,8|10|10|2,1:0|3:2|3:2|3:0,0:0:0:0:
345,293,62122,5,2,3:2:0:0:
345,293,62229,1,6,1:2:0:0:
300,320,62336,1,8,0:1:0:0:
248,297,62443,1,10,3:0:0:0:
244,242,62550,1,2,3:2:0:0:
280,200,62657,5,8,1:0:0:0:
280,200,62729,1,10,3:2:0:0:
280,200,62800,2,0,P|286:176|288:154,2,26.6666666666667,10|2|0,3:2|3:0|0:0,0:0:0:0:
499,192,63086,5,6,1:2:0:0:
499,192,63193,2,0,P|430:180|396:125,1,119.999996337891,2|8,3:2|3:2,0:0:0:0:
491,56,63514,2,0,P|481:92|476:151,1,59.9999981689454,8|2,1:0|0:0,0:0:0:0:
298,176,63729,2,0,P|301:154|301:72,1,59.9999981689454,10|2,3:2|0:0,0:0:0:0:
379,74,63943,5,6,1:2:0:0:
387,107,64050,1,2,0:0:0:0:
394,140,64157,1,4,3:0:0:0:
372,217,64264,6,0,B|399:223|426:197|417:188|410:177|449:144|496:171,1,119.999996337891,6|2,3:2|0:0,0:0:0:0:
476,167,64532,2,0,P|492:198|494:219,1,29.9999990844727,0|2,0:0|3:0,0:0:0:0:
490,302,64693,5,2,0:0:0:0:
490,302,64801,2,0,P|444:291|405:285,1,59.9999981689454,6|8,1:2|0:0,0:0:0:0:
411,365,65014,1,8,3:2:0:0:
411,365,65122,2,0,P|346:350|329:348,1,59.9999981689454,4|8,3:0|1:0,0:0:0:0:
139,335,65336,6,0,P|178:327|222:324,1,59.9999981689454,2|10,0:0|3:2,0:0:0:0:
88,265,65550,2,0,P|118:258|168:250,1,59.9999981689454,6|0,0:0|0:0,0:0:0:0:
265,384,65764,5,2,3:2:0:0:
265,384,65979,5,2,0:0:0:0:
265,384,66193,5,2,3:2:0:0:
269,330,66300,1,2,0:3:0:0:
289,284,66407,1,2,0:0:0:0:
268,238,66514,5,6,1:2:0:0:
268,238,66622,2,0,P|191:239|163:290,1,119.999996337891,2|4,3:2|3:0,0:0:0:0:
322,178,66943,2,0,P|314:124|313:107,1,59.9999981689454,8|2,1:0|0:0,0:0:0:0:
209,26,67157,5,10,3:0:0:0:
209,26,67264,2,0,P|227:135|230:166,1,119.999996337891,2|10,0:0|3:2,0:0:0:0:
348,258,67586,5,4,3:0:0:0:
405,257,67693,1,2,3:2:0:0:
448,228,67800,1,8,1:0:0:0:
466,184,67907,1,10,3:2:0:0:
461,137,68014,5,2,0:3:0:0:
461,137,68122,2,0,P|401:94|397:42,1,119.999996337891,2|2,3:2|0:2,0:0:0:0:
306,162,68443,1,8,3:0:0:0:
306,162,68550,2,0,P|318:131|325:84,1,59.9999981689454,10|8,0:0|1:0,0:0:0:0:
478,62,68764,5,8,3:2:0:0:
510,66,68872,1,2,3:2:0:0:
478,62,68979,1,6,0:0:0:0:
257,112,70693,6,0,L|253:83,2,29.9999990844727,10|10|10,0:0|0:0|0:0,0:0:0:0:
263,122,70907,5,10,3:2:0:0:
261,137,71014,1,2,3:2:0:0:
259,152,71122,1,2,3:2:0:0:
245,189,71229,5,10,3:2:0:0:
247,204,71336,1,2,3:2:0:0:
249,219,71444,1,2,3:2:0:0:
251,232,71550,1,2,3:2:0:0:
241,272,71657,5,8,3:2:0:0:
329,200,71872,5,2,0:0:0:0:
174,102,72086,5,10,3:2:0:0:
174,102,72193,2,0,B|140:101|127:127|128:140|127:158|107:168|72:170,1,119.999996337891,6|0,3:2|0:0,0:0:0:0:
16,128,72514,6,0,P|175:146|256:164,1,225.000008583069,4|8,1:0|0:3,0:0:0:0:
219,61,72943,1,8,1:0:0:0:
219,61,73050,2,0,P|126:50|68:39,1,129.999994049073,2|2,3:2|0:0,0:0:0:0:
10,139,73372,6,0,P|19:187|24:224,1,64.9999970245363,6|0,1:2|0:0,0:0:0:0:
113,306,73586,1,4,3:0:0:0:
105,318,73693,2,0,P|96:270|90:238,1,64.9999970245363,10|8,3:2|1:0,0:0:0:0:
178,105,73907,6,0,P|248:144|246:207,1,129.999994049073,6|0,3:2|0:0,0:0:0:0:
118,25,74229,2,0,P|33:52|16:146,1,194.999991073609,6|10,1:2|3:0,0:0:0:0:
112,174,74657,5,8,1:0:0:0:
112,174,74764,1,6,3:2:0:0:
13,291,74979,5,0,0:0:0:0:
13,291,75086,1,6,1:2:0:0:
78,333,75300,1,4,3:0:0:0:
132,276,75514,1,8,1:0:0:0:
201,313,75729,1,2,3:0:0:0:
277,254,75943,6,0,P|298:141|309:104,1,129.999994049073,6|2,1:2|0:0,0:0:0:0:
204,201,76264,1,8,3:0:0:0:
204,201,76372,2,0,P|216:134|224:110,1,64.9999970245363,8|2,1:0|3:2,0:0:0:0:
385,29,76586,2,0,P|393:78|392:124,1,64.9999970245363,2|10,3:0|0:0,0:0:0:0:
410,178,76800,6,0,P|343:178|310:119,1,129.999994049073,6|4,1:2|3:0,0:0:0:0:
452,255,77122,2,0,P|486:232|492:190,1,64.9999970245363,2|8,3:2|1:0,0:0:0:0:
477,134,77336,1,10,3:2:0:0:
226,91,77550,5,2,3:2:0:0:
226,91,77657,2,0,P|196:80|149:67,3,43.3333313496908,6|10|10|10,1:2|0:0|0:0|3:2,0:0:0:0:
195,187,78086,6,0,P|149:172|119:165,3,43.3333313496908,8|10|10|10,1:0|0:0|0:0|3:2,0:0:0:0:
186,321,78514,6,0,P|105:296|36:279,1,129.999994049073,6|4,1:2|3:0,0:0:0:0:
134,384,78836,2,0,P|90:371|56:365,1,64.9999970245363,2|8,3:2|1:0,0:0:0:0:
58,274,79050,2,0,P|101:286|129:293,1,64.9999970245363,2|2,0:0|0:3,0:0:0:0:
257,379,79264,5,2,3:2:0:0:
257,379,79372,2,0,P|351:367|368:248,1,194.999991073609,6|8,1:2|3:0,0:0:0:0:
193,328,79800,1,8,1:0:0:0:
193,328,79907,2,0,P|120:256|150:190,1,129.999994049073,2|2,3:2|0:0,0:0:0:0:
200,199,80229,6,0,P|237:193|322:171,1,64.9999970245363,6|0,1:2|0:0,0:0:0:0:
410,363,80443,1,4,3:0:0:0:
410,363,80550,2,0,P|361:371|288:391,1,64.9999970245363,2|8,3:2|1:0,0:0:0:0:
245,272,80764,6,0,P|327:276|401:284,1,129.999994049073,2|2,0:0|3:2,0:0:0:0:
499,218,81086,2,0,P|458:218|408:226,1,64.9999970245363,6|10,1:2|0:0,0:0:0:0:
426,217,81247,2,0,P|428:188|434:161,1,32.4999985122681,8|8,0:0|3:2,0:0:0:0:
365,122,81407,5,8,3:0:0:0:
368,90,81514,1,8,1:0:0:0:
349,61,81622,1,2,0:2:0:0:
316,50,81729,1,2,3:0:0:0:
284,62,81836,1,2,3:2:0:0:
261,88,81943,5,6,1:2:0:0:
242,124,82050,1,8,0:3:0:0:
203,147,82157,1,4,0:3:0:0:
162,137,82264,1,10,3:2:0:0:
135,104,82372,6,0,P|143:63|148:29,1,64.9999970245363,8|2,1:0|0:0,0:0:0:0:
209,157,82586,2,0,P|201:198|195:232,1,64.9999970245363,2|2,3:0|0:0,0:0:0:0:
118,325,82800,6,0,P|112:255|101:173,1,129.999994049073,6|2,1:2|0:3,0:0:0:0:
291,66,83122,2,0,P|294:136|306:220,2,129.999994049073,8|2|2,3:0|3:2|0:0,0:0:0:0:
177,15,83657,5,8,1:0:0:0:
212,90,83764,1,8,1:2:0:0:
212,90,83872,2,0,L|207:118,3,26.6666666666667,10|10|10|6,3:2|3:2|3:2|1:2,0:0:0:0:
223,197,84193,6,0,P|248:147|343:135,1,129.999994049073,2|10,3:2|3:2,0:0:0:0:
479,246,84514,5,6,3:2:0:0:
479,246,84622,2,0,B|480:213|453:193|443:197|432:200|398:184|395:145,1,129.999994049073,6|2,1:2|3:2,0:0:0:0:
402,81,84943,6,0,B|410:119|382:148|369:146|355:145|317:171|333:222,1,160,8|2,1:0|3:0,0:0:0:0:
329,211,85264,1,6,1:2:0:0:
395,299,85479,5,8,3:0:0:0:
395,299,85586,2,0,L|392:326,10,20,10|2|2|0|8|0|10|2|2|2|2,3:2|0:0|0:0|0:0|1:0|0:0|3:2|0:0|0:0|0:0|0:0,0:0:0:0:
404,161,86229,5,6,1:2:0:0:
404,161,86443,1,6,1:2:0:0:
404,161,87943,6,0,P|350:168|300:171,1,100,0|2,1:0|0:2,0:0:0:0:
331,253,88264,1,2,1:2:0:0:
342,263,88372,2,0,P|371:257|401:256,1,50,8|2,0:1|3:2,0:0:0:0:
265,98,88693,5,10,0:0:0:0:
293,122,88800,2,0,P|302:153|304:187,1,50,14|2,1:2|3:2,0:0:0:0:
259,288,89014,5,0,3:0:0:0:
245,298,89122,2,0,P|215:258|167:248,1,100,2|10,3:2|0:0,0:0:0:0:
98,288,89443,2,0,P|101:308|104:332,2,25,10|0|2,0:0|0:0|3:2,0:0:0:0:
167,248,89657,6,0,P|156:169|152:97,1,150,6|2,1:2|1:2,0:0:0:0:
58,55,90086,5,8,0:1:0:0:
23,75,90193,1,2,3:2:0:0:
11,113,90300,1,2,3:0:0:0:
28,148,90407,1,2,0:0:0:0:
45,158,90514,6,0,P|89:135|112:132,1,50,0|6,1:0|3:2,0:0:0:0:
141,40,90729,1,0,1:0:0:0:
156,27,90836,2,0,P|200:50|223:53,1,50,2|8,3:2|3:1,0:0:0:0:
259,160,91050,2,0,P|314:143|329:88,1,100,10|0,3:2|3:0,0:0:0:0:
414,85,91372,5,6,1:2:0:0:
392,38,91479,1,2,0:0:0:0:
340,23,91586,1,2,0:3:0:0:
296,51,91693,2,0,P|305:74|308:98,1,50,2|8,3:2|3:1,0:0:0:0:
403,168,91907,5,2,0:0:0:0:
424,186,92014,1,2,0:0:0:0:
427,212,92122,1,2,3:2:0:0:
418,224,92229,2,0,P|393:229|357:240,2,50,2|2|2,1:2|0:0|3:2,0:0:0:0:
448,299,92550,2,0,P|423:304|387:315,1,50,2|8,0:0|3:1,0:0:0:0:
339,372,92764,5,6,3:2:0:0:
332,366,92872,1,0,0:0:0:0:
324,360,92979,1,10,0:0:0:0:
314,354,93086,5,6,1:2:0:0:
295,330,93193,1,2,0:0:0:0:
260,315,93300,1,2,0:3:0:0:
227,327,93407,1,2,1:2:0:0:
202,351,93514,2,0,L|141:357,1,50,8|2,3:1|3:2,0:0:0:0:
72,337,93729,5,2,0:3:0:0:
56,330,93836,1,10,3:2:0:0:
37,339,93943,5,0,1:0:0:0:
10,313,94050,2,0,P|15:283|15:248,1,50,2|6,3:2|3:2,0:0:0:0:
98,180,94264,5,2,0:0:0:0:
75,196,94372,2,0,P|55:195|38:185,2,39.9999987792969,8|2|2,3:1|3:2|3:2,0:0:0:0:
160,123,94800,2,0,P|159:96|146:74,2,53.3333333333333,2|2|2,3:2|3:2|3:2,0:0:0:0:
170,226,95229,5,8,3:1:0:0:
170,226,95336,1,2,3:2:0:0:
170,226,95443,2,0,P|210:248|234:245,1,50,2|2,0:3|0:0,0:0:0:0:
282,301,95657,2,0,P|293:296|309:283,2,33.3333333333333,14|10|10,1:2|0:0|0:0,0:0:0:0:
220,244,95872,5,10,3:2:0:0:
239,217,95979,1,2,3:2:0:0:
265,213,96086,1,8,0:1:0:0:
307,186,96193,2,0,P|345:194|385:197,1,75,2|0,3:2|0:0,0:0:0:0:
396,212,96407,2,0,P|400:224|396:250,1,25,2|0,0:0|0:0,0:0:0:0:
392,253,96514,1,6,1:2:0:0:
495,161,96729,5,2,3:2:0:0:
461,143,96836,1,0,1:0:0:0:
444,105,96943,2,0,P|449:76|457:48,1,50,8|2,3:1|0:0,0:0:0:0:
385,7,97157,1,2,0:0:0:0:
362,12,97264,1,2,3:2:0:0:
347,30,97372,1,0,1:0:0:0:
323,69,97479,6,0,P|294:74|266:82,1,50,2|2,3:2|3:0,0:0:0:0:
227,159,97693,1,2,3:2:0:0:
208,138,97800,2,0,P|183:132|159:126,1,50,8|10,3:1|3:2,0:0:0:0:
118,44,98014,5,2,3:0:0:0:
106,61,98122,1,2,0:0:0:0:
86,61,98229,1,6,1:2:0:0:
51,47,98336,6,0,P|46:71|40:95,1,50,2|0,0:0|0:0,0:0:0:0:
113,203,98550,2,0,P|59:213|6:225,2,100,2|2|2,1:2|0:0|0:0,0:0:0:0:
201,221,99086,5,6,1:2:0:0:
201,221,99193,2,0,L|204:183,4,25,8|8|8|8|10,0:1|0:0|3:2|0:0|3:2,0:0:0:0:
271,272,99514,2,0,L|287:167,1,100,8|0,3:1|0:0,0:0:0:0:
359,129,99836,1,4,3:0:0:0:
359,129,99943,5,6,1:2:0:0:
472,289,100264,1,6,1:2:0:0:
252,356,100586,2,0,P|239:353|227:351,2,25,6|2|2,1:2|0:0|0:0,0:0:0:0:
500,215,103372,5,6,1:2:0:0:
500,215,103586,2,0,P|495:248|495:284,1,50,2|6,3:2|1:2,0:0:0:0:
424,341,103800,5,2,0:0:0:0:
385,293,103907,1,2,0:0:0:0:
329,302,104014,1,6,1:2:0:0:
187,362,104229,5,8,0:1:0:0:
157,317,104336,1,0,3:0:0:0:
172,270,104443,1,8,1:3:0:0:
206,243,104550,1,4,0:3:0:0:
221,193,104657,1,6,1:2:0:0:
187,154,104764,2,0,L|154:159,4,25,2|2|2|2|2,0:0|0:0|0:0|0:0|0:0,0:0:0:0:
248,97,105086,5,0,1:0:0:0:
249,0,106372,6,0,P|258:89|260:158,1,150,6|2,1:2|0:0,0:0:0:0:
274,233,106800,2,0,P|322:222|340:166,1,100,6|8,1:2|0:0,0:0:0:0:
411,110,107122,5,2,3:0:0:0:
398,102,107229,2,0,P|374:99|335:88,1,50,8|0,3:1|0:0,0:0:0:0:
259,148,107443,2,0,P|211:161|162:168,1,100,10|0,3:2|1:0,0:0:0:0:
85,127,107764,5,8,0:1:0:0:
69,118,107872,2,0,P|54:84|64:60,1,50,10|2,3:2|0:0,0:0:0:0:
115,11,108086,5,8,3:1:0:0:
115,11,108300,1,10,0:0:0:0:
259,147,108514,6,0,P|235:191|229:240,1,100,4|0,1:2|0:0,0:0:0:0:
141,347,108836,1,8,0:0:0:0:
105,367,108943,2,0,P|88:348|81:324,1,50,8|2,3:1|3:2,0:0:0:0:
143,135,109264,6,0,P|144:159|148:184,1,50,2|0,3:2|0:0,0:0:0:0:
124,258,109479,2,0,L|93:245,4,25,8|8|10|8|10,3:2|0:0|1:2|0:0|3:2,0:0:0:0:
209,254,109800,5,8,3:1:0:0:
236,276,109907,2,0,P|266:262|281:229,1,50,2|0,3:2|0:0,0:0:0:0:
326,185,110122,2,0,P|369:193|397:196,1,50,2|0,0:2|1:0,0:0:0:0:
397,271,110336,2,0,P|423:265|451:261,1,50,2|10,0:0|0:0,0:0:0:0:
477,178,110550,1,2,3:2:0:0:
470,184,110657,2,0,P|443:110|463:74,1,100,8|2,3:1|3:2,0:0:0:0:
499,18,110979,1,0,3:0:0:0:
489,11,111086,5,2,1:2:0:0:
451,0,111193,1,8,0:1:0:0:
399,19,111300,1,2,3:2:0:0:
367,63,111407,1,2,3:2:0:0:
358,111,111514,6,0,P|332:120|293:126,1,50,8|2,3:1|0:0,0:0:0:0:
280,205,111729,2,0,P|254:196|215:190,1,50,2|2,0:0|0:0,0:0:0:0:
165,139,111943,5,6,1:2:0:0:
18,214,112157,1,2,3:0:0:0:
124,340,112372,5,8,3:1:0:0:
140,325,112479,1,2,0:0:0:0:
159,331,112586,1,10,0:0:0:0:
176,315,112693,1,2,0:0:0:0:
197,323,112800,5,0,1:0:0:0:
253,288,112907,1,8,3:2:0:0:
315,312,113014,2,0,P|329:336|333:378,1,50,10|2,3:2|0:0,0:0:0:0:
421,382,113229,5,8,3:1:0:0:
466,355,113336,2,0,P|483:318|491:248,1,100,2|2,3:2|0:3,0:0:0:0:
412,179,113657,5,6,1:2:0:0:
512,14,113979,5,2,3:2:0:0:
497,21,114086,2,0,P|468:62|477:84,1,40,8|0,3:1|0:0,0:0:0:0:
512,112,114300,1,2,0:0:0:0:
388,211,114514,5,0,1:0:0:0:
359,199,114622,1,10,3:2:0:0:
333,167,114729,1,2,3:2:0:0:
328,116,114836,1,2,0:0:0:0:
346,78,114943,2,0,P|369:71|398:66,1,40,8|2,3:1|3:2,0:0:0:0:
281,17,115157,5,2,0:3:0:0:
252,62,115264,1,2,0:0:0:0:
203,77,115372,2,0,P|192:75|162:70,2,26.6666666666667,14|10|10,1:2|0:0|0:0,0:0:0:0:
56,190,115800,1,8,1:0:0:0:
85,212,115907,2,0,P|128:203|178:199,1,80,2|2,3:2|3:2,0:0:0:0:
231,152,116229,5,2,3:2:0:0:
231,152,116336,2,0,P|246:172|251:200,2,44.999998626709,8|0|4,0:1|0:0|0:3,0:0:0:0:
286,85,116657,1,8,3:1:0:0:
286,85,116764,2,0,P|308:96|325:119,1,44.999998626709,2|8,3:2|3:2,0:0:0:0:
406,116,116979,2,0,P|397:165|392:213,1,89.9999972534181,2|2,3:2|3:2,0:0:0:0:
446,271,117300,5,2,0:0:0:0:
426,293,117407,1,2,1:2:0:0:
399,293,117514,1,8,3:1:0:0:
376,325,117622,5,2,0:0:0:0:
350,304,117729,1,2,3:2:0:0:
319,305,117836,1,2,3:0:0:0:
281,338,117943,2,0,P|258:338|224:346,1,44.999998626709,6|8,1:2|0:1,0:0:0:0:
164,375,118157,5,2,3:2:0:0:
135,346,118264,1,2,0:0:0:0:
142,298,118372,1,8,3:1:0:0:
176,275,118479,2,0,P|181:249|191:215,1,44.999998626709,2|10,0:0|0:0,0:0:0:0:
129,180,118657,2,0,L|124:143,1,29.9999990844727,10|10,0:0|3:2,0:0:0:0:
133,135,118800,1,12,1:0:0:0:
288,22,120514,6,0,P|346:36|368:104,1,134.999995880127,6|2,1:2|3:2,0:0:0:0:
407,169,120943,1,8,0:1:0:0:
381,182,121050,1,2,0:0:0:0:
362,203,121157,1,2,3:2:0:0:
351,228,121264,2,0,P|364:297|364:351,2,89.9999972534181,2|2|2,0:0|0:3|0:0,0:0:0:0:
276,194,121800,5,10,3:2:0:0:
276,194,121907,1,2,0:0:0:0:
210,265,122122,1,2,0:0:0:0:
200,274,122229,2,0,P|146:251|139:202,1,89.9999972534181,6|2,1:2|0:0,0:0:0:0:
77,176,122550,2,0,P|88:128|103:109,1,44.999998626709,2|0,3:2|0:0,0:0:0:0:
69,55,122764,5,2,3:2:0:0:
96,54,122872,1,2,3:0:0:0:
129,43,122979,1,2,0:0:0:0:
150,28,123086,2,0,P|157:6|159:-20,3,29.9999990844727,10|10|10|10,1:2|0:0|0:0|3:2,0:0:0:0:
266,74,123515,5,8,0:1:0:0:
251,98,123622,2,0,P|250:152|262:217,1,89.9999972534181,2|0,0:0|0:0,0:0:0:0:
318,232,123943,2,0,P|374:235|415:337,2,134.999995880127,0|2|10,1:0|3:2|3:2,0:0:0:0:
201,318,124907,5,10,0:0:0:0:
190,327,125014,2,0,P|158:317|134:291,1,44.999998626709,10|0,0:0|0:0,0:0:0:0:
105,244,125229,1,8,0:1:0:0:
82,230,125336,2,0,P|34:260|16:294,1,89.9999972534181,2|2,0:0|0:0,0:0:0:0:
0,384,125657,6,0,P|52:370|110:368,1,89.9999972534181,6|2,1:2|3:2,0:0:0:0:
87,367,125979,1,0,1:0:0:0:
87,367,126086,1,8,0:1:0:0:
194,339,126300,1,2,0:3:0:0:
194,339,126407,1,2,0:0:0:0:
194,339,126514,2,0,P|243:347|271:345,1,44.999998626709,6|2,1:2|3:2,0:0:0:0:
302,292,126729,6,0,P|306:269|306:244,3,29.9999990844727,10|10|10|8,3:2|3:2|3:2|1:0,0:0:0:0:
354,350,127050,1,8,3:0:0:0:
369,347,127157,2,0,P|394:327|403:289,1,44.999998626709,8|4,0:1|3:0,0:0:0:0:
454,257,127372,6,0,P|431:211|435:181,1,44.999998626709,6|10,1:2|0:0,0:0:0:0:
435,207,127532,2,0,P|440:189|455:177,1,22.4999993133545,10|10,0:0|3:2,0:0:0:0:
438,103,127693,5,0,1:0:0:0:
422,69,127800,1,8,3:1:0:0:
389,50,127907,1,2,3:2:0:0:
351,47,128014,1,2,3:0:0:0:
319,63,128122,1,2,3:2:0:0:
282,70,128229,6,0,P|248:55|234:41,1,44.999998626709,2|2,0:0|3:2,0:0:0:0:
228,144,128443,2,0,P|198:165|178:171,1,44.999998626709,10|2,3:2|0:0,0:0:0:0:
83,69,128657,5,8,3:1:0:0:
88,56,128764,1,10,3:2:0:0:
93,41,128872,1,2,3:0:0:0:
96,28,128979,1,2,3:2:0:0:
75,0,129086,5,6,1:2:0:0:
154,99,129300,1,2,3:2:0:0:
23,154,129514,1,10,1:2:0:0:
23,154,129622,1,2,3:2:0:0:
130,235,129836,6,0,P|141:306|141:368,2,89.9999972534181,10|2|2,3:2|3:2|0:0,0:0:0:0:
119,224,130372,1,8,3:1:0:0:
234,305,130586,1,2,3:0:0:0:
234,305,130693,1,8,3:0:0:0:
234,305,130800,2,0,P|271:291|282:271,2,44.999998626709,2|2|2,1:2|0:0|0:0,0:0:0:0:
175,357,131122,2,0,P|144:331|121:332,2,44.999998626709,2|2|2,3:2|3:2|0:0,0:0:0:0:
293,384,131443,5,10,3:2:0:0:
293,384,131550,1,2,0:0:0:0:
293,384,131657,2,0,P|325:370|356:368,1,44.999998626709,2|2,3:2|0:0,0:0:0:0:
385,308,131872,2,0,P|413:328|430:354,1,44.999998626709,2|2,0:0|3:2,0:0:0:0:
492,297,132086,5,8,0:1:0:0:
490,276,132193,1,2,0:0:0:0:
495,258,132300,1,2,3:2:0:0:
501,242,132407,1,2,0:0:0:0:
512,226,132514,1,6,1:2:0:0:
358,45,133586,6,0,P|352:24|350:3,3,29.9999990844727,8|8|8|6,3:2|3:2|3:2|1:2,0:0:0:0:
375,54,133907,2,0,P|407:93|405:142,1,89.9999972534181,8|2,0:1|3:2,0:0:0:0:
344,171,134229,1,6,1:2:0:0:
411,254,134443,1,2,3:2:0:0:
301,298,134657,5,8,3:1:0:0:
269,288,134764,1,2,0:0:0:0:
234,294,134872,1,2,3:0:0:0:
202,313,134979,1,2,0:0:0:0:
121,259,135193,1,2,3:2:0:0:
47,367,135407,1,2,0:0:0:0:
47,367,135514,1,10,3:2:0:0:
47,367,135622,2,0,P|41:314|28:265,1,89.9999972534181,2|2,0:0|0:0,0:0:0:0:
0,206,135943,6,0,P|26:163|68:157,1,89.9999972534181,6|0,1:2|0:0,0:0:0:0:
113,96,136264,2,0,P|153:129|202:119,1,89.9999972534181,2|2,3:2|3:2,0:0:0:0:
253,82,136586,1,2,0:3:0:0:
253,82,136693,1,2,0:0:0:0:
253,82,136800,2,0,P|257:55|264:39,3,29.9999990844727,8|10|10|10,1:2|0:0|0:0|3:2,0:0:0:0:
251,215,137229,5,8,3:1:0:0:
275,235,137336,2,0,P|318:229|363:188,1,89.9999972534181,2|2,3:2|0:0,0:0:0:0:
417,154,137657,2,0,P|380:92|397:53,1,89.9999972534181,6|2,1:2|0:0,0:0:0:0:
430,17,137979,1,2,1:2:0:0:
445,8,138086,2,0,P|480:20|496:44,1,44.999998626709,2|2,0:3|0:0,0:0:0:0:
507,98,138300,2,0,P|514:134|501:160,1,44.999998626709,8|2,0:1|0:0,0:0:0:0:
423,160,138514,5,2,3:2:0:0:
390,175,138622,1,2,0:0:0:0:
366,205,138729,1,2,3:0:0:0:
354,242,138836,1,2,0:0:0:0:
472,345,139050,5,2,0:0:0:0:
442,328,139157,1,2,3:2:0:0:
413,330,139264,1,2,0:0:0:0:
389,343,139372,2,0,P|350:332|332:313,1,44.999998626709,6|2,1:2|0:0,0:0:0:0:
211,346,139586,5,2,3:0:0:0:
236,341,139693,1,2,3:2:0:0:
252,325,139800,2,0,P|258:285|251:254,1,44.999998626709,8|2,0:1|0:0,0:0:0:0:
254,171,140014,5,2,3:0:0:0:
254,171,140122,1,2,3:2:0:0:
254,171,140229,1,6,3:2:0:0:
230,134,140336,1,2,3:2:0:0:
187,120,140443,1,10,3:2:0:0:
146,133,140550,2,0,P|139:156|138:165,2,22.4999993133545,10|10|8,3:2|3:2|1:0,0:0:0:0:
62,200,140764,5,4,3:0:0:0:
22,186,140872,1,8,0:1:0:0:
9,141,140979,1,0,3:0:0:0:
28,103,141086,2,0,P|42:191|44:286,1,179.999994506836,6|10,1:2|3:2,0:0:0:0:
115,348,141622,6,0,P|108:372|107:379,2,22.4999993133545,10|10|10,1:2|0:0|3:2,0:0:0:0:
121,318,141836,1,2,0:0:0:0:
150,287,141943,1,2,3:2:0:0:
181,272,142050,1,2,0:0:0:0:
216,274,142157,2,0,P|238:251|246:227,2,44.999998626709,4|2|2,1:2|0:0|0:0,0:0:0:0:
269,333,142479,2,0,P|300:341|319:358,2,44.999998626709,8|2|2,3:1|0:0|0:0,0:0:0:0:
195,382,142800,5,6,1:2:0:0:
397,299,143014,5,6,3:2:0:0:
339,246,143122,2,0,P|343:226|351:211,1,22.4999993133545,8|4,3:0|3:0,0:0:0:0:
351,212,143229,2,0,P|375:196|404:197,1,44.999998626709,8|6,3:1|3:2,0:0:0:0:
470,214,143443,5,2,3:2:0:0:
487,239,143550,2,0,P|478:290|474:333,2,89.9999972534181,8|8|2,3:1|3:1|3:0,0:0:0:0:
497,84,144193,5,2,0:0:0:0:
508,54,144300,1,10,3:2:0:0:
499,22,144407,1,10,3:2:0:0:
473,1,144514,2,0,P|441:9|424:24,1,44.999998626709,14|2,1:2|0:0,0:0:0:0:
389,103,144729,1,2,3:0:0:0:
359,130,144836,1,0,1:0:0:0:
318,129,144943,1,8,3:1:0:0:
287,100,145050,2,0,P|292:56|305:7,2,89.9999972534181,2|2|2,3:2|0:0|3:2,0:0:0:0:
218,162,145693,5,2,0:0:0:0:
237,185,145800,2,0,P|247:223|249:245,1,44.999998626709,8|2,3:1|0:0,0:0:0:0:
297,283,146014,1,2,0:0:0:0:
272,319,146122,1,2,0:0:0:0:
268,363,146229,1,2,1:2:0:0:
15,108,147300,6,0,P|14:92|9:69,2,33.3333333333333,10|10|10,3:2|3:2|3:2,0:0:0:0:
24,116,147514,6,0,P|50:120|89:126,1,50,8|8,1:0|1:0,0:0:0:0:
66,203,147729,2,0,P|40:199|1:193,1,50,2|0,1:2|0:0,0:0:0:0:
134,76,147943,6,0,P|203:78|217:217,1,209.999993591309,6|2,1:2|1:2,0:0:0:0:
153,292,148372,5,8,1:0:0:0:
161,299,148479,2,0,L|151:216,1,59.9999981689454,2|2,0:0|3:0,0:0:0:0:
205,97,148693,6,0,P|224:119|232:153,1,59.9999981689454,2|0,3:2|1:0,0:0:0:0:
65,202,148907,2,0,P|73:173|93:151,1,59.9999981689454,2|0,3:2|0:0,0:0:0:0:
156,214,149122,5,10,3:2:0:0:
163,223,149229,2,0,L|222:230,1,59.9999981689454,8|2,1:0|3:2,0:0:0:0:
299,322,149443,5,2,3:2:0:0:
299,322,149550,2,0,L|258:315,1,29.9999990844727,10|10,0:0|0:0,0:0:0:0:
259,306,149657,2,0,P|273:245|341:246,1,119.999996337891,14|2,1:2|3:0,0:0:0:0:
488,142,150086,5,8,1:0:0:0:
462,178,150193,2,0,P|432:182|389:196,1,59.9999981689454,0|2,3:0|3:0,0:0:0:0:
323,93,150407,2,0,P|321:123|336:149,1,59.9999981689454,2|0,3:2|1:0,0:0:0:0:
439,60,150622,2,0,P|414:43|385:44,1,59.9999981689454,2|4,3:2|3:0,0:0:0:0:
406,206,150836,1,2,0:0:0:0:
406,206,151050,5,2,3:2:0:0:
366,222,151157,1,2,2:3:0:0:
335,247,151264,1,2,0:0:0:0:
288,228,151372,5,6,1:2:0:0:
193,371,151586,1,2,3:0:0:0:
30,281,151800,5,8,1:0:0:0:
57,247,151907,2,0,P|61:218|60:187,1,59.9999981689454,2|10,0:0|3:2,0:0:0:0:
140,250,152122,2,0,P|138:220|143:190,1,59.9999981689454,2|6,0:0|1:2,0:0:0:0:
107,121,152336,2,0,L|112:71,2,29.9999990844727,8|8|10,0:0|0:0|3:2,0:0:0:0:
104,339,152657,5,8,1:0:0:0:
121,349,152764,2,0,P|163:337|243:326,1,119.999996337891,2|2,3:2|0:0,0:0:0:0:
329,354,153086,5,6,1:2:0:0:
387,355,153193,1,2,0:0:0:0:
414,308,153300,1,2,2:3:0:0:
398,256,153407,1,2,3:2:0:0:
354,229,153514,2,0,P|356:206|362:183,3,39.9999987792969,8|10|10|2,1:0|3:2|3:2|3:0,0:0:0:0:
277,264,153836,5,2,3:2:0:0:
277,264,153943,1,6,1:2:0:0:
232,291,154050,1,8,0:1:0:0:
180,268,154157,1,10,3:0:0:0:
176,213,154264,1,2,3:2:0:0:
212,171,154371,5,8,1:0:0:0:
212,171,154443,1,10,3:2:0:0:
212,171,154514,2,0,P|218:147|222:119,2,39.9999987792969,10|2|0,3:2|3:0|0:0,0:0:0:0:
447,74,154800,5,6,1:2:0:0:
421,97,154907,2,0,P|473:101|494:163,1,119.999996337891,2|8,3:2|3:2,0:0:0:0:
419,243,155229,2,0,P|415:213|409:183,1,59.9999981689454,8|2,1:0|0:0,0:0:0:0:
343,275,155443,2,0,P|339:245|333:215,1,59.9999981689454,10|2,3:2|0:0,0:0:0:0:
303,107,155657,5,6,1:2:0:0:
267,140,155764,1,2,0:0:0:0:
218,145,155872,1,4,3:0:0:0:
162,91,155979,6,0,P|179:141|182:228,1,119.999996337891,6|10,3:2|0:0,0:0:0:0:
194,222,156247,2,0,L|205:257,1,29.9999990844727,8|10,0:2|3:2,0:0:0:0:
190,332,156407,5,2,0:0:0:0:
190,332,156514,2,0,P|162:334|114:343,1,59.9999981689454,6|8,1:2|0:0,0:0:0:0:
75,274,156729,5,8,3:2:0:0:
75,274,156837,2,0,P|47:276|-1:285,1,59.9999981689454,4|8,3:0|1:0,0:0:0:0:
180,195,157050,6,0,P|150:196|120:201,1,59.9999981689454,2|10,0:0|3:2,0:0:0:0:
45,171,157264,2,0,P|24:150|19:120,1,59.9999981689454,6|0,0:0|0:0,0:0:0:0:
124,62,157479,2,0,P|96:51|67:58,1,59.9999981689454,2|0,3:2|0:0,0:0:0:0:
144,154,157693,1,2,0:0:0:0:
144,154,157907,5,2,3:2:0:0:
180,195,158014,1,2,0:3:0:0:
232,186,158122,1,2,0:0:0:0:
243,173,158229,5,6,1:2:0:0:
289,181,158336,2,0,P|274:230|266:310,1,119.999996337891,2|4,3:2|3:0,0:0:0:0:
141,373,158657,2,0,P|159:349|187:339,1,59.9999981689454,8|2,1:0|0:0,0:0:0:0:
355,317,158872,1,10,3:0:0:0:
355,317,158979,2,0,P|361:257|378:199,1,119.999996337891,2|10,0:0|3:2,0:0:0:0:
259,260,159300,5,4,3:0:0:0:
202,259,159407,1,2,3:2:0:0:
159,230,159514,1,8,1:0:0:0:
141,186,159621,1,10,3:2:0:0:
146,139,159728,5,2,0:3:0:0:
146,139,159836,2,0,P|206:96|210:44,1,119.999996337891,2|10,3:2|0:2,0:0:0:0:
301,164,160157,1,8,3:0:0:0:
301,164,160264,2,0,P|289:133|282:86,1,59.9999981689454,10|8,0:0|1:0,0:0:0:0:
122,26,160478,5,8,3:2:0:0:
133,60,160586,1,2,3:2:0:0:
114,29,160693,1,6,0:0:0:0:
256,319,162407,6,0,L|261:359,2,29.9999990844727,10|10|10,0:0|0:0|0:0,0:0:0:0:
265,300,162621,5,10,3:2:0:0:
269,291,162729,1,2,3:2:0:0:
272,282,162836,1,2,3:2:0:0:
249,261,162943,5,10,3:2:0:0:
245,252,163051,1,2,3:2:0:0:
242,243,163158,1,2,3:2:0:0:
238,235,163264,1,2,3:2:0:0:
257,209,163372,5,8,3:2:0:0:
257,21,163586,1,2,0:0:0:0:
455,152,163800,5,10,3:2:0:0:
455,152,163907,2,0,B|388:136|424:101|358:86,1,119.999996337891,6|0,3:2|0:0,0:0:0:0:
291,145,164229,6,0,P|367:129|520:106,1,225.000008583069,4|8,1:0|0:3,0:0:0:0:
487,240,164657,5,8,1:0:0:0:
452,278,164764,2,0,P|386:250|378:161,1,150.000005722046,2|2,3:2|0:0,0:0:0:0:
470,83,165086,6,0,P|457:122|451:155,1,67.5000002574921,6|0,1:2|0:0,0:0:0:0:
280,221,165300,1,4,3:0:0:0:
273,209,165407,2,0,P|286:170|291:136,1,67.5000002574921,10|8,3:2|1:0,0:0:0:0:
289,24,165622,6,0,P|352:31|369:92,1,135.000000514984,6|0,3:2|0:0,0:0:0:0:
199,140,165943,2,0,P|144:139|108:273,1,202.500000772476,6|2,1:2|3:2,0:0:0:0:
162,321,166372,5,8,1:0:0:0:
162,321,166479,1,6,3:2:0:0:
280,221,166800,6,0,P|316:226|370:231,1,67.5000002574921,6|0,1:2|0:0,0:0:0:0:
337,309,167014,2,0,P|303:303|270:299,1,67.5000002574921,4|0,3:0|0:0,0:0:0:0:
205,252,167229,5,8,1:0:0:0:
412,281,167443,1,2,3:0:0:0:
216,91,167657,6,0,B|299:103|251:150|332:161,1,142.49999619484,6|8,1:2|3:0,0:0:0:0:
420,187,168086,1,8,1:0:0:0:
420,187,168193,2,0,P|349:202|279:220,1,145.000004425049,2|10,3:2|0:0,0:0:0:0:
130,102,168514,6,0,P|127:66|147:37,1,72.5000022125245,6|0,1:2|0:0,0:0:0:0:
316,12,168729,5,4,3:0:0:0:
337,45,168836,2,0,P|328:86|318:144,1,72.5000022125245,2|8,3:2|1:0,0:0:0:0:
271,255,169050,2,0,P|209:243|196:156,1,145.000004425049,10|2,3:2|3:2,0:0:0:0:
226,91,169372,6,0,P|196:80|143:66,3,48.3333348083497,6|10|10|10,1:2|3:2|3:2|3:2,0:0:0:0:
195,187,169800,1,8,1:0:0:0:
195,187,169872,2,0,P|149:172|109:163,2,48.3333348083497,10|10|10,3:2|3:2|3:2,0:0:0:0:
390,120,170229,6,0,P|453:143|463:221,1,145.000004425049,6|4,1:2|3:0,0:0:0:0:
396,340,170550,2,0,P|388:292|381:255,1,72.5000022125245,2|0,3:2|0:0,0:0:0:0:
466,213,170764,2,0,P|481:308|496:383,1,145.000004425049,2|2,0:0|3:2,0:0:0:0:
383,268,171086,6,0,P|316:266|244:373,1,202.500000772476,6|8,1:2|3:0,0:0:0:0:
96,221,171514,1,8,1:0:0:0:
96,221,171622,2,0,P|142:218|154:313,1,135.000000514984,2|2,3:2|0:0,0:0:0:0:
209,363,171943,6,0,P|246:369|332:390,1,67.5000002574921,6|0,1:2|0:0,0:0:0:0:
419,199,172157,1,4,3:0:0:0:
419,199,172264,2,0,P|370:191|293:167,1,67.5000002574921,2|8,3:2|1:0,0:0:0:0:
254,290,172478,6,0,P|336:286|418:277,1,135.000000514984,2|0,0:0|0:0,0:0:0:0:
479,382,172800,6,0,P|472:351|466:309,1,67.5000002574921,6|10,1:2|0:0,0:0:0:0:
466,301,172961,2,0,P|469:282|473:263,1,33.750000128746,8|10,3:2|3:2,0:0:0:0:
502,189,173122,1,8,3:0:0:0:
481,162,173229,1,8,1:0:0:0:
450,148,173336,1,2,0:2:0:0:
417,150,173443,1,2,3:0:0:0:
388,166,173550,1,2,3:2:0:0:
360,197,173657,5,6,1:2:0:0:
331,220,173764,1,8,0:3:0:0:
296,233,173872,1,4,0:3:0:0:
255,228,173979,1,10,3:2:0:0:
223,206,174086,2,0,P|222:172|218:138,1,67.5000002574921,8|2,1:0|0:0,0:0:0:0:
321,44,174300,2,0,P|317:77|316:111,1,67.5000002574921,2|2,3:0|0:0,0:0:0:0:
350,317,174514,6,0,P|413:304|439:244,1,135.000000514984,6|2,1:2|0:3,0:0:0:0:
223,206,174836,2,0,P|241:255|261:335,2,135.000000514984,8|2|2,3:0|3:2|0:0,0:0:0:0:
137,176,175372,5,8,1:0:0:0:
64,212,175479,1,8,1:2:0:0:
64,212,175586,2,0,L|56:272,3,45.0000001716614,10|10|10|10,3:2|3:2|3:2|1:2,0:0:0:0:
98,97,175907,2,0,P|135:92|187:81,1,67.5000002574921,2|2,3:2|3:0,0:0:0:0:
288,6,176122,5,8,0:1:0:0:
269,23,176229,2,0,P|291:84|413:68,1,160,6|8,1:2|3:1,0:0:0:0:
423,41,176550,1,0,3:0:0:0:
461,62,176657,5,2,1:3:0:0:
444,144,176800,5,2,3:2:0:0:
425,229,176943,5,2,3:2:0:0:
348,207,177086,5,2,1:2:0:0:
365,280,177229,5,2,3:2:0:0:
382,353,177372,5,2,3:2:0:0:
468,384,177514,5,2,1:3:0:0:
468,384,177622,1,2,3:2:0:0:
468,384,177729,2,0,P|501:358|508:300,1,80,8|8,3:1|0:0,0:0:0:0:
341,211,177943,6,0,P|292:189|280:144,1,80,12|0,1:2|0:0,0:0:0:0:
241,76,178157,2,0,P|284:44|329:56,1,80,8|0,3:1|0:0,0:0:0:0:
465,47,178372,5,2,1:3:0:0:
434,61,178479,1,2,3:2:0:0:
419,96,178586,1,8,3:1:0:0:
423,133,178693,2,0,P|441:213|440:301,1,160,6|8,3:2|0:0,0:0:0:0:
369,365,179014,5,8,3:1:0:0:
350,384,179122,2,0,P|281:364|315:251,1,160,2|2,3:2|0:0,0:0:0:0:
226,204,179443,1,8,3:1:0:0:
183,188,179550,1,2,0:0:0:0:
140,210,179657,2,0,P|152:288|157:376,1,160,0|8,1:0|3:1,0:0:0:0:
37,339,179979,5,2,3:2:0:0:
10,308,180086,2,0,P|33:259|100:244,1,80,2|2,1:2|0:0,0:0:0:0:
176,182,180300,5,8,3:1:0:0:
203,151,180407,2,0,P|180:102|113:87,1,80,6|0,3:2|1:0,0:0:0:0:
68,50,180622,2,0,P|37:94|57:159,1,80,2|8,3:2|3:1,0:0:0:0:
43,124,180782,2,0,P|54:157|59:188,1,40,8|10,0:0|3:2,0:0:0:0:
125,290,180943,5,2,1:2:0:0:
157,298,181050,1,8,0:0:0:0:
187,313,181157,1,8,3:1:0:0:
211,336,181264,1,4,3:0:0:0:
229,359,181372,6,0,P|289:348|329:248,1,160,6|8,1:2|3:1,0:0:0:0:
480,355,181693,1,8,3:0:0:0:
439,332,181800,2,0,P|425:232|430:143,1,160,2|8,1:2|3:1,0:0:0:0:
317,86,182122,5,2,3:2:0:0:
283,69,182229,2,0,P|241:93|230:129,1,80,0|2,1:0|3:2,0:0:0:0:
423,170,182443,2,0,P|423:121|397:94,1,80,8|2,3:1|0:0,0:0:0:0:
252,198,182657,5,2,1:2:0:0:
214,198,182764,1,2,0:0:0:0:
178,181,182872,1,8,3:1:0:0:
158,151,182979,1,2,0:0:0:0:
154,116,183086,2,0,P|160:64|179:15,1,80,6|8,1:2|0:0,0:0:0:0:
66,101,183300,6,0,P|66:132|58:165,2,40,8|10|8,3:1|3:2|3:2,0:0:0:0:
0,234,183514,5,2,1:2:0:0:
29,217,183622,2,0,P|87:234|112:341,1,160,2|10,3:2|3:2,0:0:0:0:
178,375,183943,2,0,P|226:366|245:325,1,80,6|0,1:2|0:0,0:0:0:0:
235,263,184157,1,8,3:1:0:0:
270,237,184264,2,0,P|318:246|337:287,1,80,2|0,3:2|0:0,0:0:0:0:
401,369,184479,5,2,0:0:0:0:
444,365,184586,1,8,3:1:0:0:
475,332,184693,1,2,3:2:0:0:
480,291,184800,2,0,P|472:228|463:122,1,160,6|8,1:2|3:1,0:0:0:0:
323,107,185122,2,0,P|331:170|340:276,2,160,2|2|2,3:2|3:2|0:0,0:0:0:0:
272,41,185657,5,6,1:2:0:0:
234,38,185764,2,0,P|198:57|180:100,1,80,10|8,3:2|3:1,0:0:0:0:
81,181,185979,2,0,P|11:151|0:73,2,160,2|2|2,3:2|0:0|3:2,0:0:0:0:
213,164,186514,5,6,1:2:0:0:
181,174,186622,1,2,3:2:0:0:
164,197,186729,2,0,P|156:227|149:272,3,53.3333333333333,8|10|10|10,0:1|3:2|3:2|1:2,0:0:0:0:
240,292,187049,5,2,0:0:0:0:
286,299,187156,1,8,3:1:0:0:
318,335,187264,1,2,0:0:0:0:
390,294,187372,5,14,1:2:0:0:
388,262,187479,1,8,3:1:0:0:
408,236,187586,2,0,P|442:224|474:223,3,53.3333333333333,10|10|10|8,3:2|3:2|3:2|3:1,0:0:0:0:
335,192,187907,6,0,P|270:174|266:55,1,160,2|10,3:2|3:2,0:0:0:0:
295,31,188229,1,6,3:2:0:0:
318,50,188336,6,0,P|408:44|494:23,1,160,6|2,1:2|3:2,0:0:0:0:
330,197,188657,2,0,P|240:203|154:224,1,160,8|10,1:0|3:2,0:0:0:0:
166,213,188925,2,0,P|173:180|175:160,1,40,8|8,0:0|3:1,0:0:0:0:
35,78,189193,5,2,3:2:0:0:
45,122,189300,2,0,P|27:149|17:172,2,40,8|8|8,3:1|3:2|3:2,0:0:0:0:
116,93,189514,2,0,P|117:46|109:2,1,80,8|8,3:1|1:0,0:0:0:0:
261,0,189836,6,0,P|244:124|236:269,1,250,6|8,1:2|3:1,0:0:0:0:
241,257,190443,2,0,P|248:296|250:315,2,33.3333333333333,8|4|0,3:0|3:0|1:0,0:0:0:0:
