osu file format v14

[General]
AudioFilename: OSTER project feat.Music Video.mp3
AudioLeadIn: 0
PreviewTime: 96231
Countdown: 0
SampleSet: Soft
StackLeniency: 0.7
Mode: 0
LetterboxInBreaks: 0
WidescreenStoryboard: 1

[Editor]
Bookmarks: 139494
DistanceSpacing: 1
BeatDivisor: 4
GridSize: 4
TimelineZoom: 1.8

[Metadata]
Title:Labradorite feat. Yu Tokiwa
TitleUnicode:ラブラドライト feat. 常盤ゆう
Artist:OSTER project
ArtistUnicode:OSTER project
Creator:thzz
Version:Brilliance
Source:pop'n music éclale
Tags:recursive call eclale
BeatmapID:887556
BeatmapSetID:408776

[Difficulty]
HPDrainRate:6
CircleSize:4
OverallDifficulty:8.8
ApproachRate:9.3
SliderMultiplier:1.6
SliderTickRate:2

[Events]
//Background and Video events
Video,0,"Labradorite.avi"
0,0,"bg.jpg",0,0
//Break Periods
//Storyboard Layer 0 (Background)
//Storyboard Layer 1 (Fail)
//Storyboard Layer 2 (Pass)
//Storyboard Layer 3 (Foreground)
//Storyboard Sound Samples

[TimingPoints]
547,315.789473684211,4,2,1,60,1,0
547,-166.666666666667,4,2,1,60,0,0
10652,-125,4,3,1,60,0,0
30862,-166.666666666667,4,2,1,60,0,0
33389,-125,4,2,1,60,0,0
53599,-100,4,2,1,60,0,0
57389,-100,4,2,2,60,0,0
57704,-100,4,2,1,60,0,0
58020,-100,4,2,3,60,0,0
58178,-100,4,2,1,60,0,0
72862,-100,4,2,2,60,0,0
73810,-125,4,3,1,60,0,0
75704,-125,4,3,2,60,0,0
76336,-125,4,3,3,60,0,0
76968,-125,4,3,2,60,0,0
77599,-125,4,3,3,60,0,0
78231,-125,4,3,4,60,0,0
78547,-125,4,3,1,60,0,0
78862,-125,4,3,1,60,0,0
83915,-100,4,2,1,60,0,0
94020,-166.666666666667,4,2,1,60,0,0
96389,-166.666666666667,4,2,1,5,0,0
96547,-76.9230769230769,4,2,1,60,0,1
126862,-125,4,2,1,50,0,0
131441,-100,4,2,1,60,0,0
138704,-100,4,2,1,5,0,0
138862,-100,4,2,1,60,0,0
143283,-100,4,2,4,60,0,0
143599,-100,4,2,1,60,0,0
143915,-100,4,2,3,60,0,0
144231,-100,4,2,1,60,0,0
147389,-100,4,2,1,35,0,0
147547,-100,4,2,1,40,0,0
147704,-100,4,2,1,45,0,0
147862,-100,4,2,1,50,0,0
148020,-100,4,2,1,55,0,0
148178,-100,4,2,1,60,0,0
149283,-100,4,2,0,60,0,0
149599,-100,4,2,1,60,0,0
158757,-100,4,2,2,60,0,0
159704,-125,4,3,1,60,0,0
160968,-125,4,3,2,60,0,0
161599,-125,4,3,3,60,0,0
162862,-125,4,3,2,60,0,0
164757,-125,4,3,1,60,0,0
169810,-100,4,2,1,60,0,0
179915,-100,4,2,0,60,0,0
180862,-100,4,2,1,60,0,0
181178,-76.9230769230769,4,2,1,60,0,1
211494,-100,4,3,1,60,0,0
221599,-166.666666666667,4,2,1,50,0,0
231073,-111.111111111111,4,2,1,60,0,0
231625,-111.111111111111,4,2,1,5,0,0
231704,-100,4,3,1,60,0,0
236757,-100,4,2,1,60,0,0
240547,-166.666666666667,4,2,1,60,0,0
241494,-76.9230769230769,4,2,1,60,0,0
251599,-100,4,2,1,60,0,0
251915,-76.9230769230769,4,2,1,60,0,1
284757,-100,4,2,1,60,0,1
285862,-100,4,3,1,60,0,1
288547,-166.666666666667,4,2,1,50,0,0
299915,-125,4,3,1,60,0,0
308678,-125,4,2,1,60,0,0
309389,-125,4,2,1,55,0,0
310020,-125,4,2,1,50,0,0
310652,-125,4,2,1,45,0,0
311283,-125,4,2,1,40,0,0
311915,-125,4,2,1,30,0,0
312547,-125,4,2,1,20,0,0
313178,-125,4,2,1,10,0,0
313810,-125,4,2,1,5,0,0

[Colours]
Combo1 : 220,73,91
Combo2 : 253,211,164
Combo3 : 85,143,166
Combo4 : 233,128,90
Combo5 : 175,160,117
Combo6 : 96,141,236

[HitObjects]
154,86,547,5,8,0:0:0:0:
57,205,862,1,0,0:0:0:0:
210,229,1178,2,0,P|259:179|327:189,2,143.999995605469,8|8|0,0:0|0:0|0:0,0:0:0:0:
139,365,2441,2,0,L|124:264,1,95.9999970703126,8|0,0:0|0:0,0:0:0:0:
244,107,2915,5,0,0:0:0:0:
246,95,2993,1,0,0:0:0:0:
249,83,3073,2,0,L|264:184,1,95.9999970703126,8|8,0:0|0:0,0:0:0:0:
394,237,3705,2,0,P|435:213|482:214,1,95.9999970703126,8|0,0:0|0:0,0:0:0:0:
341,318,4178,2,0,P|275:343|213:310,1,143.999995605469,8|0,0:0|0:0,0:0:0:0:
171,246,4810,2,0,P|146:237|117:235,2,47.9999985351563,0|8|0,0:0|0:0|0:0,0:0:0:0:
360,113,5441,5,0,3:0:0:0:
360,113,5520,1,0,3:0:0:0:
360,113,5599,2,0,P|361:161|343:205,1,95.9999970703126,8|0,0:0|0:0,0:0:0:0:
158,217,6231,1,8,0:0:0:0:
158,217,6389,2,0,P|114:235|66:234,1,95.9999970703126,0|8,0:0|0:0,0:0:0:0:
183,133,6862,6,0,L|190:85,1,47.9999985351563
258,205,7178,2,0,L|265:252,1,47.9999985351563
333,329,7494,1,8,0:0:0:0:
333,329,7652,6,0,P|359:289|364:242,1,95.9999970703126
364,230,8047,1,0,0:0:0:0:
360,219,8125,1,8,0:0:0:0:
120,237,8441,2,0,L|111:189,1,47.9999985351563,8|0,0:0|0:0,0:0:0:0:
78,118,8757,2,0,P|119:95|167:92,1,95.9999970703126,8|0,0:0|0:0,0:0:0:0:
303,103,9231,1,4,0:0:0:0:
303,103,10652,6,0,L|307:166,1,64,2|0,0:0|0:0,0:0:0:0:
275,278,10968,1,2,0:0:0:0:
198,193,11126,1,0,0:0:0:0:
342,59,11284,2,0,L|340:122,1,64,8|0,0:0|0:0,0:0:0:0:
278,251,11600,1,2,0:0:0:0:
416,159,11757,1,0,0:0:0:0:
416,159,11836,1,0,0:0:0:0:
416,159,11915,6,0,P|447:155|479:150,1,64,2|0,0:0|0:0,0:0:0:0:
352,36,12231,1,2,0:0:0:0:
330,167,12389,1,0,0:0:0:0:
215,63,12547,2,0,P|187:55|151:55,1,64,8|0,0:0|0:0,0:0:0:0:
54,117,12863,2,0,L|37:90,5,21.3333333333333,2|0|0|0|0|0,0:0|0:0|0:0|0:0|0:0|0:0,0:0:0:0:
62,132,13178,5,2,0:0:0:0:
242,91,13336,1,0,0:0:0:0:
179,194,13494,2,0,L|187:257,1,64,2|0,0:0|0:0,0:0:0:0:
95,338,13810,2,0,P|55:333|26:317,1,64,8|0,0:0|0:0,0:0:0:0:
157,176,14126,1,2,0:0:0:0:
268,285,14284,1,0,0:0:0:0:
268,285,14363,1,0,0:0:0:0:
268,285,14442,6,0,L|282:221,1,64,2|0,0:0|0:0,0:0:0:0:
106,249,14757,2,0,L|119:311,1,64,2|0,0:0|0:0,0:0:0:0:
71,155,15073,1,8,0:0:0:0:
287,191,15231,1,0,0:0:0:0:
181,84,15389,2,0,L|176:56,3,21.3333333333333,2|0|0|0,0:0|0:0|0:0|0:0,0:0:0:0:
174,273,15704,5,2,0:0:0:0:
362,208,15863,1,0,0:0:0:0:
197,235,16021,2,0,L|202:172,1,64,2|0,0:0|0:0,0:0:0:0:
335,104,16336,2,0,L|340:167,1,64,8|0,0:0|0:0,0:0:0:0:
268,285,16652,1,2,0:0:0:0:
175,147,16810,1,0,0:0:0:0:
175,147,16889,1,0,0:0:0:0:
175,147,16968,6,0,P|130:150|100:159,1,64,2|0,0:0|0:0,0:0:0:0:
16,216,17284,1,2,0:0:0:0:
106,287,17441,1,0,0:0:0:0:
111,154,17600,2,0,P|110:122|114:90,1,64,8|0,0:0|0:0,0:0:0:0:
252,133,17915,2,0,L|282:126,5,21.3333333333333,2|0|0|0|0|0,0:0|0:0|0:0|0:0|0:0|0:0,0:0:0:0:
301,124,18231,6,0,L|321:195,1,64,2|0,0:0|0:0,0:0:0:0:
88,248,18547,2,0,L|93:185,1,64,2|0,0:0|0:0,0:0:0:0:
311,230,18862,2,0,L|293:302,1,64,8|0,0:0|0:0,0:0:0:0:
249,384,19178,1,2,0:0:0:0:
393,310,19336,1,0,0:0:0:0:
393,310,19415,1,0,0:0:0:0:
393,310,19494,6,0,L|464:314,1,64,2|0,0:0|0:0,0:0:0:0:
311,230,19810,2,0,L|379:209,1,64,2|0,0:0|0:0,0:0:0:0:
206,263,20126,1,8,0:0:0:0:
241,105,20284,1,0,0:0:0:0:
420,195,20442,2,0,L|440:189,3,21.3333333333333
333,138,20757,5,6,0:2:0:0:
318,291,20915,1,0,0:0:0:0:
341,107,21073,1,2,0:0:0:0:
248,224,21231,2,0,P|201:264|139:256,1,128,8|0,0:2|0:0,0:0:0:0:
241,105,21705,1,2,0:0:0:0:
343,255,21863,1,0,0:0:0:0:
343,255,21941,1,0,0:0:0:0:
343,255,22021,6,0,L|332:191,1,64
192,122,22336,2,0,L|181:185,1,64,2|0,0:0|0:0,0:0:0:0:
56,299,22652,1,8,0:0:0:0:
104,193,22810,1,0,0:0:0:0:
205,313,22968,2,0,L|240:307,5,21.3333333333333,2|0|0|0|0|0,0:0|0:0|0:0|0:0|0:0|0:0,0:0:0:0:
252,303,23284,6,0,L|261:372,1,64,2|0,0:0|0:0,0:0:0:0:
122,321,23600,1,2,0:0:0:0:
186,225,23757,1,0,0:0:0:0:
335,281,23915,2,0,P|366:282|398:277,1,64,8|0,0:0|0:0,0:0:0:0:
495,191,24231,1,2,0:0:0:0:
303,82,24389,1,0,0:0:0:0:
303,82,24468,1,0,0:0:0:0:
303,82,24547,6,0,L|299:145,1,64,2|0,0:0|0:0,0:0:0:0:
407,185,24863,2,0,L|403:121,1,64,2|0,0:0|0:0,0:0:0:0:
192,131,25178,2,0,L|188:194,1,64,8|0,0:0|0:0,0:0:0:0:
67,204,25494,2,0,L|70:236,3,21.3333333333333,2|0|0|0,0:0|0:0|0:0|0:0,0:0:0:0:
157,324,25810,5,2,0:0:0:0:
294,285,25968,2,0,P|323:252|328:218,1,64,0|2,0:0|0:0,0:0:0:0:
173,101,26284,1,0,0:0:0:0:
95,254,26442,1,8,0:0:0:0:
244,219,26600,2,0,L|258:153,1,64,0|2,0:0|0:0,0:0:0:0:
411,190,26915,1,0,0:0:0:0:
411,190,26994,1,0,0:0:0:0:
411,190,27073,6,0,L|424:252,1,64,2|0,0:0|0:0,0:0:0:0:
256,321,27389,2,0,L|269:258,1,64,2|0,0:0|0:0,0:0:0:0:
223,138,27705,2,0,P|191:138|161:150,1,64,8|0,0:0|0:0,0:0:0:0:
56,223,28021,2,0,L|59:243,5,21.3333333333333,2|0|0|0|0|0,0:0|0:0|0:0|0:0|0:0|0:0,0:0:0:0:
50,202,28336,5,2,0:0:0:0:
83,88,28494,1,0,0:0:0:0:
201,220,28652,2,0,P|199:251|199:283,1,64,2|0,0:0|0:0,0:0:0:0:
307,154,28968,2,0,P|306:116|297:90,1,64,8|0,0:0|0:0,0:0:0:0:
130,156,29284,1,2,0:0:0:0:
291,239,29442,1,0,0:0:0:0:
277,70,29600,5,2,0:0:0:0:
103,163,29757,1,0,0:0:0:0:
269,331,29915,2,0,P|282:302|283:270,1,64,2|0,0:0|0:0,0:0:0:0:
231,142,30231,5,10,0:0:0:0:
66,175,30389,1,8,0:0:0:0:
365,255,30547,1,10,0:0:0:0:
199,283,30705,1,8,0:0:0:0:
432,182,30863,6,0,P|459:167|478:151,2,47.9999985351563,8|0|0,0:0|0:0|0:0,0:0:0:0:
406,103,31336,6,0,P|379:86|356:78,1,47.9999985351563,8|0,0:0|0:0,0:0:0:0:
283,65,31652,1,0,0:0:0:0:
100,100,31810,6,0,P|126:116|149:124,1,47.9999985351563,8|0,0:0|0:0,0:0:0:0:
223,138,32126,1,0,0:0:0:0:
311,156,32284,5,8,0:0:0:0:
191,55,32442,1,0,0:0:0:0:
164,205,32600,1,0,0:0:0:0:
423,197,32757,6,0,L|417:252,1,47.9999985351563,6|0,0:3|0:0,0:0:0:0:
302,320,33073,2,0,L|296:367,1,47.9999985351563
223,138,33389,6,0,P|169:108|111:133,1,128,6|0,0:0|0:0,0:0:0:0:
66,216,33863,1,2,0:0:0:0:
340,199,34336,1,0,0:0:0:0:
340,199,34652,2,0,P|332:271|315:335,1,128,2|2,0:0|0:0,0:0:0:0:
187,329,35126,2,0,P|171:266|165:203,1,128
462,174,35600,2,0,P|465:206|464:237,1,64,8|0,0:3|0:0,0:0:0:0:
385,293,35915,6,0,P|323:305|271:271,1,128,10|0,0:0|0:0,0:0:0:0:
233,182,36389,1,2,0:0:0:0:
490,131,36863,1,0,0:0:0:0:
323,35,37178,2,0,L|333:100,1,64
403,164,37494,2,0,L|379:225,1,64,8|0,0:0|0:3,0:3:0:0:
337,310,37810,1,8,0:3:0:0:
156,246,38126,1,2,0:0:0:0:
307,298,38284,1,8,0:3:0:0:
403,164,38442,6,0,B|380:184|332:185|303:160|303:160|263:172|217:156,1,192,10|2,0:0|0:0,0:0:0:0:
356,37,39073,2,0,L|357:106,1,64,8|0,0:3|0:0,0:0:0:0:
144,196,39389,2,0,L|144:132,1,64,0|2,0:0|0:0,0:0:0:0:
251,87,39705,1,8,0:0:0:0:
283,249,39863,2,0,P|269:277|245:299,1,64,8|2,0:3|0:0,0:0:0:0:
151,320,40178,2,0,L|26:293,1,128,8|0,0:0|0:0,0:0:0:0:
0,156,40652,1,8,0:3:0:0:
92,99,40810,1,0,0:0:0:0:
163,178,40968,5,10,0:0:0:0:
163,177,41126,2,0,P|194:175|226:168,1,64
285,92,41442,2,0,P|344:73|396:106,2,128,8|0|2,0:0|0:0|0:0,0:0:0:0:
258,243,42231,1,10,0:0:0:0:
84,136,42389,2,0,L|77:199,1,64,8|0,0:3|0:0,0:0:0:0:
141,54,42705,1,10,0:0:0:0:
275,282,43021,1,2,0:0:0:0:
336,146,43178,1,8,0:3:0:0:
145,198,43494,6,0,P|117:213|85:218,2,64,6|0|0,0:0|0:0|0:0,0:0:0:0:
185,110,43968,2,0,L|176:243,1,128,2|0,0:0|0:0,0:0:0:0:
207,328,44442,2,0,P|238:327|270:320,1,64,8|2,0:3|0:0,0:0:0:0:
445,267,44757,1,0,0:3:0:0:
368,90,45073,1,2,0:0:0:0:
341,204,45231,2,0,L|330:241,2,32,8|0|2,0:0|3:0|0:0,0:0:0:0:
426,159,45547,1,0,0:0:0:0:
275,130,45705,2,0,P|243:125|213:136,1,64,8|0,0:3|0:0,0:0:0:0:
149,273,46021,6,0,P|212:266|256:222,1,128,10|0,0:0|0:0,0:0:0:0:
290,40,46494,1,8,0:3:0:0:
17,234,46810,1,2,0:0:0:0:
17,234,46968,2,0,L|29:159,1,64,0|2,0:0|0:0,0:0:0:0:
168,122,47283,2,0,L|178:185,1,64,8|0,0:0|0:0,0:0:0:0:
332,267,47599,2,0,L|321:333,1,64,8|2,0:0|0:0,0:0:0:0:
342,192,47915,1,8,0:3:0:0:
16,277,48231,2,0,L|25:341,1,64,2|8,0:0|0:3,0:0:0:0:
167,234,48547,5,10,0:0:0:0:
89,182,48705,2,0,P|58:171|27:169,1,64
183,90,49021,2,0,P|213:79|244:77,1,64,2|8,0:0|0:3,0:0:0:0:
328,125,49336,1,0,0:0:0:0:
202,261,49494,1,8,0:0:0:0:
143,121,49652,1,0,0:0:0:0:
322,23,49810,5,2,0:0:0:0:
253,160,49968,2,0,P|272:185|299:202,1,64,8|10,0:3|0:0,0:0:0:0:
418,158,50284,1,0,0:0:0:0:
323,289,50442,2,0,L|318:222,1,64
243,64,50757,2,0,L|238:127,1,64,8|0,0:3|0:0,0:0:0:0:
201,261,51073,6,0,P|141:272|93:233,1,128,10|0,0:0|0:0,0:0:0:0:
47,85,51547,1,2,0:0:0:0:
161,189,51705,1,8,0:3:0:0:
391,159,52020,5,2,0:0:0:0:
326,230,52178,2,0,L|308:271,2,32,8|0|0,0:0|0:0|0:0,0:0:0:0:
276,116,52494,2,0,P|265:87|243:64,1,64,8|0,0:3|0:0,0:0:0:0:
161,189,52810,1,10,0:0:0:0:
161,189,53125,1,10,0:0:0:0:
354,218,53283,1,8,0:3:0:0:
82,104,53600,6,0,L|68:182,1,80,6|0,0:0|0:0,0:0:0:0:
84,302,53915,1,8,0:3:0:0:
319,266,54073,1,10,0:0:0:0:
337,261,54389,1,2,0:0:0:0:
237,352,54547,1,8,0:0:0:0:
222,153,54705,1,8,0:3:0:0:
294,57,54863,6,0,P|331:43|370:47,1,80,2|0,0:0|0:0,0:0:0:0:
448,105,55178,1,8,0:3:0:0:
299,270,55336,1,0,0:0:0:0:
341,131,55494,2,0,L|364:218,1,80,2|2,0:0|0:0,0:0:0:0:
154,317,55810,2,0,L|133:239,1,80,8|0,0:3|0:3,0:0:0:0:
375,303,56126,6,0,P|320:356|246:337,1,160,10|8,0:0|0:3,0:0:0:0:
54,204,56600,1,10,0:0:0:0:
129,144,56757,2,0,L|117:65,1,80
222,167,57073,2,0,L|216:246,1,80,2|8,0:0|0:3,0:0:0:0:
361,208,57389,5,4,0:0:0:0:
131,260,57705,1,8,0:3:0:0:
388,180,58021,1,4,0:0:0:0:
146,344,58178,2,0,P|106:343|72:323,2,80,0|8|0,0:0|0:3|0:0,0:0:0:0:
250,200,58652,5,6,0:0:0:0:
175,342,58810,1,0,0:0:0:0:
341,320,58968,1,8,0:3:0:0:
317,94,59126,2,0,P|276:75|237:77,1,80,10|0,0:0|0:0,0:0:0:0:
57,166,59442,5,2,0:0:0:0:
131,260,59600,1,8,0:0:0:0:
330,102,59757,1,8,0:3:0:0:
340,112,60073,1,2,0:0:0:0:
418,202,60231,2,0,L|411:285,1,80,8|0,0:3|0:0,0:0:0:0:
222,78,60547,5,2,0:0:0:0:
256,221,60705,1,2,0:0:0:0:
428,109,60863,1,8,0:3:0:0:
373,297,61021,1,0,0:0:0:0:
330,142,61178,5,10,0:0:0:0:
124,202,61336,2,0,P|83:191|54:162,1,80,0|8,0:0|0:3,0:0:0:0:
241,198,61652,1,2,0:0:0:0:
262,192,61968,2,0,P|300:201|329:228,1,80,2|8,0:0|0:0,0:0:0:0:
182,140,62284,2,0,P|171:98|181:59,1,80,8|0,0:3|0:0,0:0:0:0:
270,273,62600,5,2,0:0:0:0:
288,73,62757,1,10,0:3:0:0:
143,230,62915,2,0,L|188:219,1,40,8|0,0:0|0:0,0:0:0:0:
327,187,63073,1,2,0:0:0:0:
285,33,63231,5,14,0:0:0:0:
247,183,63389,1,4,0:3:0:0:
183,90,63547,1,4,0:3:0:0:
391,257,63705,6,0,P|429:247|463:226,1,80,6|0,0:0|0:0,0:0:0:0:
410,48,64021,1,8,0:3:0:0:
247,183,64178,1,10,0:0:0:0:
232,188,64494,1,2,0:0:0:0:
280,297,64652,1,8,0:0:0:0:
399,132,64810,1,8,0:3:0:0:
291,80,64968,6,0,L|279:0,1,80
75,113,65284,1,8,0:3:0:0:
124,202,65441,2,0,P|120:241|119:281,1,80,0|2,0:0|0:0,0:0:0:0:
271,217,65757,2,0,P|273:256|279:295,1,80,8|8,0:0|0:3,0:0:0:0:
400,171,66073,1,0,0:0:0:0:
179,268,66231,6,0,P|102:278|45:226,1,160,10|8,0:0|0:3,0:0:0:0:
271,217,66705,2,0,P|324:161|400:171,1,160,10|0,0:0|0:0,0:0:0:0:
129,205,67178,6,0,L|136:119,1,80,2|8,0:0|0:3,0:0:0:0:
388,54,67494,2,0,L|394:133,1,80,8|0,0:0|0:3,0:0:0:0:
252,323,67810,1,8,0:3:0:0:
356,246,67968,1,2,0:0:0:0:
356,246,68047,1,0,0:0:0:0:
356,246,68126,2,0,L|442:249,1,80,8|0,0:0|0:0,0:0:0:0:
207,156,68442,2,0,L|211:119,3,26.6666666666667,0|0|0|0,3:0|3:0|3:0|3:0,3:0:0:0:
107,194,68757,5,10,0:0:0:0:
193,269,68915,1,0,0:0:0:0:
300,129,69073,1,8,0:3:0:0:
324,321,69231,2,0,P|401:316|435:248,1,160,10|2,0:0|0:0,0:0:0:0:
300,129,69705,2,0,P|290:167|287:216,1,80,8|8,0:0|0:3,0:0:0:0:
495,122,70021,5,10,0:0:0:0:
426,213,70178,1,2,0:0:0:0:
355,77,70336,2,0,P|321:56|281:57,1,80,8|0,0:3|0:0,0:0:0:0:
168,100,70652,1,8,3:2:0:0:
193,269,70810,1,2,0:0:0:0:
353,205,70968,1,8,3:3:0:0:
382,192,71047,1,0,3:0:0:0:
413,193,71126,1,0,3:0:0:0:
443,198,71205,1,0,3:0:0:0:
472,215,71284,6,0,P|487:261|488:299,1,80,10|0,0:0|0:0,0:0:0:0:
392,365,71600,1,8,0:3:0:0:
251,211,71757,2,0,P|177:187|119:237,1,160,10|0,0:0|0:0,0:0:0:0:
100,338,72231,1,10,0:0:0:0:
291,308,72389,1,8,0:3:0:0:
251,211,72547,2,0,P|258:172|283:141,1,80,10|0,0:0|0:0,0:0:0:0:
454,112,72863,5,6,0:0:0:0:
58,112,73178,1,6,0:0:0:0:
454,112,73494,1,6,0:0:0:0:
193,269,73810,6,0,L|184:205,1,64,6|0,0:2|0:0,0:0:0:0:
359,172,74126,2,0,L|356:241,1,64
259,320,74442,1,8,0:0:0:0:
106,245,74600,1,0,0:0:0:0:
258,163,74757,1,0,0:0:0:0:
354,321,74915,1,0,0:0:0:0:
354,321,74994,1,0,0:0:0:0:
354,321,75073,6,0,P|385:316|413:300,1,64
370,87,75389,2,0,P|338:91|310:107,1,64
182,185,75705,2,0,P|150:180|122:164,1,64,12|0,0:2|0:0,0:0:0:0:
86,74,76021,2,0,L|58:61,5,21.3333333333333
38,50,76336,6,0,L|20:117,1,64,4|0,0:2|0:0,0:0:0:0:
44,205,76652,1,0,0:0:0:0:
170,101,76810,2,0,L|238:78,1,64,0|12,0:0|0:2,0:0:0:0:
272,167,77126,2,0,L|332:187,1,64
425,215,77442,1,0,0:0:0:0:
365,344,77600,6,0,P|357:313|356:282,1,64,4|0,0:2|0:0,0:0:0:0:
498,170,77915,2,0,P|508:207|508:238,1,64
262,257,78231,1,12,0:2:0:0:
262,257,78547,2,0,L|231:265,5,21.3333333333333
211,271,78863,6,0,P|214:307|226:341,1,64,6|0,0:2|0:0,0:0:0:0:
332,187,79178,2,0,P|341:156|343:124,1,64
292,42,79494,1,8,0:0:0:0:
239,169,79652,1,0,0:0:0:0:
437,125,79810,1,0,0:0:0:0:
384,261,79968,1,0,0:0:0:0:
384,261,80047,1,0,0:0:0:0:
384,261,80126,6,0,P|340:273|307:275,1,64
142,242,80442,1,0,0:0:0:0:
226,152,80600,1,0,0:0:0:0:
161,322,80757,2,0,P|129:320|98:311,1,64,8|0,0:0|0:0,0:0:0:0:
70,84,81073,2,0,L|74:110,5,21.3333333333333
76,137,81389,6,0,L|144:123,1,64,2|0,0:0|0:0,0:0:0:0:
221,74,81705,1,0,0:0:0:0:
196,230,81863,1,0,0:0:0:0:
312,167,82021,2,0,L|380:181,1,64,8|0,0:0|0:0,0:0:0:0:
425,262,82336,1,0,0:0:0:0:
226,152,82494,1,8,0:0:0:0:
333,325,82652,6,0,L|342:246,1,64
124,51,82968,2,0,L|131:114,1,64,8|0,0:0|0:0,0:0:0:0:
131,114,83205,1,0,0:0:0:0:
131,114,83284,1,2,0:0:0:0:
222,268,83442,1,8,0:0:0:0:
284,85,83600,1,8,0:0:0:0:
63,223,83757,1,8,0:0:0:0:
278,351,83915,6,0,P|356:347|404:286,1,160,6|8,0:0|0:3,0:0:0:0:
284,85,84389,2,0,P|287:126|294:177,1,80,2|8,0:0|0:0,0:0:0:0:
410,231,84705,1,2,0:0:0:0:
164,208,84862,1,8,0:3:0:0:
489,178,85021,2,0,P|494:138|496:98,1,80,6|0,0:0|0:0,0:0:0:0:
321,266,85336,5,2,0:0:0:0:
404,98,85494,1,8,0:3:0:0:
422,326,85652,1,0,0:0:0:0:
291,164,85810,1,4,0:3:0:0:
149,240,85968,1,4,0:3:0:0:
194,39,86126,1,10,0:0:0:0:
194,39,86442,6,0,L|201:118,1,80,6|0,0:0|0:0,0:0:0:0:
321,266,86757,2,0,L|328:186,1,80,8|0,0:3|0:0,0:0:0:0:
328,186,86994,1,0,0:0:0:0:
328,186,87073,1,2,0:0:0:0:
105,184,87231,1,2,0:0:0:0:
288,87,87389,1,8,0:3:0:0:
135,268,87547,2,0,P|57:263|18:191,1,160,6|2,0:0|0:0,0:0:0:0:
268,160,88021,5,8,0:3:0:0:
122,166,88178,1,2,0:0:0:0:
415,108,88336,1,8,0:0:0:0:
250,199,88494,1,2,0:0:0:0:
319,46,88652,1,4,0:3:0:0:
368,219,88810,1,2,0:0:0:0:
141,88,88968,6,0,B|122:165,1,80,6|0,0:0|0:0,0:0:0:0:
368,219,89284,2,0,B|387:296,1,80,8|0,0:3|0:0,0:0:0:0:
239,235,89600,1,8,0:3:0:0:
415,108,89757,1,2,0:0:0:0:
392,310,89915,1,8,0:0:0:0:
268,160,90073,6,0,P|190:167|158:236,1,160,6|2,0:0|0:0,0:0:0:0:
466,209,90547,1,8,0:3:0:0:
239,235,90705,1,0,0:0:0:0:
239,235,90784,1,0,0:0:0:0:
239,235,90863,1,8,0:3:0:0:
396,314,91021,1,4,0:3:0:0:
334,106,91178,1,2,0:0:0:0:
164,308,91336,1,2,0:0:0:0:
378,176,91494,6,0,P|404:146|415:108,1,80,6|0,0:0|0:0,0:0:0:0:
208,62,91810,1,8,0:3:0:0:
324,238,91968,1,0,0:0:0:0:
78,138,92125,1,2,0:0:0:0:
334,106,92284,1,2,0:3:0:0:
164,308,92442,1,8,0:0:0:0:
212,26,92600,1,4,0:0:0:0:
72,222,92757,6,0,P|33:211|5:183,1,80,2|2,0:0|0:0,0:0:0:0:
192,146,93073,1,8,0:3:0:0:
164,308,93231,1,2,0:0:0:0:
298,31,93389,5,8,0:3:0:0:
307,265,93547,1,8,0:3:0:0:
78,138,93705,1,8,0:3:0:0:
439,194,93863,1,8,0:3:0:0:
256,192,94021,12,0,96389,0:0:0:0:
338,202,96547,6,0,P|271:273|181:234,1,207.999990478516,6|8,0:2|0:3,0:0:0:0:
298,0,97021,2,0,P|279:47|286:99,1,103.999995239258,2|8,0:0|0:0,0:0:0:0:
416,240,97336,1,8,0:3:0:0:
166,191,97494,1,2,0:0:0:0:
502,130,97652,2,0,B|511:240,1,103.999995239258,6|0,0:0|0:0,0:0:0:0:
255,192,97968,5,2,0:0:0:0:
379,61,98126,1,8,0:3:0:0:
416,240,98282,1,2,0:0:0:0:
169,94,98441,5,10,0:0:0:0:
353,155,98600,1,2,0:0:0:0:
75,246,98757,1,8,0:3:0:0:
285,98,98915,1,8,0:3:0:0:
305,370,99073,6,0,B|254:328|254:328|269:301|279:263|270:225|255:191,1,207.999990478516,6|8,0:0|0:3,0:0:0:0:
68,134,99547,1,0,0:0:0:0:
269,83,99705,1,10,0:0:0:0:
120,312,99863,2,0,P|71:325|23:305,1,103.999995239258,2|8,0:0|0:3,0:0:0:0:
299,6,100178,6,0,P|338:38|349:87,1,103.999995239258,6|0,0:0|0:0,0:0:0:0:
231,244,100494,1,2,0:0:0:0:
249,94,100652,1,8,0:3:0:0:
385,174,100810,1,2,0:0:0:0:
240,343,100968,1,8,0:0:0:0:
196,168,101126,1,2,0:0:0:0:
151,297,101284,5,4,0:3:0:0:
249,94,101441,1,2,0:0:0:0:
386,267,101600,2,0,P|434:253|469:206,1,103.999995239258,6|2,0:0|0:0,0:0:0:0:
447,47,101915,1,8,0:3:0:0:
283,273,102073,6,0,L|298:171,1,103.999995239258,8|2,0:3|0:0,0:0:0:0:
98,83,102389,2,0,L|114:185,1,103.999995239258,10|2,0:3|0:0,0:0:0:0:
385,174,102704,6,0,P|352:89|248:96,1,207.999990478516,6|2,0:0|0:0,0:0:0:0:
148,330,103178,1,4,0:3:0:0:
25,208,103336,1,0,0:0:0:0:
25,208,103415,1,0,0:0:0:0:
25,208,103494,1,10,0:0:0:0:
298,170,103652,1,2,0:0:0:0:
131,283,103810,2,0,L|119:250,5,34.6666650797527,8|0|0|0|0|0,0:3|3:0|3:0|3:0|3:0|3:0,0:0:0:0:
148,330,104126,5,6,0:0:0:0:
201,160,104284,1,2,0:0:0:0:
338,281,104442,1,8,0:3:0:0:
304,66,104599,2,0,L|298:169,1,103.999995239258,2|2,0:0|0:0,0:0:0:0:
269,355,104915,1,2,0:0:0:0:
318,199,105073,1,8,0:3:0:0:
96,315,105231,1,2,0:0:0:0:
253,96,105389,5,8,0:3:0:0:
49,164,105547,2,0,L|42:215,1,51.999997619629,0|0,3:0|3:0,0:0:0:0:
183,295,105704,2,0,L|176:243,1,51.999997619629,0|0,3:0|3:0,0:0:0:0:
318,199,105863,1,10,0:3:0:0:
318,199,106178,5,2,0:0:0:0:
81,129,106336,1,6,0:0:0:0:
268,7,106494,1,2,0:0:0:0:
368,275,106652,6,0,L|471:283,1,103.999995239258,6|0,0:0|0:0,0:0:0:0:
186,293,106968,1,8,0:3:0:0:
327,141,107126,1,2,0:0:0:0:
282,327,107284,1,8,0:3:0:0:
103,230,107442,1,2,0:0:0:0:
397,199,107600,1,8,0:3:0:0:
219,20,107757,6,0,B|236:175,1,155.999992858887,6|0,0:0|0:0,0:0:0:0:
240,227,108073,1,2,0:0:0:0:
402,106,108231,1,8,0:3:0:0:
128,131,108389,1,2,0:0:0:0:
128,131,108468,1,0,0:0:0:0:
128,131,108547,1,8,0:0:0:0:
289,323,108705,1,2,0:0:0:0:
327,141,108863,1,8,0:3:0:0:
472,272,109021,1,2,0:0:0:0:
149,223,109178,6,0,L|161:326,1,103.999995239258,6|0,0:0|0:0,0:0:0:0:
397,199,109494,1,8,0:3:0:0:
397,199,109652,2,0,L|385:302,1,103.999995239258,2|0,0:0|0:0,0:0:0:0:
142,181,109968,1,2,0:0:0:0:
400,157,110126,1,8,0:3:0:0:
279,22,110284,6,0,B|264:75|264:75|277:118|277:118|260:145|258:180|281:224,1,207.999990478516,6|2,0:0|0:0,0:0:0:0:
334,308,110757,1,8,0:3:0:0:
128,131,110915,2,0,L|179:125,1,51.999997619629,2|0,0:0|3:0,0:0:0:0:
357,79,111073,1,8,0:3:0:0:
205,304,111231,1,2,0:0:0:0:
396,256,111389,1,8,0:3:0:0:
263,108,111547,1,2,0:0:0:0:
96,217,111705,6,0,P|36:129|80:48,1,207.999990478516,6|8,0:0|0:3,0:0:0:0:
232,203,112178,1,2,0:0:0:0:
34,281,112336,1,10,0:0:0:0:
128,131,112494,1,2,0:0:0:0:
205,304,112652,2,0,P|256:302|303:281,1,103.999995239258,8|2,0:3|0:0,0:0:0:0:
415,174,112968,5,10,0:0:0:0:
382,358,113126,1,2,0:0:0:0:
226,154,113284,2,0,P|178:132|127:130,1,103.999995239258,8|2,0:3|0:0,0:0:0:0:
349,246,113600,2,0,P|397:268|448:270,1,103.999995239258,10|2,0:0|0:0,0:0:0:0:
440,82,113915,1,8,0:3:0:0:
349,246,114073,1,2,0:0:0:0:
217,50,114231,6,0,L|226:153,1,103.999995239258,10|2,0:0|0:0,0:0:0:0:
447,270,114547,2,0,L|456:167,1,103.999995239258,8|2,0:3|0:0,0:0:0:0:
344,106,114863,1,10,0:0:0:0:
228,194,115021,1,2,0:0:0:0:
456,166,115178,1,8,0:3:0:0:
291,327,115336,1,2,0:0:0:0:
138,215,115494,6,0,P|87:211|41:234,1,103.999995239258,6|0,0:0|0:0,0:0:0:0:
194,304,115810,1,8,0:3:0:0:
374,215,115968,1,0,0:0:0:0:
374,215,116047,1,0,0:0:0:0:
374,215,116126,2,0,P|425:210|471:233,1,103.999995239258,8|2,0:3|0:0,0:0:0:0:
289,101,116442,5,4,0:3:0:0:
100,306,116600,1,2,0:0:0:0:
12,66,116757,1,6,0:0:0:0:
12,66,117073,5,8,0:3:0:0:
128,266,117231,2,0,L|138:215,1,51.999997619629,2|0,0:0|3:0,0:0:0:0:
160,77,117389,1,2,0:0:0:0:
250,178,117547,1,8,0:3:0:0:
31,230,117705,1,8,0:3:0:0:
280,344,117862,6,2,P|380:300|372:212,1,207.999990478516,6|2,0:0|0:0,0:0:0:0:
260,76,118336,1,8,0:3:0:0:
299,260,118494,1,0,0:0:0:0:
299,260,118573,1,0,0:0:0:0:
299,260,118652,1,8,0:0:0:0:
447,143,118810,1,2,0:0:0:0:
138,215,118968,6,0,P|126:159|122:104,1,103.999995239258,8|2,0:3|0:0,0:0:0:0:
358,112,119283,2,0,P|369:162|373:214,1,103.999995239258,6|0,0:0|0:0,0:0:0:0:
126,320,119600,1,8,0:3:0:0:
243,153,119757,1,2,0:0:0:0:
229,299,119915,1,8,0:3:0:0:
122,112,120073,1,2,0:0:0:0:
358,112,120231,1,8,0:3:0:0:
138,215,120389,6,0,P|82:209|39:178,1,103.999995239258,6|0,0:0|0:0,0:0:0:0:
210,36,120705,1,2,0:0:0:0:
354,179,120863,1,8,0:3:0:0:
170,216,121021,1,2,0:3:0:0:
366,281,121178,5,10,0:0:0:0:
282,87,121336,1,0,3:0:0:0:
287,61,121415,1,0,3:0:0:0:
292,36,121494,1,8,0:3:0:0:
204,209,121652,1,2,0:0:0:0:
504,222,121810,1,6,0:0:0:0:
170,351,122126,5,8,0:3:0:0:
353,178,122284,2,0,P|361:229|366:281,1,103.999995239258,2|0,0:0|0:0,0:0:0:0:
122,112,122600,2,0,P|114:163|109:215,1,103.999995239258,2|8,0:0|0:3,0:0:0:0:
367,282,122915,1,2,0:0:0:0:
262,173,123073,6,0,P|328:100|422:130,1,207.999990478516,10|8,0:0|0:3,0:0:0:0:
225,251,123547,2,0,P|183:208|173:159,1,103.999995239258,8|2,0:0|0:0,0:0:0:0:
278,11,123863,1,10,0:0:0:0:
467,208,124021,1,8,0:3:0:0:
262,173,124178,1,2,0:0:0:0:
453,104,124336,6,0,L|467:209,1,103.999995239258,10|0,0:0|0:0,0:0:0:0:
248,269,124652,1,8,0:3:0:0:
341,128,124810,1,0,3:0:0:0:
341,128,124889,2,0,L|354:179,1,51.999997619629,8|0,0:3|3:0,0:0:0:0:
114,244,125126,1,8,0:3:0:0:
292,289,125284,1,2,0:0:0:0:
224,22,125442,6,0,P|211:125|213:229,1,207.999990478516,6|0,0:0|0:0,0:0:0:0:
390,339,125915,2,0,P|399:251|383:168,1,155.999992858887,4|0,0:3|0:0,0:0:0:0:
360,141,126231,1,8,0:3:0:0:
111,225,126389,1,2,0:0:0:0:
304,299,126547,1,2,0:0:0:0:
180,148,126862,6,0,L|190:275,1,128,12|2,0:0|0:0,0:0:0:0:
304,299,127336,2,0,P|365:289|404:240,1,128,8|0,0:0|0:0,0:0:0:0:
360,141,127810,1,2,0:0:0:0:
246,191,127968,1,0,0:0:0:0:
316,69,128125,2,0,P|377:59|429:94,1,128,8|2,0:0|0:0,0:0:0:0:
246,191,128757,2,0,P|194:226|132:215,1,128,8|2,0:0|0:0,0:0:0:0:
52,163,129231,5,0,0:0:0:0:
49,150,129310,1,0,0:0:0:0:
48,137,129389,1,8,0:0:0:0:
363,121,129705,1,2,0:0:0:0:
173,53,130021,2,0,P|168:84|171:116,1,64,8|0,0:0|0:0,0:0:0:0:
301,300,130336,2,0,P|305:268|302:236,1,64,2|0,0:0|0:0,0:0:0:0:
268,167,130652,5,8,0:0:0:0:
196,303,130968,1,2,0:0:0:0:
349,302,131284,1,8,0:0:0:0:
137,200,131442,5,2,0:0:0:0:
376,227,131600,1,8,0:3:0:0:
412,212,131678,1,0,3:0:0:0:
438,182,131757,1,0,3:0:0:0:
450,144,131836,1,0,3:0:0:0:
443,104,131915,6,0,P|400:45|314:47,1,160,6|2,0:0|0:0,0:0:0:0:
270,252,132389,1,8,0:3:0:0:
352,141,132547,1,0,3:0:0:0:
211,114,132705,1,0,3:0:0:0:
195,304,132862,6,0,P|256:349|328:322,2,160,6|8|8,0:0|0:0|0:0,0:0:0:0:
97,259,133652,1,2,0:0:0:0:
84,260,133731,1,2,0:0:0:0:
71,263,133810,1,10,0:0:0:0:
269,250,133968,2,0,P|279:212|280:172,1,80,2|8,0:0|0:0,0:0:0:0:
58,136,134442,6,0,P|89:159|128:165,1,80,6|2,0:0|0:0,0:0:0:0:
273,139,134757,1,8,0:3:0:0:
269,250,134915,1,2,0:3:0:0:
190,99,135073,1,8,0:3:0:0:
371,104,135231,1,2,0:0:0:0:
328,322,135389,6,0,P|256:349|194:303,1,160,6|2,0:0|0:0,0:0:0:0:
231,176,135863,1,2,0:0:0:0:
356,231,136021,2,0,L|482:219,1,120,8|8,0:3|0:3,0:0:0:0:
496,217,136336,1,2,0:0:0:0:
297,45,136652,5,6,0:0:0:0:
256,192,136731,12,0,138704,0:0:0:0:
163,106,138863,5,8,0:0:0:0:
154,124,138942,1,0,0:0:0:0:
148,143,139021,1,0,0:0:0:0:
144,162,139100,1,0,0:0:0:0:
142,182,139178,1,0,0:0:0:0:
143,202,139257,1,0,0:0:0:0:
145,222,139336,1,0,0:0:0:0:
150,242,139415,1,0,0:0:0:0:
156,260,139494,6,0,P|195:266|235:264,1,80,6|0,0:0|0:0,0:0:0:0:
318,216,139810,1,8,0:3:0:0:
507,267,139968,1,2,0:0:0:0:
318,308,140125,1,2,0:0:0:0:
318,307,140283,2,0,P|356:298|388:274,1,80,2|0,0:0|0:3,0:0:0:0:
432,166,140599,1,8,0:3:0:0:
377,86,140757,6,0,L|385:46,2,40,0|0|0,3:0|3:0|3:0,0:0:0:0:
296,138,141073,2,0,L|169:141,1,120,8|0,0:3|0:0,0:0:0:0:
127,137,141389,1,10,0:0:0:0:
186,61,141547,1,2,0:0:0:0:
373,165,141705,2,0,P|352:199|317:215,1,80,8|0,0:3|0:0,0:0:0:0:
44,103,142021,6,0,P|65:69|100:53,1,80,10|0,0:0|0:0,0:0:0:0:
296,138,142336,1,8,0:3:0:0:
59,204,142494,1,10,0:0:0:0:
145,245,142652,2,0,L|128:323,1,80
238,221,142968,2,0,L|255:299,1,80,2|8,0:0|0:3,0:0:0:0:
335,90,143284,6,0,P|411:82|459:142,2,160,4|8|4,0:0|0:3|0:0,0:0:0:0:
141,146,144231,2,0,L|137:172,5,26.6666666666667,0|0|0|0|0|0,3:0|3:0|3:0|3:0|3:0|3:0,0:0:0:0:
134,204,144547,6,0,L|222:218,1,80,6|0,0:0|0:0,0:0:0:0:
375,167,144863,1,8,0:3:0:0:
240,120,145021,1,2,0:0:0:0:
240,120,145178,1,0,0:0:0:0:
310,242,145336,2,0,P|317:285|310:332,1,80,2|0,0:0|0:0,0:0:0:0:
459,142,145652,5,8,0:3:0:0:
65,91,145968,1,2,0:0:0:0:
65,91,146126,2,0,L|62:183,1,80,8|0,0:3|0:0,0:0:0:0:
66,219,146363,1,0,3:0:0:0:
66,219,146441,2,0,P|110:239|146:240,1,80,10|0,0:0|0:0,0:0:0:0:
229,201,146757,2,0,L|223:164,5,26.6666666666667,0|0|0|0|0|0,3:0|3:0|3:0|3:0|3:0|3:0,0:0:0:0:
221,142,147073,6,0,L|299:124,1,80,6|0,0:0|0:0,0:0:0:0:
437,146,147389,1,10,0:3:0:0:
348,45,147547,1,10,0:3:0:0:
311,253,147705,1,10,0:3:0:0:
221,142,147863,1,10,0:3:0:0:
151,315,148021,1,10,0:3:0:0:
12,188,148178,5,8,0:3:0:0:
407,55,148652,1,8,0:0:0:0:
414,80,148731,1,0,0:0:0:0:
415,107,148810,1,0,0:0:0:0:
410,133,148889,1,0,0:0:0:0:
399,157,148968,1,0,0:0:0:0:
383,178,149047,1,0,0:0:0:0:
363,195,149126,5,14,0:0:0:0:
327,176,149205,1,0,0:3:0:0:
288,168,149283,1,8,0:3:0:0:
249,171,149362,1,0,0:3:0:0:
212,187,149441,1,12,0:3:0:0:
181,212,149520,1,0,0:3:0:0:
159,245,149600,6,0,L|173:329,1,80,6|0,0:0|0:0,0:0:0:0:
289,350,149915,1,8,0:3:0:0:
330,90,150073,1,10,0:0:0:0:
330,90,150389,1,2,0:0:0:0:
445,230,150547,1,8,0:0:0:0:
268,261,150705,1,8,0:3:0:0:
155,117,150863,6,0,P|96:69|26:99,1,160,2|8,0:0|0:3,0:0:0:0:
230,196,151336,1,10,0:0:0:0:
285,88,151494,1,2,0:0:0:0:
87,161,151652,2,0,P|74:202|77:246,1,80,2|8,0:0|0:3,0:0:0:0:
149,334,151968,1,0,0:0:0:0:
256,282,152126,6,0,B|294:290|338:273|358:242|358:242|400:261,1,160,10|8,0:0|0:3,0:0:0:0:
283,191,152600,2,0,P|277:149|290:106,1,80,10|0,0:0|0:0,0:0:0:0:
390,11,152915,1,10,0:0:0:0:
495,109,153073,1,2,0:3:0:0:
359,154,153231,1,8,0:3:0:0:
201,57,153389,6,0,P|162:60|126:77,1,80,10|0,0:0|0:0,0:0:0:0:
55,174,153705,1,8,0:3:0:0:
190,178,153863,2,0,L|183:138,2,40,2|0|8,0:0|0:0|0:0,0:0:0:0:
129,283,154178,1,2,0:0:0:0:
369,286,154336,2,0,L|374:322,5,26.6666666666667,0|0|0|0|0|0,3:0|3:0|3:0|3:0|3:0|3:0,0:0:0:0:
382,351,154652,5,6,0:0:0:0:
410,209,154810,1,0,0:0:0:0:
278,264,154968,1,8,0:3:0:0:
442,95,155126,2,0,P|452:133|450:173,1,80,10|0,0:0|0:0,0:0:0:0:
369,286,155442,1,2,0:0:0:0:
229,190,155600,2,0,P|192:177|152:175,1,80,0|8,0:0|0:3,0:0:0:0:
56,205,155836,1,0,0:0:0:0:
40,222,155915,6,0,L|31:138,1,80,10|2,0:0|0:0,0:0:0:0:
242,70,156231,2,0,L|229:189,1,120,8|0,0:3|3:0,0:0:0:0:
220,261,156547,2,0,P|259:270|306:278,1,80,2|2,0:0|0:0,0:0:0:0:
413,199,156863,2,0,L|406:174,5,26.6666666666667,0|0|0|0|0|0,3:0|3:0|3:0|3:0|3:0|3:0,0:0:0:0:
394,136,157178,5,10,0:0:0:0:
368,287,157336,1,0,0:0:0:0:
228,189,157494,1,8,0:3:0:0:
119,241,157652,2,0,P|80:236|46:216,1,80,10|0,0:0|0:0,0:0:0:0:
163,105,157968,1,0,0:0:0:0:
309,167,158126,1,2,0:0:0:0:
210,290,158284,1,8,0:3:0:0:
210,290,158363,1,0,0:0:0:0:
210,290,158442,6,0,L|219:377,1,80,2|0,0:0|0:0,0:0:0:0:
368,287,158757,1,4,0:0:0:0:
73,325,159073,1,4,0:0:0:0:
434,173,159389,1,4,0:0:0:0:
107,204,159705,6,0,L|92:139,1,64,6|0,0:2|0:0,0:0:0:0:
253,78,160021,1,0,0:0:0:0:
352,170,160178,1,0,0:0:0:0:
225,227,160336,2,0,L|210:289,1,64,8|0,0:0|0:0,0:0:0:0:
171,377,160652,1,0,0:0:0:0:
342,326,160810,1,0,0:0:0:0:
342,326,160889,1,0,0:0:0:0:
342,326,160968,6,0,L|340:256,1,64,4|0,0:2|0:0,0:0:0:0:
273,157,161284,1,0,0:0:0:0:
224,306,161442,1,0,0:0:0:0:
345,218,161600,1,12,0:2:0:0:
188,146,161757,1,0,0:0:0:0:
333,20,161915,2,0,L|340:50,5,21.3333333333333
359,65,162231,6,0,L|346:127,1,64
225,227,162547,1,0,0:0:0:0:
107,162,162704,2,0,P|77:156|41:158,1,64,0|12,0:0|0:2,0:0:0:0:
225,227,163020,2,0,P|255:233|291:231,1,64,0|0,0:0|0:2,0:0:0:0:
180,82,163336,1,0,0:0:0:0:
180,82,163415,1,0,0:0:0:0:
180,82,163494,6,0,L|188:146,1,64
75,199,163810,2,0,L|68:263,1,64
288,231,164126,2,0,L|296:298,1,64,12|0,0:2|0:0,0:0:0:0:
59,341,164442,2,0,L|54:373,3,21.3333333333333
146,243,164757,6,0,P|175:231|207:227,1,64,2|0,0:0|0:0,0:0:0:0:
403,238,165073,1,0,0:0:0:0:
236,312,165231,1,0,0:0:0:0:
307,167,165389,1,8,0:0:0:0:
367,320,165547,2,0,P|396:332|428:336,1,64
374,102,165863,5,0,0:0:0:0:
374,102,165942,1,0,0:0:0:0:
374,102,166021,2,0,P|345:90|313:86,1,64
219,111,166336,1,0,0:0:0:0:
242,223,166494,1,0,0:0:0:0:
408,130,166652,1,8,0:0:0:0:
310,283,166810,1,0,0:0:0:0:
161,175,166968,2,0,L|136:177,5,21.3333333333333
108,176,167284,6,0,L|103:244,1,64,2|0,0:0|0:0,0:0:0:0:
314,346,167600,2,0,L|309:282,1,64
220,95,167914,1,8,0:0:0:0:
191,214,168073,1,0,0:0:0:0:
311,246,168231,1,0,0:0:0:0:
220,74,168388,1,8,0:0:0:0:
345,137,168547,6,0,P|376:136|407:129,1,64
220,54,168862,1,8,0:0:0:0:
191,214,169021,1,0,0:0:0:0:
191,214,169100,1,0,0:0:0:0:
191,214,169178,1,2,0:0:0:0:
77,153,169336,1,8,0:0:0:0:
294,223,169494,1,8,0:0:0:0:
18,254,169652,1,8,0:0:0:0:
263,316,169810,6,0,P|340:312|387:251,1,160,6|8,0:0|0:3,0:0:0:0:
345,137,170284,1,2,0:0:0:0:
178,298,170442,1,2,0:0:0:0:
86,111,170600,1,4,0:3:0:0:
294,223,170757,1,8,0:3:0:0:
90,232,170915,6,0,L|97:311,1,80,6|0,0:0|0:0,0:0:0:0:
191,214,171231,1,2,0:0:0:0:
98,68,171389,1,8,0:3:0:0:
0,212,171547,1,2,0:0:0:0:
303,101,171705,1,4,0:3:0:0:
187,195,171863,1,4,0:3:0:0:
250,26,172020,1,2,0:0:0:0:
370,163,172178,1,2,0:0:0:0:
119,131,172336,6,0,P|70:131|38:145,1,80,6|0,0:0|0:0,0:0:0:0:
239,268,172652,1,8,0:3:0:0:
218,148,172810,1,0,0:0:0:0:
218,148,172889,1,0,0:0:0:0:
218,148,172968,1,2,0:0:0:0:
346,219,173126,1,2,0:0:0:0:
90,206,173284,1,8,0:3:0:0:
382,301,173442,6,0,P|432:242|421:165,1,160,6|2,0:0|0:0,0:0:0:0:
175,228,173915,1,8,0:3:0:0:
367,105,174073,1,2,0:0:0:0:
269,301,174231,1,8,0:3:0:0:
243,47,174389,1,4,0:3:0:0:
90,206,174547,1,2,0:0:0:0:
44,55,174705,1,2,0:0:0:0:
218,148,174863,6,0,P|295:135|341:72,1,160,6|8,0:0|0:3,0:0:0:0:
296,251,175336,1,2,0:0:0:0:
243,47,175494,1,8,0:3:0:0:
90,206,175652,1,2,0:0:0:0:
90,206,175968,6,0,L|76:284,1,80,6|0,0:0|0:0,0:0:0:0:
215,363,176284,1,2,0:0:0:0:
218,148,176442,1,8,0:3:0:0:
321,248,176600,1,2,0:0:0:0:
340,245,176678,1,0,0:0:0:0:
360,243,176757,1,4,0:3:0:0:
189,260,176915,1,4,0:3:0:0:
354,138,177073,1,2,0:0:0:0:
385,341,177231,1,2,0:0:0:0:
217,147,177389,6,0,P|225:108|248:76,1,80,6|0,0:0|0:0,0:0:0:0:
436,49,177705,1,8,0:3:0:0:
383,242,177863,1,2,0:0:0:0:
117,243,178021,1,8,0:3:0:0:
304,143,178178,2,0,L|302:228,1,80,2|2,0:0|0:0,0:0:0:0:
8,233,178494,1,14,0:0:0:0:
152,70,178652,5,2,0:0:0:0:
189,260,178810,1,2,0:0:0:0:
307,112,178968,1,8,0:3:0:0:
56,120,179125,5,2,0:0:0:0:
56,120,179205,1,0,3:0:0:0:
56,120,179284,1,8,0:3:0:0:
255,158,179442,1,2,0:0:0:0:
136,319,179600,1,2,0:0:0:0:
406,246,179757,1,2,0:0:0:0:
215,31,179915,6,0,L|209:69,1,40,8|8,0:3|0:3,0:0:0:0:
181,195,180073,1,4,0:3:0:0:
211,232,180152,1,4,0:3:0:0:
257,244,180231,1,4,0:3:0:0:
303,232,180310,1,4,0:3:0:0:
334,195,180389,6,0,L|341:142,1,40,8|8,0:3|0:3,0:0:0:0:
218,158,180547,2,0,L|223:118,1,40,4|4,0:3|0:3,0:0:0:0:
101,132,180704,2,0,L|108:79,1,40,4|4,0:3|0:3,0:0:0:0:
202,268,180863,5,6,3:2:0:0:
202,268,180942,1,0,0:0:0:0:
202,268,181021,1,0,0:0:0:0:
202,268,181100,1,0,0:0:0:0:
202,268,181178,6,0,B|241:284|241:284|273:266|273:266|297:286|328:292|365:288|396:261,1,207.999990478516,6|8,0:0|0:3,0:0:0:0:
197,136,181652,1,2,0:0:0:0:
139,344,181810,1,2,0:0:0:0:
334,195,181968,1,8,0:3:0:0:
92,184,182126,1,8,0:3:0:0:
386,94,182284,6,0,P|375:47|334:7,1,103.999995239258,6|0,0:0|0:0,0:0:0:0:
302,277,182600,1,2,0:0:0:0:
443,162,182757,1,8,0:3:0:0:
182,136,182915,1,0,0:0:0:0:
182,136,182994,1,0,0:0:0:0:
182,136,183073,1,10,0:0:0:0:
306,189,183231,1,2,0:0:0:0:
100,233,183389,1,4,0:3:0:0:
270,99,183547,1,4,0:3:0:0:
227,357,183705,6,0,P|302:290|306:189,1,207.999990478516,6|8,0:0|0:3,0:0:0:0:
11,195,184178,2,0,P|7:246|30:291,1,103.999995239258,0|10,0:0|0:0,0:0:0:0:
217,252,184494,1,2,0:0:0:0:
117,351,184652,1,8,0:3:0:0:
306,189,184810,6,0,L|286:83,1,103.999995239258,6|0,0:0|0:0,0:0:0:0:
92,136,185126,1,2,0:0:0:0:
217,252,185284,1,8,0:3:0:0:
170,47,185442,1,0,0:0:0:0:
118,229,185600,1,2,0:0:0:0:
282,71,185757,1,2,0:0:0:0:
334,291,185915,5,10,0:0:0:0:
182,136,186073,1,2,0:0:0:0:
197,354,186231,2,0,L|217:252,1,103.999995239258,6|0,0:0|0:0,0:0:0:0:
338,192,186547,1,8,0:3:0:0:
93,227,186705,5,8,0:3:0:0:
73,224,187021,5,8,0:3:0:0:
54,214,187336,6,0,P|31:118|102:47,1,207.999990478516,6|2,0:0|0:0,0:0:0:0:
338,192,187810,2,0,P|410:213|477:156,1,155.999992858887,4|2,0:3|0:0,0:0:0:0:
473,142,188126,1,2,0:0:0:0:
277,110,188284,1,2,0:0:0:0:
334,291,188442,2,0,L|322:323,5,34.6666650797527,0|0|0|0|0|0,3:0|3:0|3:0|3:0|3:0|3:0,0:0:0:0:
300,363,188757,6,0,L|276:261,1,103.999995239258,6|2,0:0|0:0,0:0:0:0:
426,59,189073,1,8,0:3:0:0:
426,59,189152,1,0,0:0:0:0:
426,59,189231,1,0,0:0:0:0:
426,59,189310,1,0,0:0:0:0:
426,59,189389,2,0,L|403:160,1,103.999995239258,10|2,0:0|0:0,0:0:0:0:
186,221,189705,5,8,0:3:0:0:
334,291,189863,1,2,0:0:0:0:
282,71,190021,1,10,0:3:0:0:
58,157,190178,2,0,L|64:208,1,51.999997619629,0|0,3:0|3:0,0:0:0:0:
208,306,190336,2,0,L|215:254,1,51.999997619629,0|0,3:0|3:0,0:0:0:0:
387,207,190494,1,10,0:3:0:0:
38,256,190810,5,2,0:0:0:0:
264,200,190968,1,4,0:0:0:0:
107,46,191126,1,2,0:0:0:0:
65,295,191284,6,0,P|104:327|155:331,1,103.999995239258,6|2,0:0|0:0,0:0:0:0:
259,79,191600,1,8,0:3:0:0:
318,343,191757,1,2,0:0:0:0:
116,155,191916,1,8,0:3:0:0:
394,174,192073,1,2,0:0:0:0:
155,330,192231,1,8,0:3:0:0:
341,100,192389,6,0,B|311:126|294:169|308:206|325:233|325:233|282:284,1,207.999990478516,6|2,0:0|0:0,0:0:0:0:
415,171,192863,1,8,0:3:0:0:
185,191,193021,1,4,0:3:0:0:
161,184,193100,1,2,0:0:0:0:
138,176,193178,1,8,0:3:0:0:
371,287,193336,1,4,0:3:0:0:
225,115,193494,1,2,0:0:0:0:
202,339,193652,1,2,0:0:0:0:
463,214,193810,6,0,L|447:111,1,103.999995239258,6|0,0:0|0:0,0:0:0:0:
159,75,194126,1,8,0:3:0:0:
159,75,194284,2,0,L|138:177,1,103.999995239258,2|10,0:0|0:0,0:0:0:0:
366,175,194600,1,2,0:0:0:0:
265,33,194757,1,8,0:3:0:0:
48,198,194915,6,0,P|117:267|211:235,1,207.999990478516,6|2,0:0|0:0,0:0:0:0:
265,33,195389,1,8,0:3:0:0:
144,182,195547,1,2,0:0:0:0:
144,182,195626,1,0,3:0:0:0:
144,182,195705,2,0,P|128:231|126:282,1,103.999995239258,8|2,0:3|0:0,0:0:0:0:
463,205,196021,2,0,P|458:154|437:106,1,103.999995239258,8|2,0:3|0:0,0:0:0:0:
245,358,196336,6,0,L|345:327,1,103.999995239258,6|2,0:0|0:0,0:0:0:0:
231,143,196652,1,8,0:3:0:0:
210,364,196810,1,2,0:0:0:0:
301,236,196968,1,8,0:0:0:0:
124,283,197126,1,2,0:0:0:0:
386,171,197284,2,0,P|401:125|391:66,1,103.999995239258,8|2,0:3|0:0,0:0:0:0:
210,242,197600,5,10,0:0:0:0:
322,116,197757,1,2,0:0:0:0:
154,76,197915,2,0,P|102:70|60:40,1,103.999995239258,8|2,0:3|0:0,0:0:0:0:
289,197,198231,2,0,P|340:195|385:170,1,103.999995239258,8|2,0:0|0:0,0:0:0:0:
126,216,198547,1,8,0:3:0:0:
260,54,198705,1,2,0:0:0:0:
160,310,198863,6,0,P|130:267|127:216,1,103.999995239258,10|2,0:0|0:0,0:0:0:0:
322,116,199178,1,8,0:3:0:0:
242,340,199336,1,2,0:0:0:0:
208,50,199494,1,10,0:0:0:0:
210,242,199652,1,2,0:0:0:0:
385,170,199810,1,8,0:3:0:0:
336,315,199968,1,2,0:0:0:0:
127,182,200126,6,0,L|24:173,1,103.999995239258,8|2,0:3|0:0,0:0:0:0:
322,116,200442,2,0,L|425:107,1,103.999995239258,8|2,0:3|0:0,0:0:0:0:
246,264,200757,1,8,0:3:0:0:
206,94,200915,1,0,3:0:0:0:
201,70,200994,1,0,3:0:0:0:
197,47,201073,1,8,0:3:0:0:
35,174,201231,1,4,0:3:0:0:
294,361,201389,6,0,B|274:213|274:213|246:264,1,207.999990478516,6|8,0:0|0:3,0:0:0:0:
340,67,201863,2,0,L|321:115,1,51.999997619629,4|2,0:3|0:0,0:0:0:0:
233,292,202021,1,2,0:0:0:0:
391,196,202178,1,8,0:3:0:0:
131,183,202336,1,8,0:3:0:0:
438,270,202494,6,0,P|473:232|482:182,1,103.999995239258,6|0,0:0|0:0,0:0:0:0:
222,321,202810,1,2,0:0:0:0:
306,154,202968,1,8,0:3:0:0:
57,274,203126,1,4,0:3:0:0:
57,274,203205,1,0,0:0:0:0:
57,274,203284,5,10,0:0:0:0:
59,250,203363,1,2,0:0:0:0:
62,226,203442,1,0,0:0:0:0:
65,202,203521,1,0,0:0:0:0:
68,178,203600,1,8,0:3:0:0:
71,154,203678,1,0,0:0:0:0:
74,131,203757,1,2,0:0:0:0:
77,107,203836,1,0,0:0:0:0:
81,82,203915,6,0,P|136:64|185:71,1,103.999995239258,6|2,0:0|0:0,0:0:0:0:
365,169,204231,1,8,0:3:0:0:
185,298,204389,1,2,0:0:0:0:
282,92,204547,1,8,0:3:0:0:
357,274,204705,1,2,0:0:0:0:
143,160,204862,1,8,0:3:0:0:
451,97,205020,6,0,P|471:144|471:196,1,103.999995239258,6|0,0:0|0:0,0:0:0:0:
338,297,205336,1,2,0:0:0:0:
49,195,205494,2,0,P|115:159|156:163,1,103.999995239258,10|2,0:3|0:0,0:0:0:0:
256,240,205810,1,2,0:0:0:0:
223,45,205968,1,0,3:0:0:0:
223,45,206047,1,0,3:0:0:0:
223,45,206126,1,8,0:3:0:0:
108,329,206442,6,0,B|195:321|195:321|230:344|230:344|316:335,1,207.999990478516,6|8,0:0|0:3,0:0:0:0:
363,158,206915,1,2,0:0:0:0:
174,215,207073,1,2,0:0:0:0:
174,215,207231,1,2,0:0:0:0:
388,248,207389,1,0,0:0:0:0:
430,217,207468,1,0,0:0:0:0:
453,170,207547,1,8,0:3:0:0:
445,119,207626,1,0,0:0:0:0:
420,72,207705,6,0,L|211:56,1,207.999990478516,10|8,0:0|0:3,0:0:0:0:
31,148,208178,2,0,P|60:189|109:200,1,103.999995239258,10|2,0:0|0:0,0:0:0:0:
333,156,208494,1,10,0:0:0:0:
167,253,208652,1,8,0:3:0:0:
212,56,208810,1,0,0:0:0:0:
322,318,208968,6,0,P|420:310|458:218,1,207.999990478516,10|8,0:0|0:3,0:0:0:0:
205,112,209442,2,0,B|215:168,1,51.999997619629,0|0,3:0|3:0,0:0:0:0:
247,346,209600,1,2,0:0:0:0:
341,156,209757,1,8,0:3:0:0:
116,189,209915,1,2,0:0:0:0:
369,236,210073,6,0,P|368:136|391:29,1,207.999990478516,6|2,0:0|0:0,0:0:0:0:
458,218,210547,1,10,0:0:0:0:
254,264,210705,1,2,0:0:0:0:
205,112,210863,1,2,0:0:0:0:
341,156,211021,1,2,0:0:0:0:
123,291,211178,2,0,L|115:188,1,103.999995239258,10|2,0:0|0:0,0:0:0:0:
403,32,211494,6,0,L|410:115,1,80,6|0,0:2|0:0,0:0:0:0:
253,263,211810,2,0,L|260:184,1,80,2|0,0:0|0:0,0:0:0:0:
461,253,212126,2,0,L|467:332,1,80,2|0,0:0|0:0,0:0:0:0:
320,373,212442,1,10,0:2:0:0:
398,159,212600,1,0,0:0:0:0:
165,183,212757,6,0,P|125:180|88:166,1,80,10|0,0:2|0:0,0:0:0:0:
283,85,213073,1,10,0:2:0:0:
248,308,213231,1,8,0:2:0:0:
256,121,213389,1,2,0:0:0:0:
126,284,213547,1,0,0:0:0:0:
333,213,213705,1,10,0:2:0:0:
146,102,213863,1,8,0:2:0:0:
334,298,214021,6,0,L|419:297,1,80,10|0,0:2|0:0,0:0:0:0:
146,102,214336,2,0,L|61:103,1,80,10|0,0:2|0:0,0:0:0:0:
358,130,214652,1,10,0:2:0:0:
165,183,214810,1,8,0:2:0:0:
220,21,214968,1,2,0:0:0:0:
247,306,215125,6,0,P|263:270|265:230,1,80,8|2,0:2|0:0,0:0:0:0:
181,103,215442,1,0,0:0:0:0:
222,324,215600,1,10,0:2:0:0:
262,201,215757,1,8,0:2:0:0:
98,300,215915,1,2,0:0:0:0:
249,175,216073,1,0,0:0:0:0:
57,201,216231,1,10,0:2:0:0:
125,34,216389,1,0,0:0:0:0:
346,255,216547,6,0,P|385:249|423:237,1,80,6|0,0:2|0:0,0:0:0:0:
165,183,216863,1,2,0:0:0:0:
317,66,217021,1,0,0:0:0:0:
440,208,217178,1,2,0:0:0:0:
200,178,217336,1,0,0:0:0:0:
441,114,217494,1,10,0:2:0:0:
326,292,217652,1,0,0:0:0:0:
181,103,217810,6,0,P|142:90|103:84,1,80,10|0,0:2|0:0,0:0:0:0:
239,252,218126,1,10,0:2:0:0:
317,66,218284,2,0,L|305:151,1,80,8|2,0:2|0:0,0:0:0:0:
126,190,218600,2,0,L|137:275,1,80,8|2,0:2|0:0,0:0:0:0:
346,255,218915,1,8,0:2:0:0:
36,203,219073,6,0,P|42:163|53:125,1,80,10|0,0:2|0:0,0:0:0:0:
229,168,219389,2,0,P|266:153|305:144,1,80,10|0,0:2|0:0,0:0:0:0:
420,197,219705,1,10,0:2:0:0:
212,284,219863,1,8,0:2:0:0:
274,7,220021,2,0,L|304:143,1,140,2|0,0:0|0:0,0:0:0:0:
328,167,220336,6,0,P|333:211|332:254,1,80,6|0,0:0|0:0,0:0:0:0:
228,167,220652,1,10,0:2:0:0:
395,93,220810,1,8,0:2:0:0:
325,284,220968,1,4,0:0:0:0:
295,81,221126,1,0,0:0:0:0:
440,208,221284,1,4,0:0:0:0:
246,269,221442,1,0,0:0:0:0:
133,199,221599,6,0,P|69:167|0:177,2,143.999995605469,6|8|8,0:0|0:0|0:0,0:0:0:0:
210,285,222862,2,0,P|239:247|247:201,1,95.9999970703126,0|8,0:0|0:0,0:0:0:0:
186,92,223494,1,8,0:0:0:0:
103,307,223810,1,8,0:0:0:0:
338,277,223968,5,0,0:0:0:0:
361,273,224047,1,0,0:0:0:0:
384,269,224126,2,0,L|405:169,1,95.9999970703126,8|8,0:0|0:0,0:0:0:0:
327,49,224600,2,0,P|214:43|161:143,1,239.999992675781,8|8,0:0|0:0,0:0:0:0:
251,179,226021,2,0,L|262:133,1,47.9999985351563,8|0,0:0|0:0,0:0:0:0:
79,193,226336,2,0,L|89:239,1,47.9999985351563,8|0,0:0|0:0,0:0:0:0:
176,330,226652,6,0,P|223:322|270:317,1,95.9999970703126,8|0,0:0|0:0,0:0:0:0:
363,292,227126,2,0,P|379:247|370:200,2,95.9999970703126,8|8|0,0:0|0:0|0:0,0:0:0:0:
250,178,227915,2,0,P|291:95|382:79,1,191.999994140625,8|8,0:0|0:0,0:0:0:0:
363,292,228863,1,0,0:0:0:0:
85,287,229178,6,0,P|78:240|78:192,1,95.9999970703126,8|0,0:0|0:0,0:0:0:0:
244,83,229652,2,0,P|250:130|250:178,1,95.9999970703126,8|8,0:0|0:0,0:0:0:0:
195,282,230126,2,0,L|251:286,1,47.9999985351563
363,292,230442,1,8,0:0:0:0:
363,292,231073,6,0,B|363:266|363:266|376:253|376:253|370:233|370:233|381:220|381:220|377:198|377:198|390:186|390:186|385:166|385:166|397:149|397:149|391:131|391:131|403:116|403:116|396:97|396:97|405:80|405:80|405:68,1,251.999992309571,6|0,0:3|0:0,0:0:0:0:
410,38,231705,6,0,B|330:29,1,80,6|0,0:2|0:0,0:0:0:0:
222,227,232021,2,0,B|302:218,1,80,0|8,0:0|0:2,0:0:0:0:
182,65,232336,2,0,B|102:56,1,80,0|8,0:0|0:2,0:0:0:0:
62,244,232652,1,2,0:0:0:0:
281,140,232810,1,8,0:2:0:0:
281,140,232889,1,0,0:0:0:0:
281,140,232968,6,0,P|295:181|301:223,1,80
206,346,233284,1,2,0:0:0:0:
195,201,233442,1,0,0:0:0:0:
74,286,233600,1,0,0:0:0:0:
189,105,233757,1,0,0:0:0:0:
302,286,233915,2,0,L|335:280,5,26.6666666666667,10|0|0|0|0|0,0:2|0:0|0:0|0:0|0:0|0:0,0:0:0:0:
364,264,234231,6,0,L|442:276,1,80,8|0,0:2|0:0,0:0:0:0:
281,140,234547,2,0,L|359:127,1,80,2|8,0:0|0:2,0:0:0:0:
200,257,234863,1,0,0:0:0:0:
309,52,235021,1,8,0:2:0:0:
100,96,235178,2,0,P|109:134|130:168,1,80,2|8,0:0|0:2,0:0:0:0:
280,255,235494,5,0,0:0:0:0:
189,105,235652,1,0,0:0:0:0:
137,311,235810,2,0,P|170:332|209:342,1,80,2|0,0:0|0:2,0:0:0:0:
281,140,236126,1,8,0:2:0:0:
73,242,236284,1,0,0:0:0:0:
355,290,236442,2,0,L|362:264,3,26.6666666666667,2|0|0|0,0:0|0:0|0:0|0:0,0:0:0:0:
496,137,236757,6,0,L|510:215,1,80,6|0,0:0|0:0,0:0:0:0:
201,146,237073,2,0,L|215:68,1,80,8|2,0:3|0:0,0:0:0:0:
365,172,237389,1,8,0:3:0:0:
156,234,237547,1,2,0:0:0:0:
452,282,237705,1,2,0:0:0:0:
173,353,237863,6,0,P|96:351|54:286,1,160,8|2,0:3|0:0,0:0:0:0:
215,67,238336,1,8,0:3:0:0:
343,285,238494,2,0,L|292:280,1,40,0|0,3:0|3:0,0:0:0:0:
146,274,238652,1,4,0:3:0:0:
353,179,238810,5,4,0:3:0:0:
118,107,238968,1,2,0:0:0:0:
241,318,239126,1,2,0:0:0:0:
437,132,239284,6,0,P|457:97|464:58,1,80,6|2,0:0|0:0,0:0:0:0:
214,244,239600,2,0,P|221:283|240:317,1,80,8|2,0:3|0:0,0:0:0:0:
447,209,239915,1,8,0:3:0:0:
215,67,240073,1,4,0:3:0:0:
299,256,240231,1,2,0:0:0:0:
375,78,240389,1,0,0:3:0:0:
60,168,240547,6,0,B|106:195|106:195|139:193|180:170|180:170|216:182|232:222|234:256|214:293,1,263.99999194336,6|0,0:0|0:0,0:0:0:0:
251,322,241494,5,8,0:0:0:0:
300,337,241573,1,8,0:0:0:0:
351,334,241652,1,8,0:0:0:0:
396,308,241730,1,8,0:0:0:0:
419,260,241810,6,0,L|434:157,1,103.999995239258,6|0,0:0|0:0,0:0:0:0:
165,69,242126,2,0,L|180:172,1,103.999995239258,8|0,0:3|0:0,0:0:0:0:
180,172,242363,1,0,3:0:0:0:
180,172,242441,1,10,0:0:0:0:
437,138,242599,1,8,0:3:0:0:
245,10,242757,1,8,0:3:0:0:
103,215,242915,6,0,P|186:268|269:217,1,207.999990478516,6|2,0:0|0:0,0:0:0:0:
154,33,243389,1,8,0:3:0:0:
14,157,243547,2,0,L|4:208,1,51.999997619629,2|4,0:0|0:3,0:0:0:0:
112,319,243705,2,0,L|104:216,1,103.999995239258,4|2,0:3|0:0,0:0:0:0:
229,153,244021,1,8,0:3:0:0:
33,278,244178,1,2,0:0:0:0:
281,265,244336,6,0,P|330:252|360:211,1,103.999995239258,6|0,0:0|0:0,0:0:0:0:
266,68,244652,1,8,0:3:0:0:
203,309,244810,1,2,0:0:0:0:
195,129,244968,1,8,0:0:0:0:
372,187,245126,1,2,0:0:0:0:
326,12,245284,1,8,0:3:0:0:
103,214,245442,6,0,P|118:138|118:60,1,155.999992858887,6|0,0:0|0:0,0:0:0:0:
104,27,245757,1,2,0:0:0:0:
345,94,245915,1,8,0:3:0:0:
198,257,246073,1,0,0:0:0:0:
198,257,246152,1,0,3:0:0:0:
198,257,246231,2,0,L|212:363,1,103.999995239258,2|2,0:0|0:0,0:0:0:0:
32,287,246547,1,8,0:3:0:0:
229,151,246705,1,2,0:0:0:0:
353,289,246863,6,0,L|373:177,1,103.999995239258,6|2,0:0|0:0,0:0:0:0:
210,48,247178,1,8,0:3:0:0:
214,73,247257,1,0,0:0:0:0:
219,99,247336,1,0,0:0:0:0:
223,124,247415,1,0,0:0:0:0:
229,151,247494,2,0,P|255:172|278:178,1,51.999997619629,10|0,0:0|0:0,0:0:0:0:
443,129,247652,1,2,0:0:0:0:
288,24,247810,1,8,0:3:0:0:
158,242,247968,6,0,P|122:204|109:154,1,103.999995239258,10|2,0:0|0:0,0:0:0:0:
344,144,248283,1,2,0:0:0:0:
258,269,248442,1,8,0:3:0:0:
87,55,248600,1,10,0:0:0:0:
66,216,248757,1,0,0:0:0:0:
190,132,248914,1,2,0:0:0:0:
458,274,249073,6,0,P|406:268|355:256,1,103.999995239258,8|0,0:3|0:0,0:0:0:0:
293,183,249310,1,0,3:0:0:0:
286,160,249389,2,0,P|306:91|382:96,1,155.999992858887,6|0,0:0|0:0,0:0:0:0:
449,178,249705,5,8,0:3:0:0:
258,269,249863,2,0,L|248:328,2,51.999997619629,0|0|0,3:0|3:0|3:0,0:0:0:0:
295,27,250178,1,8,0:3:0:0:
366,166,250336,1,8,0:3:0:0:
190,132,250494,2,0,P|112:123|39:147,1,155.999992858887,6|0,0:0|0:0,0:0:0:0:
7,191,250810,5,8,0:0:0:0:
14,215,250889,1,0,0:0:0:0:
22,239,250968,2,0,L|73:248,1,51.999997619629,8|2,0:3|0:0,0:0:0:0:
201,332,251126,2,0,L|184:284,1,51.999997619629,2|2,0:0|0:0,0:0:0:0:
117,129,251284,5,10,0:3:0:0:
418,97,251442,1,10,0:3:0:0:
368,245,251600,2,0,P|365:205|366:166,1,80
253,341,251915,5,6,0:0:0:0:
294,49,252073,1,6,0:0:0:0:
143,229,252231,5,0,3:0:0:0:
103,238,252310,1,0,3:0:0:0:
62,232,252389,1,0,3:0:0:0:
30,207,252468,1,0,3:0:0:0:
10,170,252547,2,0,P|9:145|10:119,1,51.999997619629,8|8,0:3|0:3,0:0:0:0:
166,81,252705,2,0,P|177:57|192:36,1,51.999997619629,4|4,0:3|0:3,0:0:0:0:
303,164,252863,1,2,0:0:0:0:
200,360,253021,6,2,B|188:329|188:329|211:304|211:304|194:286|182:247|189:207|207:170,1,207.999990478516,6|2,0:0|0:0,0:0:0:0:
481,179,253494,1,8,0:3:0:0:
334,32,253652,1,2,0:0:0:0:
334,32,253731,1,4,0:3:0:0:
334,32,253810,1,8,0:3:0:0:
276,235,253968,1,2,0:0:0:0:
419,95,254126,1,8,0:3:0:0:
212,128,254284,1,2,0:0:0:0:
387,305,254442,6,0,P|343:333|291:336,1,103.999995239258,6|0,0:0|0:0,0:0:0:0:
45,276,254757,1,8,0:3:0:0:
212,128,254915,1,2,0:0:0:0:
195,299,255073,1,8,0:0:0:0:
111,135,255231,1,2,0:0:0:0:
337,185,255389,1,8,0:3:0:0:
127,46,255547,6,0,P|34:77|29:174,1,207.999990478516,6|2,0:0|0:0,0:0:0:0:
299,257,256021,1,8,0:3:0:0:
275,55,256178,1,2,0:0:0:0:
275,55,256257,1,0,3:0:0:0:
275,55,256336,1,8,0:3:0:0:
56,220,256494,1,2,0:0:0:0:
360,212,256652,1,8,0:0:0:0:
111,135,256810,1,2,0:0:0:0:
348,315,256968,6,0,P|351:263|361:212,1,103.999995239258,8|2,0:3|0:0,0:0:0:0:
459,77,257284,1,4,0:3:0:0:
214,149,257442,6,0,L|105:134,1,103.999995239258,8|2,0:3|0:0,0:0:0:0:
244,329,257757,2,0,L|353:314,1,103.999995239258,8|2,0:3|0:0,0:0:0:0:
260,48,258073,6,0,P|215:141|197:243,1,207.999990478516,6|2,0:0|0:0,0:0:0:0:
450,300,258547,2,0,P|448:222|424:148,1,155.999992858887,4|4,0:3|0:3,0:0:0:0:
406,118,258863,1,2,0:0:0:0:
214,149,259021,1,2,0:0:0:0:
337,244,259178,2,0,L|341:210,5,34.6666650797527,0|0|0|0|0|0,3:0|3:0|3:0|3:0|3:0|3:0,0:0:0:0:
329,299,259494,6,0,L|222:295,1,103.999995239258,6|2,0:0|0:0,0:0:0:0:
54,90,259810,1,8,0:3:0:0:
50,115,259889,1,0,0:0:0:0:
52,141,259968,1,0,0:0:0:0:
58,166,260047,1,0,0:0:0:0:
70,191,260126,2,0,P|121:194|169:176,1,103.999995239258,10|2,0:0|0:0,0:0:0:0:
279,62,260442,5,8,0:3:0:0:
191,292,260600,1,2,0:0:0:0:
143,91,260757,1,8,0:3:0:0:
341,210,260915,2,0,L|394:193,1,51.999997619629,0|0,3:0|3:0,0:0:0:0:
240,276,261073,2,0,L|190:291,1,51.999997619629,0|0,3:0|3:0,0:0:0:0:
244,173,261231,1,8,0:3:0:0:
329,299,261389,5,2,0:0:0:0:
136,218,261547,1,2,0:0:0:0:
498,160,261705,1,4,0:0:0:0:
246,77,261863,1,2,0:0:0:0:
379,3,262021,6,0,L|367:111,1,103.999995239258,6|2,0:0|0:0,0:0:0:0:
124,321,262336,2,0,L|136:213,1,103.999995239258,8|2,0:3|0:0,0:0:0:0:
154,41,262652,1,8,0:3:0:0:
274,204,262810,1,10,0:0:0:0:
314,235,262889,1,0,0:0:0:0:
365,238,262968,1,8,0:3:0:0:
409,211,263047,1,0,0:0:0:0:
431,165,263126,1,6,0:0:0:0:
430,155,263442,5,2,0:0:0:0:
109,164,263600,1,8,0:3:0:0:
240,276,263757,1,4,0:3:0:0:
237,301,263836,1,4,0:3:0:0:
234,326,263915,1,10,0:0:0:0:
346,153,264073,1,2,0:0:0:0:
145,257,264231,1,8,0:3:0:0:
271,57,264389,1,2,0:0:0:0:
348,273,264547,6,0,P|399:278|446:258,1,103.999995239258,6|0,0:0|0:0,0:0:0:0:
151,63,264863,1,8,0:3:0:0:
151,63,264942,1,0,0:0:0:0:
151,63,265021,1,0,0:0:0:0:
151,63,265100,1,0,0:0:0:0:
151,63,265178,1,10,0:0:0:0:
145,257,265336,1,2,0:0:0:0:
346,153,265494,1,8,0:3:0:0:
73,204,265652,6,0,B|110:173|149:164|191:175|219:209|219:209|262:199,1,207.999990478516,6|2,0:0|0:0,0:0:0:0:
457,127,266126,1,8,0:3:0:0:
250,55,266283,2,0,L|242:106,1,51.999997619629,0|0,0:0|3:0,0:0:0:0:
420,225,266441,1,8,0:3:0:0:
208,289,266600,1,2,0:0:0:0:
346,153,266757,1,4,0:3:0:0:
400,337,266915,1,2,0:0:0:0:
105,290,267073,6,0,P|109:235|118:180,1,103.999995239258,6|0,0:0|0:0,0:0:0:0:
334,49,267389,2,0,P|341:100|345:152,1,103.999995239258,8|2,0:3|0:0,0:0:0:0:
208,289,267705,1,8,0:0:0:0:
140,104,267863,1,2,0:0:0:0:
285,228,268021,1,8,0:3:0:0:
105,290,268178,1,2,0:0:0:0:
220,157,268336,6,0,P|237:102|226:52,1,103.999995239258,8|2,0:0|0:0,0:0:0:0:
125,201,268652,1,8,0:3:0:0:
198,20,268810,1,2,0:0:0:0:
345,152,268968,2,0,B|379:163|413:165|441:151|470:129|470:129|463:175|440:196,1,207.999990478516,8|8,0:0|0:3,0:0:0:0:
208,289,269442,1,0,3:0:0:0:
208,289,269521,1,0,3:0:0:0:
208,289,269600,6,0,L|316:275,1,103.999995239258,10|2,0:0|0:0,0:0:0:0:
387,77,269915,2,0,L|279:63,1,103.999995239258,8|2,0:3|0:0,0:0:0:0:
140,104,270231,1,8,0:0:0:0:
355,267,270389,1,2,0:0:0:0:
246,60,270547,1,8,0:3:0:0:
110,241,270705,1,2,0:0:0:0:
387,77,270863,6,0,P|382:128|379:180,1,103.999995239258,8|2,0:3|0:0,0:0:0:0:
395,343,271178,1,8,0:3:0:0:
154,158,271336,1,2,0:0:0:0:
154,158,271415,1,0,0:0:0:0:
154,158,271494,2,0,P|102:153|53:169,1,103.999995239258,8|2,0:3|0:0,0:0:0:0:
285,267,271810,1,4,0:3:0:0:
246,60,271968,1,4,0:3:0:0:
110,241,272126,6,0,P|159:325|255:307,1,207.999990478516,6|8,0:0|0:3,0:0:0:0:
319,108,272600,2,0,L|325:55,2,51.999997619629,0|0|0,3:0|3:0|3:0,0:0:0:0:
196,248,272915,1,8,0:3:0:0:
429,205,273073,1,8,0:3:0:0:
154,158,273231,6,0,P|141:107|138:55,1,103.999995239258,6|0,0:0|0:0,0:0:0:0:
313,146,273547,1,2,0:0:0:0:
190,333,273705,1,8,0:3:0:0:
467,272,273863,1,6,0:3:0:0:
467,272,273942,1,0,0:0:0:0:
467,272,274020,5,10,0:0:0:0:
485,254,274100,1,2,0:0:0:0:
493,227,274178,1,2,0:0:0:0:
493,200,274257,1,0,0:0:0:0:
482,165,274336,1,8,0:3:0:0:
456,131,274415,1,0,0:0:0:0:
411,115,274494,1,2,0:0:0:0:
359,119,274573,1,0,0:0:0:0:
313,146,274652,6,0,P|261:150|214:130,1,103.999995239258,6|2,0:0|0:0,0:0:0:0:
76,43,274968,1,8,0:3:0:0:
155,222,275126,1,2,0:0:0:0:
275,63,275284,1,8,0:3:0:0:
53,190,275442,1,2,0:0:0:0:
381,228,275600,1,8,0:3:0:0:
183,314,275757,6,0,P|132:318|89:290,1,103.999995239258,6|0,0:0|0:0,0:0:0:0:
19,185,276073,1,2,0:0:0:0:
275,63,276231,2,0,P|285:112|280:221,1,155.999992858887,8|4,0:3|0:3,0:0:0:0:
266,258,276547,1,2,0:0:0:0:
176,111,276705,1,0,3:0:0:0:
176,111,276784,1,0,3:0:0:0:
176,111,276863,1,8,0:3:0:0:
391,148,277021,1,2,0:0:0:0:
332,322,277178,6,0,P|239:351|173:278,1,207.999990478516,6|8,0:0|0:3,0:0:0:0:
275,63,277652,1,2,0:0:0:0:
146,193,277810,1,8,0:0:0:0:
383,228,277968,1,2,0:0:0:0:
156,283,278126,5,0,0:0:0:0:
104,282,278205,1,0,0:0:0:0:
61,254,278284,1,8,0:3:0:0:
40,207,278363,1,0,0:0:0:0:
50,156,278442,1,10,0:0:0:0:
322,84,278600,5,0,0:0:0:0:
261,292,278757,1,8,0:3:0:0:
146,193,278915,2,0,P|194:175|245:178,1,103.999995239258,8|2,0:0|0:0,0:0:0:0:
408,253,279231,1,10,0:0:0:0:
156,283,279389,1,8,0:3:0:0:
368,112,279547,1,0,0:0:0:0:
324,303,279705,5,6,0:0:0:0:
246,109,279863,1,2,0:0:0:0:
124,284,280021,2,0,P|75:283|22:257,1,103.999995239258,8|0,0:3|0:0,0:0:0:0:
4,213,280257,1,0,3:0:0:0:
4,213,280336,1,2,0:0:0:0:
169,41,280494,1,8,0:3:0:0:
226,264,280652,1,2,0:0:0:0:
256,77,280810,1,6,0:0:0:0:
265,49,281126,5,10,0:0:0:0:
91,204,281284,1,8,0:3:0:0:
68,51,281442,1,8,0:0:0:0:
226,264,281600,1,8,0:0:0:0:
244,110,281757,1,8,0:0:0:0:
119,313,281915,1,10,0:0:0:0:
396,204,282073,1,8,0:0:0:0:
80,93,282231,5,6,0:0:0:0:
136,238,282389,1,2,0:0:0:0:
136,238,282468,1,0,0:0:0:0:
136,238,282547,1,0,0:0:0:0:
349,132,282704,2,0,P|399:119|449:137,1,103.999995239258,8|2,0:3|0:0,0:0:0:0:
263,359,283021,1,8,0:3:0:0:
263,359,283336,6,0,L|249:146,1,207.999990478516,6|2,0:0|0:0,0:0:0:0:
73,42,283810,2,0,P|53:103|59:146,1,103.999995239258,8|2,0:3|0:0,0:0:0:0:
136,238,284126,1,8,0:0:0:0:
152,218,284205,1,0,0:0:0:0:
172,201,284284,1,4,0:3:0:0:
195,189,284363,1,0,0:0:0:0:
220,181,284442,1,2,0:0:0:0:
245,177,284521,1,0,0:0:0:0:
271,179,284600,1,0,0:0:0:0:
296,185,284678,1,0,0:0:0:0:
320,196,284757,6,0,P|392:173|402:98,1,160,6|0,0:0|0:0,0:0:0:0:
327,4,285231,1,8,0:3:0:0:
235,338,285547,1,2,0:0:0:0:
235,338,285863,6,0,L|215:174,1,160,6|0,0:2|0:0,0:0:0:0:
119,107,286336,1,8,0:2:0:0:
88,223,286494,1,0,0:0:0:0:
380,225,286652,2,0,L|394:138,1,80,0|8,0:0|0:2,0:0:0:0:
408,50,286968,1,0,0:0:0:0:
235,87,287126,6,0,L|236:60,3,26.6666666666667,0|0|0|8,0:0|0:0|0:0|0:2,0:0:0:0:
269,222,287442,1,0,0:0:0:0:
136,263,287600,2,0,P|78:274|29:243,1,120
7,165,287915,5,8,0:2:0:0:
228,293,288073,1,0,0:0:0:0:
246,301,288152,1,0,0:0:0:0:
265,305,288231,1,0,0:0:0:0:
285,304,288310,1,0,0:0:0:0:
304,297,288389,1,0,0:0:0:0:
321,287,288468,1,0,0:0:0:0:
335,272,288547,5,8,0:0:0:0:
343,260,289178,1,0,0:0:0:0:
343,260,289810,6,0,P|357:214|372:163,1,95.9999970703126,8|0,0:0|0:0,0:0:0:0:
372,64,290442,2,0,P|310:34|248:65,2,143.999995605469,8|8|0,0:0|0:0|0:0,0:0:0:0:
262,160,291705,2,0,P|214:157|177:129,1,95.9999970703126,8|0,0:0|0:0,0:0:0:0:
116,53,292178,5,0,0:0:0:0:
116,41,292257,1,0,0:0:0:0:
117,29,292336,1,8,0:0:0:0:
76,217,292652,1,8,0:0:0:0:
262,159,292968,2,0,P|330:157|361:218,2,143.999995605469,8|8|0,0:0|0:0|0:0,0:0:0:0:
182,213,294073,1,0,0:0:0:0:
182,213,294152,1,0,0:0:0:0:
182,213,294231,2,0,L|182:260,1,47.9999985351563,8|0,0:0|0:0,0:0:0:0:
242,337,294547,6,0,P|288:343|331:322,1,95.9999970703126,0|8,0:0|0:0,0:0:0:0:
494,219,295178,1,0,0:0:0:0:
314,151,295494,2,0,L|302:7,2,143.999995605469,8|8|0,0:0|0:0|0:0,0:0:0:0:
379,245,296757,2,0,L|366:291,1,47.9999985351563,8|0,0:0|0:0,0:0:0:0:
193,216,297231,5,0,0:0:0:0:
193,216,297310,1,0,0:0:0:0:
193,216,297389,2,0,P|148:203|104:220,1,95.9999970703126,8|8,0:0|0:0,0:0:0:0:
58,304,297863,1,0,0:0:0:0:
242,276,298021,2,0,L|218:134,1,143.999995605469,8|8,0:0|0:0,0:0:0:0:
216,120,298968,5,0,0:0:0:0:
213,105,299283,1,8,0:3:0:0:
340,252,299442,1,4,0:3:0:0:
142,288,299600,1,2,0:0:0:0:
142,288,299915,6,0,L|124:223,1,64
299,124,300231,2,0,L|281:185,1,64
242,274,300547,1,8,0:0:0:0:
130,197,300705,1,0,0:0:0:0:
295,96,300863,1,0,0:0:0:0:
375,182,301021,1,0,0:0:0:0:
375,182,301100,1,0,0:0:0:0:
375,182,301178,6,0,P|406:181|436:170,1,64
287,66,301494,1,0,0:0:0:0:
330,263,301652,1,0,0:0:0:0:
386,99,301810,1,8,0:0:0:0:
260,196,301968,1,0,0:0:0:0:
115,146,302125,2,0,L|110:126,5,21.3333333333333
108,92,302442,6,0,L|42:103,1,64
155,242,302757,1,0,0:0:0:0:
260,196,302915,1,0,0:0:0:0:
194,53,303073,2,0,L|196:122,1,64,8|0,0:0|0:0,0:0:0:0:
181,283,303389,1,0,0:0:0:0:
344,253,303547,1,0,0:0:0:0:
344,253,303626,1,0,0:0:0:0:
344,253,303705,6,0,L|354:322,1,64
104,246,304021,2,0,L|113:182,1,64
315,94,304336,2,0,L|325:163,1,64,8|0,0:0|0:0,0:0:0:0:
126,99,304652,2,0,L|128:77,3,21.3333333333333
210,24,304968,6,0,P|241:17|273:16,1,64
387,165,305284,2,0,P|355:163|323:156,1,64
229,131,305600,1,8,0:0:0:0:
397,84,305757,1,0,0:0:0:0:
344,253,305915,1,0,0:0:0:0:
109,182,306073,1,0,0:0:0:0:
109,182,306152,1,0,0:0:0:0:
109,182,306231,6,0,L|102:253,1,64
219,304,306547,2,0,L|213:240,1,64
194,146,306863,1,8,0:0:0:0:
177,341,307021,1,0,0:0:0:0:
330,282,307178,2,0,L|362:277,5,21.3333333333333
383,281,307494,6,0,L|390:214,1,64
298,106,307810,2,0,L|305:170,1,64
219,214,308126,1,8,0:0:0:0:
391,128,308284,1,4,0:3:0:0:
231,29,308442,1,2,0:0:0:0:
127,268,308600,5,6,0:2:0:0:
256,192,308678,12,0,313810,0:0:0:0:
