osu file format v14

[General]
AudioFilename: audio.mp3
AudioLeadIn: 0
PreviewTime: 41924
Countdown: 0
SampleSet: Normal
StackLeniency: 0.7
Mode: 1
LetterboxInBreaks: 0
WidescreenStoryboard: 0

[Editor]
DistanceSpacing: 0.5
BeatDivisor: 4
GridSize: 32
TimelineZoom: 1.8

[Metadata]
Title:EBONY & IVORY
TitleUnicode:EBONY & IVORY
Artist:OSTER project
ArtistUnicode:OSTER project
Creator:-xNaCLx-
Version:Futsuu
Source:BeatStream アニムトライヴ
Tags:The 4th KONAMI Arcade Championship KAC beatmania IIDX 22 PENDUAL jubeat prop pop'n music ラピストリア SOUND VOLTEX III GRAVITY WARS sdvx Electronic Chiptune Video Game instrumental
BeatmapID:961170
BeatmapSetID:444246

[Difficulty]
HPDrainRate:7
CircleSize:5
OverallDifficulty:4
ApproachRate:5
SliderMultiplier:1.4
SliderTickRate:1

[Events]
//Background and Video events
0,0,"wallpaper_colorful_kawaii_witch_and_sweet_by_nagamii_chan-d9d9qyr.jpg",0,-80
//Break Periods
//Storyboard Layer 0 (Background)
//Storyboard Layer 1 (Fail)
//Storyboard Layer 2 (Pass)
//Storyboard Layer 3 (Foreground)
//Storyboard Layer 4 (Overlay)
//Storyboard Sound Samples

[TimingPoints]
2395,352.941176470588,4,1,0,100,1,0
8042,-100,4,1,0,80,0,0
47571,-100,4,1,0,90,0,1
57453,-100,4,1,0,80,0,0
58865,529.411764861592,3,1,0,80,1,0
71570,352.941176470588,4,1,0,100,1,0
78628,-100,4,1,0,80,0,0
84275,-100,4,1,0,90,0,0
89922,-100,4,1,0,100,0,1
95569,-100,4,1,0,100,0,0
99099,-100,4,1,0,100,0,1
100158,-100,4,1,0,80,0,0

[HitObjects]
256,192,2395,5,4,0:0:0:0:
256,192,3100,1,4,0:0:0:0:
256,192,3806,1,12,0:0:0:0:
256,192,4512,1,4,0:0:0:0:
256,192,5218,1,12,0:0:0:0:
256,192,5394,1,12,0:0:0:0:
256,192,5747,1,12,0:0:0:0:
256,192,6100,1,0,0:0:0:0:
256,192,6277,1,0,0:0:0:0:
256,192,6630,1,8,0:0:0:0:
256,192,7336,1,8,0:0:0:0:
256,192,7689,1,8,0:0:0:0:
256,192,8042,1,0,0:0:0:0:
256,192,8747,1,0,0:0:0:0:
256,192,9012,1,8,0:0:0:0:
256,192,9453,1,0,0:0:0:0:
256,192,10159,1,8,0:0:0:0:
256,192,10424,1,8,0:0:0:0:
256,192,10865,1,0,0:0:0:0:
256,192,11571,1,0,0:0:0:0:
256,192,11836,1,8,0:0:0:0:
256,192,12277,1,0,0:0:0:0:
256,192,12983,1,8,0:0:0:0:
256,192,13247,1,8,0:0:0:0:
256,192,13689,1,4,0:0:0:0:
256,192,14218,1,0,0:0:0:0:
256,192,14571,1,0,0:0:0:0:
256,192,14747,1,8,0:0:0:0:
256,192,15100,1,0,0:0:0:0:
256,192,15453,1,0,0:0:0:0:
256,192,15983,1,8,0:0:0:0:
256,192,16159,1,8,0:0:0:0:
256,192,16689,1,0,0:0:0:0:
256,192,17042,1,0,0:0:0:0:
256,192,17218,1,0,0:0:0:0:
256,192,17571,1,8,0:0:0:0:
256,192,17924,1,0,0:0:0:0:
256,192,18630,1,0,0:0:0:0:
256,192,18894,1,8,0:0:0:0:
256,192,19336,1,0,0:0:0:0:
256,192,19865,1,0,0:0:0:0:
256,192,20042,1,0,0:0:0:0:
256,192,20394,1,8,0:0:0:0:
256,192,20747,1,0,0:0:0:0:
256,192,21100,1,0,0:0:0:0:
256,192,21277,1,8,0:0:0:0:
256,192,21806,1,0,0:0:0:0:
256,192,22159,1,4,0:0:0:0:
256,192,22865,1,12,0:0:0:0:
256,192,23218,1,8,0:0:0:0:
256,192,23394,1,8,0:0:0:0:
256,192,23571,1,4,0:0:0:0:
256,192,23924,1,8,0:0:0:0:
256,192,24277,1,8,0:0:0:0:
256,192,24630,1,0,0:0:0:0:
256,192,24983,1,12,0:0:0:0:
256,192,25512,1,0,0:0:0:0:
256,192,25689,1,0,0:0:0:0:
256,192,26042,1,8,0:0:0:0:
256,192,26394,1,0,0:0:0:0:
256,192,26747,1,0,0:0:0:0:
256,192,27277,1,8,0:0:0:0:
256,192,27453,1,8,0:0:0:0:
256,192,27983,1,0,0:0:0:0:
256,192,28336,1,0,0:0:0:0:
256,192,28512,1,0,0:0:0:0:
256,192,28865,1,8,0:0:0:0:
256,192,29218,1,8,0:0:0:0:
256,192,29924,1,0,0:0:0:0:
256,192,30189,1,8,0:0:0:0:
256,192,30630,1,4,0:0:0:0:
256,192,31159,1,0,0:0:0:0:
256,192,31336,1,0,0:0:0:0:
256,192,31689,1,8,0:0:0:0:
256,192,32042,1,0,0:0:0:0:
256,192,32394,1,0,0:0:0:0:
256,192,32571,1,8,0:0:0:0:
256,192,33100,1,0,0:0:0:0:
256,192,33453,1,4,0:0:0:0:
256,192,34159,1,12,0:0:0:0:
256,192,34512,1,8,0:0:0:0:
256,192,34689,1,8,0:0:0:0:
256,192,34865,1,4,0:0:0:0:
256,192,35218,1,8,0:0:0:0:
256,192,35571,1,8,0:0:0:0:
256,192,35747,1,0,0:0:0:0:
256,192,35924,1,8,0:0:0:0:
256,192,36277,1,4,0:0:0:0:
256,192,36806,1,0,0:0:0:0:
256,192,36983,1,8,0:0:0:0:
256,192,37336,1,0,0:0:0:0:
256,192,37689,1,0,0:0:0:0:
256,192,38218,1,0,0:0:0:0:
256,192,38394,1,8,0:0:0:0:
256,192,38747,1,0,0:0:0:0:
256,192,39100,1,8,0:0:0:0:
256,192,39630,1,8,0:0:0:0:
256,192,39806,1,8,0:0:0:0:
256,192,40159,1,0,0:0:0:0:
256,192,40512,1,8,0:0:0:0:
256,192,40865,1,8,0:0:0:0:
256,192,41042,1,8,0:0:0:0:
256,192,41218,1,8,0:0:0:0:
256,192,41924,1,0,0:0:0:0:
256,192,42453,1,0,0:0:0:0:
256,192,42630,1,8,0:0:0:0:
256,192,42983,1,0,0:0:0:0:
256,192,43336,1,0,0:0:0:0:
256,192,43865,1,0,0:0:0:0:
256,192,44042,1,8,0:0:0:0:
256,192,44394,1,0,0:0:0:0:
256,192,44747,1,12,0:0:0:0:
256,192,45453,1,4,0:0:0:0:
256,192,46159,1,8,0:0:0:0:
256,192,46336,1,8,0:0:0:0:
256,192,46512,1,0,0:0:0:0:
256,192,46865,1,8,0:0:0:0:
256,192,47218,1,0,0:0:0:0:
256,192,47571,1,12,0:0:0:0:
256,192,48100,1,0,0:0:0:0:
256,192,48277,1,8,0:0:0:0:
256,192,48630,1,0,0:0:0:0:
256,192,48983,1,8,0:0:0:0:
256,192,49689,1,8,0:0:0:0:
256,192,50042,1,0,0:0:0:0:
256,192,50394,1,8,0:0:0:0:
256,192,50924,1,8,0:0:0:0:
256,192,51100,1,0,0:0:0:0:
256,192,51453,1,8,0:0:0:0:
256,192,51806,1,4,0:0:0:0:
256,192,52512,1,8,0:0:0:0:
256,192,52865,1,0,0:0:0:0:
256,192,53218,1,0,0:0:0:0:
256,192,53394,1,8,0:0:0:0:
256,192,53747,1,0,0:0:0:0:
256,192,53924,1,8,0:0:0:0:
256,192,54630,1,0,0:0:0:0:
256,192,54806,1,8,0:0:0:0:
256,192,55159,1,0,0:0:0:0:
256,192,55336,1,8,0:0:0:0:
256,192,55689,1,0,0:0:0:0:
256,192,56042,1,12,0:0:0:0:
256,192,56747,1,0,0:0:0:0:
256,192,57453,12,0,58777,0:0:0:0:
256,192,59394,5,0,0:0:0:0:
256,192,59923,1,8,0:0:0:0:
256,192,60188,1,8,0:0:0:0:
256,192,60453,1,0,0:0:0:0:
256,192,60982,1,8,0:0:0:0:
256,192,61512,1,0,0:0:0:0:
256,192,62041,1,8,0:0:0:0:
256,192,62570,1,0,0:0:0:0:
256,192,62835,1,0,0:0:0:0:
256,192,63100,1,8,0:0:0:0:
256,192,63629,1,0,0:0:0:0:
256,192,65217,1,0,0:0:0:0:
256,192,65747,1,0,0:0:0:0:
256,192,66276,1,8,0:0:0:0:
256,192,66541,1,8,0:0:0:0:
256,192,66806,1,0,0:0:0:0:
256,192,67335,1,0,0:0:0:0:
256,192,67865,1,8,0:0:0:0:
256,192,68394,1,0,0:0:0:0:
256,192,68659,1,0,0:0:0:0:
256,192,68923,1,8,0:0:0:0:
256,192,69453,1,8,0:0:0:0:
256,192,69982,1,0,0:0:0:0:
256,192,71570,1,4,0:0:0:0:
256,192,72275,1,4,0:0:0:0:
256,192,72981,1,8,0:0:0:0:
256,192,73334,1,0,0:0:0:0:
256,192,73687,1,8,0:0:0:0:
256,192,74040,1,0,0:0:0:0:
256,192,74393,1,12,0:0:0:0:
256,192,74746,1,0,0:0:0:0:
256,192,74922,1,0,0:0:0:0:
256,192,75099,1,0,0:0:0:0:
256,192,75452,1,0,0:0:0:0:
256,192,75805,1,12,0:0:0:0:
256,192,76158,1,0,0:0:0:0:
256,192,76334,1,0,0:0:0:0:
256,192,76511,1,8,0:0:0:0:
256,192,76864,1,0,0:0:0:0:
256,192,77217,1,8,0:0:0:0:
256,192,77922,1,0,0:0:0:0:
256,192,78628,1,0,0:0:0:0:
256,192,78981,1,8,0:0:0:0:
256,192,79334,1,0,0:0:0:0:
256,192,79687,1,8,0:0:0:0:
256,192,80040,1,0,0:0:0:0:
256,192,80746,1,0,0:0:0:0:
256,192,81452,1,0,0:0:0:0:
256,192,81805,1,8,0:0:0:0:
256,192,82158,1,0,0:0:0:0:
256,192,82511,1,8,0:0:0:0:
256,192,82864,1,0,0:0:0:0:
256,192,83570,1,8,0:0:0:0:
256,192,84275,1,0,0:0:0:0:
256,192,84628,1,8,0:0:0:0:
256,192,84981,1,0,0:0:0:0:
256,192,85334,1,8,0:0:0:0:
256,192,85687,1,0,0:0:0:0:
256,192,86393,1,0,0:0:0:0:
256,192,87099,1,0,0:0:0:0:
256,192,87452,1,8,0:0:0:0:
256,192,87805,1,0,0:0:0:0:
256,192,88158,1,8,0:0:0:0:
256,192,88511,1,0,0:0:0:0:
256,192,89217,1,8,0:0:0:0:
256,192,89922,1,4,0:0:0:0:
256,192,90452,1,0,0:0:0:0:
256,192,90805,1,0,0:0:0:0:
256,192,90981,1,8,0:0:0:0:
256,192,91334,1,0,0:0:0:0:
256,192,91687,1,8,0:0:0:0:
256,192,92040,1,0,0:0:0:0:
256,192,92393,1,8,0:0:0:0:
256,192,92746,1,4,0:0:0:0:
256,192,93275,1,0,0:0:0:0:
256,192,93452,1,8,0:0:0:0:
256,192,93805,1,0,0:0:0:0:
256,192,94158,1,12,0:0:0:0:
256,192,94864,1,4,0:0:0:0:
256,192,95569,1,12,0:0:0:0:
256,192,95922,1,0,0:0:0:0:
256,192,96275,1,8,0:0:0:0:
256,192,96628,1,0,0:0:0:0:
256,192,96981,12,0,97687,0:0:0:0:
256,192,98393,5,0,0:0:0:0:
256,192,98746,1,8,0:0:0:0:
256,192,99099,1,0,0:0:0:0:
256,192,99452,1,0,0:0:0:0:
256,192,99805,1,8,0:0:0:0:
256,192,100158,1,4,0:0:0:0:
