osu file format v14

[General]
AudioFilename: audio.mp3
AudioLeadIn: 0
PreviewTime: 31620
Countdown: 0
SampleSet: Soft
StackLeniency: 0.5
Mode: 0
LetterboxInBreaks: 0
WidescreenStoryboard: 0

[Editor]
DistanceSpacing: 1.3
BeatDivisor: 4
GridSize: 8
TimelineZoom: 2.5

[Metadata]
Title:Pinocchio
TitleUnicode:ピノキオ
Artist:ORESKABAND
ArtistUnicode:オレスカバンド
Creator:Monstrata
Version:sahuang's Hard
Source:NARUTO -ナルト-
Tags:doormat akitoshi corinn sahuang my angel azusa snownino_ naruto uzumaki ska ending 14 ed
BeatmapID:1429328
BeatmapSetID:674401

[Difficulty]
HPDrainRate:5
CircleSize:3.5
OverallDifficulty:6
ApproachRate:8
SliderMultiplier:1.4
SliderTickRate:1

[Events]
//Background and Video events
0,0,"pinocchio.jpg",0,0
//Break Periods
2,65162,69707
//Storyboard Layer 0 (Background)
//Storyboard Layer 1 (Fail)
//Storyboard Layer 2 (Pass)
//Storyboard Layer 3 (Foreground)
//Storyboard Sound Samples

[TimingPoints]
804,297.029702970297,4,3,1,70,1,0
10308,-100,4,2,1,70,0,0
19813,-125,4,2,1,70,0,0
22190,-105.263157894737,4,2,1,70,0,0
31695,-100,4,2,1,70,0,0
41200,-117.647058823529,4,2,1,70,0,0
49516,-100,4,2,1,70,0,0
50704,-117.647058823529,4,2,1,70,0,0
59021,-100,4,2,1,70,0,0
70605,-125,4,2,1,70,0,0
70903,-111.111111111111,4,2,1,70,0,0
110110,-100,4,2,1,70,0,0
127932,-100,4,2,1,50,0,0
129714,-100,4,2,1,90,0,0
130011,-100,4,2,1,10,0,0
136249,-100,4,2,1,5,0,0

[Colours]
Combo1 : 136,255,136
Combo2 : 255,255,106
Combo3 : 94,255,255
Combo4 : 255,173,91

[HitObjects]
422,167,804,6,0,P|396:130|384:224,2,210,2|2|2,0:2|0:2|0:2,0:0:0:0:
398,305,1992,2,0,P|364:317|313:308,1,70,0|0,0:2|0:0,0:0:0:0:
255,353,2289,2,0,P|227:329|209:280,1,70,0|0,0:2|0:0,0:0:0:0:
141,253,2586,2,0,P|147:217|180:177,1,70,0|0,0:2|0:0,0:0:0:0:
170,104,2883,2,0,P|203:91|254:100,1,70,0|0,0:2|0:0,0:0:0:0:
313,54,3180,6,0,P|372:94|291:161,2,210,2|2|2,0:2|0:2|0:2,0:0:0:0:
173,40,4368,2,0,B|128:78|76:57|76:57|95:124|44:164,2,210,2|2|2,0:2|0:2|0:2,0:0:0:0:
189,179,5556,6,0,B|206:224|190:257|190:257|230:289|230:289|206:329|210:386,2,210,2|2|2,0:2|0:2|0:2,0:0:0:0:
255,55,6744,2,0,P|289:43|340:52,1,70,0|0,0:2|0:0,0:0:0:0:
398,7,7041,2,0,P|425:30|443:79,1,70,0|0,0:2|0:0,0:0:0:0:
512,107,7338,2,0,P|505:142|472:182,1,70,0|0,0:2|0:0,0:0:0:0:
483,256,7635,2,0,P|449:268|398:259,1,70,0|0,0:2|0:0,0:0:0:0:
350,212,7932,6,0,P|382:258|282:248,2,210,2|2|2,0:2|0:2|0:2,0:0:0:0:
216,170,9120,2,0,B|121:128|121:222|15:172,2,210,2|2|8,0:2|0:2|3:3,0:0:0:0:
216,170,10308,6,0,P|205:205|212:242,1,70,6|0,0:2|0:0,0:0:0:0:
263,311,10605,1,8,0:2:0:0:
263,311,10754,2,0,P|336:308|416:314,1,140,2|0,0:2|0:2,0:0:0:0:
480,264,11200,2,0,L|484:181,1,70,10|0,0:2|0:2,0:0:0:0:
437,115,11497,6,0,P|398:130|292:93,1,140,2|8,0:2|0:2,0:0:0:0:
244,39,11942,1,2,0:2:0:0:
244,39,12239,1,0,0:2:0:0:
217,126,12388,2,0,L|220:199,1,70,10|0,0:2|0:2,0:0:0:0:
170,272,12685,6,0,P|118:285|44:232,1,140,2|8,0:2|0:2,0:0:0:0:
35,151,13130,1,2,0:2:0:0:
35,151,13279,2,0,P|31:105|42:74,1,70,0|0,0:0|0:2,0:0:0:0:
106,22,13576,2,0,P|152:18|183:29,1,70,10|0,0:2|0:2,0:0:0:0:
246,80,13873,5,2,0:2:0:0:
326,37,14021,1,0,0:2:0:0:
326,128,14170,1,8,0:2:0:0:
244,168,14318,2,0,B|224:209|224:209|249:314,1,140,2|0,0:2|0:2,0:0:0:0:
324,347,14764,2,0,P|368:335|400:335,1,70,10|0,0:2|0:2,0:0:0:0:
462,276,15061,6,0,P|473:241|466:204,1,70,2|0,0:2|0:0,0:0:0:0:
407,140,15358,1,8,0:2:0:0:
407,140,15507,2,0,P|335:154|254:137,1,140,2|0,0:2|0:2,0:0:0:0:
190,98,15953,2,0,L|186:181,1,70,10|0,0:2|0:2,0:0:0:0:
103,205,16250,6,0,P|142:190|178:265,1,140,2|8,0:2|0:2,0:0:0:0:
119,329,16695,1,2,0:2:0:0:
119,329,16992,1,0,0:2:0:0:
206,353,17141,2,0,L|279:350,1,70,10|0,0:2|0:2,0:0:0:0:
366,342,17438,6,0,B|342:289|342:289|376:184,1,140,2|8,0:2|0:2,0:0:0:0:
335,126,17883,1,2,0:2:0:0:
335,126,18032,2,0,P|381:122|412:133,1,70,0|0,0:0|0:2,0:0:0:0:
367,211,18329,2,0,P|321:215|290:204,1,70,10|0,0:2|0:2,0:0:0:0:
243,136,18625,6,0,P|209:128|174:133,1,70,2|0,0:2|0:0,0:0:0:0:
94,177,18922,1,8,0:2:0:0:
112,269,19071,1,2,0:2:0:0:
112,269,19145,1,0,0:0:0:0:
112,269,19219,2,0,L|111:352,1,70,8|2,3:3|3:2,0:0:0:0:
200,318,19516,1,8,3:2:0:0:
287,349,19665,1,0,0:2:0:0:
376,317,19813,6,0,P|396:281|397:262,2,56,2|2|8,0:2|0:2|0:2,0:0:0:0:
310,264,20259,1,2,0:2:0:0:
324,181,20407,2,0,P|302:145|286:135,2,56,0|2|8,0:2|0:2|0:2,0:0:0:0:
245,211,20853,1,2,0:2:0:0:
180,158,21001,6,0,P|138:158|121:167,2,56,0|2|8,0:2|0:2|0:2,0:0:0:0:
166,241,21447,1,2,0:2:0:0:
49,199,21596,2,0,P|41:170|47:131,1,56,0|2,0:2|0:2,0:0:0:0:
173,103,21893,2,0,P|181:132|175:171,1,56,8|2,0:2|0:2,0:0:0:0:
166,241,22190,6,0,P|238:244|305:241,1,132.999996448517,6|10,0:2|0:2,0:0:0:0:
369,192,22635,1,0,0:2:0:0:
451,218,22784,2,0,P|460:268|454:295,1,66.4999982242585,2|2,0:2|0:2,0:0:0:0:
405,352,23081,1,8,0:2:0:0:
321,332,23229,6,0,L|177:330,2,132.999996448517,2|2|2,0:2|0:2|0:2,0:0:0:0:
298,241,23972,1,0,0:0:0:0:
298,241,24120,2,0,L|207:241,2,66.4999982242585,0|10|0,0:2|0:2|0:2,0:0:0:0:
365,187,24566,6,0,P|371:140|319:60,1,132.999996448517,2|10,0:2|0:2,0:0:0:0:
246,48,25011,1,0,0:2:0:0:
164,76,25160,2,0,P|114:78|93:78,1,66.4999982242585,2|2,0:2|0:2,0:0:0:0:
35,138,25457,2,0,L|44:212,1,66.4999982242585,8|2,0:2|0:2,0:0:0:0:
129,214,25754,6,0,P|136:248|129:285,1,66.4999982242585,2|0,0:2|0:2,0:0:0:0:
76,346,26051,1,10,0:2:0:0:
76,346,26200,1,0,0:2:0:0:
160,361,26348,2,0,B|202:365|230:351|230:351|249:364|289:359,1,132.999996448517,2|8,0:2|0:2,0:0:0:0:
289,358,26942,6,0,P|292:286|289:219,1,132.999996448517,2|10,0:2|0:2,0:0:0:0:
249,149,27387,1,0,0:2:0:0:
277,66,27536,2,0,P|327:57|354:63,1,66.4999982242585,2|2,0:2|0:2,0:0:0:0:
421,93,27833,1,8,0:2:0:0:
418,179,27981,6,0,P|412:230|416:323,2,132.999996448517,2|2|0,0:2|0:2|0:2,0:0:0:0:
318,185,28724,1,2,0:2:0:0:
318,185,28872,2,0,P|321:221|318:276,2,66.4999982242585,0|10|2,0:2|0:2|0:2,0:0:0:0:
270,112,29318,6,0,P|223:106|143:158,1,132.999996448517,2|10,0:2|0:2,0:0:0:0:
100,216,29763,1,0,0:2:0:0:
58,139,29912,2,0,P|57:100|60:69,1,66.4999982242585,2|2,0:2|0:2,0:0:0:0:
118,8,30209,2,0,P|157:7|188:10,1,66.4999982242585,8|2,0:2|0:2,0:0:0:0:
247,69,30506,5,2,3:2:0:0:
322,25,30655,1,0,3:2:0:0:
401,59,30804,2,0,P|422:94|422:120,1,66.4999982242585,10|0,0:2|0:2,0:0:0:0:
401,156,31026,1,0,0:0:0:0:
401,156,31101,2,0,L|404:233,1,66.4999982242585,2|8,3:2|0:2,0:0:0:0:
310,275,31398,2,0,L|307:208,1,66.4999982242585,2|8,0:2|0:2,0:0:0:0:
248,138,31695,6,0,B|181:126|181:126|107:169,2,140,4|10|2,0:2|0:2|0:2,0:0:0:0:
200,215,32437,1,0,0:2:0:0:
200,215,32586,1,8,0:2:0:0:
346,323,32883,6,0,L|351:242,1,70,2|0,0:2|0:2,0:0:0:0:
441,247,33180,2,0,L|436:166,1,70,10|0,0:2|0:2,0:0:0:0:
346,164,33477,2,0,L|351:83,1,70,2|0,0:2|0:2,0:0:0:0:
440,81,33774,2,0,L|435:0,2,70,10|2|4,0:2|0:2|0:2,0:0:0:0:
262,38,34368,6,0,B|194:17|194:17|109:51,2,140,10|2|8,0:2|0:2|0:2,0:0:0:0:
262,38,35259,6,0,P|266:78|256:106,1,70,2|0,0:2|0:2,0:0:0:0:
181,158,35556,2,0,P|177:198|187:226,1,70,10|0,0:2|0:2,0:0:0:0:
252,289,35853,2,0,P|292:293|320:283,1,70,2|0,0:2|0:2,0:0:0:0:
370,207,36150,2,0,P|410:203|438:213,1,70,10|2,0:2|0:2,0:0:0:0:
491,286,36447,6,0,P|483:185|491:119,2,140,6|10|2,0:2|0:2|0:2,0:0:0:0:
426,350,37190,1,0,0:2:0:0:
426,350,37338,1,8,0:2:0:0:
228,315,37635,6,0,P|195:306|158:311,1,70,2|0,0:2|0:2,0:0:0:0:
68,307,37932,2,0,P|33:302|-1:311,1,70,10|0,0:2|0:2,0:0:0:0:
116,229,38229,2,0,L|116:143,1,70,2|0,0:2|0:2,0:0:0:0:
28,224,38526,2,0,L|28:154,1,70,10|2,0:2|0:2,0:0:0:0:
73,80,38823,6,0,P|136:110|204:68,1,140,2|8,0:2|0:2,0:0:0:0:
258,16,39269,2,0,P|221:70|271:142,1,140,0|0,0:2|0:2,0:0:0:0:
340,135,39714,2,0,L|422:134,1,70,8|0,0:2|0:2,0:0:0:0:
365,229,40011,6,0,L|295:229,1,70,10|0,0:2|0:2,0:0:0:0:
212,268,40308,1,8,0:2:0:0:
122,249,40457,1,0,0:2:0:0:
67,176,40605,2,0,P|73:138|96:110,1,70,8|8,3:3|3:3,0:0:0:0:
174,74,40903,2,0,L|215:70,3,35,4|0|4|0,3:3|0:0|3:3|0:0,0:0:0:0:
232,94,41200,6,0,P|269:103|353:77,1,119.000002269745,2|10,0:2|0:2,0:0:0:0:
453,209,41794,2,0,P|416:200|332:226,1,119.000002269745,2|8,0:2|0:2,0:0:0:0:
280,279,42239,6,0,L|215:285,1,59.5000011348725,2|0,0:2|0:2,0:0:0:0:
155,336,42536,1,2,0:2:0:0:
155,336,42685,2,0,L|117:282,1,59.5000011348725,10|0,0:2|0:2,0:0:0:0:
38,272,42982,2,0,L|65:212,1,59.5000011348725,2|2,0:2|0:2,0:0:0:0:
95,140,43279,1,10,0:2:0:0:
176,126,43427,1,0,0:2:0:0:
247,169,43576,6,0,P|281:182|377:171,2,119.000002269745,2|10|2,0:2|0:2|0:2,0:0:0:0:
176,126,44318,2,0,P|169:90|169:58,1,59.5000011348725,2|8,0:2|0:2,0:0:0:0:
236,19,44615,1,2,0:2:0:0:
236,19,44764,6,0,P|272:12|304:12,1,59.5000011348725,2|0,0:2|0:2,0:0:0:0:
375,31,45061,1,10,0:2:0:0:
417,102,45209,1,0,0:2:0:0:
384,179,45358,2,0,P|375:220|382:247,1,59.5000011348725,2|2,0:2|0:2,0:0:0:0:
447,330,45655,2,0,P|456:289|449:262,1,59.5000011348725,10|0,0:2|0:2,0:0:0:0:
378,236,45952,6,0,P|321:230|235:240,1,119.000002269745,2|10,0:2|0:2,0:0:0:0:
102,288,46546,2,0,P|93:251|119:165,1,119.000002269745,2|8,0:2|0:2,0:0:0:0:
170,114,46991,6,0,L|235:108,1,59.5000011348725,2|0,0:2|0:2,0:0:0:0:
289,51,47288,1,2,0:2:0:0:
289,51,47437,2,0,L|327:105,1,59.5000011348725,10|0,0:2|0:2,0:0:0:0:
402,126,47734,2,0,L|375:186,1,59.5000011348725,2|2,0:2|0:2,0:0:0:0:
333,251,48031,1,10,0:2:0:0:
253,225,48179,1,0,0:2:0:0:
201,290,48328,6,0,L|199:354,1,59.5000011348725,2|0,0:2|0:0,0:0:0:0:
117,286,48625,1,8,0:2:0:0:
117,286,48774,2,0,L|115:350,1,59.5000011348725,2|0,0:2|0:2,0:0:0:0:
33,329,49071,2,0,L|34:269,1,59.5000011348725,2|8,0:2|0:2,0:0:0:0:
74,196,49368,1,2,0:2:0:0:
169,173,49516,6,0,P|216:181|251:171,1,70,2|0,0:2|0:2,0:0:0:0:
303,104,49813,2,0,P|337:99|371:107,1,70,10|0,0:2|0:2,0:0:0:0:
446,173,50110,2,0,P|454:220|444:255,1,70,2|8,0:2|0:2,0:0:0:0:
393,321,50407,1,2,0:2:0:0:
393,321,50556,1,8,0:2:0:0:
300,272,50704,6,0,P|249:258|181:274,1,119.000002269745,2|10,0:2|0:2,0:0:0:0:
43,359,51299,2,0,L|32:236,1,119.000002269745,2|8,0:2|0:2,0:0:0:0:
77,170,51744,6,0,L|142:164,1,59.5000011348725,2|0,0:2|0:2,0:0:0:0:
198,109,52041,1,2,0:2:0:0:
198,109,52190,2,0,L|263:103,1,59.5000011348725,10|0,0:2|0:2,0:0:0:0:
316,44,52487,2,0,L|381:38,1,59.5000011348725,2|2,0:2|0:2,0:0:0:0:
442,88,52784,1,10,0:2:0:0:
409,165,52932,1,0,0:2:0:0:
453,236,53081,6,0,P|401:247|338:207,2,119.000002269745,2|10|2,0:2|0:2|0:2,0:0:0:0:
409,165,53823,2,0,L|407:98,1,59.5000011348725,2|8,0:2|0:2,0:0:0:0:
358,37,54120,1,2,0:2:0:0:
358,37,54269,6,0,L|278:35,1,59.5000011348725,0|2,0:2|0:2,0:0:0:0:
224,74,54566,1,10,0:2:0:0:
150,35,54714,1,0,0:2:0:0:
75,73,54863,2,0,L|68:139,1,59.5000011348725,2|2,0:2|0:2,0:0:0:0:
128,190,55160,2,0,L|135:256,1,59.5000011348725,10|0,0:2|0:2,0:0:0:0:
157,329,55457,6,0,P|211:343|293:322,1,119.000002269745,2|10,0:2|0:2,0:0:0:0:
425,266,56051,2,0,P|371:252|289:273,1,119.000002269745,2|8,0:2|0:2,0:0:0:0:
245,209,56496,6,0,P|246:174|239:144,1,59.5000011348725,2|0,0:2|0:2,0:0:0:0:
182,89,56794,1,2,0:2:0:0:
182,89,56942,2,0,P|147:88|117:95,1,59.5000011348725,10|0,0:2|0:2,0:0:0:0:
65,153,57239,2,0,P|64:188|71:218,1,59.5000011348725,2|2,0:2|0:2,0:0:0:0:
108,285,57536,1,10,0:2:0:0:
188,304,57684,1,0,0:2:0:0:
256,255,57833,6,0,B|313:244|313:244|384:280,1,119.000002269745,2|10,0:2|0:2,0:0:0:0:
435,320,58279,1,0,0:2:0:0:
435,320,58427,2,0,P|445:271|444:251,1,59.5000011348725,2|2,0:2|0:2,0:0:0:0:
407,186,58724,2,0,P|397:137|398:117,1,59.5000011348725,8|2,0:2|0:2,0:0:0:0:
372,32,59021,6,0,B|332:73|290:70|290:70|234:28,1,140,2|8,0:2|0:2,0:0:0:0:
79,134,59615,2,0,B|119:93|161:96|161:96|217:138,1,140,2|8,0:2|0:2,0:0:0:0:
266,195,60061,1,0,0:2:0:0:
330,268,60209,6,0,B|367:295|367:295|409:298|449:257,1,140,2|8,0:2|0:3,0:0:0:0:
266,195,60804,2,0,B|208:186|166:197|166:197|215:246,1,140,4|12,0:3|0:2,0:0:0:0:
339,356,61398,5,2,0:2:0:0:
256,192,61472,12,2,64962,0:2:0:0:
156,132,70457,5,0,3:2:0:0:
116,205,70605,2,0,P|130:256|118:294,1,84,8|0,0:2|0:0,0:0:0:0:
84,315,70903,6,0,L|233:303,1,125.999996154785,2|10,0:2|0:2,0:0:0:0:
288,344,71348,1,0,0:2:0:0:
359,292,71497,2,0,P|373:255|371:228,2,62.9999980773926,2|2|8,0:2|0:2|0:2,0:0:0:0:
285,243,71942,6,0,L|284:172,1,62.9999980773926,2|0,0:2|0:2,0:0:0:0:
196,194,72239,2,0,L|195:123,1,62.9999980773926,2|8,0:2|0:2,0:0:0:0:
107,142,72536,2,0,L|106:71,2,62.9999980773926,2|0|2,0:2|0:2|0:2,0:0:0:0:
59,216,72982,2,0,P|94:233|129:226,1,62.9999980773926,10|0,0:2|0:2,0:0:0:0:
196,194,73279,6,0,L|331:181,1,125.999996154785,2|10,0:2|0:2,0:0:0:0:
395,228,73724,1,0,0:2:0:0:
384,315,73873,2,0,P|351:337|317:339,1,62.9999980773926,2|2,0:2|0:2,0:0:0:0:
240,344,74170,2,0,P|209:337|184:318,1,62.9999980773926,8|2,0:2|0:2,0:0:0:0:
135,244,74467,5,0,0:2:0:0:
135,244,74764,1,8,0:2:0:0:
82,314,74912,1,0,0:2:0:0:
43,234,75061,5,2,0:2:0:0:
207,170,75358,1,8,0:3:0:0:
43,234,75655,6,0,P|39:175|47:95,1,125.999996154785,2|8,0:2|0:2,0:0:0:0:
209,45,76249,2,0,P|213:104|205:184,1,125.999996154785,2|8,0:2|0:2,0:0:0:0:
275,227,76695,6,0,L|365:220,1,62.9999980773926,2|0,0:2|0:2,0:0:0:0:
410,272,76992,1,2,0:2:0:0:
346,332,77140,2,0,L|283:336,1,62.9999980773926,10|0,0:2|0:2,0:0:0:0:
200,305,77437,1,2,0:2:0:0:
123,350,77586,1,0,0:2:0:0:
43,312,77734,6,0,P|45:277|53:240,1,62.9999980773926,10|0,0:2|0:2,0:0:0:0:
122,198,78031,2,0,P|125:168|119:127,1,62.9999980773926,2|0,0:2|0:2,0:0:0:0:
81,56,78328,1,10,0:2:0:0:
81,56,78477,1,0,0:2:0:0:
168,61,78625,2,0,L|247:56,1,62.9999980773926,2|2,0:2|0:2,0:0:0:0:
312,92,78922,1,8,0:2:0:0:
312,92,79071,6,0,L|391:97,1,62.9999980773926,2|0,0:2|0:2,0:0:0:0:
436,159,79368,1,2,0:2:0:0:
399,238,79516,2,0,L|406:320,1,62.9999980773926,10|0,0:2|0:2,0:0:0:0:
329,347,79813,1,0,3:3:0:0:
329,347,79962,1,10,0:2:0:0:
241,334,80110,1,0,3:3:0:0:
241,334,80259,1,10,0:2:0:0:
203,254,80407,6,0,P|211:187|187:134,1,125.999996154785,4|10,0:2|0:2,0:0:0:0:
11,155,81002,2,0,P|3:222|27:275,1,125.999996154785,2|8,0:2|0:2,0:0:0:0:
190,339,81596,6,0,L|261:330,1,62.9999980773926,2|0,0:2|0:2,0:0:0:0:
336,359,81893,2,0,L|363:293,1,62.9999980773926,10|0,0:2|0:2,0:0:0:0:
429,246,82190,2,0,L|385:189,1,62.9999980773926,2|0,0:2|0:2,0:0:0:0:
375,108,82487,2,0,L|304:116,2,62.9999980773926,10|2|4,0:2|0:2|0:2,0:0:0:0:
212,39,83081,6,0,L|141:47,1,62.9999980773926,10|0,0:2|0:2,0:0:0:0:
68,82,83378,2,0,B|47:122|47:122|64:209,1,125.999996154785,2|8,0:2|0:2,0:0:0:0:
162,346,83972,6,0,P|201:336|228:332,1,62.9999980773926,2|0,0:2|0:2,0:0:0:0:
309,352,84269,2,0,L|313:283,1,62.9999980773926,10|0,0:2|0:2,0:0:0:0:
381,233,84566,1,2,0:2:0:0:
302,193,84714,1,0,0:2:0:0:
238,254,84863,2,0,L|160:253,1,62.9999980773926,10|2,0:2|0:2,0:0:0:0:
94,215,85160,6,0,L|80:65,1,125.999996154785,4|10,0:2|0:2,0:0:0:0:
253,45,85754,2,0,L|264:170,1,125.999996154785,2|8,0:2|0:2,0:0:0:0:
187,329,86348,6,0,L|113:337,1,62.9999980773926,2|0,0:2|0:2,0:0:0:0:
44,296,86645,2,0,L|36:222,1,62.9999980773926,10|0,0:2|0:2,0:0:0:0:
88,161,86942,2,0,L|162:169,1,62.9999980773926,2|2,0:2|0:2,0:0:0:0:
227,124,87239,2,0,L|235:50,1,62.9999980773926,10|0,0:2|0:2,0:0:0:0:
153,23,87536,6,0,P|113:47|14:32,1,125.999996154785,2|8,0:2|0:2,0:0:0:0:
12,219,88130,2,0,P|52:195|151:210,1,125.999996154785,2|8,0:2|0:2,0:0:0:0:
298,149,88724,6,0,L|379:141,1,62.9999980773926,0|0,0:2|0:2,0:0:0:0:
430,196,89021,2,0,L|438:277,1,62.9999980773926,8|0,0:2|0:2,0:0:0:0:
378,325,89318,1,8,0:3:0:0:
300,281,89467,1,8,0:3:0:0:
212,281,89615,1,12,0:3:0:0:
137,327,89764,1,4,0:3:0:0:
68,271,89912,6,0,L|74:208,1,62.9999980773926,2|0,0:2|0:2,0:0:0:0:
134,143,90209,2,0,L|128:80,1,62.9999980773926,10|0,0:2|0:2,0:0:0:0:
198,27,90506,2,0,P|239:37|277:35,1,62.9999980773926,2|2,0:2|0:2,0:0:0:0:
346,15,90804,1,8,0:2:0:0:
419,63,90952,6,0,P|423:124|420:202,1,125.999996154785,2|2,0:2|0:2,0:0:0:0:
358,251,91398,2,0,L|277:241,1,62.9999980773926,10|0,0:2|0:2,0:0:0:0:
207,234,91695,1,2,0:2:0:0:
158,307,91843,1,2,0:2:0:0:
72,285,91992,2,0,L|65:213,1,62.9999980773926,10|0,0:2|0:2,0:0:0:0:
117,150,92289,6,0,L|189:143,1,62.9999980773926,2|0,0:2|0:2,0:0:0:0:
266,161,92586,1,10,0:2:0:0:
266,161,92734,1,0,0:2:0:0:
303,240,92883,2,0,P|298:272|301:303,1,62.9999980773926,2|2,0:2|0:2,0:0:0:0:
371,357,93180,2,0,P|402:361|433:358,1,62.9999980773926,8|2,0:2|0:2,0:0:0:0:
481,284,93477,6,0,L|489:148,1,125.999996154785,2|10,0:2|0:2,0:0:0:0:
437,86,93922,1,0,0:2:0:0:
358,126,94071,2,0,P|316:139|284:139,1,62.9999980773926,2|2,0:2|0:2,0:0:0:0:
208,139,94368,2,0,P|176:135|147:125,1,62.9999980773926,10|0,0:2|0:2,0:0:0:0:
91,56,94665,6,0,L|94:204,1,125.999996154785,2|10,0:2|0:2,0:0:0:0:
43,253,95110,1,0,0:2:0:0:
68,337,95259,2,0,P|138:323|200:339,1,125.999996154785,2|8,0:2|0:2,0:0:0:0:
274,361,95704,6,0,P|313:345|298:259,1,125.999996154785,2|2,0:2|0:2,0:0:0:0:
242,217,96150,2,0,L|255:136,1,62.9999980773926,10|0,0:2|0:2,0:0:0:0:
265,67,96447,1,2,0:2:0:0:
202,4,96596,1,2,0:2:0:0:
118,30,96744,2,0,P|87:37|53:34,1,62.9999980773926,10|0,0:2|0:2,0:0:0:0:
9,109,97041,6,0,L|21:180,1,62.9999980773926,2|0,0:2|0:2,0:0:0:0:
41,256,97338,1,10,0:2:0:0:
114,304,97487,1,0,0:2:0:0:
199,282,97635,2,0,L|274:277,1,62.9999980773926,2|2,0:2|0:2,0:0:0:0:
333,225,97932,2,0,L|408:220,1,62.9999980773926,8|2,0:2|0:2,0:0:0:0:
462,279,98229,6,0,P|465:329|389:339,1,125.999996154785,2|10,0:2|0:2,0:0:0:0:
241,274,98823,2,0,P|231:236|236:195,1,62.9999980773926,2|8,3:2|0:2,0:0:0:0:
248,171,99046,1,0,0:0:0:0:
248,171,99120,1,2,0:2:0:0:
311,108,99269,1,8,0:2:0:0:
398,112,99417,6,0,P|436:126|453:213,1,125.999996154785,2|10,0:2|0:2,0:0:0:0:
400,269,99863,1,0,0:2:0:0:
400,269,100011,2,0,L|404:352,1,62.9999980773926,2|0,0:2|0:2,0:0:0:0:
324,373,100308,1,10,0:2:0:0:
247,328,100457,6,0,B|215:309|215:309|120:321,1,125.999996154785,2|2,0:2|0:2,0:0:0:0:
41,295,100903,2,0,P|21:268|18:229,1,62.9999980773926,10|0,0:2|0:2,0:0:0:0:
85,184,101200,2,0,P|98:153|130:131,1,62.9999980773926,2|2,0:2|0:2,0:0:0:0:
203,168,101497,2,0,P|236:164|271:181,1,62.9999980773926,10|0,0:2|0:2,0:0:0:0:
333,228,101794,5,2,0:2:0:0:
415,195,101942,1,0,0:2:0:0:
427,107,102091,2,0,L|424:28,1,62.9999980773926,10|0,0:2|0:2,0:0:0:0:
337,57,102388,2,0,P|307:76|269:77,1,62.9999980773926,2|2,0:2|0:2,0:0:0:0:
201,39,102685,1,8,0:2:0:0:
119,72,102833,6,0,L|124:148,1,62.9999980773926,2|0,0:2|0:2,0:0:0:0:
176,205,103130,1,2,0:2:0:0:
250,252,103279,2,0,L|341:241,1,62.9999980773926,10|0,0:2|0:2,0:0:0:0:
293,330,103576,2,0,L|230:337,1,62.9999980773926,2|2,0:2|0:2,0:0:0:0:
151,297,103873,2,0,L|88:289,1,62.9999980773926,10|0,0:2|0:2,0:0:0:0:
23,229,104170,6,0,L|31:87,1,125.999996154785,2|10,0:2|0:2,0:0:0:0:
78,29,104615,1,0,0:2:0:0:
155,72,104764,2,0,B|216:99|220:44|280:81,1,125.999996154785,2|10,0:2|0:2,0:0:0:0:
344,133,105209,6,0,L|352:205,1,62.9999980773926,2|0,0:2|0:2,0:0:0:0:
318,277,105506,1,2,0:2:0:0:
370,348,105655,2,0,P|401:357|451:343,1,62.9999980773926,10|0,0:2|0:2,0:0:0:0:
487,284,105952,2,0,L|496:213,1,62.9999980773926,2|2,0:2|0:2,0:0:0:0:
453,143,106249,2,0,L|444:72,1,62.9999980773926,10|0,0:2|0:2,0:0:0:0:
369,34,106546,6,0,P|313:55|220:48,1,125.999996154785,2|10,0:2|0:2,0:0:0:0:
168,16,106992,1,0,0:2:0:0:
85,45,107140,2,0,L|90:116,1,62.9999980773926,2|2,0:2|0:2,0:0:0:0:
148,173,107437,2,0,L|143:244,1,62.9999980773926,8|2,0:2|0:2,0:0:0:0:
98,311,107734,6,0,P|121:287|224:292,1,125.999996154785,2|8,0:2|0:2,0:0:0:0:
372,347,108328,2,0,P|348:324|353:221,1,125.999996154785,2|10,0:2|0:2,0:0:0:0:
414,73,108922,6,0,P|391:97|288:92,1,125.999996154785,2|8,0:2|0:3,0:0:0:0:
140,37,109516,2,0,P|164:60|159:163,1,125.999996154785,4|12,0:3|0:2,0:0:0:0:
45,299,110110,6,0,L|136:297,1,70,2|0,0:2|0:0,0:0:0:0:
192,345,110407,1,8,0:2:0:0:
262,286,110556,2,0,P|326:275|382:337,1,140,2|0,0:2|0:2,0:0:0:0:
468,311,111002,2,0,L|474:225,1,70,10|0,0:2|0:2,0:0:0:0:
410,174,111299,6,0,P|353:180|349:99,1,140,2|8,0:2|0:2,0:0:0:0:
390,38,111744,2,0,P|321:75|247:39,1,140,2|0,0:2|0:2,0:0:0:0:
190,109,112190,2,0,L|199:191,1,70,10|0,0:2|0:2,0:0:0:0:
255,249,112487,6,0,P|255:284|246:331,1,70,2|0,0:2|0:0,0:0:0:0:
171,366,112784,1,8,0:2:0:0:
90,323,112932,2,0,P|81:249|84:173,1,140,2|0,0:2|0:2,0:0:0:0:
138,110,113378,2,0,L|220:112,1,70,10|0,0:2|0:2,0:0:0:0:
290,72,113675,6,0,L|372:74,1,70,2|0,0:2|0:2,0:0:0:0:
434,125,113972,1,8,0:2:0:0:
434,125,114120,1,2,0:2:0:0:
378,197,114269,2,0,B|398:249|393:292|393:292|349:275,1,140,0|10,0:2|0:2,0:0:0:0:
173,304,114863,6,0,P|187:266|175:213,1,70,2|0,0:2|0:0,0:0:0:0:
95,254,115160,1,8,0:2:0:0:
132,170,115309,2,0,P|129:105|129:27,1,140,2|0,0:2|0:2,0:0:0:0:
213,63,115755,2,0,P|256:71|299:57,1,70,10|0,0:2|0:2,0:0:0:0:
360,21,116052,6,0,L|358:175,1,140,2|0,0:2|0:0,0:0:0:0:
400,241,116497,2,0,P|403:299|336:357,1,140,2|0,0:2|0:2,0:0:0:0:
315,268,116943,2,0,L|233:259,1,70,10|0,0:2|0:2,0:0:0:0:
175,201,117240,6,0,P|140:201|93:210,1,70,2|0,0:2|0:0,0:0:0:0:
53,281,117537,1,8,0:2:0:0:
121,340,117685,2,0,P|195:349|270:340,1,140,2|0,0:2|0:2,0:0:0:0:
315,268,118131,2,0,L|313:186,1,70,10|0,0:2|0:2,0:0:0:0:
296,108,118427,6,0,P|253:98|204:105,1,70,2|0,0:2|0:2,0:0:0:0:
155,155,118724,2,0,P|112:165|63:158,1,70,8|2,0:2|0:2,0:0:0:0:
11,111,119021,1,0,3:2:0:0:
6,202,119170,1,8,0:2:0:0:
77,257,119318,1,2,3:2:0:0:
166,239,119467,1,8,0:2:0:0:
243,285,119615,5,8,3:3:0:0:
243,285,119912,2,0,L|399:272,1,140,14|0,0:2|0:2,0:0:0:0:
408,185,120358,2,0,L|268:196,1,140,2|0,0:2|0:2,0:0:0:0:
190,148,120804,6,0,P|184:106|190:74,1,70,2|0,0:2|0:2,0:0:0:0:
258,20,121101,2,0,L|337:23,1,70,8|0,0:2|0:2,0:0:0:0:
406,71,121398,2,0,P|412:113|406:145,1,70,0|0,0:2|0:2,0:0:0:0:
338,199,121695,2,0,L|259:196,1,70,10|0,0:2|0:2,0:0:0:0:
185,234,121992,6,0,P|138:244|40:212,1,140,2|8,0:2|0:2,0:0:0:0:
63,130,122437,2,0,P|110:120|208:152,1,140,2|0,0:2|0:2,0:0:0:0:
268,196,122883,2,0,L|338:199,1,70,10|0,0:2|0:2,0:0:0:0:
422,233,123180,6,0,P|438:279|431:317,1,70,2|0,0:2|0:0,0:0:0:0:
382,373,123477,1,8,0:2:0:0:
295,345,123625,2,0,L|209:340,1,70,2|0,0:2|0:2,0:0:0:0:
136,363,123922,1,0,0:2:0:0:
58,315,124071,2,0,L|64:236,1,70,10|0,0:2|0:2,0:0:0:0:
118,172,124368,6,0,P|156:186|210:177,1,70,2|0,0:2|0:0,0:0:0:0:
169,94,124665,1,8,0:2:0:0:
253,127,124814,2,0,B|307:136|307:136|389:109,1,140,2|0,0:2|0:0,0:0:0:0:
460,53,125260,2,0,P|475:84|473:139,1,70,10|0,0:2|0:2,0:0:0:0:
422,192,125557,6,0,L|420:346,1,140,2|8,0:2|0:2,0:0:0:0:
331,350,126002,2,0,L|332:210,1,140,2|0,0:2|0:2,0:0:0:0:
298,125,126448,2,0,P|268:117|216:116,1,70,10|0,0:2|0:2,0:0:0:0:
143,144,126744,6,0,P|135:173|134:226,1,70,2|0,0:2|0:0,0:0:0:0:
161,300,127042,1,8,0:2:0:0:
231,357,127190,2,0,P|305:366|378:343,1,140,2|0,0:2|0:2,0:0:0:0:
421,275,127635,1,10,0:2:0:0:
421,275,127784,1,0,0:2:0:0:
377,195,127932,6,0,B|356:152|384:103|384:103|353:91|353:91|376:59|366:-8,2,210,2|2|2,0:2|0:2|0:2,0:0:0:0:
217,106,129120,1,2,3:2:0:0:
289,343,129714,5,6,0:2:0:0:
256,192,129789,12,0,135061,0:0:0:0:
