osu file format v14

[General]
AudioFilename: audio.mp3
AudioLeadIn: 0
PreviewTime: 31620
Countdown: 0
SampleSet: Soft
StackLeniency: 0.5
Mode: 0
LetterboxInBreaks: 0
WidescreenStoryboard: 1

[Editor]
Bookmarks: 61398,70903,80407,89912,110110
DistanceSpacing: 1
BeatDivisor: 4
GridSize: 8
TimelineZoom: 2.5

[Metadata]
Title:Pinocchio
TitleUnicode:ピノキオ
Artist:ORESKABAND
ArtistUnicode:オレスカバンド
Creator:Monstrata
Version:NiNo's Insane
Source:NARUTO -ナルト-
Tags:doormat akitoshi corinn sahuang my angel azusa snownino_ naruto uzumaki ska ending 14 ed
BeatmapID:1430518
BeatmapSetID:674401

[Difficulty]
HPDrainRate:6
CircleSize:4
OverallDifficulty:7
ApproachRate:9
SliderMultiplier:1.6
SliderTickRate:1

[Events]
//Background and Video events
0,0,"pinocchio.jpg",0,0
//Break Periods
//Storyboard Layer 0 (Background)
//Storyboard Layer 1 (Fail)
//Storyboard Layer 2 (Pass)
//Storyboard Layer 3 (Foreground)
//Storyboard Sound Samples

[TimingPoints]
804,297.029702970297,4,3,1,70,1,0
804,-133.333333333333,4,3,1,70,0,0
10308,-100,4,2,1,70,0,0
19962,-100,4,2,1,70,0,0
22190,-100,4,2,1,70,0,0
31695,-83.3333333333333,4,2,1,70,0,1
41200,-100,4,2,1,70,0,0
80407,-83.3333333333333,4,2,1,70,0,1
89912,-100,4,2,1,70,0,0
127932,-100,4,2,1,50,0,0
129714,-100,4,2,1,90,0,0
130011,-100,4,2,1,10,0,0
136249,-100,4,2,1,5,0,0

[Colours]
Combo1 : 136,255,136
Combo2 : 255,255,106
Combo3 : 94,255,255
Combo4 : 255,173,91

[HitObjects]
454,94,804,6,0,L|325:69,1,120.000004577637,2|0,0:2|0:0,0:0:0:0:
269,10,1249,2,0,L|140:35,1,120.000004577637,2|0,0:2|0:0,0:0:0:0:
65,4,1695,2,0,L|21:63,1,60.0000022888184,2|0,0:2|0:0,0:0:0:0:
40,141,1992,6,0,P|80:160|112:160,1,60.0000022888184,0|0,0:2|0:0,0:0:0:0:
124,246,2289,2,0,P|160:220|176:193,1,60.0000022888184,0|0,0:2|0:0,0:0:0:0:
258,223,2586,2,0,P|254:178|238:151,1,60.0000022888184,0|0,0:2|0:0,0:0:0:0:
304,94,2883,2,0,P|263:74|232:75,1,60.0000022888184,0|0,0:2|0:0,0:0:0:0:
316,178,3180,6,0,B|368:180|368:180|386:111,1,120.000004577637,2|0,0:2|0:0,0:0:0:0:
373,30,3625,2,0,B|321:28|321:28|303:97,1,120.000004577637,2|0,0:2|0:0,0:0:0:0:
235,146,4071,2,0,L|216:78,1,60.0000022888184,2|0,0:2|0:0,0:0:0:0:
248,231,4368,2,0,L|280:348,1,120.000004577637,2|0,0:2|0:0,0:0:0:0:
167,199,4813,2,0,L|134:81,1,120.000004577637,2|0,0:2|0:0,0:0:0:0:
180,284,5259,2,0,P|145:284|121:271,1,60.0000022888184,2|0,0:2|0:0,0:0:0:0:
248,231,5556,6,0,L|383:244,1,120.000004577637,2|0,0:2|0:0,0:0:0:0:
449,204,6002,2,0,B|428:162|428:162|348:154,1,120.000004577637,2|0,0:2|0:0,0:0:0:0:
368,66,6447,2,0,L|435:72,1,60.0000022888184,2|0,0:2|0:0,0:0:0:0:
267,141,6744,6,0,L|207:135,1,60.0000022888184,0|0,0:2|0:0,0:0:0:0:
220,47,7041,2,0,L|287:53,1,60.0000022888184,0|0,0:2|0:0,0:0:0:0:
119,122,7338,2,0,L|59:116,1,60.0000022888184,0|0,0:2|0:0,0:0:0:0:
72,28,7635,2,0,L|139:34,1,60.0000022888184,0|0,0:2|0:0,0:0:0:0:
220,47,7932,6,0,L|207:186,1,120.000004577637,2|0,0:2|0:0,0:0:0:0:
125,221,8378,2,0,L|137:360,1,120.000004577637,2|0,0:2|0:0,0:0:0:0:
214,226,8823,2,0,L|208:166,1,60.0000022888184,2|0,0:2|0:0,0:0:0:0:
291,111,9120,2,0,L|303:250,1,120.000004577637,2|0,0:2|0:2,0:0:0:0:
224,345,9566,2,0,L|213:225,1,120.000004577637,2|0,0:2|0:2,0:0:0:0:
389,235,10011,1,8,3:3:0:0:
150,175,10308,6,0,L|59:165,1,80,6|0,0:2|0:0,0:0:0:0:
213,225,10605,2,0,L|304:215,1,80,8|2,0:2|0:2,0:0:0:0:
225,146,10903,1,0,0:0:0:0:
162,96,11051,1,0,0:2:0:0:
213,225,11200,2,0,L|208:323,1,80,10|0,0:2|0:2,0:0:0:0:
150,175,11497,5,2,0:2:0:0:
138,254,11645,1,0,0:2:0:0:
87,125,11794,1,8,0:2:0:0:
162,96,11942,2,0,P|233:66|302:123,1,160,2|0,0:2|0:2,0:0:0:0:
75,204,12388,2,0,P|36:188|12:149,1,80,10|0,0:2|0:2,0:0:0:0:
87,125,12685,6,0,P|81:83|103:42,1,80,2|0,0:2|0:0,0:0:0:0:
162,96,12982,2,0,P|195:70|241:68,1,80,8|2,0:2|0:2,0:0:0:0:
224,146,13279,1,0,0:0:0:0:
150,175,13427,1,0,0:2:0:0:
300,117,13576,2,0,L|287:201,1,80,10|0,0:2|0:2,0:0:0:0:
213,226,13873,5,2,0:2:0:0:
150,175,14021,1,0,0:2:0:0:
287,196,14170,1,8,0:2:0:0:
276,277,14318,2,0,P|208:306|137:253,1,160,2|0,0:2|0:2,0:0:0:0:
350,247,14764,2,0,P|357:291|337:330,1,80,10|0,0:2|0:2,0:0:0:0:
287,196,15061,6,0,L|294:109,1,80,2|0,0:2|0:0,0:0:0:0:
424,217,15358,2,0,L|431:304,1,80,8|2,0:2|0:2,0:0:0:0:
361,166,15655,1,0,0:0:0:0:
350,247,15803,1,0,0:2:0:0:
435,136,15952,2,0,L|441:56,1,80,10|0,0:2|0:2,0:0:0:0:
361,166,16249,5,2,0:2:0:0:
424,217,16398,1,0,0:2:0:0:
298,115,16546,1,8,0:2:0:0:
285,195,16695,2,0,L|299:377,1,160,2|0,0:2|0:2,0:0:0:0:
222,144,17140,2,0,L|215:64,1,80,10|0,0:2|0:2,0:0:0:0:
209,224,17437,6,0,L|143:270,1,80,2|0,0:2|0:0,0:0:0:0:
298,115,17734,2,0,L|381:131,1,80,8|2,0:2|0:2,0:0:0:0:
285,195,18031,1,0,0:0:0:0:
222,144,18180,1,0,0:2:0:0:
348,246,18328,2,0,P|319:270|269:273,1,80,10|0,0:2|0:2,0:0:0:0:
209,224,18625,5,2,0:2:0:0:
285,195,18774,1,0,0:0:0:0:
259,355,18922,1,8,0:2:0:0:
342,333,19071,1,2,0:2:0:0:
342,333,19145,1,0,0:0:0:0:
342,333,19220,5,8,3:3:0:0:
348,246,19368,1,2,3:2:0:0:
285,195,19516,1,8,3:2:0:0:
297,115,19664,1,0,0:0:0:0:
235,64,19813,5,2,0:2:0:0:
159,93,19962,2,0,L|74:80,1,80,2|8,0:2|0:2,0:0:0:0:
221,144,20259,2,0,L|208:229,1,80,2|0,0:2|0:2,0:0:0:0:
145,173,20556,2,0,L|60:160,1,80,2|8,0:2|0:2,0:0:0:0:
209,223,20853,2,0,L|196:308,1,80,2|0,0:2|0:2,0:0:0:0:
285,195,21150,6,0,L|297:115,1,80,2|8,0:2|0:2,0:0:0:0:
271,276,21447,2,0,L|350:288,1,80,2|0,0:2|0:2,0:0:0:0:
364,207,21744,2,0,L|376:127,1,80,2|8,0:2|0:2,0:0:0:0:
429,300,22041,1,2,0:2:0:0:
443,219,22190,6,0,L|455:139,1,80,6|0,0:2|0:2,0:0:0:0:
469,58,22487,2,0,L|389:45,1,80,10|0,0:2|0:2,0:0:0:0:
310,33,22784,1,2,0:2:0:0:
297,115,22932,2,0,L|284:194,1,80,2|8,0:2|0:2,0:0:0:0:
239,259,23229,6,0,P|212:225|207:180,1,80,2|0,0:2|0:2,0:0:0:0:
125,184,23526,2,0,P|140:143|177:116,1,80,2|8,0:2|0:2,0:0:0:0:
134,48,23823,2,0,P|176:41|218:59,1,80,2|0,0:2|0:0,0:0:0:0:
247,122,24120,1,0,0:2:0:0:
206,189,24269,1,10,0:2:0:0:
167,120,24417,1,0,0:2:0:0:
211,54,24566,6,0,P|256:45|294:61,1,80,2|0,0:2|0:2,0:0:0:0:
323,124,24863,2,0,P|278:133|240:117,1,80,10|0,0:2|0:2,0:0:0:0:
363,58,25160,1,2,0:2:0:0:
399,126,25308,2,0,L|408:215,1,80,2|8,0:2|0:2,0:0:0:0:
417,285,25605,5,2,0:2:0:0:
342,253,25754,1,2,0:2:0:0:
278,301,25903,1,0,0:2:0:0:
205,269,26051,2,0,L|119:264,1,80,10|0,0:2|0:2,0:0:0:0:
116,184,26348,2,0,L|195:188,1,80,2|0,0:2|0:2,0:0:0:0:
269,221,26645,1,8,0:2:0:0:
205,269,26794,1,0,0:2:0:0:
196,188,26942,6,0,L|204:108,1,80,2|0,0:2|0:2,0:0:0:0:
269,221,27239,2,0,L|277:141,1,80,10|0,0:2|0:2,0:0:0:0:
278,302,27536,1,2,0:2:0:0:
342,254,27685,2,0,L|350:174,1,80,2|8,0:2|0:2,0:0:0:0:
412,123,27982,6,0,P|379:100|336:97,1,80,2|0,0:2|0:2,0:0:0:0:
327,17,28279,2,0,P|290:34|266:69,1,80,2|0,0:2|0:0,0:0:0:0:
276,141,28576,1,0,0:2:0:0:
192,39,28724,2,0,P|188:79|207:117,1,80,2|0,0:2|0:2,0:0:0:0:
214,192,29021,1,10,0:2:0:0:
142,161,29170,1,2,0:2:0:0:
152,239,29318,6,0,L|149:328,1,80,2|0,0:2|0:2,0:0:0:0:
223,269,29615,2,0,L|220:348,1,80,10|0,0:2|0:2,0:0:0:0:
286,223,29912,1,2,0:2:0:0:
294,299,30061,2,0,L|291:378,1,80,2|8,0:2|0:2,0:0:0:0:
357,253,30358,1,2,0:2:0:0:
365,329,30506,6,0,B|451:341,1,80,2|0,3:2|3:2,0:0:0:0:
436,264,30804,2,0,B|356:252,1,80,10|0,0:2|0:2,0:0:0:0:
357,253,31026,1,0,0:0:0:0:
357,253,31101,1,2,3:2:0:0:
294,299,31249,1,8,0:2:0:0:
286,223,31398,1,2,0:2:0:0:
223,269,31546,1,8,0:2:0:0:
349,177,31695,5,4,0:2:0:0:
349,177,31992,2,0,L|326:62,1,95.9999970703126,10|0,0:2|0:2,0:0:0:0:
235,74,32289,2,0,L|197:270,1,191.999994140625,2|8,0:2|0:2,0:0:0:0:
198,263,32883,6,0,L|89:274,1,95.9999970703126,2|0,0:2|0:2,0:0:0:0:
286,223,33180,2,0,L|395:234,1,95.9999970703126,10|0,0:2|0:2,0:0:0:0:
276,319,33477,1,2,0:2:0:0:
198,263,33625,1,0,0:2:0:0:
286,223,33774,1,10,0:2:0:0:
276,319,33922,1,2,0:2:0:0:
208,167,34071,5,4,0:2:0:0:
208,167,34368,2,0,L|88:160,1,95.9999970703126,10|0,0:2|0:2,0:0:0:0:
66,76,34665,2,0,L|279:88,1,191.999994140625,2|8,0:2|0:2,0:0:0:0:
257,87,35259,6,0,L|352:92,1,95.9999970703126,2|0,0:2|0:2,0:0:0:0:
208,167,35556,1,10,0:2:0:0:
164,85,35704,1,0,0:2:0:0:
115,165,35853,2,0,L|19:159,1,95.9999970703126,2|0,0:2|0:2,0:0:0:0:
301,169,36150,2,0,L|396:174,1,95.9999970703126,10|2,0:2|0:2,0:0:0:0:
208,167,36447,6,0,P|183:207|187:274,1,95.9999970703126,6|0,0:2|0:2,0:0:0:0:
87,280,36744,2,0,P|109:321|169:351,1,95.9999970703126,10|0,0:2|0:2,0:0:0:0:
244,356,37041,2,0,L|205:148,1,191.999994140625,2|8,0:2|0:2,0:0:0:0:
208,167,37635,6,0,L|311:158,1,95.9999970703126,2|0,0:2|0:2,0:0:0:0:
130,109,37932,2,0,L|27:100,1,95.9999970703126,10|0,0:2|0:2,0:0:0:0:
219,71,38229,1,2,0:2:0:0:
212,171,38378,1,0,0:2:0:0:
219,71,38526,1,10,0:2:0:0:
212,171,38675,1,2,0:2:0:0:
310,58,38823,6,0,B|381:90|381:90|408:231,1,191.999994140625,2|8,0:2|0:2,0:0:0:0:
396,298,39269,1,0,0:2:0:0:
396,298,39417,2,0,B|325:266|325:266|298:125,1,191.999994140625,2|8,0:2|0:2,0:0:0:0:
310,58,39863,1,0,0:2:0:0:
310,58,40011,6,0,L|430:68,1,95.9999970703126,10|0,0:2|0:2,0:0:0:0:
224,99,40308,2,0,L|104:109,1,95.9999970703126,8|0,0:2|0:2,0:0:0:0:
304,154,40605,1,8,3:3:0:0:
218,195,40754,1,8,3:3:0:0:
298,250,40903,1,4,3:3:0:0:
212,291,41051,1,4,3:3:0:0:
384,209,41200,6,0,L|477:205,1,80,2|0,0:2|0:2,0:0:0:0:
298,250,41497,2,0,L|205:246,1,80,10|0,0:2|0:2,0:0:0:0:
142,274,41794,2,0,P|185:233|157:127,1,160,2|8,0:2|0:2,0:0:0:0:
115,196,42239,2,0,L|20:188,1,80,2|0,0:2|0:2,0:0:0:0:
93,119,42536,5,2,0:2:0:0:
172,140,42685,1,10,0:2:0:0:
115,196,42833,1,0,0:2:0:0:
193,217,42982,2,0,L|282:210,1,80,2|2,0:2|0:2,0:0:0:0:
252,134,43279,2,0,L|172:140,1,80,10|0,0:2|0:2,0:0:0:0:
328,155,43576,6,0,P|327:107|300:70,1,80,2|0,0:2|0:2,0:0:0:0:
273,211,43873,2,0,P|315:234|359:227,1,80,10|0,0:2|0:2,0:0:0:0:
252,134,44170,1,2,0:2:0:0:
193,217,44318,2,0,L|189:308,1,80,2|8,0:2|0:2,0:0:0:0:
172,140,44615,2,0,L|176:49,1,80,2|2,0:2|0:2,0:0:0:0:
113,223,44912,5,0,0:2:0:0:
92,146,45061,2,0,L|96:55,1,80,10|0,0:2|0:2,0:0:0:0:
33,229,45358,1,2,0:2:0:0:
12,152,45506,1,2,0:2:0:0:
113,223,45655,1,10,0:2:0:0:
92,146,45803,1,0,0:2:0:0:
193,217,45952,6,0,L|189:308,1,80,2|0,0:2|0:2,0:0:0:0:
109,302,46249,2,0,L|112:222,1,80,10|0,0:2|0:2,0:0:0:0:
92,146,46546,2,0,P|137:89|233:102,1,160,2|8,0:2|0:2,0:0:0:0:
250,166,46992,2,0,P|211:173|173:161,1,80,2|0,0:2|0:2,0:0:0:0:
301,103,47289,5,2,0:2:0:0:
332,180,47437,2,0,L|336:277,1,80,10|0,0:2|0:2,0:0:0:0:
384,115,47734,1,2,0:2:0:0:
415,192,47883,1,2,0:2:0:0:
467,127,48031,2,0,L|470:47,1,80,10|0,0:2|0:2,0:0:0:0:
498,204,48328,6,0,L|505:394,1,160,2|8,0:2|0:2,0:0:0:0:
424,371,48774,1,2,0:2:0:0:
420,291,48922,2,0,L|416:197,1,80,0|2,0:2|0:2,0:0:0:0:
344,379,49219,2,0,L|264:382,1,80,8|2,0:2|0:2,0:0:0:0:
340,295,49516,6,0,L|336:201,1,80,2|0,0:2|0:2,0:0:0:0:
257,222,49813,2,0,L|263:382,1,160,10|2,0:2|0:2,0:0:0:0:
184,370,50259,1,8,0:2:0:0:
184,370,50333,1,0,0:2:0:0:
184,370,50407,1,2,0:2:0:0:
179,289,50556,1,8,0:2:0:0:
109,328,50704,6,0,L|21:337,1,80,2|0,0:2|0:2,0:0:0:0:
104,247,51002,2,0,L|183:255,1,80,10|0,0:2|0:2,0:0:0:0:
29,205,51299,2,0,P|11:159|31:34,1,160,2|8,0:2|0:2,0:0:0:0:
95,82,51744,2,0,P|86:127|105:178,1,80,2|0,0:2|0:2,0:0:0:0:
158,207,52041,5,2,0:2:0:0:
214,150,52190,1,10,0:2:0:0:
278,198,52338,1,0,0:2:0:0:
334,141,52487,2,0,L|340:51,1,80,2|2,0:2|0:2,0:0:0:0:
398,189,52784,2,0,L|404:279,1,80,10|0,0:2|0:2,0:0:0:0:
387,347,53081,6,0,P|343:326|324:284,1,80,2|0,0:2|0:2,0:0:0:0:
253,330,53378,2,0,P|249:281|276:243,1,80,10|0,0:2|0:2,0:0:0:0:
339,221,53675,1,2,0:2:0:0:
200,204,53824,2,0,P|230:180|270:176,1,80,2|8,0:2|0:2,0:0:0:0:
282,97,54120,6,0,P|318:111|342:143,1,80,2|0,0:2|0:2,0:0:0:0:
270,176,54417,1,2,0:2:0:0:
208,127,54566,2,0,P|201:87|217:50,1,80,10|0,0:2|0:2,0:0:0:0:
200,204,54863,1,2,0:2:0:0:
138,155,55011,1,2,0:2:0:0:
130,232,55160,1,10,0:2:0:0:
68,183,55308,1,0,0:2:0:0:
60,260,55457,6,0,L|56:360,1,80,2|0,0:2|0:2,0:0:0:0:
137,342,55754,2,0,L|216:345,1,80,10|0,0:2|0:2,0:0:0:0:
269,284,56051,2,0,L|447:276,1,160,2|8,0:2|0:2,0:0:0:0:
509,275,56497,2,0,L|429:278,1,80,2|0,0:2|0:2,0:0:0:0:
431,357,56794,5,2,0:2:0:0:
512,355,56942,2,0,L|508:275,1,80,10|0,0:2|0:2,0:0:0:0:
506,196,57239,1,2,0:2:0:0:
425,198,57387,1,2,0:2:0:0:
429,278,57536,1,10,0:2:0:0:
508,275,57684,1,0,0:2:0:0:
506,196,57833,6,0,L|502:116,1,80,2|0,0:2|0:2,0:0:0:0:
345,201,58130,2,0,L|348:280,1,80,10|0,0:2|0:2,0:0:0:0:
350,359,58427,1,2,0:2:0:0:
429,278,58576,2,0,L|425:198,1,80,2|8,0:2|0:2,0:0:0:0:
424,120,58873,1,2,0:2:0:0:
345,201,59021,6,0,L|173:220,1,160,2|8,0:2|0:2,0:0:0:0:
106,230,59467,1,0,0:2:0:0:
137,156,59615,2,0,L|145:64,1,80,2|0,0:2|0:2,0:0:0:0:
186,219,59912,1,8,0:2:0:0:
58,168,60061,1,0,0:2:0:0:
216,144,60209,6,0,L|375:126,1,160,2|8,0:2|0:3,0:0:0:0:
454,116,60655,1,0,0:2:0:0:
404,52,60804,1,4,0:3:0:0:
375,126,60952,1,0,0:2:0:0:
483,42,61101,1,12,0:2:0:0:
483,42,61398,6,0,L|302:32,1,160,2|8,0:2|0:2,0:0:0:0:
243,24,61843,2,0,P|323:57|326:149,1,160,2|0,0:2|0:2,0:0:0:0:
258,104,62289,2,0,P|211:127|161:122,1,80,10|0,0:2|0:2,0:0:0:0:
126,71,62586,6,0,L|148:256,1,160,2|8,0:2|0:2,0:0:0:0:
67,211,63031,2,0,L|89:396,1,160,2|0,0:2|0:2,0:0:0:0:
165,357,63477,1,10,0:2:0:0:
165,357,63774,6,0,P|218:336|257:339,1,80,2|0,0:2|0:0,0:0:0:0:
319,325,64071,2,0,P|298:272|301:233,1,80,8|2,0:2|0:2,0:0:0:0:
309,170,64368,1,0,0:0:0:0:
371,219,64516,1,0,0:2:0:0:
235,200,64665,2,0,L|144:192,1,80,10|0,0:2|0:2,0:0:0:0:
247,121,64962,5,2,0:2:0:0:
309,170,65110,1,0,0:2:0:0:
223,279,65259,1,8,0:2:0:0:
298,250,65407,2,0,L|471:244,1,160,2|0,0:2|0:2,0:0:0:0:
389,167,65853,2,0,L|305:169,1,80,10|0,0:2|0:2,0:0:0:0:
235,200,66150,6,0,P|262:161|225:45,1,160,2|8,0:2|0:2,0:0:0:0:
165,26,66596,2,0,L|-7:45,1,160,2|0,0:2|0:2,0:0:0:0:
2,123,67041,2,0,L|81:131,1,80,10|0,0:2|0:2,0:0:0:0:
161,124,67338,6,0,P|110:134|76:239,1,160,2|8,0:2|0:2,0:0:0:0:
148,203,67784,2,0,P|182:242|290:219,1,160,2|0,0:2|0:2,0:0:0:0:
335,171,68229,1,10,0:2:0:0:
335,171,68526,6,0,L|327:79,1,80,2|0,0:2|0:0,0:0:0:0:
358,248,68823,2,0,L|351:327,1,80,8|2,0:2|0:2,0:0:0:0:
413,190,69120,1,0,0:0:0:0:
436,267,69269,1,0,0:2:0:0:
281,230,69417,2,0,L|201:223,1,80,10|0,0:2|0:2,0:0:0:0:
358,248,69714,5,2,0:2:0:0:
358,248,70457,1,0,3:2:0:0:
335,171,70605,1,8,0:2:0:0:
335,171,70903,6,0,L|430:163,1,80,2|0,0:2|0:2,0:0:0:0:
280,230,71200,2,0,L|200:223,1,80,10|0,0:2|0:2,0:0:0:0:
358,248,71497,1,2,0:2:0:0:
303,307,71645,2,0,L|223:300,1,80,2|8,0:2|0:2,0:0:0:0:
144,281,71942,6,0,P|176:312|184:365,1,80,2|0,0:2|0:2,0:0:0:0:
121,204,72239,2,0,P|110:247|68:280,1,80,2|8,0:2|0:2,0:0:0:0:
177,146,72536,2,0,P|134:158|84:138,1,80,2|0,0:2|0:2,0:0:0:0:
256,165,72833,2,0,P|287:196|295:248,2,80,2|10|0,0:2|0:2|0:2,0:0:0:0:
233,88,73279,6,0,P|243:44|285:11,1,80,2|0,0:2|0:2,0:0:0:0:
312,86,73576,2,0,P|322:129|364:162,1,80,10|0,0:2|0:2,0:0:0:0:
393,88,73873,1,2,0:2:0:0:
426,160,74021,2,0,P|399:189|391:228,1,80,2|8,0:2|0:2,0:0:0:0:
333,286,74318,6,0,P|324:247|298:217,1,80,2|0,0:2|0:2,0:0:0:0:
266,146,74615,2,0,P|234:129|177:142,1,80,2|8,0:2|0:2,0:0:0:0:
298,218,74912,1,0,0:2:0:0:
347,154,75061,1,2,0:2:0:0:
86,227,75358,1,8,0:3:0:0:
313,324,75655,6,0,L|494:318,1,160,2|8,0:2|0:2,0:0:0:0:
472,318,76249,1,2,0:2:0:0:
436,245,76398,2,0,L|426:158,1,80,2|8,0:2|0:2,0:0:0:0:
392,93,76695,6,0,P|356:122|346:163,1,80,2|0,0:2|0:2,0:0:0:0:
266,146,76992,2,0,P|273:191|303:220,1,80,2|10,0:2|0:2,0:0:0:0:
324,289,77289,1,0,0:2:0:0:
171,268,77437,2,0,P|214:284|254:272,1,80,2|0,0:2|0:2,0:0:0:0:
217,202,77734,2,0,P|173:185|133:197,1,80,10|0,0:2|0:2,0:0:0:0:
92,255,78031,6,0,P|106:207|16:130,1,160,2|10,0:2|0:2,0:0:0:0:
27,209,78477,1,0,0:2:0:0:
18,288,78625,1,2,0:2:0:0:
92,255,78774,2,0,L|187:250,1,80,2|8,0:2|0:2,0:0:0:0:
180,171,79071,6,0,L|85:176,1,80,2|0,0:2|0:2,0:0:0:0:
253,140,79368,1,2,0:2:0:0:
189,92,79517,2,0,L|109:96,1,80,10|0,0:2|0:2,0:0:0:0:
262,61,79813,5,0,3:3:0:0:
253,140,79962,1,10,0:2:0:0:
326,109,80110,1,0,3:3:0:0:
317,188,80259,1,10,0:2:0:0:
335,30,80407,5,4,0:2:0:0:
335,30,80704,2,0,L|451:25,1,95.9999970703126,10|0,0:2|0:2,0:0:0:0:
440,122,81002,2,0,L|450:359,1,191.999994140625,2|8,0:2|0:2,0:0:0:0:
448,313,81596,6,0,P|398:304|366:272,1,95.9999970703126,2|0,0:2|0:2,0:0:0:0:
289,216,81893,2,0,P|339:207|371:175,1,95.9999970703126,10|0,0:2|0:2,0:0:0:0:
382,80,82190,1,2,0:2:0:0:
292,118,82338,1,0,0:2:0:0:
370,176,82487,1,10,0:2:0:0:
382,80,82635,1,2,0:2:0:0:
289,216,82784,5,4,0:2:0:0:
289,216,83081,2,0,L|177:207,1,95.9999970703126,10|0,0:2|0:2,0:0:0:0:
98,231,83378,2,0,L|299:214,1,191.999994140625,2|8,0:2|0:2,0:0:0:0:
289,215,83972,6,0,L|298:109,1,95.9999970703126,2|0,0:2|0:2,0:0:0:0:
361,279,84269,1,10,0:2:0:0:
270,310,84417,1,0,0:2:0:0:
342,374,84566,2,0,L|448:383,1,95.9999970703126,2|0,0:2|0:2,0:0:0:0:
289,215,84863,2,0,L|193:206,1,95.9999970703126,10|2,0:2|0:2,0:0:0:0:
361,279,85160,6,0,P|384:228|374:167,1,95.9999970703126,4|0,0:2|0:2,0:0:0:0:
289,215,85457,2,0,P|258:168|198:147,1,95.9999970703126,10|0,0:2|0:2,0:0:0:0:
198,243,85754,2,0,P|159:288|15:289,1,191.999994140625,2|8,0:2|0:2,0:0:0:0:
33,299,86348,6,0,L|45:89,1,191.999994140625,2|10,0:2|0:2,0:0:0:0:
52,11,86794,1,0,0:2:0:0:
128,68,86942,2,0,L|119:183,1,95.9999970703126,2|2,0:2|0:2,0:0:0:0:
43,107,87239,1,10,0:2:0:0:
52,11,87388,1,0,0:2:0:0:
128,68,87536,6,0,L|337:77,1,191.999994140625,2|8,0:2|0:2,0:0:0:0:
415,83,87982,1,0,0:2:0:0:
415,83,88130,2,0,B|368:161|368:161|250:157,1,191.999994140625,2|8,0:2|0:2,0:0:0:0:
171,153,88576,1,0,0:2:0:0:
171,153,88724,6,0,L|275:157,1,95.9999970703126,0|0,0:2|0:2,0:0:0:0:
263,252,89021,2,0,L|167:247,1,95.9999970703126,8|0,0:2|0:2,0:0:0:0:
363,161,89318,1,8,0:3:0:0:
360,256,89467,1,8,0:3:0:0:
460,165,89615,1,12,0:3:0:0:
457,260,89764,1,4,0:3:0:0:
363,161,89912,6,0,L|368:65,1,80,2|0,0:2|0:2,0:0:0:0:
287,76,90209,2,0,L|282:155,1,80,10|0,0:2|0:2,0:0:0:0:
283,236,90506,2,0,P|265:181|162:164,1,160,2|8,0:2|0:2,0:0:0:0:
204,232,90952,2,0,L|199:311,1,80,2|0,0:2|0:2,0:0:0:0:
125,347,91249,5,2,0:2:0:0:
131,268,91397,1,10,0:2:0:0:
199,311,91546,1,0,0:2:0:0:
57,304,91695,2,0,P|49:265|75:207,1,80,2|2,0:2|0:2,0:0:0:0:
134,191,91992,2,0,P|142:230|116:288,1,80,10|0,0:2|0:2,0:0:0:0:
67,144,92289,6,0,L|239:131,1,160,2|10,0:2|0:2,0:0:0:0:
306,128,92734,1,0,0:2:0:0:
271,200,92883,2,0,L|178:207,1,80,2|2,0:2|0:2,0:0:0:0:
351,197,93180,1,8,0:2:0:0:
316,269,93328,2,0,L|223:276,1,80,2|2,0:2|0:2,0:0:0:0:
156,279,93625,5,0,0:2:0:0:
191,206,93774,2,0,P|210:156|211:123,1,80,10|0,0:2|0:2,0:0:0:0:
111,210,94071,1,2,0:2:0:0:
156,279,94219,1,2,0:2:0:0:
31,214,94368,1,10,0:2:0:0:
76,283,94516,1,0,0:2:0:0:
66,141,94665,6,0,L|73:47,1,80,2|0,0:2|0:2,0:0:0:0:
146,137,94962,1,10,0:2:0:0:
111,210,95110,1,0,0:2:0:0:
191,204,95259,2,0,L|285:211,1,80,2|0,0:2|0:2,0:0:0:0:
350,202,95556,1,8,0:2:0:0:
305,136,95704,2,0,L|225:130,1,80,2|0,0:2|0:2,0:0:0:0:
146,137,96002,5,2,0:2:0:0:
191,204,96150,2,0,L|183:298,1,80,10|0,0:2|0:2,0:0:0:0:
238,343,96447,1,2,0:2:0:0:
264,267,96596,1,2,0:2:0:0:
317,327,96744,1,10,0:2:0:0:
343,251,96893,1,0,0:2:0:0:
396,311,97041,6,0,P|431:337|482:343,1,80,2|0,0:2|0:2,0:0:0:0:
422,235,97338,2,0,P|462:217|492:176,1,80,10|0,0:2|0:2,0:0:0:0:
369,175,97635,1,2,0:2:0:0:
343,251,97784,2,0,L|350:352,1,80,2|8,0:2|0:2,0:0:0:0:
276,366,98081,1,2,0:2:0:0:
223,305,98229,6,0,L|122:312,1,80,2|0,0:2|0:2,0:0:0:0:
108,238,98526,2,0,P|140:283|81:382,1,160,10|2,0:2|3:2,0:0:0:0:
23,369,98972,1,8,0:2:0:0:
23,369,99046,1,0,0:0:0:0:
23,369,99120,1,2,0:2:0:0:
67,302,99269,1,8,0:2:0:0:
104,372,99417,6,0,L|194:366,1,80,2|0,0:2|0:2,0:0:0:0:
234,304,99714,2,0,L|324:298,1,80,10|0,0:2|0:2,0:0:0:0:
378,346,100011,2,0,P|344:304|361:198,1,160,2|10,0:2|0:2,0:0:0:0:
380,127,100457,2,0,P|345:149|290:142,1,80,2|0,0:2|0:2,0:0:0:0:
250,92,100754,5,2,0:2:0:0:
231,170,100903,2,0,L|231:261,1,80,10|0,0:2|0:2,0:0:0:0:
174,113,101200,1,2,0:2:0:0:
155,191,101348,1,2,0:2:0:0:
98,134,101497,1,10,0:2:0:0:
79,212,101645,1,0,0:2:0:0:
22,155,101794,5,2,0:2:0:0:
41,77,101942,2,0,P|80:56|127:62,1,80,0|10,0:2|0:2,0:0:0:0:
98,134,102239,1,0,0:2:0:0:
79,212,102388,1,2,0:2:0:0:
136,269,102536,2,0,P|97:290|50:284,1,80,2|8,0:2|0:2,0:0:0:0:
155,191,102833,6,0,P|191:209|190:327,1,160,2|2,0:2|0:2,0:0:0:0:
79,212,103279,2,0,P|80:167|109:128,1,80,10|0,0:2|0:2,0:0:0:0:
175,115,103576,1,2,0:2:0:0:
155,191,103724,1,2,0:2:0:0:
252,93,103873,1,10,0:2:0:0:
232,169,104021,1,0,0:2:0:0:
329,71,104170,6,0,L|421:45,1,80,2|0,0:2|0:2,0:0:0:0:
483,28,104467,2,0,P|477:73|497:119,1,80,10|0,0:2|0:2,0:0:0:0:
475,184,104764,2,0,P|430:178|384:198,2,80,2|0|10,0:2|0:2|0:2,0:0:0:0:
485,262,105209,2,0,P|473:300|480:339,1,80,2|0,0:2|0:2,0:0:0:0:
403,363,105506,5,2,0:2:0:0:
325,339,105655,2,0,P|332:300|321:262,1,80,10|0,0:2|0:2,0:0:0:0:
256,213,105952,1,2,0:2:0:0:
207,277,106101,1,2,0:2:0:0:
142,228,106249,1,10,0:2:0:0:
93,292,106398,1,0,0:2:0:0:
28,243,106546,6,0,L|37:152,1,80,2|0,0:2|0:2,0:0:0:0:
107,126,106843,2,0,L|98:35,1,80,10|0,0:2|0:2,0:0:0:0:
174,18,107140,1,2,0:2:0:0:
248,46,107289,2,0,L|240:125,1,80,2|8,0:2|0:2,0:0:0:0:
174,171,107586,1,2,0:2:0:0:
107,126,107734,6,0,P|152:91|251:155,1,160,2|8,0:2|0:2,0:0:0:0:
241,216,108180,1,0,0:2:0:0:
307,170,108328,2,0,L|317:80,1,80,2|0,0:2|0:2,0:0:0:0:
174,171,108625,2,0,L|165:250,1,80,10|0,0:2|0:2,0:0:0:0:
128,322,108922,6,0,P|169:273|274:296,1,160,2|8,0:2|0:3,0:0:0:0:
315,337,109368,1,0,0:2:0:0:
334,259,109516,1,4,0:3:0:0:
391,314,109665,1,0,0:2:0:0:
262,284,109813,1,12,0:2:0:0:
262,284,110110,6,0,L|253:195,1,80,2|0,0:2|0:0,0:0:0:0:
325,179,110407,2,0,L|333:258,1,80,8|2,0:2|0:2,0:0:0:0:
391,314,110704,1,0,0:0:0:0:
409,235,110853,1,0,0:2:0:0:
315,337,111002,2,0,L|231:332,1,80,10|0,0:2|0:2,0:0:0:0:
333,258,111299,5,2,0:2:0:0:
391,314,111447,1,0,0:2:0:0:
275,202,111596,1,8,0:2:0:0:
351,179,111744,2,0,L|516:165,1,160,2|0,0:2|0:2,0:0:0:0:
293,123,112190,2,0,L|196:131,1,80,10|0,0:2|0:2,0:0:0:0:
196,209,112487,6,0,L|275:202,1,80,2|0,0:2|0:0,0:0:0:0:
135,154,112784,2,0,P|115:199|121:239,1,80,8|2,0:2|0:2,0:0:0:0:
213,129,113081,1,0,0:0:0:0:
152,74,113229,1,0,0:2:0:0:
196,209,113378,2,0,P|224:248|262:263,1,80,10|0,0:2|0:2,0:0:0:0:
274,184,113675,6,0,P|322:178|354:153,1,80,2|0,0:2|0:2,0:0:0:0:
152,74,113972,2,0,P|103:79|71:104,1,80,8|2,0:2|0:2,0:0:0:0:
213,129,114269,1,0,0:2:0:0:
230,49,114417,1,0,0:2:0:0:
135,154,114566,2,0,L|136:244,1,80,10|0,0:2|0:2,0:0:0:0:
108,309,114863,5,2,0:2:0:0:
56,247,115011,1,0,0:0:0:0:
187,295,115160,2,0,L|292:299,1,80,8|2,0:2|0:2,0:0:0:0:
136,234,115457,1,0,0:0:0:0:
108,309,115605,1,0,0:2:0:0:
215,220,115754,2,0,L|218:140,1,80,10|0,0:2|0:2,0:0:0:0:
139,154,116051,6,0,L|135:233,1,80,2|0,0:2|0:2,0:0:0:0:
166,78,116348,1,8,0:2:0:0:
60,168,116497,2,0,L|53:340,1,160,2|0,0:2|0:2,0:0:0:0:
215,220,116942,2,0,L|218:140,1,80,10|0,0:2|0:2,0:0:0:0:
136,234,117239,6,0,P|156:277|197:300,1,80,2|0,0:2|0:0,0:0:0:0:
139,154,117536,2,0,P|119:111|78:88,1,80,8|2,0:2|0:2,0:0:0:0:
11,102,117833,1,0,0:0:0:0:
60,168,117982,1,0,0:2:0:0:
44,26,118130,2,0,P|92:9|132:20,1,80,10|0,0:2|0:2,0:0:0:0:
169,81,118427,6,0,P|121:98|81:87,1,80,2|0,0:2|0:2,0:0:0:0:
203,5,118724,2,0,P|241:38|252:78,1,80,8|2,0:2|0:2,0:0:0:0:
251,64,118947,1,0,0:0:0:0:
251,64,119021,1,0,3:2:0:0:
225,144,119170,1,8,0:2:0:0:
275,206,119318,1,2,3:2:0:0:
248,285,119467,1,8,0:2:0:0:
298,347,119615,5,8,3:3:0:0:
298,347,119912,2,0,L|391:342,1,80,14|0,0:2|0:0,0:0:0:0:
248,285,120209,2,0,L|155:290,1,80,0|2,0:2|0:2,0:0:0:0:
275,206,120506,2,0,P|317:241|330:277,1,80,8|0,0:2|0:2,0:0:0:0:
193,222,120804,6,0,P|202:168|226:138,1,80,2|0,0:2|0:2,0:0:0:0:
350,189,121101,2,0,P|298:207|261:201,1,80,8|0,0:2|0:2,0:0:0:0:
243,69,121398,2,0,P|285:103|298:140,1,80,0|0,0:2|0:2,0:0:0:0:
161,85,121695,2,0,P|170:31|194:1,1,80,10|0,0:2|0:2,0:0:0:0:
216,148,121992,6,0,P|164:166|127:160,1,80,2|0,0:2|0:2,0:0:0:0:
109,27,122289,2,0,P|151:62|163:98,1,80,8|2,0:2|0:2,0:0:0:0:
56,179,122586,2,0,P|65:125|89:95,1,80,0|0,0:2|0:2,0:0:0:0:
111,245,122883,2,0,P|59:263|22:257,1,80,10|0,0:2|0:2,0:0:0:0:
140,164,123180,6,0,P|182:199|195:235,1,80,2|0,0:2|0:0,0:0:0:0:
88,319,123477,2,0,P|97:265|121:235,1,80,8|2,0:2|0:2,0:0:0:0:
192,221,123774,1,0,0:2:0:0:
171,303,123922,1,0,0:2:0:0:
213,139,124071,2,0,P|259:172|273:206,1,80,10|0,0:2|0:2,0:0:0:0:
248,273,124368,6,0,P|202:240|188:206,1,80,2|0,0:2|0:0,0:0:0:0:
330,251,124665,1,8,0:2:0:0:
309,333,124813,1,2,0:2:0:0:
248,273,124962,1,0,0:2:0:0:
227,355,125110,1,0,0:2:0:0:
269,191,125259,2,0,P|304:167|349:166,1,80,10|0,0:2|0:2,0:0:0:0:
248,273,125556,6,0,P|209:254|186:216,1,80,2|0,0:2|0:0,0:0:0:0:
282,116,125853,2,0,P|285:158|263:197,1,80,8|2,0:2|0:2,0:0:0:0:
189,224,126150,1,0,0:2:0:0:
202,138,126299,1,0,0:2:0:0:
176,310,126447,2,0,P|137:297|109:254,1,80,10|0,0:2|0:2,0:0:0:0:
126,181,126744,6,0,P|163:193|188:223,1,80,2|0,0:2|0:0,0:0:0:0:
45,212,127041,2,0,P|38:175|54:131,1,80,8|2,0:2|0:2,0:0:0:0:
124,102,127338,1,0,0:2:0:0:
126,181,127487,1,0,0:2:0:0:
48,56,127635,1,10,0:2:0:0:
122,23,127784,1,0,0:2:0:0:
45,212,127932,5,2,0:2:0:0:
45,212,129120,2,0,L|294:219,1,240,2|0,3:2|0:0,0:0:0:0:
325,221,129640,1,0,0:0:0:0:
325,221,129714,1,6,0:2:0:0:
256,192,129789,12,0,136249,0:2:0:0:
