osu file format v14

[General]
AudioFilename: audio.mp3
AudioLeadIn: 0
PreviewTime: 31620
Countdown: 0
SampleSet: Soft
StackLeniency: 0.5
Mode: 0
LetterboxInBreaks: 0
WidescreenStoryboard: 1

[Editor]
Bookmarks: 136249
DistanceSpacing: 1
BeatDivisor: 4
GridSize: 8
TimelineZoom: 1.2

[Metadata]
Title:Pinocchio
TitleUnicode:ピノキオ
Artist:ORESKABAND
ArtistUnicode:オレスカバンド
Creator:Monstrata
Version:Akitoshi's Normal
Source:NARUTO -ナルト-
Tags:doormat akitoshi corinn sahuang my angel azusa snownino_ naruto uzumaki ska ending 14 ed
BeatmapID:1427503
BeatmapSetID:674401

[Difficulty]
HPDrainRate:4
CircleSize:3
OverallDifficulty:4
ApproachRate:5
SliderMultiplier:0.999999999999999
SliderTickRate:1

[Events]
//Background and Video events
0,0,"pinocchio.jpg",0,0
//Break Periods
//Storyboard Layer 0 (Background)
//Storyboard Layer 1 (Fail)
//Storyboard Layer 2 (Pass)
//Storyboard Layer 3 (Foreground)
//Storyboard Sound Samples

[TimingPoints]
804,297.029702970297,4,3,1,70,1,0
804,-100,4,3,1,70,0,0
10308,-100,4,2,1,70,0,0
127932,-100,4,2,1,50,0,0
129714,-100,4,2,1,90,0,0
130011,-100,4,2,1,10,0,0
136249,-100,4,2,1,5,0,0

[Colours]
Combo1 : 136,255,136
Combo2 : 255,255,106
Combo3 : 94,255,255
Combo4 : 255,173,91

[HitObjects]
370,196,804,6,0,P|443:212|512:185,2,150,2|2|2,0:2|0:2|0:2,0:0:0:0:
309,118,1992,2,0,L|107:136,1,200,0|0,0:2|0:2,0:0:0:0:
38,206,2883,1,0,0:2:0:0:
81,296,3180,6,0,P|133:337|229:330,2,150,2|2|2,0:2|0:2|0:2,0:0:0:0:
38,206,4368,2,0,B|31:156|31:156|48:109|48:109|41:42,2,150,2|2|2,0:2|0:2|0:2,0:0:0:0:
137,214,5556,6,0,L|291:197,2,150,2|2|2,0:2|0:2|0:2,0:0:0:0:
82,296,6744,2,0,B|128:340|128:340|265:324,1,200,0|0,0:2|0:2,0:0:0:0:
361,304,7635,1,0,0:2:0:0:
428,229,7932,6,0,P|436:162|380:90,2,150,2|2|2,0:2|0:2|0:2,0:0:0:0:
339,183,9120,2,0,B|290:176|290:176|238:190|238:190|172:180,2,150,2|2|8,0:2|0:2|3:3,0:0:0:0:
428,229,10308,5,6,0:2:0:0:
381,317,10605,2,0,P|328:335|265:326,1,99.9999999999999,8|0,0:2|0:0,0:0:0:0:
186,312,11200,1,10,0:2:0:0:
110,246,11497,2,0,L|120:137,1,99.9999999999999,2|8,0:2|0:2,0:0:0:0:
149,107,11942,2,0,P|204:101|259:114,1,99.9999999999999,2|0,0:2|0:2,0:0:0:0:
292,131,12388,1,10,0:2:0:0:
355,208,12685,5,2,0:2:0:0:
346,307,12982,2,0,P|394:316|462:300,1,99.9999999999999,8|0,0:2|0:0,0:0:0:0:
499,224,13576,1,10,0:2:0:0:
469,128,13873,2,0,L|357:120,1,99.9999999999999,2|8,0:2|0:2,0:0:0:0:
337,82,14318,2,0,L|225:90,1,99.9999999999999,2|0,0:2|0:2,0:0:0:0:
187,95,14764,1,10,0:2:0:0:
156,190,15061,5,2,0:2:0:0:
182,286,15358,2,0,P|135:307|85:309,1,99.9999999999999,8|0,0:2|0:0,0:0:0:0:
4,252,15952,1,10,0:2:0:0:
45,161,16249,2,0,L|36:49,1,99.9999999999999,2|8,0:2|0:2,0:0:0:0:
61,17,16695,2,0,P|104:32|175:32,1,99.9999999999999,2|0,0:2|0:2,0:0:0:0:
206,24,17140,1,10,0:2:0:0:
264,105,17437,5,2,0:2:0:0:
238,201,17734,2,0,P|267:234|341:254,1,99.9999999999999,8|0,0:2|0:0,0:0:0:0:
418,256,18328,1,10,0:2:0:0:
469,170,18625,2,0,L|454:60,1,99.9999999999999,2|8,0:2|0:2,0:0:0:0:
360,39,19219,2,0,L|305:46,1,50,8|2,3:3|3:2,0:0:0:0:
271,77,19516,2,0,L|216:69,1,50,8|0,3:2|0:2,0:0:0:0:
171,69,19813,6,0,P|177:123|175:180,2,99.9999999999999,2|8|0,0:2|0:2|0:2,0:0:0:0:
88,13,20704,1,8,0:2:0:0:
6,69,21002,2,0,P|0:123|2:180,1,99.9999999999999,0|8,0:2|0:2,0:0:0:0:
31,263,21596,1,0,0:2:0:0:
119,309,21893,1,8,0:2:0:0:
214,279,22190,6,0,L|335:287,1,99.9999999999999,6|10,0:2|0:2,0:0:0:0:
413,292,22784,2,0,P|437:223|424:141,1,150,2|2,0:2|0:2,0:0:0:0:
377,61,23526,1,2,0:2:0:0:
303,128,23823,2,0,L|198:121,1,99.9999999999999,2|0,0:2|0:2,0:0:0:0:
153,116,24269,1,10,0:2:0:0:
135,214,24566,6,0,P|169:248|230:260,1,99.9999999999999,2|10,0:2|0:2,0:0:0:0:
318,259,25160,2,0,P|390:236|471:261,2,150,2|2|10,0:2|0:2|0:2,0:0:0:0:
266,344,26348,2,0,P|220:364|158:360,1,99.9999999999999,2|8,0:2|0:2,0:0:0:0:
76,334,26942,6,0,L|68:233,1,99.9999999999999,2|10,0:2|0:2,0:0:0:0:
64,134,27536,2,0,P|110:106|212:113,1,150,2|2,0:2|0:2,0:0:0:0:
283,169,28279,2,0,L|400:156,1,99.9999999999999,2|0,0:2|0:2,0:0:0:0:
431,153,28724,1,2,0:2:0:0:
507,217,29021,1,10,0:2:0:0:
465,307,29318,6,0,P|422:326|364:322,1,99.9999999999999,2|10,0:2|0:2,0:0:0:0:
284,271,29912,2,0,P|241:252|183:256,1,99.9999999999999,2|8,0:2|0:2,0:0:0:0:
147,277,30358,1,2,0:2:0:0:
147,277,30506,2,0,L|135:169,1,99.9999999999999,2|10,3:2|0:2,0:0:0:0:
128,77,31101,1,2,3:2:0:0:
207,17,31398,1,2,0:2:0:0:
304,37,31695,6,0,L|409:27,1,99.9999999999999,4|10,0:2|0:2,0:0:0:0:
422,125,32289,2,0,L|317:135,1,99.9999999999999,2|8,0:2|0:2,0:0:0:0:
265,216,32883,2,0,P|276:273|276:323,2,99.9999999999999,2|10|2,0:2|0:2|0:2,0:0:0:0:
179,164,33774,1,10,0:2:0:0:
83,135,34071,6,0,L|77:20,1,99.9999999999999,4|10,0:2|0:2,0:0:0:0:
177,26,34665,2,0,P|229:41|282:37,1,99.9999999999999,2|8,0:2|0:2,0:0:0:0:
355,96,35259,2,0,P|407:81|460:85,2,99.9999999999999,2|10|2,0:2|0:2|0:2,0:0:0:0:
284,166,36150,1,10,0:2:0:0:
218,241,36447,6,0,L|225:349,1,99.9999999999999,6|10,0:2|0:2,0:0:0:0:
124,348,37041,2,0,L|117:248,1,99.9999999999999,2|8,0:2|0:2,0:0:0:0:
110,148,37635,2,0,P|56:156|8:160,2,99.9999999999999,2|10|2,0:2|0:2|0:2,0:0:0:0:
190,89,38526,1,10,0:2:0:0:
267,25,38823,6,0,P|309:27|417:150,1,200,2|2,0:2|0:2,0:0:0:0:
412,232,39714,1,8,0:2:0:0:
333,293,40011,2,0,L|216:304,1,99.9999999999999,10|8,0:2|0:2,0:0:0:0:
159,369,40605,2,0,L|42:358,1,99.9999999999999,8|4,3:3|3:3,0:0:0:0:
14,269,41200,6,0,P|5:219|22:159,1,99.9999999999999,2|10,0:2|0:2,0:0:0:0:
93,108,41794,2,0,P|161:148|233:139,1,150,2|2,0:2|0:2,0:0:0:0:
304,74,42536,2,0,P|372:34|444:43,1,150,2|2,0:2|0:2,0:0:0:0:
494,125,43279,1,10,0:2:0:0:
462,219,43576,6,0,L|359:228,1,99.9999999999999,2|10,0:2|0:2,0:0:0:0:
276,279,44170,2,0,B|209:252|209:252|123:265,2,150,2|2|10,0:2|0:2|0:2,0:0:0:0:
365,324,45358,2,0,P|417:328|464:312,1,99.9999999999999,2|10,0:2|0:2,0:0:0:0:
498,220,45952,6,0,L|490:103,1,99.9999999999999,2|10,0:2|0:2,0:0:0:0:
426,44,46546,2,0,B|389:36|344:47|367:58|323:76|280:59,1,150,2|2,0:2|0:2,0:0:0:0:
182,39,47289,2,0,P|240:87|254:178,1,150,2|2,0:2|0:2,0:0:0:0:
231,253,48031,1,10,0:2:0:0:
152,315,48328,6,0,L|35:306,1,99.9999999999999,2|8,0:2|0:2,0:0:0:0:
15,214,48922,2,0,B|1:166|1:166|18:55,1,150,0|2,0:2|0:2,0:0:0:0:
41,23,49516,2,0,P|93:22|140:43,1,99.9999999999999,2|10,0:2|0:2,0:0:0:0:
207,111,50110,1,2,0:2:0:0:
306,111,50407,1,2,0:2:0:0:
376,40,50704,6,0,P|421:21|471:22,1,99.9999999999999,2|10,0:2|0:2,0:0:0:0:
498,118,51299,2,0,P|490:189|484:281,1,150,2|2,0:2|0:2,0:0:0:0:
403,326,52041,2,0,P|361:300|262:307,1,150,2|2,0:2|0:2,0:0:0:0:
178,358,52784,1,10,0:2:0:0:
98,297,53081,6,0,L|104:194,1,99.9999999999999,2|10,0:2|0:2,0:0:0:0:
186,141,53675,2,0,P|128:152|37:103,2,150,2|2|10,0:2|0:2|0:2,0:0:0:0:
270,88,54863,2,0,P|323:74|383:84,1,99.9999999999999,2|10,0:2|0:2,0:0:0:0:
456,123,55457,6,0,L|451:231,1,99.9999999999999,2|10,0:2|0:2,0:0:0:0:
441,322,56051,2,0,B|342:330|342:330|299:304,1,150,2|2,0:2|0:2,0:0:0:0:
227,232,56794,2,0,B|188:222|148:231|162:245|125:260|78:249,1,150,2|2,0:2|0:2,0:0:0:0:
16,174,57536,1,10,0:2:0:0:
67,88,57833,6,0,L|183:79,1,99.9999999999999,2|10,0:2|0:2,0:0:0:0:
257,38,58427,2,0,B|304:67|304:67|348:41|416:41,1,150,2|2,0:2|0:2,0:0:0:0:
443,49,59021,2,0,L|451:156,1,99.9999999999999,2|8,0:2|0:2,0:0:0:0:
456,248,59615,1,2,0:2:0:0:
381,314,59912,1,8,0:2:0:0:
290,271,60209,6,0,P|236:267|185:281,1,99.9999999999999,2|8,0:2|0:3,0:0:0:0:
149,187,60804,2,0,P|95:191|44:177,1,99.9999999999999,4|12,0:3|0:2,0:0:0:0:
8,89,61398,5,2,0:2:0:0:
83,23,61695,2,0,L|190:28,1,99.9999999999999,8|0,0:2|0:0,0:0:0:0:
282,28,62289,1,10,0:2:0:0:
366,80,62586,2,0,P|376:130|361:189,1,99.9999999999999,2|8,0:2|0:2,0:0:0:0:
321,198,63031,2,0,P|271:188|212:203,1,99.9999999999999,2|0,0:2|0:2,0:0:0:0:
177,217,63477,1,10,0:2:0:0:
140,309,63774,5,2,0:2:0:0:
223,364,64071,2,0,P|273:374|332:359,1,99.9999999999999,8|0,0:2|0:0,0:0:0:0:
406,313,64665,1,10,0:2:0:0:
462,230,64962,2,0,L|456:125,1,99.9999999999999,2|8,0:2|0:2,0:0:0:0:
434,85,65407,2,0,P|390:68|317:75,1,99.9999999999999,2|0,0:2|0:2,0:0:0:0:
295,95,65853,1,10,0:2:0:0:
249,184,66150,5,2,0:2:0:0:
261,283,66447,2,0,P|208:299|150:289,1,99.9999999999999,8|0,0:2|0:0,0:0:0:0:
67,271,67041,1,10,0:2:0:0:
13,186,67338,2,0,L|20:79,1,99.9999999999999,2|8,0:2|0:2,0:0:0:0:
41,41,67784,2,0,P|95:31|147:50,1,99.9999999999999,2|0,0:2|0:2,0:0:0:0:
171,79,68229,1,10,0:2:0:0:
197,175,68526,5,2,0:2:0:0:
134,252,68823,2,0,L|31:248,2,99.9999999999999,8|0|10,0:2|0:0|0:2,0:0:0:0:
196,329,69714,1,2,0:2:0:0:
196,329,70457,2,0,L|267:321,1,50,0|8,3:2|0:2,0:0:0:0:
338,288,70903,6,0,P|348:235|333:185,1,99.9999999999999,2|10,0:2|0:2,0:0:0:0:
261,125,71497,2,0,L|156:135,1,99.9999999999999,2|8,0:2|0:2,0:0:0:0:
124,168,71942,2,0,L|19:158,2,99.9999999999999,2|2|2,0:2|0:2|0:2,0:0:0:0:
182,249,72833,2,0,L|174:305,2,50,2|10|0,0:2|0:2|0:2,0:0:0:0:
226,226,73279,6,0,P|275:222|333:240,1,99.9999999999999,2|10,0:2|0:2,0:0:0:0:
422,245,73873,2,0,P|435:196|431:147,1,99.9999999999999,2|8,0:2|0:2,0:0:0:0:
410,102,74318,2,0,P|349:112|264:79,1,150,2|8,0:2|0:2,0:0:0:0:
176,40,75061,1,2,0:2:0:0:
79,66,75358,1,8,0:3:0:0:
25,150,75655,6,0,L|38:262,1,99.9999999999999,2|8,0:2|0:2,0:0:0:0:
96,329,76249,2,0,P|166:341|238:304,1,150,2|2,0:2|0:2,0:0:0:0:
299,230,76992,2,0,L|407:237,1,99.9999999999999,2|0,0:2|0:2,0:0:0:0:
448,239,77437,1,2,0:2:0:0:
502,155,77734,1,10,0:2:0:0:
442,74,78031,6,0,P|388:62|334:72,1,99.9999999999999,2|10,0:2|0:2,0:0:0:0:
267,132,78625,2,0,L|154:124,1,99.9999999999999,2|8,0:2|0:2,0:0:0:0:
137,84,79071,2,0,L|24:92,1,99.9999999999999,2|2,0:2|0:2,0:0:0:0:
3,127,79516,1,10,0:2:0:0:
8,226,79813,2,0,P|63:241|113:234,1,99.9999999999999,0|0,3:3|3:3,0:0:0:0:
202,215,80407,6,0,L|215:337,1,99.9999999999999,4|10,0:2|0:2,0:0:0:0:
312,309,81002,2,0,L|299:187,1,99.9999999999999,2|8,0:2|0:2,0:0:0:0:
283,111,81596,2,0,P|231:115|176:95,2,99.9999999999999,2|10|2,0:2|0:2|0:2,0:0:0:0:
371,64,82487,1,10,0:2:0:0:
454,119,82784,6,0,P|468:166|464:216,1,99.9999999999999,4|10,0:2|0:2,0:0:0:0:
409,298,83378,2,0,P|361:312|311:308,1,99.9999999999999,2|8,0:2|0:2,0:0:0:0:
238,240,83972,2,0,L|129:250,2,99.9999999999999,2|10|2,0:2|0:2|0:2,0:0:0:0:
312,173,84863,1,10,0:2:0:0:
278,78,85160,6,0,P|228:63|161:72,1,99.9999999999999,4|10,0:2|0:2,0:0:0:0:
127,150,85754,2,0,L|140:259,1,99.9999999999999,2|8,0:2|0:2,0:0:0:0:
149,348,86348,2,0,P|99:363|32:354,2,99.9999999999999,2|10|2,0:2|0:2|0:2,0:0:0:0:
229,288,87239,1,10,0:2:0:0:
272,197,87536,6,0,B|327:185|370:206|370:206|419:185|469:201,1,200,2|2,0:2|0:2,0:0:0:0:
505,292,88427,1,8,0:2:0:0:
434,362,88724,2,0,L|335:359,1,99.9999999999999,0|8,0:2|0:2,0:0:0:0:
234,353,89318,1,8,0:3:0:0:
153,293,89615,1,12,0:3:0:0:
117,199,89912,6,0,L|124:79,1,99.9999999999999,2|10,0:2|0:2,0:0:0:0:
194,29,90506,2,0,P|262:53|341:42,1,150,2|2,0:2|0:2,0:0:0:0:
435,19,91249,2,0,B|455:120|455:120|431:169,1,150,2|2,0:2|0:2,0:0:0:0:
374,242,91992,1,10,0:2:0:0:
278,213,92289,6,0,L|176:217,1,99.9999999999999,2|10,0:2|0:2,0:0:0:0:
78,221,92883,2,0,P|63:185|79:61,2,150,2|2|10,0:2|0:2|0:2,0:0:0:0:
137,301,94071,2,0,P|194:301|254:314,1,99.9999999999999,2|10,0:2|0:2,0:0:0:0:
312,372,94665,6,0,P|361:363|411:364,1,99.9999999999999,2|10,0:2|0:2,0:0:0:0:
479,291,95259,2,0,P|473:216|467:127,1,150,2|2,0:2|0:2,0:0:0:0:
428,49,96002,2,0,P|364:19|269:35,1,150,2|2,0:2|0:2,0:0:0:0:
210,90,96744,1,10,0:2:0:0:
274,166,97041,6,0,L|266:273,1,99.9999999999999,2|10,0:2|0:2,0:0:0:0:
212,349,97635,2,0,P|154:306|75:299,1,150,2|2,0:2|0:2,0:0:0:0:
34,322,98229,2,0,L|26:215,1,99.9999999999999,2|10,0:2|0:2,0:0:0:0:
17,122,98823,1,2,3:2:0:0:
89,52,99120,1,2,0:2:0:0:
187,36,99417,6,0,L|293:46,1,99.9999999999999,2|10,0:2|0:2,0:0:0:0:
361,111,100011,2,0,P|339:169|349:267,1,150,2|2,0:2|0:2,0:0:0:0:
414,327,100754,2,0,P|356:305|258:315,1,150,2|2,0:2|0:2,0:0:0:0:
180,356,101497,1,10,0:2:0:0:
105,289,101794,6,0,L|111:187,1,99.9999999999999,2|10,0:2|0:2,0:0:0:0:
125,90,102388,2,0,P|194:105|273:78,2,150,2|2|10,0:2|0:2|0:2,0:0:0:0:
50,22,103576,2,0,P|25:71|27:118,1,99.9999999999999,2|10,0:2|0:2,0:0:0:0:
92,189,104170,6,0,L|86:288,1,99.9999999999999,2|10,0:2|0:2,0:0:0:0:
163,352,104764,2,0,B|210:335|210:335|324:348,1,150,2|2,0:2|0:2,0:0:0:0:
408,359,105506,2,0,P|444:319|456:219,1,150,2|2,0:2|0:2,0:0:0:0:
429,130,106249,1,10,0:2:0:0:
358,59,106546,6,0,L|248:65,1,99.9999999999999,2|10,0:2|0:2,0:0:0:0:
205,149,107140,2,0,B|182:190|182:190|198:298,1,150,2|2,0:2|0:2,0:0:0:0:
196,342,107734,2,0,P|138:359|85:353,1,99.9999999999999,2|8,0:2|0:2,0:0:0:0:
28,285,108328,1,2,0:2:0:0:
28,185,108625,1,10,0:2:0:0:
98,114,108922,6,0,P|156:97|209:103,1,99.9999999999999,2|8,0:2|0:3,0:0:0:0:
276,157,109516,2,0,P|334:174|387:168,1,99.9999999999999,4|12,0:3|0:2,0:0:0:0:
459,120,110110,5,2,0:2:0:0:
500,211,110407,2,0,L|493:328,1,99.9999999999999,8|0,0:2|0:0,0:0:0:0:
410,365,111002,1,10,0:2:0:0:
338,294,111299,2,0,L|238:301,1,99.9999999999999,2|8,0:2|0:2,0:0:0:0:
205,338,111744,2,0,L|90:329,1,99.9999999999999,2|0,0:2|0:2,0:0:0:0:
55,329,112190,1,10,0:2:0:0:
11,238,112487,5,2,0:2:0:0:
61,150,112784,2,0,P|88:134|174:133,1,99.9999999999999,8|0,0:2|0:0,0:0:0:0:
250,156,113378,1,10,0:2:0:0:
317,229,113675,2,0,L|432:221,1,99.9999999999999,2|8,0:2|0:2,0:0:0:0:
471,220,114120,1,2,0:2:0:0:
471,220,114269,2,0,P|476:165|452:106,1,99.9999999999999,0|10,0:2|0:2,0:0:0:0:
399,45,114863,5,2,0:2:0:0:
313,96,115160,2,0,P|258:101|199:77,1,99.9999999999999,8|0,0:2|0:0,0:0:0:0:
143,19,115754,1,10,0:2:0:0:
59,73,116051,2,0,L|47:187,1,99.9999999999999,2|8,0:2|0:2,0:0:0:0:
12,206,116497,2,0,L|22:306,1,99.9999999999999,2|0,0:2|0:2,0:0:0:0:
28,354,116942,1,10,0:2:0:0:
125,374,117239,5,2,0:2:0:0:
214,329,117536,2,0,P|269:314|325:320,1,99.9999999999999,8|0,0:2|0:0,0:0:0:0:
407,345,118130,1,10,0:2:0:0:
486,284,118427,2,0,L|480:162,1,99.9999999999999,2|8,0:2|0:2,0:0:0:0:
481,133,118873,2,0,P|428:112|373:116,1,99.9999999999999,2|8,0:2|0:2,0:0:0:0:
337,123,119318,1,2,3:2:0:0:
290,211,119615,1,8,3:3:0:0:
304,311,119912,6,0,L|191:315,1,99.9999999999999,14|0,0:2|0:2,0:0:0:0:
154,320,120358,2,0,P|131:270|132:209,1,99.9999999999999,2|0,0:2|0:2,0:0:0:0:
142,177,120804,1,2,0:2:0:0:
201,96,121101,2,0,L|314:100,1,99.9999999999999,8|0,0:2|0:2,0:0:0:0:
400,104,121695,1,10,0:2:0:0:
471,173,121992,6,0,P|480:229|466:284,1,99.9999999999999,2|8,0:2|0:2,0:0:0:0:
454,317,122437,2,0,P|398:308|343:322,1,99.9999999999999,2|0,0:2|0:2,0:0:0:0:
312,341,122883,1,10,0:2:0:0:
214,318,123180,2,0,L|220:198,1,99.9999999999999,2|8,0:2|0:2,0:0:0:0:
257,185,123625,2,0,L|251:65,1,99.9999999999999,2|0,0:2|0:2,0:0:0:0:
246,35,124071,1,10,0:2:0:0:
147,17,124368,5,2,0:2:0:0:
61,69,124665,2,0,P|38:112|38:172,1,99.9999999999999,8|0,0:2|0:2,0:0:0:0:
61,259,125259,1,10,0:2:0:0:
133,327,125556,2,0,L|250:314,1,99.9999999999999,2|8,0:2|0:2,0:0:0:0:
262,276,126002,2,0,L|379:288,1,99.9999999999999,2|0,0:2|0:2,0:0:0:0:
410,292,126447,1,10,0:2:0:0:
474,215,126744,6,0,P|487:167|473:100,1,99.9999999999999,2|8,0:2|0:2,0:0:0:0:
465,69,127190,2,0,P|417:82|350:68,1,99.9999999999999,2|0,0:2|0:2,0:0:0:0:
324,50,127635,1,10,0:2:0:0:
241,104,127932,2,0,P|172:83|89:108,2,150,2|2|2,0:2|0:2|0:2,0:0:0:0:
312,173,129120,1,2,3:2:0:0:
181,324,129714,5,6,0:2:0:0:
256,192,129863,12,0,136249,0:0:0:0:
