osu file format v14

[General]
AudioFilename: audio.mp3
AudioLeadIn: 0
PreviewTime: 31620
Countdown: 0
SampleSet: Soft
StackLeniency: 0.5
Mode: 0
LetterboxInBreaks: 0
WidescreenStoryboard: 0

[Editor]
DistanceSpacing: 1
BeatDivisor: 4
GridSize: 8
TimelineZoom: 2.5

[Metadata]
Title:Pinocchio
TitleUnicode:ピノキオ
Artist:ORESKABAND
ArtistUnicode:オレスカバンド
Creator:Monstrata
Version:Rasengan
Source:NARUTO -ナルト-
Tags:doormat akitoshi corinn sahuang my angel azusa snownino_ naruto uzumaki ska ending 14 ed
BeatmapID:1426987
BeatmapSetID:674401

[Difficulty]
HPDrainRate:6
CircleSize:4
OverallDifficulty:8
ApproachRate:9
SliderMultiplier:1.7
SliderTickRate:1

[Events]
//Background and Video events
0,0,"pinocchio.jpg",0,0
//Break Periods
//Storyboard Layer 0 (Background)
//Storyboard Layer 1 (Fail)
//Storyboard Layer 2 (Pass)
//Storyboard Layer 3 (Foreground)
//Storyboard Sound Samples

[TimingPoints]
804,297.029702970297,4,3,1,70,1,0
804,-133.333333333333,4,3,1,70,0,0
10308,-100,4,2,1,70,0,0
127932,-133.333333333333,4,2,1,50,0,0
129714,-296.45,4,2,1,90,0,0
130011,-296.45,4,2,1,10,0,0
136249,-296.45,4,2,1,5,0,0

[Colours]
Combo1 : 136,255,136
Combo2 : 255,255,106
Combo3 : 94,255,255
Combo4 : 255,173,91

[HitObjects]
214,67,804,6,0,P|306:57|372:122,2,191.250007295609,2|2|2,0:2|0:2|0:2,0:2:0:0:
100,124,1992,1,0,0:2:0:0:
93,251,2289,1,0,0:2:0:0:
199,320,2586,1,0,0:2:0:0:
312,262,2883,1,0,0:2:0:0:
318,135,3180,6,0,P|405:101|488:142,2,191.250007295609,2|2|2,0:2|0:2|0:2,0:2:0:0:
193,248,4368,2,0,P|106:282|23:241,2,191.250007295609,2|2|2,0:2|0:2|0:2,0:2:0:0:
193,135,5556,6,0,P|106:101|23:142,2,191.250007295609,2|2|2,0:2|0:2|0:2,0:2:0:0:
239,253,6744,1,0,0:2:0:0:
365,245,7041,1,0,0:2:0:0:
397,122,7338,1,0,0:2:0:0:
290,54,7635,1,0,0:2:0:0:
193,135,7932,6,0,P|110:176|23:142,2,191.250007295609,2|2|2,0:2|0:2|0:2,0:2:0:0:
387,136,9120,2,0,P|334:103|272:111,1,127.500004863739,2|0,0:2|0:2,0:2:0:0:
251,189,9566,2,0,P|304:222|366:215,1,127.500004863739,2|0,0:2|0:2,0:2:0:0:
192,248,10011,1,8,3:3:0:0:
192,248,10308,6,0,P|115:219|41:255,1,170,6|8,0:2|0:2,0:2:0:0:
192,248,10754,2,0,L|215:64,1,170,2|0,0:2|0:2,0:2:0:0:
134,47,11200,2,0,L|119:160,1,85,10|0,0:2|0:2,0:2:0:0:
281,195,11497,6,0,L|292:111,2,85,2|0|8,0:2|0:2|0:2,0:2:0:0:
181,332,11942,2,0,L|-2:308,1,170,2|0,0:2|0:2,0:2:0:0:
192,248,12388,2,0,P|249:279|265:328,1,85,10|0,0:2|0:2,0:2:0:0:
107,236,12685,6,0,P|138:181|246:181,1,170,2|8,0:2|0:2,0:2:0:0:
366,113,13130,2,0,P|335:168|227:168,1,170,2|0,0:2|0:2,0:2:0:0:
292,16,13576,2,0,L|280:100,1,85,10|0,0:2|0:2,0:2:0:0:
157,206,13873,6,0,L|168:121,2,85,2|0|8,0:2|0:2|0:2,0:2:0:0:
257,342,14318,2,0,L|440:318,1,170,2|0,0:2|0:2,0:2:0:0:
246,258,14764,2,0,P|189:289|173:338,1,85,10|0,0:2|0:2,0:2:0:0:
330,247,15061,6,0,L|306:63,1,170,2|8,0:2|0:2,0:2:0:0:
246,258,15506,2,0,P|308:330|397:302,1,170,2|0,0:2|0:2,0:2:0:0:
235,174,15952,2,0,L|139:186,1,85,10|0,0:2|0:2,0:2:0:0:
76,279,16249,6,0,L|63:183,2,85,2|0|8,0:2|0:2|0:2,0:2:0:0:
170,353,16695,2,0,L|358:328,1,170,2|0,0:2|0:2,0:2:0:0:
160,268,17140,2,0,L|76:279,1,85,10|0,0:2|0:2,0:2:0:0:
224,110,17437,6,0,L|412:134,1,170,2|8,0:2|0:2,0:2:0:0:
191,188,17883,2,0,P|140:125|164:47,1,170,2|0,0:2|0:2,0:2:0:0:
270,221,18328,2,0,L|257:315,1,85,10|0,0:2|0:2,0:2:0:0:
33,251,18625,6,0,L|190:187,1,170,2|8,0:2|0:2,0:2:0:0:
338,338,19071,2,0,L|417:306,1,85,2|8,0:2|3:3,0:2:0:0:
359,169,19368,2,0,L|349:254,2,85,2|8|0,3:2|3:2|0:2,0:2:0:0:
380,0,19813,5,2,0:2:0:0:
438,136,19962,2,0,P|491:125|525:88,1,85,2|8,0:2|0:2,0:2:0:0:
291,118,20259,2,0,P|274:169|289:217,1,85,2|0,0:2|0:2,0:2:0:0:
429,217,20556,2,0,P|443:177|438:136,1,85,2|8,0:2|0:2,0:2:0:0:
301,33,20853,2,0,P|248:44|214:81,1,85,2|0,0:2|0:2,0:2:0:0:
279,198,21150,2,0,P|332:187|366:150,1,85,2|8,0:2|0:2,0:2:0:0:
132,180,21447,2,0,P|115:231|130:279,1,85,2|0,0:2|0:2,0:2:0:0:
270,279,21744,2,0,P|284:239|278:197,1,85,2|8,0:2|0:2,0:2:0:0:
200,231,22041,1,2,0:2:0:0:
264,364,22190,6,0,L|367:314,1,85,6|0,0:2|0:2,0:2:0:0:
193,315,22487,2,0,L|116:352,1,85,10|0,0:2|0:2,0:2:0:0:
200,231,22784,1,2,0:2:0:0:
278,197,22932,2,0,P|283:239|270:279,1,85,2|8,0:2|0:2,0:2:0:0:
120,260,23229,6,0,P|115:218|132:180,1,85,2|0,0:2|0:2,0:2:0:0:
207,149,23526,2,0,P|173:173|131:179,1,85,2|8,0:2|0:2,0:2:0:0:
143,94,23823,2,0,L|351:127,1,170,2|0,0:2|0:2,0:2:0:0:
386,90,24269,2,0,P|344:95|310:120,1,85,10|0,0:2|0:2,0:2:0:0:
362,256,24566,6,0,L|376:173,1,85,2|0,0:2|0:2,0:2:0:0:
278,242,24863,2,0,L|291:325,1,85,10|0,0:2|0:2,0:2:0:0:
375,339,25160,1,2,0:2:0:0:
440,288,25308,2,0,L|453:204,1,85,2|8,0:2|0:2,0:2:0:0:
441,119,25605,1,2,0:2:0:0:
376,173,25754,6,0,L|362:256,1,85,2|0,0:2|0:2,0:2:0:0:
441,119,26051,2,0,P|396:90|355:90,1,85,10|0,0:2|0:2,0:2:0:0:
233,189,26348,2,0,P|272:173|298:140,1,85,2|0,0:2|0:2,0:2:0:0:
233,20,26645,2,0,L|220:104,1,85,8|0,0:2|0:2,0:2:0:0:
298,139,26942,6,0,L|311:55,1,85,2|0,0:2|0:2,0:2:0:0:
152,159,27239,2,0,P|146:200|162:239,1,85,10|0,0:2|0:2,0:2:0:0:
241,274,27536,1,2,0:2:0:0:
308,220,27685,2,0,P|274:194|232:189,1,85,2|8,0:2|0:2,0:2:0:0:
174,328,27982,6,0,P|207:353|249:358,1,85,2|0,0:2|0:2,0:2:0:0:
401,327,28279,2,0,P|319:314|249:358,1,170,2|0,0:2|0:2,0:2:0:0:
401,327,28724,2,0,L|422:236,1,85,2|0,0:2|0:2,0:2:0:0:
381,101,29021,2,0,L|363:185,1,85,10|2,0:2|0:2,0:2:0:0:
321,40,29318,6,0,P|356:18|399:18,1,85,2|0,0:2|0:2,0:2:0:0:
459,79,29615,2,0,P|423:100|381:101,1,85,10|0,0:2|0:2,0:2:0:0:
302,123,29912,1,2,0:2:0:0:
243,62,30061,2,0,P|278:40|320:39,1,85,2|8,0:2|0:2,0:2:0:0:
279,208,30358,1,2,0:2:0:0:
157,84,30506,5,2,3:2:0:0:
73,106,30655,1,0,3:2:0:0:
219,147,30804,1,10,0:2:0:0:
243,62,30952,1,0,0:2:0:0:
134,170,31101,5,2,3:2:0:0:
194,232,31250,1,8,0:2:0:0:
281,211,31398,1,2,0:2:0:0:
243,62,31547,1,8,0:2:0:0:
194,232,31695,6,0,P|215:270|249:293,1,85,4|0,0:2|0:2,0:2:0:0:
363,191,31992,2,0,L|281:211,1,85,10|0,0:2|0:2,0:2:0:0:
421,253,32289,1,2,0:2:0:0:
446,172,32437,1,0,0:2:0:0:
388,109,32586,2,0,L|305:128,1,85,8|0,0:2|0:2,0:2:0:0:
124,109,32883,5,2,0:2:0:0:
144,24,33031,1,0,0:2:0:0:
225,45,33180,1,10,0:2:0:0:
206,128,33328,1,0,0:2:0:0:
143,192,33477,5,2,0:2:0:0:
124,109,33625,1,0,0:2:0:0:
42,128,33773,1,10,0:2:0:0:
60,211,33922,1,2,0:2:0:0:
117,273,34071,6,0,P|167:274|201:256,1,85,4|0,0:2|0:2,0:2:0:0:
308,164,34368,2,0,P|285:199|281:241,1,85,10|0,0:2|0:2,0:2:0:0:
392,149,34665,1,2,0:2:0:0:
337,83,34813,1,0,0:2:0:0:
249,100,34962,2,0,L|131:123,1,85,8|0,0:2|0:2,0:2:0:0:
363,234,35259,5,2,0:2:0:0:
392,149,35407,1,0,0:2:0:0:
220,181,35556,1,10,0:2:0:0:
279,248,35704,1,0,0:2:0:0:
337,83,35853,1,2,0:2:0:0:
249,100,36001,1,0,0:2:0:0:
308,164,36150,1,10,0:2:0:0:
278,19,36299,1,2,0:2:0:0:
133,112,36447,6,0,P|129:154|147:192,1,85,6|0,0:2|0:2,0:2:0:0:
227,179,36744,2,0,P|185:174|147:193,1,85,10|0,0:2|0:2,0:2:0:0:
298,220,37041,2,0,P|307:179|291:128,1,85,2|0,0:2|0:2,0:2:0:0:
35,97,37338,2,0,P|26:138|42:189,1,85,8|0,0:2|0:2,0:2:0:0:
86,250,37635,5,2,0:2:0:0:
171,241,37784,1,0,0:2:0:0:
206,163,37932,1,10,0:2:0:0:
155,93,38081,1,0,0:2:0:0:
36,179,38229,5,2,0:2:0:0:
72,100,38378,1,0,0:2:0:0:
86,250,38526,1,10,0:2:0:0:
122,171,38675,1,2,0:2:0:0:
134,320,38823,6,0,L|50:329,1,85,2|0,0:2|0:2,0:2:0:0:
171,241,39120,2,0,L|255:249,1,85,8|0,0:2|0:2,0:2:0:0:
189,11,39417,2,0,L|84:22,1,85,2|0,0:2|0:2,0:2:0:0:
287,149,39714,2,0,L|371:140,1,85,8|0,0:2|0:2,0:2:0:0:
69,96,40011,5,10,0:2:0:0:
33,172,40160,1,0,0:2:0:0:
80,241,40308,1,8,0:2:0:0:
163,234,40457,1,0,0:2:0:0:
200,158,40605,1,8,3:3:0:0:
283,169,40754,1,8,3:3:0:0:
297,252,40903,1,4,3:3:0:0:
224,292,41052,1,4,3:3:0:0:
250,91,41200,6,0,P|292:85|331:101,1,85,2|0,0:2|0:2,0:2:0:0:
431,230,41497,2,0,P|389:235|350:219,1,85,10|0,0:2|0:2,0:2:0:0:
411,71,41794,2,0,P|416:112|400:151,2,85,2|0|8,0:2|0:2|0:2,0:2:0:0:
282,169,42239,6,0,P|266:208|272:250,1,85,2|0,0:2|0:2,0:2:0:0:
340,304,42536,1,2,0:2:0:0:
350,219,42685,1,10,0:2:0:0:
272,250,42833,1,0,0:2:0:0:
417,273,42982,2,0,P|434:234|432:192,1,85,2|2,0:2|0:2,0:2:0:0:
364,138,43279,2,0,P|347:176|350:219,1,85,10|0,0:2|0:2,0:2:0:0:
444,105,43576,6,0,L|458:-5,1,85,2|0,0:2|0:2,0:2:0:0:
353,54,43873,2,0,L|363:138,1,85,10|0,0:2|0:2,0:2:0:0:
251,256,44170,1,2,0:2:0:0:
261,171,44319,2,0,L|272:87,1,85,2|8,0:2|0:2,0:2:0:0:
330,223,44615,1,2,0:2:0:0:
251,256,44764,6,0,L|172:288,1,85,2|0,0:2|0:2,0:2:0:0:
25,269,45061,2,0,L|103:236,1,85,10|0,0:2|0:2,0:2:0:0:
239,339,45358,1,2,0:2:0:0:
160,371,45506,1,2,0:2:0:0:
182,203,45655,2,0,L|193:119,1,85,10|0,0:2|0:2,0:2:0:0:
318,119,45952,6,0,L|329:203,1,85,2|0,0:2|0:2,0:2:0:0:
256,332,46249,2,0,L|256:247,1,85,10|0,0:2|0:2,0:2:0:0:
402,246,46546,2,0,P|473:206|479:124,1,170,2|8,0:2|0:2,0:2:0:0:
318,119,46992,6,0,L|329:203,1,85,2|0,0:2|0:2,0:2:0:0:
401,160,47289,1,2,0:2:0:0:
391,76,47437,1,10,0:2:0:0:
313,42,47586,1,0,0:2:0:0:
254,177,47734,1,2,0:2:0:0:
245,92,47883,1,2,0:2:0:0:
400,160,48031,2,0,P|440:144|468:111,1,85,10|0,0:2|0:2,0:2:0:0:
175,142,48328,6,0,P|172:203|267:263,1,170,2|8,0:2|0:2,0:2:0:0:
254,177,48774,1,2,0:2:0:0:
82,189,48922,2,0,L|-2:194,1,85,0|2,0:2|0:2,0:2:0:0:
167,269,49219,2,0,L|251:263,1,85,8|2,0:2|0:2,0:2:0:0:
341,85,49516,6,0,L|256:90,1,85,2|0,0:2|0:2,0:2:0:0:
82,274,49813,2,0,L|166:268,1,85,10|0,0:2|0:2,0:2:0:0:
339,172,50110,1,2,0:2:0:0:
169,182,50259,2,0,L|109:186,1,42.5,8|0,0:2|0:2,0:2:0:0:
251,263,50407,2,0,L|254:322,1,42.5,2|0,0:2|0:2,0:2:0:0:
254,177,50556,1,8,0:2:0:0:
166,268,50704,6,0,L|82:274,1,85,2|0,0:2|0:2,0:2:0:0:
172,96,51002,2,0,L|256:90,1,85,10|0,0:2|0:2,0:2:0:0:
254,177,51299,2,0,L|170:183,2,85,2|0|8,0:2|0:2|0:2,0:2:0:0:
341,83,51744,6,0,P|326:42|277:6,1,85,2|0,0:2|0:2,0:2:0:0:
257,90,52041,1,2,0:2:0:0:
350,228,52190,1,10,0:2:0:0:
388,153,52338,1,0,0:2:0:0:
312,302,52487,2,0,P|272:316|230:308,1,85,2|2,0:2|0:2,0:2:0:0:
185,237,52784,2,0,P|224:223|267:231,1,85,10|0,0:2|0:2,0:2:0:0:
147,313,53081,6,0,P|115:285|101:244,1,85,2|0,0:2|0:2,0:2:0:0:
305,156,53378,2,0,P|336:183|350:224,1,85,10|0,0:2|0:2,0:2:0:0:
185,237,53675,1,2,0:2:0:0:
194,152,53823,2,0,L|203:67,1,85,2|8,0:2|0:2,0:2:0:0:
116,186,54120,6,0,L|38:220,1,85,2|0,0:2|0:2,0:2:0:0:
185,237,54417,1,2,0:2:0:0:
263,203,54566,2,0,L|340:168,1,85,10|0,0:2|0:2,0:2:0:0:
428,49,54863,1,2,0:2:0:0:
350,84,55011,1,2,0:2:0:0:
418,220,55160,1,10,0:2:0:0:
426,134,55308,1,0,0:2:0:0:
332,254,55457,6,0,L|255:289,1,85,2|0,0:2|0:2,0:2:0:0:
195,153,55754,2,0,L|264:204,1,85,10|0,0:2|0:2,0:2:0:0:
176,323,56051,2,0,L|185:238,2,85,2|0|8,0:2|0:2|0:2,0:2:0:0:
323,338,56497,6,0,P|364:332|398:307,1,85,2|0,0:2|0:2,0:2:0:0:
332,254,56794,1,2,0:2:0:0:
176,323,56942,1,10,0:2:0:0:
245,373,57091,1,0,0:2:0:0:
254,288,57239,1,2,0:2:0:0:
184,237,57388,1,2,0:2:0:0:
105,271,57536,1,10,0:2:0:0:
176,323,57685,1,0,0:2:0:0:
192,151,57833,6,0,L|202:43,1,85,2|0,0:2|0:2,0:2:0:0:
105,271,58130,2,0,L|97:355,1,85,10|0,0:2|0:2,0:2:0:0:
254,288,58427,1,2,0:2:0:0:
261,203,58576,2,0,L|269:118,1,85,2|8,0:2|0:2,0:2:0:0:
184,237,58873,1,2,0:2:0:0:
331,254,59021,6,0,L|415:261,1,85,2|0,0:2|0:2,0:2:0:0:
276,33,59318,2,0,L|191:40,1,85,8|0,0:2|0:2,0:2:0:0:
184,237,59615,1,2,0:2:0:0:
254,288,59764,1,0,0:2:0:0:
331,254,59912,1,8,0:2:0:0:
340,170,60061,1,0,0:2:0:0:
184,237,60209,6,0,L|94:277,1,85,2|0,0:2|0:2,0:2:0:0:
324,339,60506,2,0,L|401:304,1,85,8|0,0:3|0:2,0:2:0:0:
115,187,60804,2,0,L|106:271,1,85,4|0,0:3|0:2,0:2:0:0:
331,254,61101,2,0,L|342:146,1,85,12|0,0:2|0:2,0:2:0:0:
123,101,61398,6,0,P|74:112|49:240,1,170,2|8,0:2|0:2,0:2:0:0:
171,319,61843,2,0,P|185:271|87:185,1,170,2|0,0:2|0:2,0:2:0:0:
89,342,62289,2,0,L|171:319,1,85,10|0,0:2|0:2,0:2:0:0:
257,146,62586,6,0,L|338:169,1,85,2|0,0:2|0:2,0:2:0:0:
419,192,62883,1,8,0:2:0:0:
293,304,63031,2,0,P|278:224|338:169,1,170,2|0,0:2|0:2,0:2:0:0:
440,274,63477,2,0,L|358:251,1,85,10|0,0:2|0:2,0:2:0:0:
234,63,63774,6,0,L|415:113,1,170,2|8,0:2|0:2,0:2:0:0:
189,198,64219,2,0,P|174:117|233:62,1,170,2|0,0:2|0:2,0:2:0:0:
337,169,64665,2,0,L|418:192,1,85,10|0,0:2|0:2,0:2:0:0:
501,0,64962,6,0,L|419:23,1,85,2|0,0:2|0:2,0:2:0:0:
338,47,65259,1,8,0:2:0:0:
418,192,65407,2,0,L|420:12,1,170,2|0,0:2|0:2,0:2:0:0:
337,169,65853,2,0,L|335:269,1,85,10|0,0:2|0:2,0:2:0:0:
196,282,66150,6,0,P|258:229|336:253,1,170,2|8,0:2|0:2,0:2:0:0:
258,340,66596,2,0,P|180:363|118:310,1,170,2|0,0:2|0:2,0:2:0:0:
197,197,67041,2,0,L|195:297,1,85,10|0,0:2|0:2,0:2:0:0:
268,151,67338,6,0,P|237:122|197:112,1,85,2|0,0:2|0:2,0:2:0:0:
123,155,67635,1,8,0:2:0:0:
271,235,67784,2,0,P|311:223|331:98,1,170,2|0,0:2|0:2,0:2:0:0:
197,197,68229,2,0,L|195:297,1,85,10|0,0:2|0:2,0:2:0:0:
415,238,68526,6,0,L|417:51,1,170,2|8,0:2|0:2,0:2:0:0:
268,151,68972,2,0,L|428:245,1,170,2|0,0:2|0:2,0:2:0:0:
342,24,69417,2,0,L|268:66,1,85,10|0,0:2|0:2,0:2:0:0:
196,281,69714,5,2,0:2:0:0:
200,288,70011,1,0,0:2:0:0:
204,295,70308,1,0,0:2:0:0:
229,213,70457,1,0,3:2:0:0:
179,377,70605,1,8,0:2:0:0:
253,131,70903,6,0,P|290:110|332:110,1,85,2|0,0:2|0:2,0:2:0:0:
415,91,71200,2,0,P|414:133|393:169,1,85,10|0,0:2|0:2,0:2:0:0:
312,193,71497,1,2,0:2:0:0:
230,216,71645,2,0,P|209:252|209:295,1,85,2|8,0:2|0:2,0:2:0:0:
349,333,71942,6,0,P|328:297|292:276,1,85,2|0,0:2|0:2,0:2:0:0:
130,315,72239,2,0,P|172:314|208:294,1,85,2|8,0:2|0:2,0:2:0:0:
251,137,72536,2,0,P|230:173|229:215,1,85,2|0,0:2|0:2,0:2:0:0:
312,195,72833,1,2,0:2:0:0:
393,172,72982,2,0,P|371:135|335:114,1,85,10|0,0:2|0:2,0:2:0:0:
251,137,73279,6,0,L|136:124,1,85,2|0,0:2|0:2,0:2:0:0:
345,29,73576,2,0,L|429:38,1,85,10|0,0:2|0:2,0:2:0:0:
335,114,73873,1,2,0:2:0:0:
260,19,74021,2,0,L|175:9,1,85,2|8,0:2|0:2,0:2:0:0:
250,104,74318,6,0,L|334:113,1,85,2|0,0:2|0:2,0:2:0:0:
165,94,74615,2,0,L|155:178,1,85,2|8,0:2|0:2,0:2:0:0:
240,188,74912,1,0,0:2:0:0:
260,19,75061,1,2,0:2:0:0:
88,302,75358,1,8,0:3:0:0:
260,18,75655,6,0,P|302:16|340:34,1,85,2|0,0:2|0:2,0:2:0:0:
227,164,75952,2,0,P|203:128|200:86,1,85,8|0,0:2|0:2,0:2:0:0:
285,101,76249,1,2,0:2:0:0:
369,121,76398,2,0,P|350:158|315:182,1,85,2|8,0:2|0:2,0:2:0:0:
173,225,76695,6,0,P|191:187|226:163,1,85,2|0,0:2|0:2,0:2:0:0:
256,243,76992,1,2,0:2:0:0:
285,322,77140,2,0,P|320:298|339:261,1,85,10|0,0:2|0:2,0:2:0:0:
173,225,77437,1,2,0:2:0:0:
115,287,77586,1,0,0:2:0:0:
139,368,77734,1,10,0:2:0:0:
197,306,77883,1,0,0:2:0:0:
57,349,78031,6,0,L|-48:324,1,85,2|0,0:2|0:2,0:2:0:0:
173,225,78328,2,0,L|255:244,1,85,10|0,0:2|0:2,0:2:0:0:
148,143,78625,1,2,0:2:0:0:
115,287,78774,2,0,L|139:368,1,85,2|8,0:2|0:2,0:2:0:0:
313,182,79071,6,2,L|288:100,1,85,2|0,0:2|0:2,0:2:0:0:
148,143,79368,1,2,0:2:0:0:
255,244,79516,2,0,P|297:267|338:264,1,85,10|0,0:2|0:2,0:2:0:0:
371,120,79813,1,0,3:3:0:0:
346,38,79961,1,10,0:2:0:0:
203,82,80110,1,0,3:3:0:0:
262,19,80258,1,10,0:2:0:0:
371,120,80407,6,0,P|411:93|429:48,1,85,4|0,0:2|0:2,0:2:0:0:
203,82,80704,2,0,P|206:130|236:168,1,85,10|0,0:2|0:2,0:2:0:0:
347,265,81002,1,2,0:2:0:0:
401,200,81150,1,0,0:2:0:0:
371,120,81299,2,0,P|348:132|315:196,1,85,8|0,0:2|0:2,0:2:0:0:
377,345,81596,5,2,0:2:0:0:
432,285,81744,1,0,0:2:0:0:
401,200,81893,1,10,0:2:0:0:
316,180,82041,1,0,0:2:0:0:
171,265,82190,5,2,0:2:0:0:
111,200,82338,1,0,0:2:0:0:
196,180,82487,1,10,0:2:0:0:
256,243,82635,1,2,0:2:0:0:
136,345,82784,6,0,P|98:364|56:362,1,85,4|0,0:2|0:2,0:2:0:0:
56,135,83081,2,0,P|93:116|135:118,1,85,10|0,0:2|0:2,0:2:0:0:
256,243,83378,1,2,0:2:0:0:
316,180,83526,1,0,0:2:0:0:
290,96,83675,2,0,P|254:117|232:153,1,85,8|0,0:2|0:2,0:2:0:0:
340,263,83972,5,2,0:2:0:0:
400,200,84120,1,0,0:2:0:0:
424,283,84269,1,10,0:2:0:0:
484,220,84417,1,0,0:2:0:0:
484,346,84566,5,2,0:2:0:0:
400,200,84714,1,0,0:2:0:0:
400,366,84863,1,10,0:2:0:0:
316,180,85011,1,2,0:2:0:0:
172,343,85160,6,0,L|71:325,1,85,4|0,0:2|0:2,0:2:0:0:
340,303,85457,2,0,L|423:317,1,85,10|0,0:2|0:2,0:2:0:0:
256,323,85754,1,2,0:2:0:0:
280,240,85903,1,0,0:2:0:0:
363,219,86051,2,0,L|464:201,1,85,8|0,0:2|0:2,0:2:0:0:
221,179,86348,5,2,0:2:0:0:
280,240,86497,1,0,0:2:0:0:
326,76,86645,1,10,0:2:0:0:
243,97,86794,1,0,0:2:0:0:
363,219,86942,1,2,0:2:0:0:
387,137,87091,1,2,0:2:0:0:
221,179,87239,1,10,0:2:0:0:
199,261,87388,1,0,0:2:0:0:
304,158,87536,6,0,L|278:52,1,85,2|0,0:2|0:2,0:2:0:0:
116,282,87833,2,0,L|92:363,1,85,8|0,0:2|0:2,0:2:0:0:
363,219,88130,2,0,L|389:130,1,85,2|0,0:2|0:2,0:2:0:0:
83,204,88427,2,0,L|0:224,1,85,8|0,0:2|0:2,0:2:0:0:
271,322,88724,5,0,0:2:0:0:
355,304,88873,1,0,0:2:0:0:
363,219,89021,1,8,0:2:0:0:
284,183,89170,1,0,0:2:0:0:
227,247,89318,1,8,0:3:0:0:
148,211,89467,1,8,0:3:0:0:
156,126,89615,1,12,0:3:0:0:
240,108,89764,1,4,0:3:0:0:
156,297,89912,6,0,P|107:287|72:253,1,85,2|0,0:2|0:2,0:2:0:0:
72,185,90209,2,0,P|87:232|75:279,1,85,10|0,0:2|0:2,0:2:0:0:
1,235,90506,1,2,0:2:0:0:
21,115,90655,2,0,P|68:99|115:111,1,85,2|8,0:2|0:2,0:2:0:0:
236,159,90952,6,0,P|196:174|155:170,1,85,2|0,0:2|0:2,0:2:0:0:
187,91,91249,1,2,0:2:0:0:
319,150,91398,1,10,0:2:0:0:
269,81,91546,1,0,0:2:0:0:
203,237,91695,1,2,0:2:0:0:
236,159,91843,1,2,0:2:0:0:
254,304,91992,1,10,0:2:0:0:
287,226,92140,1,0,0:2:0:0:
170,315,92289,6,0,L|60:329,1,85,2|0,0:2|0:2,0:2:0:0:
236,159,92586,2,0,L|320:148,1,85,10|0,0:2|0:2,0:2:0:0:
203,237,92883,1,2,0:2:0:0:
151,169,93031,2,0,P|155:127|179:92,1,85,2|8,0:2|0:2,0:2:0:0:
353,70,93329,1,2,0:2:0:0:
404,137,93477,6,0,P|399:178|375:213,1,85,2|0,0:2|0:2,0:2:0:0:
203,237,93774,1,10,0:2:0:0:
235,159,93922,1,0,0:2:0:0:
338,293,94071,1,2,0:2:0:0:
287,226,94219,1,2,0:2:0:0:
170,315,94368,2,0,P|129:278|116:225,1,85,10|0,0:2|0:2,0:2:0:0:
269,81,94665,6,0,P|310:118|323:171,1,85,2|0,0:2|0:2,0:2:0:0:
203,237,94962,1,10,0:2:0:0:
151,170,95110,1,0,0:2:0:0:
184,91,95259,2,0,L|299:77,1,85,2|0,0:2|0:2,0:2:0:0:
352,69,95556,1,8,0:2:0:0:
217,12,95704,6,0,L|171:118,1,85,2|0,0:2|0:2,0:2:0:0:
151,170,96002,1,2,0:2:0:0:
203,237,96150,1,10,0:2:0:0:
235,158,96298,1,0,0:2:0:0:
118,248,96447,1,2,0:2:0:0:
66,179,96596,1,2,0:2:0:0:
183,90,96744,2,0,L|267:79,1,85,10|0,0:2|0:2,0:2:0:0:
320,169,97041,6,0,L|235:158,1,85,2|0,0:2|0:2,0:2:0:0:
373,102,97338,2,0,P|397:137|404:179,1,85,10|0,0:2|0:2,0:2:0:0:
301,312,97635,1,2,0:2:0:0:
269,233,97784,2,0,P|286:194|319:168,1,85,2|8,0:2|0:2,0:2:0:0:
352,246,98081,1,2,0:2:0:0:
384,323,98229,6,0,P|417:297|435:259,1,85,2|0,0:2|0:2,0:2:0:0:
186,220,98526,2,0,P|152:246|135:284,1,85,10|0,0:2|0:2,0:2:0:0:
403,179,98823,1,2,3:2:0:0:
370,101,98972,1,8,0:2:0:0:
232,158,99120,1,2,0:2:0:0:
285,90,99269,1,8,0:2:0:0:
352,246,99417,6,0,P|390:263|431:259,1,85,2|0,0:2|0:2,0:2:0:0:
420,33,99714,2,0,P|381:15|340:19,1,85,10|0,0:2|0:2,0:2:0:0:
232,158,100011,2,0,P|270:175|311:171,1,85,2|0,0:2|0:2,0:2:0:0:
370,101,100308,1,10,0:2:0:0:
199,77,100457,6,0,P|164:100|147:139,1,85,2|0,0:2|0:2,0:2:0:0:
186,303,100754,1,2,0:2:0:0:
247,245,100903,1,10,0:2:0:0:
167,221,101051,1,0,0:2:0:0:
125,361,101200,1,2,0:2:0:0:
186,303,101348,1,2,0:2:0:0:
266,326,101497,1,10,0:2:0:0:
327,268,101645,1,0,0:2:0:0:
407,291,101794,6,0,P|451:264|472:219,1,85,2|0,0:2|0:2,0:2:0:0:
347,348,102091,2,0,P|392:372|441:368,1,85,10|0,0:2|0:2,0:2:0:0:
388,210,102388,1,2,0:2:0:0:
307,187,102536,2,0,P|263:214|241:258,1,85,2|8,0:2|0:2,0:2:0:0:
448,151,102833,6,0,P|446:102|417:61,1,85,2|0,0:2|0:2,0:2:0:0:
348,47,103130,1,2,0:2:0:0:
286,105,103279,1,10,0:2:0:0:
307,187,103427,1,0,0:2:0:0:
388,210,103576,1,2,0:2:0:0:
368,129,103724,1,2,0:2:0:0:
224,164,103873,2,0,L|129:188,1,85,10|0,0:2|0:2,0:2:0:0:
388,210,104170,6,0,L|470:189,1,85,2|0,0:2|0:2,0:2:0:0:
286,105,104467,2,0,L|226:44,1,85,10|0,0:2|0:2,0:2:0:0:
326,269,104764,2,0,L|385:329,1,85,2|0,0:2|0:2,0:2:0:0:
368,129,105061,1,10,0:2:0:0:
224,164,105209,6,0,L|129:188,1,85,2|0,0:2|0:2,0:2:0:0:
307,187,105506,1,2,0:2:0:0:
388,210,105655,2,0,L|470:189,1,85,10|0,0:2|0:2,0:2:0:0:
348,48,105952,1,2,0:2:0:0:
286,105,106101,1,2,0:2:0:0:
368,129,106249,2,0,L|450:108,1,85,10|0,0:2|0:2,0:2:0:0:
204,81,106546,6,0,L|121:101,1,85,2|0,0:2|0:2,0:2:0:0:
247,245,106843,2,0,L|329:266,1,85,10|0,0:2|0:2,0:2:0:0:
117,265,107140,1,2,0:2:0:0:
141,184,107289,2,0,L|224:164,1,85,2|8,0:2|0:2,0:2:0:0:
286,105,107586,1,2,0:2:0:0:
121,101,107734,6,0,P|84:121|61:156,1,85,2|0,0:2|0:2,0:2:0:0:
247,246,108031,2,0,P|284:226|307:191,1,85,8|0,0:2|0:2,0:2:0:0:
141,184,108328,1,2,0:2:0:0:
117,265,108477,1,0,0:2:0:0:
271,327,108625,1,10,0:2:0:0:
247,246,108774,1,0,0:2:0:0:
93,346,108922,6,0,L|-12:371,1,85,2|0,0:2|0:2,0:2:0:0:
329,265,109219,2,0,L|434:290,1,85,8|0,0:3|0:2,0:2:0:0:
93,184,109516,2,0,L|-12:209,1,85,4|0,0:3|0:2,0:2:0:0:
328,103,109813,2,0,L|433:128,1,85,12|0,0:2|0:2,0:2:0:0:
136,38,110110,6,0,L|180:223,1,170,2|8,0:2|0:2,0:2:0:0:
276,303,110556,2,0,P|253:225|175:203,1,170,2|0,0:2|0:2,0:2:0:0:
112,305,111002,2,0,L|195:286,1,85,10|0,0:2|0:2,0:2:0:0:
395,146,111299,6,0,L|312:165,1,85,2|0,0:2|0:2,0:2:0:0:
253,103,111596,1,8,0:2:0:0:
424,64,111744,2,0,P|477:126|457:205,1,170,2|0,0:2|0:2,0:2:0:0:
291,244,112190,2,0,L|374:224,1,85,10|0,0:2|0:2,0:2:0:0:
432,365,112487,6,0,L|244:319,1,170,2|8,0:2|0:2,0:2:0:0:
294,83,112932,2,0,B|319:129|319:129|291:244,1,170,2|0,0:2|0:2,0:2:0:0:
155,161,113378,2,0,L|238:141,1,85,10|0,0:2|0:2,0:2:0:0:
434,6,113675,6,0,L|351:26,1,85,2|0,0:2|0:2,0:2:0:0:
294,83,113972,1,8,0:2:0:0:
391,180,114120,2,0,L|474:160,1,85,2|0,0:2|0:2,0:2:0:0:
371,103,114417,1,0,0:2:0:0:
257,218,114566,2,0,L|174:237,1,85,10|0,0:2|0:2,0:2:0:0:
371,103,114863,6,0,L|415:286,1,170,2|8,0:2|0:2,0:2:0:0:
193,350,115308,2,0,B|230:323|230:323|353:331,1,170,2|0,0:2|0:2,0:2:0:0:
450,124,115754,2,0,L|469:206,1,85,10|0,0:2|0:2,0:2:0:0:
256,248,116051,6,0,L|236:165,1,85,2|0,0:2|0:2,0:2:0:0:
297,106,116348,1,8,0:2:0:0:
256,248,116497,2,0,L|59:295,1,170,2|0,0:2|0:2,0:2:0:0:
219,80,116942,2,0,P|261:83|297:106,1,85,10|0,0:2|0:2,0:2:0:0:
153,184,117239,6,0,L|105:-12,1,170,2|8,0:2|0:2,0:2:0:0:
398,18,117685,2,0,L|359:184,1,170,2|0,0:2|0:2,0:2:0:0:
133,266,118130,2,0,L|152:183,1,85,10|0,0:2|0:2,0:2:0:0:
338,265,118427,6,0,P|381:264|418:244,1,85,2|0,0:2|0:2,0:2:0:0:
299,123,118724,1,8,0:2:0:0:
276,205,118873,1,2,0:2:0:0:
359,184,119021,1,0,3:2:0:0:
278,40,119170,1,8,0:2:0:0:
216,144,119318,1,2,3:2:0:0:
382,102,119467,1,8,0:2:0:0:
299,123,119615,5,8,3:3:0:0:
299,123,119912,2,0,P|349:161|315:281,1,170,14|0,0:2|0:2,0:2:0:0:
110,246,120358,1,2,0:2:0:0:
133,165,120506,2,0,L|216:144,1,85,8|0,0:2|0:2,0:2:0:0:
363,340,120804,6,0,L|281:319,1,85,2|0,0:2|0:2,0:2:0:0:
299,123,121101,2,0,L|381:144,1,85,8|0,0:2|0:2,0:2:0:0:
198,340,121398,2,0,L|116:362,1,85,0|0,0:2|0:2,0:2:0:0:
194,61,121695,2,0,L|276:40,1,85,10|0,0:2|0:2,0:2:0:0:
403,227,121992,6,0,L|321:206,1,85,2|0,0:2|0:2,0:2:0:0:
298,123,122289,1,8,0:2:0:0:
465,169,122437,2,0,P|484:206|484:248,1,85,2|0,0:2|0:2,0:2:0:0:
343,287,122734,1,0,0:2:0:0:
298,123,122883,2,0,L|319:40,1,85,10|0,0:2|0:2,0:2:0:0:
425,308,123180,6,0,P|399:351|270:331,1,170,2|8,0:2|0:2,0:2:0:0:
159,192,123625,2,0,P|198:178|244:189,1,85,2|0,0:2|0:2,0:2:0:0:
343,287,123922,1,0,0:2:0:0:
209,345,124071,2,0,P|195:305|206:259,1,85,10|0,0:2|0:2,0:2:0:0:
321,205,124368,6,0,L|490:192,1,170,2|8,0:2|0:2,0:2:0:0:
276,109,124813,2,0,L|232:202,1,85,2|0,0:2|0:2,0:2:0:0:
203,263,125110,1,0,0:2:0:0:
343,287,125259,2,0,L|320:204,1,85,10|0,0:2|0:2,0:2:0:0:
167,340,125556,6,0,L|-2:352,1,170,2|8,0:2|0:2,0:2:0:0:
155,179,126002,2,0,L|256:186,1,85,2|0,0:2|0:2,0:2:0:0:
203,263,126299,1,0,0:2:0:0:
70,172,126447,2,0,L|77:70,1,85,10|0,0:2|0:2,0:2:0:0:
324,192,126744,6,0,L|337:377,1,170,2|8,0:2|0:2,0:2:0:0:
238,185,127190,2,0,P|252:145|283:116,1,85,2|0,0:2|0:2,0:2:0:0:
368,115,127487,1,0,0:2:0:0:
253,268,127635,2,0,P|211:265|175:242,1,85,10|0,0:2|0:2,0:2:0:0:
411,37,127932,6,0,P|456:117|408:194,2,191.250007295609,2|2|2,0:2|0:2|0:2,0:2:0:0:
256,292,129120,1,2,3:2:0:0:
216,375,129714,6,0,B|212:343|220:313|220:313|195:310|170:319|170:319|179:282|222:257|222:257|222:228|222:228|176:215|156:165|156:165|153:132|153:132|122:109|122:109|156:82|156:82|149:37|149:37|191:40|191:40|216:-6|216:-6|256:32|256:32|296:-6|296:-6|321:40|321:40|363:37|363:37|356:82|356:82|390:109|390:109|359:132|359:132|356:165|356:165|336:215|290:228|290:228|290:257|290:257|333:282|342:319|342:319|317:310|292:313|292:313|300:343|296:375,1,1261.84945592358,6|0,0:2|0:2,0:2:0:0:
