osu file format v14

[General]
AudioFilename: audio.mp3
AudioLeadIn: 0
PreviewTime: 49902
Countdown: 0
SampleSet: Soft
StackLeniency: 0.7
Mode: 0
LetterboxInBreaks: 0
WidescreenStoryboard: 0

[Editor]
DistanceSpacing: 1
BeatDivisor: 4
GridSize: 4
TimelineZoom: 1

[Metadata]
Title:Wonder Drive
TitleUnicode:ワンダードライブ
Artist:ORESAMA
ArtistUnicode:ORESAMA
Creator:kusano
Version:Insane
Source:アリスと蔵六
Tags:Alice to Zouroku opening
BeatmapID:1272062
BeatmapSetID:602239

[Difficulty]
HPDrainRate:7
CircleSize:4
OverallDifficulty:7
ApproachRate:8.5
SliderMultiplier:1.8
SliderTickRate:1

[Events]
//Background and Video events
Video,0,"tz.avi"
0,0,"ak.png",0,0
//Break Periods
//Storyboard Layer 0 (Background)
//Storyboard Layer 1 (Fail)
//Storyboard Layer 2 (Pass)
//Storyboard Layer 3 (Foreground)
//Storyboard Sound Samples

[TimingPoints]
496,375,4,2,1,70,1,0
1058,-133.333333333333,4,2,1,65,0,0
4996,-100,4,2,1,70,0,0
7246,-100,4,2,1,80,0,0
19996,-100,4,2,1,65,0,0
43433,-100,4,2,1,70,0,0
48496,-166.666666666667,4,2,1,80,0,0
49527,-83.3333333333333,4,2,1,80,0,0
49996,-100,4,2,1,90,0,1
73996,-133.333333333333,4,2,1,80,0,0
76246,-100,4,2,1,90,0,0

[Colours]
Combo1 : 111,96,196
Combo2 : 201,205,31
Combo3 : 248,124,202
Combo4 : 124,207,235

[HitObjects]
112,300,1058,5,0,0:0:0:0:
192,180,1246,1,2,0:0:0:0:
100,204,1433,1,0,0:0:0:0:
200,268,1621,1,0,0:0:0:0:
200,268,1808,6,0,P|232:272|296:264,1,67.5000025749208,0|2,0:0|0:0,0:0:0:0:
352,236,2183,2,0,P|380:176|368:88,1,135.000005149842,2|0,0:0|0:0,0:0:0:0:
332,32,2746,1,2,0:0:0:0:
244,48,2933,2,0,P|216:108|228:196,1,135.000005149842
432,240,3496,6,0,P|408:180|344:156,1,135.000005149842,2|0,0:0|0:0,0:0:0:0:
296,228,4058,2,0,L|284:308,1,67.5000025749208,2|0,0:0|0:0,0:0:0:0:
219,175,4433,2,0,L|207:255,1,67.5000025749208
48,128,4808,1,0,0:0:0:0:
48,128,4902,1,0,0:0:0:0:
48,128,4996,6,0,L|72:324,1,180,4|0,0:0|0:0,0:0:0:0:
168,140,5558,2,0,L|192:336,1,180,4|0,0:0|0:0,0:0:0:0:
348,292,6121,2,0,L|357:202,1,90,4|0,0:0|0:0,0:0:0:0:
352,112,6496,5,2,0:0:0:0:
324,84,6589,1,2,0:0:0:0:
288,68,6683,1,2,0:0:0:0:
248,60,6777,1,0,0:0:0:0:
208,64,6871,1,0,1:0:0:0:
172,80,6964,1,2,0:0:0:0:
144,112,7058,1,0,1:0:0:0:
132,152,7152,1,2,0:0:0:0:
128,192,7246,5,0,1:0:0:0:
164,216,7339,1,0,1:0:0:0:
208,220,7433,1,0,1:0:0:0:
252,212,7527,1,0,1:0:0:0:
284,180,7621,1,0,1:0:0:0:
300,140,7714,1,0,1:0:0:0:
300,96,7808,1,0,1:0:0:0:
284,52,7902,1,0,1:0:0:0:
248,24,7996,6,0,L|76:36,1,135,4|0,0:0|0:0,0:0:0:0:
68,40,8371,2,0,P|36:72|12:124,1,90,0|0,1:0|0:0,0:0:0:0:
56,192,8746,2,0,P|88:224|112:276,1,90
124,352,9121,1,0,1:0:0:0:
196,296,9308,6,0,P|260:264|288:240,1,90
312,172,9683,1,0,0:0:0:0:
404,172,9871,2,0,P|388:240|376:264,1,90,0|0,1:0|0:0,0:0:0:0:
240,336,10246,1,0,0:0:0:0:
224,332,10339,1,0,0:0:0:0:
212,324,10433,1,0,0:0:0:0:
200,312,10527,1,0,0:0:0:0:
196,296,10621,2,0,L|204:200,1,90,0|0,1:0|0:0,0:0:0:0:
120,72,10996,6,0,L|127:161,1,90,4|0,0:0|0:0,0:0:0:0:
203,206,11371,1,0,1:0:0:0:
280,156,11558,2,0,P|308:120|352:96,1,90
428,64,11933,1,0,0:0:0:0:
512,148,12121,1,0,1:0:0:0:
416,216,12308,6,0,P|371:224|312:232,2,90
512,148,12871,1,0,1:0:0:0:
512,240,13058,1,0,0:0:0:0:
356,144,13246,1,0,0:0:0:0:
356,144,13339,1,0,0:0:0:0:
356,144,13433,1,0,0:0:0:0:
356,144,13527,1,0,0:0:0:0:
356,144,13621,2,0,P|344:104|344:52,1,90,0|0,1:0|0:0,0:0:0:0:
252,44,13996,6,0,P|176:88|76:68,1,180,4|0,0:0|1:0,0:0:0:0:
16,24,14558,1,0,0:0:0:0:
8,116,14746,2,0,P|36:148|88:168,1,90
248,144,15121,1,0,1:0:0:0:
248,144,15308,6,0,P|220:112|168:92,1,90
78,166,15683,1,0,0:0:0:0:
168,192,15871,2,0,L|160:288,1,90,0|0,1:0|0:0,0:0:0:0:
152,372,16246,1,0,0:0:0:0:
324,296,16433,1,0,0:0:0:0:
324,296,16527,1,0,0:0:0:0:
324,296,16621,2,0,L|316:200,1,90,0|0,1:0|0:0,0:0:0:0:
392,56,16996,6,0,L|384:152,1,90,4|0,0:0|0:0,0:0:0:0:
316,206,17371,1,0,1:0:0:0:
256,136,17558,1,2,0:0:0:0:
256,136,17652,1,0,0:0:0:0:
256,136,17746,1,0,0:0:0:0:
116,216,17933,1,2,0:0:0:0:
120,236,18027,1,0,0:0:0:0:
124,256,18121,1,0,1:0:0:0:
156,120,18308,6,0,L|168:72,2,45,2|0|0,0:0|0:0|0:0,0:0:0:0:
64,132,18683,1,2,0:0:0:0:
208,204,18871,1,0,1:0:0:0:
116,296,19058,1,0,1:0:0:0:
120,276,19152,1,0,1:0:0:0:
124,256,19246,1,0,0:0:0:0:
264,120,19433,2,0,P|308:192|276:284,1,180,4|0,0:0|0:0,0:0:0:0:
252,312,19902,1,0,0:0:0:0:
252,312,19996,6,0,P|296:308|368:328,1,90,4|0,0:0|0:0,0:0:0:0:
428,332,20371,1,0,1:0:0:0:
492,268,20558,2,0,P|476:232|460:180,1,90,2|0,0:0|1:0,0:0:0:0:
464,92,20933,1,0,0:0:0:0:
388,40,21121,1,0,1:0:0:0:
308,84,21308,6,0,P|288:124|276:172,1,90,2|0,0:0|1:0,0:0:0:0:
220,44,21683,2,0,P|200:84|188:132,1,90,0|0,0:0|1:0,0:0:0:0:
100,87,22058,2,0,P|111:44|132:4,1,90,0|0,0:0|1:0,0:0:0:0:
392,124,22433,2,0,P|371:164|360:207,1,90,2|0,0:0|1:0,0:0:0:0:
368,300,22808,1,2,0:0:0:0:
288,252,22996,6,0,P|200:232|116:292,1,180,2|0,1:2|1:0,0:0:0:0:
96,360,23558,2,0,P|164:356|192:336,1,90,2|0,0:0|1:0,0:0:0:0:
288,252,23933,1,0,0:0:0:0:
236,176,24121,2,0,P|168:180|140:200,1,90,2|0,1:2|0:0,0:0:0:0:
328,336,24496,6,0,P|360:304|378:251,1,90,0|0,1:0|0:0,0:0:0:0:
236,176,24871,2,0,P|204:208|186:261,1,90,0|0,1:0|0:0,0:0:0:0:
184,340,25246,1,0,1:0:0:0:
68,324,25433,1,2,0:0:0:0:
104,212,25621,1,0,1:0:0:0:
8,148,25808,1,2,0:0:0:0:
8,148,25902,1,0,0:0:0:0:
8,148,25996,6,0,L|20:48,1,90,2|0,1:2|0:0,0:0:0:0:
88,0,26371,2,0,P|108:36|100:104,1,90,0|2,1:0|0:0,0:0:0:0:
8,148,26746,1,0,1:0:0:0:
108,83,26933,2,0,P|152:72|200:72,1,90,0|0,0:0|1:0,0:0:0:0:
180,240,27308,6,0,P|160:204|168:136,1,90,2|0,0:0|1:0,0:0:0:0:
196,71,27683,1,0,0:0:0:0:
335,132,27871,2,0,P|292:142|247:143,1,90,0|0,1:0|0:0,0:0:0:0:
408,40,28246,1,0,1:0:0:0:
408,40,28433,2,0,P|428:80|436:136,1,90,2|0,0:0|1:0,0:0:0:0:
396,208,28808,1,0,0:0:0:0:
396,208,28902,1,0,0:0:0:0:
396,208,28996,6,0,P|376:248|368:304,1,90,2|0,1:2|0:0,0:0:0:0:
388,380,29371,1,0,1:0:0:0:
276,288,29558,2,0,P|248:256|208:232,1,90,2|0,0:0|1:0,0:0:0:0:
116,224,29933,1,0,0:0:0:0:
48,288,30121,2,0,L|64:376,1,90,0|0,1:0|0:0,0:0:0:0:
172,156,30496,5,2,1:2:0:0:
176,140,30589,1,0,0:0:0:0:
180,124,30683,1,2,0:0:0:0:
136,44,30871,1,0,1:0:0:0:
44,84,31058,1,2,1:2:0:0:
48,100,31151,1,0,0:0:0:0:
52,116,31245,1,2,1:2:0:0:
92,200,31433,1,2,0:0:0:0:
304,184,31621,1,0,1:0:0:0:
296,144,31714,1,0,1:0:0:0:
288,104,31808,1,0,1:0:0:0:
280,64,31902,1,0,1:0:0:0:
272,24,31996,6,0,P|208:80|208:172,1,180,4|0,1:2|1:0,0:0:0:0:
276,228,32558,2,0,L|388:224,1,90,2|0,0:0|1:0,0:0:0:0:
412,224,32839,1,0,0:0:0:0:
412,224,32933,1,0,0:0:0:0:
340,100,33121,1,0,1:0:0:0:
186,231,33308,6,0,L|298:227,1,90,2|0,0:0|1:0,0:0:0:0:
256,100,33683,2,0,L|144:104,1,90,2|0,0:0|1:0,0:0:0:0:
120,104,33964,1,0,0:0:0:0:
120,104,34058,1,2,0:0:0:0:
40,148,34246,1,0,1:0:0:0:
40,56,34433,1,2,0:0:0:0:
120,196,34621,1,0,1:0:0:0:
136,192,34714,1,0,0:0:0:0:
152,188,34808,1,0,1:0:0:0:
240,112,34996,6,0,P|324:88|404:136,1,180,2|0,1:2|1:0,0:0:0:0:
440,212,35558,2,0,P|396:220|348:204,1,90,2|0,0:0|1:0,0:0:0:0:
316,180,35839,1,0,0:0:0:0:
316,180,35933,1,2,0:0:0:0:
132,280,36121,6,0,P|216:304|296:256,1,180,2|0,1:2|1:0,0:0:0:0:
244,136,36683,1,2,0:0:0:0:
236,152,36777,1,0,0:0:0:0:
232,168,36871,1,2,1:2:0:0:
292,260,37058,1,2,0:0:0:0:
196,260,37246,1,0,1:0:0:0:
324,172,37433,1,2,0:0:0:0:
412,200,37621,1,0,1:0:0:0:
408,232,37714,1,2,0:0:0:0:
404,264,37808,1,0,0:0:0:0:
400,296,37902,1,0,0:0:0:0:
396,328,37996,5,2,1:2:0:0:
304,292,38183,1,0,0:0:0:0:
304,292,38277,1,0,0:0:0:0:
304,292,38371,2,0,L|200:288,1,90,0|2,1:0|0:0,0:0:0:0:
124,280,38746,1,0,1:0:0:0:
264,200,38933,2,0,L|160:196,1,90,2|0,0:0|1:0,0:0:0:0:
84,188,39308,1,2,0:0:0:0:
224,104,39496,5,0,1:0:0:0:
160,40,39683,1,0,0:0:0:0:
128,48,39777,1,2,0:0:0:0:
96,56,39871,1,0,1:0:0:0:
64,64,39964,1,0,0:0:0:0:
32,72,40058,1,2,0:0:0:0:
84,188,40246,1,0,1:0:0:0:
224,104,40433,1,2,0:0:0:0:
176,180,40621,2,0,P|204:232|212:268,1,90,0|0,1:0|0:0,0:0:0:0:
212,308,40902,1,2,0:0:0:0:
212,308,40996,5,2,1:2:0:0:
284,184,41183,1,0,0:0:0:0:
116,252,41371,2,0,P|93:290|80:333,1,90,0|2,1:0|0:0,0:0:0:0:
156,380,41746,1,0,1:0:0:0:
212,308,41933,1,2,0:0:0:0:
304,324,42121,1,0,1:0:0:0:
340,316,42214,1,0,1:0:0:0:
376,308,42308,1,0,1:0:0:0:
412,300,42402,1,0,1:0:0:0:
448,292,42496,5,2,1:2:0:0:
364,188,42683,2,0,L|352:248,2,45,0|0|0,0:0|0:0|1:0,0:0:0:0:
488,144,43058,1,2,0:0:0:0:
488,136,43152,1,0,0:0:0:0:
488,128,43246,1,0,1:0:0:0:
488,120,43339,1,0,0:0:0:0:
488,112,43433,2,0,P|432:48|336:44,1,180,4|0,0:0|1:0,0:0:0:0:
256,92,43996,5,0,1:0:0:0:
188,32,44183,1,0,0:0:0:0:
188,32,44371,2,0,L|92:56,1,90,8|0,0:1|1:0,0:0:0:0:
48,124,44746,1,0,1:0:0:0:
112,188,44933,1,8,0:1:0:0:
112,188,45121,2,0,L|208:164,1,90,8|0,0:1|1:0,0:0:0:0:
256,92,45496,5,0,1:0:0:0:
292,184,45683,1,0,0:0:0:0:
352,64,45871,1,8,0:1:0:0:
199,166,46058,1,0,1:0:0:0:
144,72,46246,1,0,1:0:0:0:
284,4,46433,1,8,0:1:0:0:
376,152,46621,1,8,0:1:0:0:
256,92,46808,1,0,0:0:0:0:
256,92,46902,1,0,0:0:0:0:
256,92,46996,6,0,L|264:292,1,180,4|0,0:0|1:0,0:0:0:0:
468,224,47558,2,0,P|408:208|336:248,1,135,4|0,0:0|0:0,0:0:0:0:
304,356,47933,2,0,P|344:304|340:228,1,135,0|0,1:0|0:0,0:0:0:0:
304,172,48308,1,0,1:0:0:0:
144,252,48496,6,0,L|136:180,1,53.9999983520508,0|0,1:0|0:0,0:0:0:0:
32,168,48871,2,0,L|27:222,1,53.9999983520508,0|0,1:0|0:0,0:0:0:0:
128,120,49246,2,0,L|120:48,1,53.9999983520508,0|0,1:0|0:0,0:0:0:0:
20,48,49527,5,0,0:0:0:0:
20,48,49621,2,0,L|188:28,1,161.999995056153,4|0,0:0|0:0,0:0:0:0:
256,72,49996,6,0,P|296:92|356:92,1,90,4|0,1:2|0:0,0:0:0:0:
496,64,50371,2,0,P|456:44|396:44,1,90,0|0,1:0|0:0,0:0:0:0:
368,184,50652,1,0,0:0:0:0:
368,184,50746,2,0,P|408:160|432:112,1,90,0|8,1:0|0:0,0:0:0:0:
332,12,51121,1,0,1:0:0:0:
216,140,51308,6,0,P|256:148|312:132,1,90,2|0,0:0|1:0,0:0:0:0:
140,44,51683,1,2,0:0:0:0:
56,80,51871,2,0,L|32:180,1,90,0|2,1:0|0:0,0:0:0:0:
40,260,52246,1,0,1:0:0:0:
272,212,52433,1,8,0:0:0:0:
216,140,52621,2,0,P|172:136|124:156,1,90,0|0,1:0|0:0,0:0:0:0:
240,296,52996,6,0,P|284:300|332:280,1,90,0|0,1:2|0:0,0:0:0:0:
448,192,53371,2,0,P|404:188|356:208,1,90,0|0,1:0|0:0,0:0:0:0:
200,216,53652,1,0,0:0:0:0:
200,216,53746,2,0,P|156:268|156:336,1,135,0|0,1:0|0:0,0:0:0:0:
180,372,54121,1,0,1:0:0:0:
284,188,54308,6,0,P|276:144|256:96,1,90,2|0,0:0|1:0,0:0:0:0:
196,36,54683,1,2,0:0:0:0:
120,88,54871,1,0,1:0:0:0:
288,16,55058,1,2,0:0:0:0:
288,16,55152,1,0,0:0:0:0:
288,16,55246,2,0,P|320:40|356:88,1,90,0|8,1:0|0:0,0:0:0:0:
408,152,55621,2,0,P|344:172|280:136,1,135,0|0,1:0|0:0,0:0:0:0:
260,104,55996,5,4,1:2:0:0:
432,72,56183,1,0,0:0:0:0:
492,192,56371,2,0,P|464:224|412:244,1,90,0|0,1:0|0:0,0:0:0:0:
324,240,56746,1,0,1:0:0:0:
204,168,56933,1,8,0:0:0:0:
232,256,57121,1,0,1:0:0:0:
372,160,57308,5,2,0:0:0:0:
372,160,57403,1,0,0:0:0:0:
372,160,57496,1,0,1:0:0:0:
324,80,57683,2,0,P|284:56|228:48,1,90,2|0,0:0|1:0,0:0:0:0:
74,114,58058,2,0,P|112:89|156:80,1,90,2|0,0:0|1:0,0:0:0:0:
252,136,58433,1,8,0:0:0:0:
152,168,58621,2,0,L|168:264,1,90,0|2,1:0|0:0,0:0:0:0:
356,336,58996,6,0,P|376:252|328:164,1,180,4|0,1:2|1:0,0:0:0:0:
252,136,59558,2,0,P|239:179|232:232,1,90,0|0,0:0|1:0,0:0:0:0:
240,316,59933,1,8,0:0:0:0:
456,240,60121,1,0,1:0:0:0:
416,80,60308,6,0,L|304:88,1,90,4|2,1:2|0:0,0:0:0:0:
240,40,60683,1,10,0:0:0:0:
196,44,60777,1,0,0:0:0:0:
152,28,60871,1,0,1:0:0:0:
48,116,61058,2,0,P|104:116|156:136,1,90,4|2,1:2|0:0,0:0:0:0:
212,184,61433,1,2,0:0:0:0:
416,224,61621,1,0,1:0:0:0:
372,216,61714,1,0,1:0:0:0:
328,220,61808,1,0,1:0:0:0:
284,236,61902,1,0,1:0:0:0:
252,268,61996,6,0,P|236:312|232:372,1,90,4|0,0:0|0:0,0:0:0:0:
212,184,62371,2,0,P|206:139|191:97,1,90,0|0,1:0|0:0,0:0:0:0:
76,252,62652,1,0,0:0:0:0:
76,252,62746,2,0,L|168:256,1,90,0|8,1:0|0:0,0:0:0:0:
292,148,63121,1,0,1:0:0:0:
416,224,63308,6,0,L|324:228,1,90,2|0,0:0|1:0,0:0:0:0:
252,272,63683,1,0,0:0:0:0:
496,256,63871,2,0,P|496:208|476:164,1,90,0|2,1:0|0:0,0:0:0:0:
420,100,64246,1,0,1:0:0:0:
252,184,64433,1,8,0:0:0:0:
228,96,64621,2,0,P|276:96|316:116,1,90,0|0,1:0|0:0,0:0:0:0:
216,312,64996,6,0,P|148:304|88:256,1,135,0|0,1:0|0:0,0:0:0:0:
76,224,65371,1,0,1:0:0:0:
224,132,65558,1,0,0:0:0:0:
224,132,65652,1,0,0:0:0:0:
224,132,65746,2,0,L|220:228,1,90,0|8,1:0|0:0,0:0:0:0:
216,312,66121,1,0,1:0:0:0:
76,224,66308,6,0,L|80:128,1,90,4|0,0:0|1:0,0:0:0:0:
84,44,66683,1,2,0:0:0:0:
224,132,66871,2,0,L|313:135,1,90,0|0,1:0|0:0,0:0:0:0:
400,108,67246,1,0,1:0:0:0:
264,212,67433,1,8,0:0:0:0:
264,212,67527,1,0,0:0:0:0:
264,212,67621,2,0,P|252:296|300:376,1,180,0|4,1:0|1:2,0:0:0:0:
388,368,68183,5,0,0:0:0:0:
504,276,68371,2,0,L|396:284,1,90,0|2,1:0|0:0,0:0:0:0:
347,219,68746,1,0,1:0:0:0:
388,368,68933,1,8,0:0:0:0:
496,188,69121,1,0,1:0:0:0:
340,130,69308,6,0,L|348:230,1,90,4|0,0:0|1:0,0:0:0:0:
248,64,69683,2,0,P|200:60|156:80,1,90,2|0,0:0|1:0,0:0:0:0:
88,232,70058,2,0,P|124:200|141:155,1,90,2|0,0:0|1:0,0:0:0:0:
76,100,70433,1,10,0:0:0:0:
196,252,70621,1,0,1:0:0:0:
16,172,70808,1,0,0:0:0:0:
16,172,70902,1,0,0:0:0:0:
16,172,70996,6,0,P|-4:260|32:344,1,180,4|0,1:2|1:0,0:0:0:0:
324,304,71558,2,0,P|344:216|308:132,1,180,4|2,1:2|0:0,0:0:0:0:
232,88,72121,2,0,L|136:96,1,90,4|2,1:2|0:0,0:0:0:0:
232,288,72496,5,0,1:0:0:0:
324,304,72683,1,2,0:0:0:0:
400,248,72871,1,0,1:0:0:0:
400,248,72964,1,0,1:0:0:0:
400,248,73058,1,0,1:0:0:0:
232,176,73246,2,0,P|184:176|144:196,1,90,0|2,1:0|0:0,0:0:0:0:
112,224,73527,1,0,0:0:0:0:
112,224,73621,1,2,1:2:0:0:
164,80,73808,1,0,0:0:0:0:
360,100,73996,5,2,0:0:0:0:
276,68,74183,2,0,P|264:132|288:196,1,135.000005149842,2|2,0:0|0:0,0:0:0:0:
372,224,74746,1,0,0:0:0:0:
452,184,74933,2,0,P|464:120|440:56,1,135.000005149842,2|2,0:0|0:0,0:0:0:0:
356,24,75496,6,0,L|368:184,1,135.000005149842,2|2,0:0|0:0,0:0:0:0:
372,248,76058,1,0,0:0:0:0:
260,220,76246,1,0,1:0:0:0:
236,240,76339,1,0,1:0:0:0:
212,260,76433,1,0,1:0:0:0:
168,180,76621,1,0,1:0:0:0:
136,178,76714,1,0,1:0:0:0:
105,175,76808,1,0,1:0:0:0:
28,312,76996,6,0,P|104:332|188:280,1,180,4|0,0:0|1:0,0:0:0:0:
224,200,77558,1,0,0:0:0:0:
88,156,77746,2,0,P|89:199|96:248,1,90,0|8,1:0|0:0,0:0:0:0:
300,252,78121,2,0,P|308:180|276:128,1,135,0|0,1:0|0:0,0:0:0:0:
244,96,78496,5,0,1:0:0:0:
392,160,78683,1,0,0:0:0:0:
160,132,78871,2,0,P|156:88|168:40,1,90,0|0,1:0|0:0,0:0:0:0:
192,8,79152,1,0,0:0:0:0:
192,8,79246,1,0,1:0:0:0:
352,72,79433,1,8,0:0:0:0:
244,96,79621,1,0,1:0:0:0:
248,124,79714,1,0,0:0:0:0:
256,152,79808,1,0,0:0:0:0:
256,180,79902,1,0,0:0:0:0:
264,208,79996,6,0,P|284:252|316:288,1,90,4|0,0:0|0:0,0:0:0:0:
400,304,80371,1,0,1:0:0:0:
512,220,80558,2,0,P|468:208|424:220,1,90,0|0,0:0|1:0,0:0:0:0:
310,283,80933,1,8,0:0:0:0:
240,224,81121,1,0,1:0:0:0:
152,244,81308,6,0,L|48:236,1,90,4|0,0:0|1:0,0:0:0:0:
176,152,81683,1,0,0:0:0:0:
360,124,81871,2,0,L|256:132,1,90,0|0,1:0|0:0,0:0:0:0:
96,100,82246,1,0,1:0:0:0:
244,220,82433,1,8,0:0:0:0:
244,220,82527,1,0,0:0:0:0:
244,220,82621,1,0,1:0:0:0:
176,152,82808,1,0,0:0:0:0:
320,32,82996,6,0,P|408:40|468:120,1,180,4|0,0:0|1:0,0:0:0:0:
480,196,83558,1,0,0:0:0:0:
480,196,83652,1,0,0:0:0:0:
480,196,83746,1,0,1:0:0:0:
396,164,83933,2,0,L|296:168,1,90,8|0,0:0|1:0,0:0:0:0:
168,248,84308,6,0,P|208:256|256:240,1,90,4|0,0:0|1:0,0:0:0:0:
306,167,84683,1,0,0:0:0:0:
152,92,84871,2,0,P|112:84|64:100,1,90,0|0,1:0|0:0,0:0:0:0:
12,172,85246,1,0,1:0:0:0:
248,92,85433,1,8,0:0:0:0:
248,92,85527,1,0,0:0:0:0:
248,92,85621,2,0,P|336:80|404:136,1,180,0|4,1:0|0:0,0:0:0:0:
316,196,86183,5,0,0:0:0:0:
312,180,86277,1,0,0:0:0:0:
312,164,86371,1,0,1:0:0:0:
403,134,86558,1,0,0:0:0:0:
408,224,86746,2,0,P|388:260|344:288,1,90,0|0,1:0|0:0,0:0:0:0:
248,104,87121,2,0,P|232:144|228:212,1,90,0|0,1:0|0:0,0:0:0:0:
104,48,87496,6,0,P|120:87|166:138,1,90,0|0,1:0|0:0,0:0:0:0:
272,266,87871,2,0,P|255:226|209:175,1,90,0|0,1:0|0:0,0:0:0:0:
44,136,88246,1,0,1:0:0:0:
44,136,88339,1,0,0:0:0:0:
44,136,88433,1,0,1:0:0:0:
180,268,88621,1,0,1:0:0:0:
340,168,88808,1,0,1:0:0:0:
