osu file format v14

[General]
AudioFilename: audio.mp3
AudioLeadIn: 0
PreviewTime: -1
Countdown: 0
SampleSet: None
StackLeniency: 0.7
Mode: 0
LetterboxInBreaks: 0
WidescreenStoryboard: 0

[Editor]
Bookmarks: 4777,19777,31777,38714,43777,49777,61777,73777,76777,88777
DistanceSpacing: 1
BeatDivisor: 4
GridSize: 16
TimelineZoom: 1

[Metadata]
Title:Wonder Drive
TitleUnicode:Wonder Drive
Artist:ORESAMA
ArtistUnicode:ORESAMA
Creator:Zunv
Version:Insane
Source:
Tags:
BeatmapID:1522510
BeatmapSetID:720956

[Difficulty]
HPDrainRate:6
CircleSize:4
OverallDifficulty:7
ApproachRate:9
SliderMultiplier:2
SliderTickRate:1

[Events]
//Background and Video events
//Break Periods
2,73977,75427
//Storyboard Layer 0 (Background)
//Storyboard Layer 1 (Fail)
//Storyboard Layer 2 (Pass)
//Storyboard Layer 3 (Foreground)
//Storyboard Sound Samples

[TimingPoints]
277,375,4,2,0,24,1,0
7777,-74.0740740740741,4,2,0,24,0,0
8152,-117.647058823529,4,2,0,24,0,0
8902,-74.0740740740741,4,2,0,24,0,0
9652,-117.647058823529,4,2,0,24,0,0
10214,-74.0740740740741,4,2,0,24,0,0
11152,-117.647058823529,4,2,0,24,0,0
11902,-74.0740740740741,4,2,0,24,0,0
14152,-117.647058823529,4,2,0,24,0,0
14902,-74.0740740740741,4,2,0,24,0,0
15652,-117.647058823529,4,2,0,24,0,0
16214,-74.0740740740741,4,2,0,24,0,0
16777,-117.647058823529,4,2,0,24,0,0
19214,-74.0740740740741,4,2,0,24,0,0
19777,-100,4,2,0,24,0,0
43214,-166.666666666667,4,2,0,24,0,0
49777,-66.6666666666667,4,2,0,24,0,0
67402,-50,4,2,0,24,0,0
67777,-66.6666666666667,4,2,0,24,0,0
72277,-100,4,2,0,24,0,0
76027,-66.6666666666667,4,2,0,24,0,0
86902,-100,4,2,0,24,0,0
87277,-66.6666666666667,4,2,0,24,0,0

[HitObjects]
248,195,4777,6,0,P|194:134|275:121,1,200
248,195,5339,2,0,P|296:261|326:184,1,200
148,56,5902,1,0,0:0:0:0:
130,280,6277,2,0,L|127:231,3,50
116,147,6652,2,0,L|71:124,3,50
189,179,7027,1,0,0:0:0:0:
226,192,7120,1,0,0:0:0:0:
266,192,7214,1,0,0:0:0:0:
304,180,7308,1,0,0:0:0:0:
336,157,7402,5,0,0:0:0:0:
321,204,7495,1,0,0:0:0:0:
326,253,7589,2,0,L|337:302,1,50
410,204,7777,2,0,P|423:142|390:88,1,129.999994049073
253,267,8152,6,0,P|206:310|144:310,1,127.50000243187
113,299,8527,1,0,0:0:0:0:
254,89,8714,1,0,0:0:0:0:
19,281,8902,6,0,P|48:224|108:202,1,129.999994049073
366,203,9277,1,0,0:0:0:0:
366,203,9652,6,0,P|390:126|333:69,1,170.000003242493
124,63,10214,6,0,L|196:73,1,64.9999970245363
311,146,10402,2,0,B|277:138|261:107|261:107|249:139|204:149,1,129.999994049073
29,186,10777,1,0,0:0:0:0:
29,186,11152,6,0,P|79:222|141:216,1,127.50000243187
172,201,11527,1,0,0:0:0:0:
9,7,11714,1,0,0:0:0:0:
259,192,11902,6,0,P|230:135|170:113,1,129.999994049073
212,299,12277,2,0,P|276:314|341:311,1,129.999994049073
470,176,12652,2,0,P|406:191|341:188,1,129.999994049073
250,111,13027,5,0,0:0:0:0:
213,300,13214,1,0,0:0:0:0:
305,0,13402,5,0,0:0:0:0:
342,189,13589,1,0,0:0:0:0:
171,62,13777,2,0,P|158:124|191:178,1,129.999994049073
298,296,14152,6,0,P|341:249|341:187,1,127.50000243187
330,156,14527,1,0,0:0:0:0:
120,297,14714,1,0,0:0:0:0:
330,67,14902,6,0,P|270:89|241:146,1,129.999994049073
230,367,15277,1,0,0:0:0:0:
230,367,15652,6,0,P|286:309|364:333,1,170.000003242493
330,156,16214,6,0,L|321:91,1,64.9999970245363
284,219,16402,2,0,B|345:240|345:240|394:199,1,129.999994049073
252,147,16777,6,0,P|213:128|171:123,1,85.0000016212464
170,202,17152,2,0,P|127:204|88:221,1,85.0000016212464
150,339,17527,2,0,L|152:296,1,42.5000008106232
170,80,17714,2,0,L|172:122,1,42.5000008106232
254,277,17902,2,0,L|251:234,3,42.5000008106232
253,112,18277,6,0,P|276:147|310:172,1,85.0000016212464
351,105,18652,2,0,P|389:123|431:128,1,85.0000016212464
431,128,18933,1,0,0:0:0:0:
431,128,19027,1,0,0:0:0:0:
387,197,19214,6,0,P|416:302|472:209,1,270.000001029968
465,37,19777,5,0,0:0:0:0:
459,55,20152,1,0,0:0:0:0:
397,199,20339,2,0,P|369:239|325:262,1,100
155,243,20714,2,0,P|110:265|83:306,1,100
326,358,21089,2,0,P|337:309|325:262,1,100
195,147,21464,2,0,P|182:99|194:51,1,100
397,199,21839,2,0,P|369:239|325:262,1,100
287,98,22214,2,0,P|366:85|307:31,1,200
84,108,22777,5,0,0:0:0:0:
103,121,23152,1,0,0:0:0:0:
311,187,23339,5,0,0:0:0:0:
292,200,23714,1,0,0:0:0:0:
84,266,23902,5,0,0:0:0:0:
84,266,24277,1,0,0:0:0:0:
84,266,24652,1,0,0:0:0:0:
84,266,25027,2,0,L|97:166,1,100
156,23,25402,1,0,0:0:0:0:
292,200,25589,2,0,L|192:187,2,100
257,43,26152,2,0,P|303:27|351:41,1,100
487,105,26527,1,0,0:0:0:0:
305,111,26714,2,0,P|325:188|373:124,1,200
257,43,27277,5,0,0:0:0:0:
257,43,27652,1,0,0:0:0:0:
257,43,28027,2,0,L|243:142,2,100
408,243,28589,2,0,L|308:236,1,100
96,206,28964,1,0,0:0:0:0:
257,43,29152,1,0,0:0:0:0:
222,270,29339,1,0,0:0:0:0:
119,66,29527,1,0,0:0:0:0:
322,170,29714,2,0,P|387:215|310:238,1,200
332,83,30277,6,0,L|338:34,3,50
383,155,30652,2,0,L|419:120,3,50
378,243,31027,2,0,L|427:239,3,50
512,248,31402,1,0,0:0:0:0:
499,283,31495,1,0,0:0:0:0:
473,309,31589,1,0,0:0:0:0:
438,323,31683,1,0,0:0:0:0:
401,320,31777,6,0,P|352:315|303:326,1,100
140,376,32152,1,0,0:0:0:0:
262,257,32339,2,0,P|296:220|316:175,1,100
170,19,32714,2,0,P|136:55|116:100,1,100
315,174,33089,2,0,P|295:129|261:93,1,100
114,248,33464,2,0,P|135:294|169:331,1,100
260,92,33839,2,0,P|214:112|178:146,1,100
286,315,34214,2,0,P|362:340|333:265,1,200
314,261,34683,1,0,0:0:0:0:
301,249,34777,2,0,P|281:205|315:174,1,100
494,349,35152,5,0,0:0:0:0:
281,328,35339,2,0,B|209:308|209:308|255:287,1,100
301,249,35714,5,0,0:0:0:0:
238,41,35902,2,0,L|246:140,1,100
417,85,36277,2,0,L|408:195,1,100
395,340,36652,1,0,0:0:0:0:
512,192,36839,1,0,0:0:0:0:
512,192,36933,1,0,0:0:0:0:
512,192,37027,2,0,B|500:328|500:328|462:258,1,200
430,175,37589,6,0,P|452:131|497:110,1,100
339,121,37964,2,0,L|239:129,1,100
39,125,38339,1,0,0:0:0:0:
198,27,38527,1,0,0:0:0:0:
121,269,38714,2,0,L|129:169,1,100
45,304,39089,2,0,P|77:341|124:353,2,100
39,125,39652,1,0,0:0:0:0:
218,246,39839,1,0,0:0:0:0:
397,125,40027,6,0,B|441:97|441:97|390:74,1,100
218,198,40402,1,0,0:0:0:0:
397,319,40589,1,0,0:0:0:0:
397,319,40683,1,0,0:0:0:0:
396,319,40777,2,0,P|432:284|454:239,1,100
397,77,41152,2,0,P|361:111|339:156,1,100
316,340,41527,1,0,0:0:0:0:
251,238,41714,1,0,0:0:0:0:
436,319,41902,2,0,L|495:327,3,50
357,222,42277,6,0,P|339:175|302:142,1,100
157,91,42652,2,0,L|97:78,1,50
81,157,42839,2,0,L|11:155,1,50
39,245,43027,2,0,L|-27:257,1,50
130,235,43214,6,0,B|183:252|183:252|265:247,1,119.999996337891
512,161,43777,2,0,B|459:144|459:144|377:149,1,119.999996337891
266,174,44339,1,0,0:0:0:0:
441,291,44527,2,0,L|445:231,1,59.9999981689454
311,22,44902,2,0,L|315:81,1,59.9999981689454
336,261,45277,5,0,0:0:0:0:
458,145,45464,1,0,0:0:0:0:
472,358,45652,2,0,P|496:341|510:315,1,59.9999981689454
458,145,46027,1,0,0:0:0:0:
276,256,46214,2,0,L|335:260,2,59.9999981689454
114,175,46777,6,0,P|78:222|21:235,1,119.999996337891
194,0,47339,1,0,0:0:0:0:
276,256,47714,1,0,0:0:0:0:
194,0,48089,1,0,0:0:0:0:
256,192,48183,12,0,49402,0:0:0:0:
221,71,49777,6,0,P|176:110|235:119,1,150.000005722046
134,267,50152,2,0,P|190:285|168:230,1,150.000005722046
346,243,50527,2,0,P|333:184|296:231,1,150.000005722046
491,383,50902,1,0,0:0:0:0:
432,75,51089,2,0,B|432:123|411:154|411:154|432:187|432:235,1,150.000005722046
277,36,51464,1,0,0:0:0:0:
280,281,51652,1,0,0:0:0:0:
491,155,51839,1,0,0:0:0:0:
206,154,52027,2,0,B|95:164|95:164|135:117,2,150.000005722046
396,72,52589,1,0,0:0:0:0:
231,295,52777,6,0,P|270:339|279:280,1,150.000005722046
403,169,53152,2,0,P|344:181|391:218,1,150.000005722046
427,382,53527,2,0,P|445:325|390:347,1,150.000005722046
269,203,53902,1,0,0:0:0:0:
250,369,54089,2,0,B|227:326|232:289|232:289|192:268|179:221,1,150.000005722046
159,30,54464,1,0,0:0:0:0:
399,191,54652,1,0,0:0:0:0:
138,114,54839,1,0,0:0:0:0:
378,107,55027,1,0,0:0:0:0:
250,369,55214,1,0,0:0:0:0:
316,167,55402,2,0,P|291:98|329:36,1,150.000005722046
148,204,55777,5,0,0:0:0:0:
148,204,56152,1,0,0:0:0:0:
0,0,56339,1,0,0:0:0:0:
80,274,56527,1,0,0:0:0:0:
228,70,56714,1,0,0:0:0:0:
330,300,56902,1,0,0:0:0:0:
479,97,57089,6,0,P|411:67|455:-5,1,150.000005722046
421,248,57464,2,0,P|391:316|318:271,1,150.000005722046
228,70,57839,2,0,P|296:100|251:172,2,150.000005722046
75,249,58402,1,0,0:0:0:0:
339,220,58589,1,0,0:0:0:0:
48,73,58777,5,0,0:0:0:0:
66,86,59152,1,0,0:0:0:0:
251,284,59339,5,0,0:0:0:0:
264,266,59714,1,0,0:0:0:0:
423,45,59902,1,0,0:0:0:0:
253,127,60089,6,0,P|136:118|227:44,1,300.000011444092
136,244,60652,1,0,0:0:0:0:
323,229,60839,6,0,P|429:279|317:315,1,300.000011444092
407,114,61402,2,0,B|398:78|398:78|437:85,3,75.0000028610231
230,258,61777,6,0,B|184:307|184:307|158:248|158:248|176:250,1,150.000005722046
416,200,62152,2,0,B|481:214|481:214|443:266|443:266|436:250,1,150.000005722046
266,74,62527,2,0,B|245:9|245:9|310:17|310:17|299:31,1,150.000005722046
158,248,62902,1,0,0:0:0:0:
168,0,63089,6,0,B|191:73|191:73|180:172,1,150.000005722046
9,368,63464,1,0,0:0:0:0:
106,83,63652,1,0,0:0:0:0:
178,372,63839,1,0,0:0:0:0:
275,87,64027,2,0,B|267:159|267:159|290:232,1,150.000005722046
427,384,64402,1,0,0:0:0:0:
359,53,64589,2,0,L|351:132,1,75.0000028610231
350,154,64777,2,0,P|407:111|480:133,1,150.000005722046
290,233,65152,2,0,L|445:245,1,150.000005722046
257,150,65527,1,0,0:0:0:0:
496,166,65714,1,0,0:0:0:0:
261,143,65902,1,0,0:0:0:0:
394,259,66089,2,0,P|359:195|388:129,1,150.000005722046
477,275,66464,2,0,P|435:335|358:337,1,150.000005722046
443,193,66839,2,0,P|471:126|437:61,2,150.000005722046
249,253,67402,6,0,P|189:299|267:299,1,200
151,201,67777,6,0,P|220:173|291:191,1,150.000005722046
474,275,68152,1,0,0:0:0:0:
230,288,68339,1,0,0:0:0:0:
443,193,68527,1,0,0:0:0:0:
276,364,68714,1,0,0:0:0:0:
367,62,68902,1,0,0:0:0:0:
350,315,69089,2,0,L|374:130,1,150.000005722046
272,42,69464,2,0,L|296:227,1,150.000005722046
43,154,69839,2,0,L|192:174,2,150.000005722046
188,76,70402,1,0,0:0:0:0:
58,253,70589,1,0,0:0:0:0:
58,253,70683,1,0,0:0:0:0:
58,253,70777,6,0,B|108:302|108:302|176:226,1,150.000005722046
273,121,71152,1,0,0:0:0:0:
201,360,71339,1,0,0:0:0:0:
199,365,71714,5,0,0:0:0:0:
58,115,71902,2,0,P|31:184|62:258,1,150.000005722046
294,355,72277,2,0,L|360:348,1,50
409,224,72464,2,0,L|470:200,1,50
355,136,72652,1,0,0:0:0:0:
319,170,72745,1,0,0:0:0:0:
306,218,72839,2,0,L|299:284,1,50
437,364,73027,2,0,L|431:314,1,50
455,206,73214,2,0,L|456:181,2,25
425,100,73402,2,0,L|417:-1,2,100
191,266,76027,5,0,0:0:0:0:
191,266,76120,1,0,0:0:0:0:
191,266,76214,2,0,L|184:167,1,75.0000028610231
46,275,76402,5,0,0:0:0:0:
46,275,76495,1,0,0:0:0:0:
46,275,76589,2,0,L|39:374,1,75.0000028610231
275,236,76777,6,0,P|288:174|230:101,1,150.000005722046
360,263,77152,6,0,P|276:327|191:266,1,225.000008583069
129,70,77527,1,0,0:0:0:0:
275,236,77714,1,0,0:0:0:0:
102,282,77902,6,0,P|119:211|183:176,1,150.000005722046
468,128,78277,2,0,L|318:118,1,150.000005722046
74,12,78652,6,0,P|48:79|89:138,1,150.000005722046
305,201,79027,1,0,0:0:0:0:
202,54,79214,6,0,L|128:69,1,75.0000028610231
105,220,79402,2,0,B|145:210|163:174|163:174|177:211|230:223,1,150.000005722046
458,195,79777,1,0,0:0:0:0:
89,138,80152,6,0,P|147:95|219:115,1,150.000005722046
382,276,80527,1,0,0:0:0:0:
163,174,80714,1,0,0:0:0:0:
455,86,80902,6,0,P|391:122|369:192,1,150.000005722046
456,384,81277,2,0,B|471:310|471:310|465:236,1,150.000005722046
361,350,81652,2,0,B|287:366|287:366|213:364,1,150.000005722046
0,322,82027,5,0,0:0:0:0:
278,279,82214,1,0,0:0:0:0:
57,106,82402,5,0,0:0:0:0:
100,384,82589,1,0,0:0:0:0:
60,213,82777,2,0,P|128:239|151:308,1,150.000005722046
369,192,83152,2,0,P|307:153|238:175,1,150.000005722046
62,303,83527,1,0,0:0:0:0:
299,238,83714,1,0,0:0:0:0:
0,160,83902,2,0,P|59:202|129:183,1,150.000005722046
213,33,84277,1,0,0:0:0:0:
366,298,84652,6,0,P|438:301|487:247,1,150.000005722046
475,75,85027,1,0,0:0:0:0:
407,219,85214,6,0,L|395:139,1,75.0000028610231
289,273,85402,2,0,B|277:351|277:351|362:381,1,150.000005722046
240,95,85777,6,0,P|184:67|193:128,1,150.000005722046
103,241,86152,6,0,P|106:302|155:264,1,150.000005722046
3,142,86527,2,0,L|77:145,1,75.0000028610231
335,162,86714,2,0,L|249:172,1,75.0000028610231
223,176,86902,1,0,0:0:0:0:
188,212,86995,1,0,0:0:0:0:
141,229,87089,1,0,0:0:0:0:
92,223,87183,1,0,0:0:0:0:
50,200,87277,6,0,P|63:273|117:324,1,150.000005722046
244,278,87652,2,0,P|282:296|410:288,2,150.000005722046
132,141,88120,1,0,0:0:0:0:
123,115,88214,6,0,P|144:56|187:101,1,150.000005722046
203,365,88589,1,0,0:0:0:0:
