osu file format v14

[General]
AudioFilename: audio.mp3
AudioLeadIn: 0
PreviewTime: 49996
Countdown: 0
SampleSet: Soft
StackLeniency: 0.5
Mode: 0
LetterboxInBreaks: 0
WidescreenStoryboard: 1

[Editor]
Bookmarks: 6121,7996,19996,23371,35371,76996
DistanceSpacing: 1
BeatDivisor: 4
GridSize: 16
TimelineZoom: 1.8

[Metadata]
Title:Wonder Drive (TV Size)
TitleUnicode:ワンダードライブ
Artist:ORESAMA
ArtistUnicode:ORESAMA
Creator:m3gB3g
Version:gary00737's Easy
Source:アリスと蔵六
Tags:Fouriose gary00737 Asuka_- Livstvichka TV Size Alice to Zouroku opening
BeatmapID:1380836
BeatmapSetID:638633

[Difficulty]
HPDrainRate:3
CircleSize:2.7
OverallDifficulty:3
ApproachRate:3
SliderMultiplier:0.9
SliderTickRate:1

[Events]
//Background and Video events
0,0,"main bg.jpg",0,0
Video,280,"Video.avi"
//Break Periods
2,74196,75556
//Storyboard Layer 0 (Background)
//Storyboard Layer 1 (Fail)
//Storyboard Layer 2 (Pass)
//Storyboard Layer 3 (Foreground)
//Storyboard Sound Samples

[TimingPoints]
496,375,4,2,0,30,1,0
1996,-100,4,2,0,30,0,0
3496,-100,4,2,0,30,0,0
4996,-100,4,2,0,30,0,0
7996,-100,4,2,0,70,0,0
19996,-100,4,2,0,60,0,0
43996,-100,4,2,2,60,0,0
49996,-100,4,2,0,90,0,1
73996,-100,4,2,0,30,0,0
76996,-100,4,2,0,70,0,0
88246,-100,4,2,0,20,0,0

[Colours]
Combo1 : 255,55,255
Combo2 : 255,74,165
Combo3 : 255,91,91
SliderBorder : 255,255,128

[HitObjects]
256,192,1996,12,4,4996,3:0:0:0:
162,122,6121,6,0,B|135:63|171:7|244:-31|324:59|287:108|272:131|272:131|223:180|240:286,1,450,4|4,3:0|3:0,0:0:0:0:
255,374,8371,5,4,3:0:0:0:
325,317,8746,2,0,P|367:312|430:324,1,90,4|4,3:0|3:0,0:0:0:0:
496,355,9496,2,0,L|501:252,1,90,4|4,3:0|3:0,0:0:0:0:
455,188,10246,2,0,L|460:85,1,90,4|0,3:0|0:0,0:0:0:0:
373,124,10996,6,0,P|331:129|268:117,1,90,4|0,3:0|0:0,0:0:0:0:
245,41,11746,1,0,0:0:0:0:
155,34,12121,1,4,3:0:0:0:
103,108,12496,2,0,P|98:150|110:213,1,90,4|4,3:0|3:0,0:0:0:0:
181,243,13246,2,0,P|186:285|174:348,1,90,4|4,3:0|3:0,0:0:0:0:
95,362,13996,6,0,L|-8:367,2,90,4|4|4,3:0|3:0|3:0,0:0:0:0:
179,331,15121,1,4,3:0:0:0:
265,306,15496,2,0,L|260:203,2,90,4|4|4,3:0|3:0|3:0,0:0:0:0:
349,339,16621,1,4,3:0:0:0:
355,249,16996,6,0,L|360:146,1,90,4|4,3:0|3:0,0:0:0:0:
360,69,17746,2,0,P|318:74|255:62,1,90,4|2,3:0|0:0,0:0:0:0:
191,24,18496,1,4,3:0:0:0:
109,62,18871,2,0,P|91:126|103:198,1,135,4|4,3:0|3:0,0:0:0:0:
199,285,19996,6,0,L|363:277,1,135,4|2,3:0|0:0,0:0:0:0:
423,270,20933,1,2,0:0:0:0:
493,214,21308,2,0,P|498:172|486:109,2,90,2|2|2,0:0|0:0|0:0,0:0:0:0:
408,181,22433,2,0,P|343:161|244:173,1,135,2|4,0:0|3:0,0:0:0:0:
197,205,23371,6,0,L|200:274,1,45,4|2,3:0|0:0,0:0:0:0:
249,324,23933,2,0,L|246:393,1,45,2|4,0:0|3:0,0:0:0:0:
159,347,24496,2,0,P|117:342|54:354,1,90,4|4,3:0|3:0,0:0:0:0:
23,271,25246,2,0,P|18:229|30:166,1,90,4|4,3:0|3:0,0:0:0:0:
52,96,25996,6,0,P|106:126|200:141,1,135,4|2,3:0|0:0,0:0:0:0:
266,131,26933,1,2,0:0:0:0:
351,104,27308,2,0,B|376:142|376:142|361:262,1,135,2|4,0:0|3:0,0:0:0:0:
346,319,28246,2,0,P|310:317|265:323,1,45,4|2,3:0|0:0,0:0:0:0:
183,381,28996,6,0,L|175:217,1,135,4|2,3:0|0:0,0:0:0:0:
117,178,29933,2,0,L|125:14,2,135,2|2|2,0:0|0:0|0:0,0:0:0:0:
112,313,31621,1,2,1:3:0:0:
176,246,31996,6,0,P|243:234|339:253,1,135,4|2,3:0|0:0,0:0:0:0:
390,279,32933,1,2,0:0:0:0:
469,321,33308,2,0,P|474:279|462:216,2,90,2|2|2,0:0|0:0|0:0,0:0:0:0:
391,367,34433,2,0,L|227:375,1,135,2|4,0:0|3:0,0:0:0:0:
169,348,35371,6,0,L|172:279,1,45,4|2,3:0|0:0,0:0:0:0:
241,247,35933,2,0,L|238:178,1,45,2|4,0:0|3:0,0:0:0:0:
313,151,36496,2,0,L|318:48,1,90,4|4,3:0|3:0,0:0:0:0:
227,64,37246,2,0,P|178:53|123:29,1,90,4|4,3:0|3:0,0:0:0:0:
86,109,37996,6,0,P|61:176|57:244,1,135,4|2,3:0|0:0,0:0:0:0:
75,326,38933,1,2,0:0:0:0:
164,321,39308,2,0,L|298:314,1,135,2|4,0:0|3:0,0:0:0:0:
388,306,40246,2,0,P|383:250|385:205,1,90,4|4,3:0|3:0,0:0:0:0:
413,131,40996,5,4,3:0:0:0:
462,56,41371,1,4,3:0:0:0:
376,27,41746,2,0,L|307:30,1,45,4|2,3:0|0:0,0:0:0:0:
257,79,42308,2,0,L|188:76,1,45,2|4,3:0|3:0,0:0:0:0:
138,131,42871,2,0,L|69:128,1,45,4|2,3:0|0:0,0:0:0:0:
8,161,43433,1,4,3:0:0:0:
46,290,43996,6,0,L|236:280,1,180,4|4,3:0|3:0,0:0:0:0:
389,354,45496,2,0,P|383:260|407:161,1,180,4|0,3:0|0:0,0:0:0:0:
482,15,46996,6,0,L|326:23,1,135,4|4,3:0|3:0,0:0:0:0:
257,30,47933,1,4,3:0:0:0:
167,36,48308,1,4,3:0:0:0:
167,36,49996,6,0,L|61:41,1,90,4|2,3:0|1:3,0:0:0:0:
120,119,50746,2,0,P|141:175|126:252,1,135,4|8,3:0|0:0,0:0:0:0:
62,308,51683,2,0,L|196:301,1,135,8|4,0:0|3:0,0:0:0:0:
287,300,52621,1,2,1:3:0:0:
260,213,52996,6,0,P|261:170|270:117,1,90,4|2,3:0|1:3,0:0:0:0:
356,107,53746,2,0,P|364:179|349:258,1,135,4|8,3:0|0:0,0:0:0:0:
287,300,54683,2,0,L|152:293,1,135,8|4,0:0|3:0,0:0:0:0:
61,289,55621,1,2,1:3:0:0:
110,213,55996,6,0,P|111:155|97:117,1,90,4|2,3:0|1:3,0:0:0:0:
30,69,56746,2,0,L|164:62,1,135,4|0,3:0|0:0,0:0:0:0:
254,55,57683,1,0,0:0:0:0:
343,47,58058,2,0,P|400:106|406:163,1,135,0|2,0:0|1:3,0:0:0:0:
406,246,58996,6,0,P|391:310|342:354,1,135,4|0,3:0|0:0,0:0:0:0:
264,308,59933,1,8,0:0:0:0:
185,351,60308,2,0,P|90:375|29:305,1,180,4|4,3:0|3:0,0:0:0:0:
20,236,61433,6,0,L|27:101,1,135,2|4,3:0|3:0,0:0:0:0:
116,86,62371,1,2,1:3:0:0:
186,142,62746,2,0,P|262:152|339:120,1,135,4|8,3:0|0:0,0:0:0:0:
379,70,63683,2,0,L|372:204,1,135,8|4,0:0|3:0,0:0:0:0:
367,294,64621,1,2,1:3:0:0:
281,266,64996,6,0,P|238:267|185:276,1,90,4|2,3:0|1:3,0:0:0:0:
174,363,65746,2,0,P|246:371|325:356,1,135,4|0,3:0|0:0,0:0:0:0:
367,294,66683,2,0,L|360:159,1,135,8|4,0:0|3:0,0:0:0:0:
353,69,67621,1,2,1:3:0:0:
280,122,67996,6,0,P|238:132|180:134,1,90,4|2,3:0|1:3,0:0:0:0:
101,124,68746,2,0,L|98:193,1,45,4|8,3:0|0:0,0:0:0:0:
93,258,69308,2,0,L|191:252,1,90,2|2,0:0|0:0,0:0:0:0:
273,249,70058,1,2,0:0:0:0:
224,173,70433,2,0,P|215:108|232:32,1,135,8|4,0:0|3:0,0:0:0:0:
317,28,71371,6,0,L|386:31,1,45,2|4,1:3|3:0,0:0:0:0:
436,80,71933,2,0,L|505:77,1,45,2|2,0:0|1:3,0:0:0:0:
462,166,72496,2,0,P|453:231|470:307,1,135,4|4,3:0|3:0,0:0:0:0:
376,296,73433,2,0,L|307:293,1,45,0|2,0:0|1:3,0:0:0:0:
240,289,73996,5,4,3:0:0:0:
240,289,76996,6,0,P|198:294|135:282,1,90,4|2,3:0|1:3,0:0:0:0:
68,251,77746,2,0,P|73:209|61:146,1,90,4|2,3:0|1:3,0:0:0:0:
34,77,78496,2,0,L|137:72,1,90,4|2,3:0|1:3,0:0:0:0:
202,28,79246,2,0,L|305:23,1,90,4|0,3:0|0:0,0:0:0:0:
381,18,79996,6,0,P|376:60|388:123,1,90,4|2,3:0|1:3,0:0:0:0:
451,165,80746,1,0,0:0:0:0:
435,253,81121,1,2,1:3:0:0:
350,283,81496,2,0,P|308:288|245:276,1,90,4|2,3:0|1:3,0:0:0:0:
216,203,82246,2,0,P|174:198|111:210,1,90,4|2,3:0|1:3,0:0:0:0:
81,282,82996,6,0,L|76:385,2,90,4|2|4,3:0|1:3|3:0,0:0:0:0:
127,204,84121,1,2,1:3:0:0:
81,126,84496,2,0,L|86:23,2,90,4|2|4,3:0|1:3|3:0,0:0:0:0:
35,204,85621,1,2,1:3:0:0:
81,282,85996,6,0,L|184:277,1,90,4|4,3:0|3:0,0:0:0:0:
260,271,86746,2,0,P|265:229|253:166,1,90,4|2,3:0|0:0,0:0:0:0:
256,192,87496,12,2,88808,1:3:0:0:
