osu file format v14

[General]
AudioFilename: audio.mp3
AudioLeadIn: 0
PreviewTime: 49996
Countdown: 0
SampleSet: Soft
StackLeniency: 0.5
Mode: 0
LetterboxInBreaks: 0
WidescreenStoryboard: 1

[Editor]
Bookmarks: 19996,31996,43996,61996
DistanceSpacing: 0.4
BeatDivisor: 4
GridSize: 4
TimelineZoom: 1.8

[Metadata]
Title:Wonder Drive (TV Size)
TitleUnicode:ワンダードライブ
Artist:ORESAMA
ArtistUnicode:ORESAMA
Creator:m3gB3g
Version:Livstvichka's Insane
Source:アリスと蔵六
Tags:Fouriose gary00737 Asuka_- Livstvichka TV Size Alice to Zouroku opening
BeatmapID:1399456
BeatmapSetID:638633

[Difficulty]
HPDrainRate:5
CircleSize:4
OverallDifficulty:8
ApproachRate:9
SliderMultiplier:1.9
SliderTickRate:1

[Events]
//Background and Video events
Video,280,"Video.avi"
0,0,"main bg.jpg",0,0
//Break Periods
//Storyboard Layer 0 (Background)
//Storyboard Layer 1 (Fail)
//Storyboard Layer 2 (Pass)
//Storyboard Layer 3 (Foreground)
//Storyboard Sound Samples

[TimingPoints]
496,375,4,2,0,30,1,0
1058,-100,4,2,0,30,0,0
1246,-142.857142857143,4,2,0,30,0,0
1996,-200,4,2,0,30,0,0
4996,-76.9230769230769,4,2,0,30,0,0
6121,-200,4,2,0,30,0,0
7996,-76.9230769230769,4,2,0,70,0,0
10621,-133.333333333333,4,2,0,70,0,0
10996,-76.9230769230769,4,2,0,70,0,0
16621,-133.333333333333,4,2,0,70,0,0
16996,-76.9230769230769,4,2,0,70,0,0
19433,-62.5,4,2,0,70,0,0
19996,-100,4,2,0,60,0,0
30496,-133.333333333333,4,2,0,60,0,0
31246,-200,4,2,0,60,0,0
31996,-100,4,2,0,60,0,0
43433,-76.9230769230769,4,2,0,60,0,0
43996,-76.9230769230769,4,2,2,60,0,0
46433,-100,4,2,2,60,0,0
46621,-76.9230769230769,4,2,2,60,0,0
47558,-66.6666666666667,4,2,2,60,0,0
49621,-62.5,4,2,2,60,0,0
49996,-66.6666666666667,4,2,0,85,0,1
73996,-200,4,2,0,30,0,0
76246,-66.6666666666667,4,2,0,30,0,0
76996,-76.9230769230769,4,2,0,70,0,0
78121,-100,4,2,0,70,0,1
79621,-133.333333333333,4,2,0,70,0,1
79996,-76.9230769230769,4,2,0,70,0,0
85621,-125,4,2,0,70,0,0
85996,-76.9230769230769,4,2,0,70,0,0
88246,-76.9230769230769,4,2,0,20,0,0

[Colours]
Combo1 : 255,55,255
Combo2 : 255,74,165
Combo3 : 255,91,91
SliderBorder : 255,255,128

[HitObjects]
456,65,1058,5,2,0:0:0:0:
435,161,1246,2,0,P|442:196|469:237,2,66.4999979705811,2|2|2,0:0|0:0|0:0,0:0:0:0:
290,289,1808,1,2,0:0:0:0:
350,362,1996,6,0,P|335:207|199:263,1,332.5,2|2,0:0|0:0,0:0:0:0:
173,334,3496,2,0,B|223:259|159:184|159:184|102:117|137:53|172:31,1,332.5,2|2,0:0|0:0,0:0:0:0:
419,31,4996,6,0,P|344:123|227:112,1,246.999988693238,4|0,3:0|0:0,0:0:0:0:
28,165,5558,2,0,P|90:91|232:117,1,246.999988693238,4|0,3:0|0:0,0:0:0:0:
430,227,6121,2,0,P|404:218|347:230,1,71.25,4|0,3:0|0:0,0:0:0:0:
345,240,6496,5,0,0:0:0:0:
330,258,6589,1,0,0:0:0:0:
322,280,6683,1,0,0:0:0:0:
320,303,6777,1,0,0:0:0:0:
324,326,6871,5,0,0:0:0:0:
294,295,6964,1,0,0:0:0:0:
256,274,7058,1,0,0:0:0:0:
213,270,7152,1,0,0:0:0:0:
173,286,7246,5,4,3:0:0:0:
214,317,7339,1,4,3:0:0:0:
265,328,7433,1,4,3:0:0:0:
324,326,7527,1,4,3:0:0:0:
354,272,7621,5,8,3:0:0:0:
362,211,7714,1,8,3:0:0:0:
345,151,7808,1,8,3:0:0:0:
307,101,7902,1,8,3:0:0:0:
249,77,7996,6,0,L|125:72,1,123.499994346619,4|0,3:0|0:0,0:0:0:0:
76,249,8371,1,4,3:0:0:0:
76,249,8558,2,0,P|131:224|169:169,1,123.499994346619,0|4,0:0|3:0,0:0:0:0:
39,37,8933,1,8,3:0:0:0:
39,37,9120,2,0,P|37:97|71:155,1,123.499994346619,4|0,3:0|0:0,0:0:0:0:
307,101,9496,5,4,3:0:0:0:
153,68,9683,1,8,3:0:0:0:
415,51,9871,1,4,3:0:0:0:
241,24,10058,1,0,0:0:0:0:
372,181,10246,1,4,3:0:0:0:
307,101,10433,1,4,3:0:0:0:
352,279,10621,2,0,P|402:278|458:231,1,106.875004076958,0|0,0:0|0:0,0:0:0:0:
459,229,10996,6,0,P|469:163|432:100,1,123.499994346619,4|0,3:0|0:0,0:0:0:0:
287,4,11371,1,0,0:0:0:0:
287,4,11558,2,0,P|230:37|206:107,1,123.499994346619,4|0,3:0|0:0,0:0:0:0:
257,254,11933,1,0,0:0:0:0:
257,254,12121,2,0,L|95:246,1,123.499994346619,4|0,3:0|0:0,0:0:0:0:
62,67,12496,5,4,3:0:0:0:
165,128,12683,1,8,3:0:0:0:
51,292,12871,1,4,3:0:0:0:
57,180,13058,1,0,0:0:0:0:
201,329,13246,1,4,3:0:0:0:
177,327,13339,1,4,3:0:0:0:
152,324,13433,1,8,3:0:0:0:
365,273,13621,1,4,3:0:0:0:
365,273,13996,6,0,P|381:208|361:144,1,123.499994346619,4|0,3:0|0:0,0:0:0:0:
220,16,14371,1,4,3:0:0:0:
220,16,14558,2,0,P|204:81|224:145,1,123.499994346619,0|4,0:0|3:0,0:0:0:0:
428,75,14933,1,8,3:0:0:0:
428,75,15120,2,0,P|363:59|299:79,1,123.499994346619,4|0,3:0|0:0,0:0:0:0:
310,268,15496,5,4,3:0:0:0:
367,154,15683,1,8,3:0:0:0:
133,216,15871,1,4,3:0:0:0:
280,185,16058,1,0,0:0:0:0:
45,141,16246,1,4,3:0:0:0:
219,272,16433,1,0,0:0:0:0:
137,114,16621,2,0,P|121:80|42:47,1,106.875004076958,4|0,3:0|0:0,0:0:0:0:
39,48,16996,6,0,L|175:34,1,123.499994346619,4|0,3:0|0:0,0:0:0:0:
364,94,17371,2,0,L|228:80,1,123.499994346619,4|0,3:0|0:0,0:0:0:0:
132,244,17746,1,4,3:0:0:0:
266,169,17933,1,2,0:0:0:0:
243,173,18027,1,2,0:0:0:0:
221,178,18121,1,2,0:0:0:0:
377,174,18308,5,2,0:0:0:0:
398,180,18402,1,0,0:0:0:0:
420,187,18496,2,0,P|453:245|442:301,1,123.499994346619,4|0,3:0|0:0,0:0:0:0:
216,309,18871,1,4,3:0:0:0:
361,259,19058,1,2,1:3:0:0:
361,259,19152,2,0,B|358:254|360:257|337:292,1,30.8749985866547,2|0,1:3|0:0,0:0:0:0:
361,259,19433,6,0,P|270:212|327:39,1,304,4|0,3:0|0:0,0:0:0:0:
459,151,19996,6,0,L|360:148,1,95,4|2,3:0|0:0,0:0:0:0:
274,179,20371,1,4,3:0:0:0:
274,179,20558,2,0,L|164:173,1,95,2|4,0:0|3:0,0:0:0:0:
84,187,20933,2,0,P|93:130|213:82,1,190,2|2,0:0|0:0,0:0:0:0:
140,253,21496,1,4,3:0:0:0:
140,253,21683,2,0,P|96:271|36:258,1,95,2|4,0:0|3:0,0:0:0:0:
223,265,22058,2,0,P|204:308|152:342,1,95,2|4,0:0|3:0,0:0:0:0:
290,207,22433,2,0,P|307:250|294:310,1,95,2|4,0:0|3:0,0:0:0:0:
188,131,22808,5,2,0:0:0:0:
188,131,22996,2,0,L|290:118,1,95,4|2,3:0|0:0,0:0:0:0:
455,168,23371,1,4,3:0:0:0:
455,168,23559,2,0,L|353:155,1,95,2|4,0:0|3:0,0:0:0:0:
478,260,23933,1,2,0:0:0:0:
478,260,24121,2,0,P|414:243|299:318,2,190,4|4|4,3:0|3:0|3:0,0:0:0:0:
412,348,25058,5,0,0:0:0:0:
309,298,25246,2,0,L|198:287,1,95,4|2,3:0|0:0,0:0:0:0:
119,294,25621,1,4,3:0:0:0:
119,294,25808,2,0,P|103:257|109:186,1,95,2|4,0:0|3:0,0:0:0:0:
173,138,26183,1,2,0:0:0:0:
255,107,26371,1,4,3:0:0:0:
347,86,26558,1,2,0:0:0:0:
347,86,26746,6,0,P|376:114|388:185,1,95,4|2,3:0|0:0,0:0:0:0:
173,138,27121,1,4,3:0:0:0:
185,44,27308,1,2,0:0:0:0:
255,107,27496,2,0,L|268:309,2,190,4|4|4,3:0|3:0|3:0,0:0:0:0:
309,29,28433,2,0,P|345:14|473:82,1,190,2|2,0:0|0:0,0:0:0:0:
369,207,28996,6,0,P|361:156|375:103,1,95,4|2,3:0|0:0,0:0:0:0:
460,234,29371,1,4,3:0:0:0:
389,297,29558,1,2,0:0:0:0:
318,360,29746,2,0,L|208:354,1,95,4|2,3:0|0:0,0:0:0:0:
64,295,30121,2,0,L|174:289,1,95,4|2,3:0|0:0,0:0:0:0:
298,272,30496,6,0,L|306:233,3,35.625001358986,2|2|2|2,0:0|0:0|0:0|0:0,0:0:0:0:
211,186,30871,2,0,L|219:225,3,35.625001358986,2|2|2|2,0:0|0:0|0:0|0:0,0:0:0:0:
272,120,31246,6,0,L|277:87,3,23.75,2|2|2|2,0:0|0:0|0:0|0:0,0:0:0:0:
300,126,31621,1,2,1:3:0:0:
324,130,31714,1,2,1:3:0:0:
348,134,31808,1,6,1:3:0:0:
372,139,31902,1,4,3:0:0:0:
393,145,31996,6,0,L|399:260,1,95,4|2,3:0|0:0,0:0:0:0:
395,258,32277,1,0,0:0:0:0:
389,276,32371,2,0,P|348:295|281:284,1,95,4|2,3:0|0:0,0:0:0:0:
186,204,32746,1,4,3:0:0:0:
204,207,32839,1,2,0:0:0:0:
222,211,32933,1,2,0:0:0:0:
102,265,33121,2,0,P|86:234|87:169,1,95,4|2,3:0|0:0,0:0:0:0:
90,156,33402,1,0,0:0:0:0:
98,138,33496,6,0,P|127:114|189:98,1,95,4|2,3:0|0:0,0:0:0:0:
200,100,33777,1,2,0:0:0:0:
217,105,33871,2,0,P|241:111|265:113,2,47.5,4|0|2,3:0|0:0|0:0,0:0:0:0:
356,38,34246,1,4,3:0:0:0:
337,41,34339,1,0,0:0:0:0:
318,45,34433,1,2,0:0:0:0:
397,145,34621,2,0,P|421:139|471:78,1,95,4|2,3:0|0:0,0:0:0:0:
467,70,34902,1,2,0:0:0:0:
466,50,34996,6,0,L|476:155,1,95,4|2,3:0|0:0,0:0:0:0:
300,293,35371,1,4,3:0:0:0:
300,293,35558,2,0,L|310:188,1,95,2|4,0:0|3:0,0:0:0:0:
404,228,35933,1,2,0:0:0:0:
205,352,36121,2,0,P|131:351|108:337,1,95,4|2,3:0|0:0,0:0:0:0:
98,330,36402,1,2,0:0:0:0:
84,316,36496,5,4,3:0:0:0:
173,199,36683,1,2,3:0:0:0:
173,218,36777,1,0,0:0:0:0:
173,237,36871,1,4,3:0:0:0:
61,79,37058,1,2,3:0:0:0:
63,60,37152,1,0,0:0:0:0:
65,41,37246,2,0,L|168:29,1,95,4|2,3:0|3:0,0:0:0:0:
371,71,37621,1,4,3:0:0:0:
251,108,37808,1,2,0:0:0:0:
242,125,37902,1,2,0:0:0:0:
233,141,37996,6,0,P|225:202|243:253,1,95,4|2,3:0|0:0,0:0:0:0:
242,250,38277,1,0,0:0:0:0:
251,266,38371,2,0,P|261:300|261:323,2,47.5,4|0|2,3:0|0:0|0:0,0:0:0:0:
58,294,38746,1,0,0:0:0:0:
163,305,38933,1,2,0:0:0:0:
158,323,39027,1,0,0:0:0:0:
153,341,39121,1,4,3:0:0:0:
114,205,39308,1,2,0:0:0:0:
112,186,39402,1,0,0:0:0:0:
110,167,39496,6,0,P|105:116|124:70,1,95,4|2,3:0|0:0,0:0:0:0:
191,43,39777,1,0,0:0:0:0:
254,86,39871,2,0,P|259:137|240:183,1,95,4|2,3:0|0:0,0:0:0:0:
23,202,40246,1,4,3:0:0:0:
243,177,40433,1,2,0:0:0:0:
110,167,40621,1,4,3:0:0:0:
312,246,40808,1,2,0:0:0:0:
330,252,40902,1,2,0:0:0:0:
347,258,40996,5,4,3:0:0:0:
217,267,41183,1,2,0:0:0:0:
339,154,41371,1,4,3:0:0:0:
286,360,41558,1,2,0:0:0:0:
433,198,41746,1,4,3:0:0:0:
221,159,41933,1,2,0:0:0:0:
192,162,42027,1,0,0:0:0:0:
163,165,42121,2,0,P|126:164|102:153,1,47.5,4|2,3:0|3:0,0:0:0:0:
134,42,42308,2,0,P|151:74|154:100,1,47.5,2|2,3:0|3:0,0:0:0:0:
40,125,42496,5,4,3:0:0:0:
250,46,42683,1,2,0:0:0:0:
273,61,42777,1,2,0:0:0:0:
296,76,42871,1,4,3:0:0:0:
286,252,43058,1,2,0:0:0:0:
365,166,43246,1,0,0:0:0:0:
365,166,43433,2,0,L|97:173,1,246.999988693238,4|8,3:0|3:0,0:0:0:0:
26,253,43996,6,0,L|157:248,1,123.499994346619,4|2,3:0|0:0,0:0:0:0:
149,248,44277,1,0,0:0:0:0:
149,248,44371,1,8,0:0:0:0:
372,304,44558,1,0,0:0:0:0:
372,304,44746,2,0,L|239:302,1,123.499994346619,4|8,3:0|0:0,0:0:0:0:
248,302,45027,1,0,0:0:0:0:
248,302,45121,1,8,0:0:0:0:
118,174,45308,5,2,0:0:0:0:
303,68,45496,1,4,3:0:0:0:
234,166,45683,1,2,0:0:0:0:
408,117,45871,1,8,0:0:0:0:
177,64,46058,1,0,0:0:0:0:
342,209,46246,1,0,0:0:0:0:
234,166,46433,2,0,P|221:193|219:228,1,47.5,8|0,0:0|0:0,0:0:0:0:
219,236,46621,2,0,P|233:282|371:333,1,185.249991519928,8|2,0:0|0:0,0:0:0:0:
342,209,46996,5,4,3:0:0:0:
348,338,47183,1,0,0:0:0:0:
334,86,47371,1,8,0:0:0:0:
342,209,47558,2,0,P|395:195|452:44,1,213.750008153916,4|0,3:0|0:0,0:0:0:0:
207,79,47933,2,0,P|215:133|359:205,1,213.750008153916,4|0,3:0|0:0,0:0:0:0:
334,86,48308,1,4,3:0:0:0:
91,120,48496,5,8,0:0:0:0:
99,205,48871,1,4,3:0:0:0:
180,198,49246,1,2,1:3:0:0:
175,111,49621,2,0,L|192:350,1,228,4|0,3:0|0:0,0:0:0:0:
284,267,49996,6,0,P|321:251|430:289,1,142.500005435944,4|0,3:0|0:0,0:0:0:0:
191,338,50371,2,0,P|154:354|45:316,1,142.500005435944,2|0,1:3|0:0,0:0:0:0:
168,144,50746,1,4,3:0:0:0:
128,258,50933,1,0,0:0:0:0:
46,34,51121,1,2,1:3:0:0:
76,129,51308,1,8,0:0:0:0:
144,55,51683,5,8,0:0:0:0:
144,55,51871,2,0,P|196:55|260:123,1,142.500005435944,2|8,1:3|0:0,0:0:0:0:
168,280,52246,1,4,3:0:0:0:
168,144,52433,1,8,0:0:0:0:
299,331,52621,1,2,1:3:0:0:
168,280,52808,1,8,0:0:0:0:
299,331,52996,6,0,L|308:184,1,142.500005435944,4|0,3:0|0:0,0:0:0:0:
439,5,53371,2,0,L|448:152,1,142.500005435944,2|0,1:3|0:0,0:0:0:0:
210,173,53746,2,0,P|230:130|326:96,1,142.500005435944,4|0,3:0|0:0,0:0:0:0:
189,272,54121,1,2,1:3:0:0:
189,272,54308,2,0,P|146:252|112:156,1,142.500005435944,8|4,0:0|3:0,0:0:0:0:
163,76,54683,5,8,0:0:0:0:
319,186,54871,1,2,1:3:0:0:
203,181,55058,1,8,0:0:0:0:
403,168,55246,1,4,3:0:0:0:
361,176,55339,1,0,0:0:0:0:
319,186,55433,1,8,0:0:0:0:
422,42,55621,1,2,1:3:0:0:
282,75,55808,1,8,0:0:0:0:
422,42,55996,6,0,L|190:36,1,213.750008153916,4|0,3:0|0:0,0:0:0:0:
134,32,56371,1,2,1:3:0:0:
63,241,56558,1,8,0:0:0:0:
63,241,56746,2,0,P|126:257|194:218,1,142.500005435944,4|0,3:0|0:0,0:0:0:0:
353,128,57121,1,2,1:3:0:0:
353,128,57308,2,0,P|290:144|222:105,2,142.500005435944,0|4|0,0:0|3:0|0:0,0:0:0:0:
235,0,57871,1,2,1:3:0:0:
115,165,58058,2,0,L|103:16,1,142.500005435944,0|0,0:0|0:0,0:0:0:0:
353,128,58433,2,0,L|341:277,1,142.500005435944,8|2,0:0|1:3,0:0:0:0:
115,165,58808,5,8,0:0:0:0:
288,61,58996,2,0,P|336:40|421:65,1,142.500005435944,4|0,3:0|0:0,0:0:0:0:
261,148,59371,1,2,1:3:0:0:
486,0,59558,2,0,P|511:45|488:135,1,142.500005435944,0|4,0:0|3:0,0:0:0:0:
197,83,59933,1,8,0:0:0:0:
419,63,60121,1,2,1:3:0:0:
134,13,60308,6,0,P|168:175|273:28,1,427.500016307831,4|2,3:0|1:3,0:0:0:0:
471,327,61058,2,0,P|340:224|292:314,1,285.000010871888,4|2,3:0|3:0,0:0:0:0:
295,281,61621,1,4,3:0:0:0:
245,280,61714,1,4,3:0:0:0:
195,277,61808,1,4,3:0:0:0:
144,276,61902,1,4,3:0:0:0:
93,275,61996,6,0,L|82:129,1,142.500005435944,4|0,3:0|0:0,0:0:0:0:
324,27,62371,2,0,L|313:173,1,142.500005435944,2|8,1:3|0:0,0:0:0:0:
127,41,62746,1,4,3:0:0:0:
229,104,62933,1,8,0:0:0:0:
24,202,63121,1,2,1:3:0:0:
76,121,63308,1,8,0:0:0:0:
118,204,63683,5,8,0:0:0:0:
118,204,63871,2,0,P|111:271|176:329,1,142.500005435944,2|8,1:3|0:0,0:0:0:0:
229,104,64246,1,4,3:0:0:0:
192,243,64433,1,8,0:0:0:0:
366,105,64621,1,2,1:3:0:0:
444,250,64808,1,8,0:0:0:0:
460,210,64902,1,0,0:0:0:0:
477,170,64996,6,0,P|459:135|350:111,1,142.500005435944,4|8,3:0|0:0,0:0:0:0:
342,298,65371,2,0,P|359:332|468:356,1,142.500005435944,2|8,1:3|0:0,0:0:0:0:
303,194,65746,2,0,L|148:209,1,142.500005435944,4|0,3:0|0:0,0:0:0:0:
37,343,66121,1,2,1:3:0:0:
37,343,66308,2,0,L|192:358,1,142.500005435944,0|4,0:0|3:0,0:0:0:0:
76,148,66683,5,8,0:0:0:0:
68,243,66871,1,2,1:3:0:0:
253,118,67058,1,8,0:0:0:0:
116,53,67246,1,4,3:0:0:0:
158,49,67339,1,0,0:0:0:0:
200,45,67433,1,8,0:0:0:0:
421,133,67621,2,0,P|375:174|252:116,1,213.750008153916,2|0,1:3|0:0,0:0:0:0:
340,91,67996,6,0,B|361:146|333:201|333:201|307:255|335:319,1,213.750008153916,4|0,3:0|0:0,0:0:0:0:
371,362,68371,1,2,1:3:0:0:
183,273,68558,1,0,0:0:0:0:
183,273,68746,2,0,L|37:285,1,142.500005435944,4|8,3:0|0:0,0:0:0:0:
164,145,69121,1,2,1:3:0:0:
164,145,69308,2,0,L|310:157,2,142.500005435944,2|4|2,0:0|3:0|0:0,0:0:0:0:
297,34,69871,1,2,1:3:0:0:
454,165,70058,2,0,P|450:213|378:280,1,142.500005435944,2|4,0:0|3:0,0:0:0:0:
96,257,70433,2,0,P|100:209|172:142,1,142.500005435944,8|2,0:0|1:3,0:0:0:0:
296,323,70808,5,8,0:0:0:0:
259,345,70902,1,0,0:0:0:0:
221,365,70996,2,0,L|78:345,1,142.500005435944,4|0,3:0|0:0,0:0:0:0:
305,236,71371,1,2,1:3:0:0:
96,257,71558,2,0,L|41:119,1,142.500005435944,4|0,3:0|0:0,0:0:0:0:
227,270,71933,1,2,0:0:0:0:
123,77,72121,2,0,P|154:40|375:55,1,285.000010871888,2|4,1:3|3:0,0:0:0:0:
227,270,72683,5,4,3:0:0:0:
261,100,72871,1,2,1:3:0:0:
277,139,72964,1,2,1:3:0:0:
292,178,73058,1,4,3:0:0:0:
307,217,73152,1,0,0:0:0:0:
322,257,73246,1,4,3:0:0:0:
134,275,73433,1,0,0:0:0:0:
138,232,73527,1,0,0:0:0:0:
142,189,73621,1,2,1:3:0:0:
227,270,73808,1,0,0:0:0:0:
25,329,73996,6,0,B|57:255|57:255|67:139|67:139|94:68|94:68|87:136,1,332.5,4|2,3:0|0:0,0:0:0:0:
175,158,75496,2,0,L|188:16,1,142.5,2|0,0:0|0:0,0:0:0:0:
326,145,76246,5,4,3:0:0:0:
311,179,76339,1,0,0:0:0:0:
295,213,76433,1,4,3:0:0:0:
452,313,76621,1,4,3:0:0:0:
442,279,76714,1,8,3:0:0:0:
431,244,76808,1,4,3:0:0:0:
329,343,76996,6,0,L|183:349,1,123.499994346619,4|0,3:0|0:0,0:0:0:0:
54,222,77371,1,2,1:3:0:0:
54,222,77558,2,0,L|200:228,1,123.499994346619,0|4,0:0|3:0,0:0:0:0:
340,96,77933,1,8,0:0:0:0:
340,96,78120,2,0,L|194:102,1,123.499994346619,2|0,1:3|0:0,0:0:0:0:
54,222,78496,5,4,3:0:0:0:
124,24,78683,1,8,0:0:0:0:
132,163,78871,1,2,1:3:0:0:
58,94,79058,1,8,0:0:0:0:
140,272,79246,1,4,3:0:0:0:
132,163,79433,1,4,3:0:0:0:
76,338,79621,2,0,P|110:359|188:353,1,106.875004076958,0|0,0:0|0:0,0:0:0:0:
194,351,79996,6,0,P|226:314|230:239,1,123.499994346619,4|0,3:0|0:0,0:0:0:0:
128,63,80371,1,2,1:3:0:0:
128,63,80558,2,0,P|96:100|92:175,1,123.499994346619,4|0,3:0|0:0,0:0:0:0:
309,181,80933,1,0,0:0:0:0:
309,181,81120,2,0,P|272:149|197:145,1,123.499994346619,2|0,1:3|0:0,0:0:0:0:
194,351,81496,5,4,3:0:0:0:
230,241,81683,1,8,0:0:0:0:
39,185,81871,1,2,1:3:0:0:
114,268,82058,1,8,0:0:0:0:
160,93,82246,1,4,3:0:0:0:
155,117,82339,1,8,3:0:0:0:
151,141,82433,1,4,3:0:0:0:
270,19,82621,1,2,1:3:0:0:
270,19,82996,6,0,L|259:158,1,123.499994346619,4|0,3:0|0:0,0:0:0:0:
424,247,83371,1,2,1:3:0:0:
424,247,83558,2,0,P|410:204|327:170,1,123.499994346619,0|4,0:0|3:0,0:0:0:0:
390,333,83933,1,8,0:0:0:0:
390,333,84120,2,0,P|434:342|505:287,1,123.499994346619,2|0,1:3|0:0,0:0:0:0:
344,168,84496,5,4,3:0:0:0:
286,278,84683,1,8,0:0:0:0:
468,173,84871,1,2,1:3:0:0:
411,63,85058,1,0,0:0:0:0:
225,181,85246,1,4,3:0:0:0:
421,276,85433,1,8,0:0:0:0:
282,66,85621,6,0,L|156:72,1,114,2|0,1:3|0:0,0:0:0:0:
147,73,85996,2,0,P|115:109|99:185,1,123.499994346619,4|0,3:0|0:0,0:0:0:0:
259,292,86371,2,0,P|260:241|220:176,1,123.499994346619,4|0,3:0|0:0,0:0:0:0:
24,254,86746,1,4,3:0:0:0:
128,273,86933,1,2,0:0:0:0:
148,287,87027,1,0,0:0:0:0:
168,301,87121,1,2,0:0:0:0:
358,304,87308,5,2,0:0:0:0:
377,288,87402,1,0,0:0:0:0:
397,271,87496,2,0,P|417:241|380:38,2,246.999988693238,4|4|2,3:0|3:0|1:3,0:0:0:0:
377,288,88339,1,2,1:3:0:0:
358,304,88433,1,2,1:3:0:0:
108,152,88621,1,4,3:0:0:0:
278,161,88808,1,2,1:3:0:0:
