osu file format v14

[General]
AudioFilename: audio.mp3
AudioLeadIn: 0
PreviewTime: 63597
Countdown: 0
SampleSet: Soft
StackLeniency: 0.7
Mode: 0
LetterboxInBreaks: 0
WidescreenStoryboard: 1

[Editor]
DistanceSpacing: 1
BeatDivisor: 4
GridSize: 16
TimelineZoom: 3.099999

[Metadata]
Title:Trip Trip Trip(TV Size)
TitleUnicode:Trip Trip Trip(TV Size)
Artist:ORESAMA
ArtistUnicode:ORESAMA
Creator:RepL4y
Version:Normal
Source:魔法陣グルグル
Tags:anime op tv size maoujin guruguru
BeatmapID:1356237
BeatmapSetID:638965

[Difficulty]
HPDrainRate:4
CircleSize:3
OverallDifficulty:4
ApproachRate:5
SliderMultiplier:1.2
SliderTickRate:1

[Events]
//Background and Video events
0,0,"BG.jpg",0,0
//Break Periods
//Storyboard Layer 0 (Background)
//Storyboard Layer 1 (Fail)
//Storyboard Layer 2 (Pass)
//Storyboard Layer 3 (Foreground)
//Storyboard Sound Samples

[TimingPoints]
1365,357.142857142857,4,2,1,40,1,0
1365,-100,4,2,1,40,0,0
12257,-100,4,3,1,50,0,0
35293,-100,4,3,99,50,0,0
35650,-100,4,3,1,50,0,0
64222,-100,4,3,1,60,0,1
75114,-100,4,3,1,60,0,0
75472,-100,4,3,1,60,0,1
81364,-100,4,3,1,50,0,0
84222,-100,4,2,1,40,0,0

[Colours]
Combo1 : 128,255,128
Combo2 : 255,128,128
Combo3 : 0,128,255
Combo4 : 255,255,128

[HitObjects]
17,185,1365,6,0,P|105:114|218:153,1,240,2|0,0:0|0:0,0:0:0:0:
130,234,2436,1,0,0:0:0:0:
243,272,2793,2,0,P|332:198|308:72,1,240,0|0,0:0|0:0,0:0:0:0:
318,84,4222,6,0,L|126:95,2,180,2|2|0,0:0|0:0|0:0,0:0:0:0:
422,143,5650,2,0,P|440:197|436:270,1,120,0|0,0:0|0:0,0:0:0:0:
417,315,6186,1,2,0:0:0:0:
204,103,7079,6,0,P|123:86|40:133,1,180,2|2,0:0|0:0,0:0:0:0:
138,201,7972,1,0,0:0:0:0:
218,290,8329,1,2,0:0:0:0:
331,250,8686,1,2,0:0:0:0:
325,130,9043,1,2,0:0:0:0:
204,103,9400,1,2,0:0:0:0:
138,201,9757,6,0,P|260:209|385:230,1,240,2|2,0:0|0:0,0:0:0:0:
432,250,10650,1,2,0:0:0:0:
432,250,12257,5,2,0:0:0:0:
364,349,12614,2,0,P|307:334|241:330,1,120,6|2,0:0|0:0,0:0:0:0:
187,343,13150,2,0,P|194:283|198:218,1,120,2|2,0:0|0:0,0:0:0:0:
208,104,13864,1,2,0:0:0:0:
254,141,14043,6,0,P|314:150|367:125,2,120,0|0|0,0:0|0:0|0:0,0:0:0:0:
208,104,14936,2,0,P|147:93|95:120,1,120,2|2,0:0|0:0,0:0:0:0:
61,166,15472,1,0,0:0:0:0:
74,285,15829,5,0,0:0:0:0:
120,322,16007,2,0,P|150:316|186:314,1,60,2|0,0:0|0:0,0:0:0:0:
202,258,16364,2,0,P|260:265|327:264,1,120,2|2,0:0|0:0,0:0:0:0:
427,208,17079,5,2,0:0:0:0:
425,327,17436,1,2,0:0:0:0:
321,264,17793,2,0,P|312:237|307:201,1,60,2|0,0:0|0:0,0:0:0:0:
257,171,18150,2,0,P|269:145|291:116,1,60,2|0,0:0|0:0,0:0:0:0:
332,79,18507,6,0,P|391:88|463:90,1,120,2|2,0:0|0:0,0:0:0:0:
511,75,19043,2,0,L|498:204,1,120,0|0,0:0|0:0,0:0:0:0:
492,254,19579,1,2,0:0:0:0:
408,340,19936,6,0,L|344:334,1,60,2|0,0:0|0:0,0:0:0:0:
310,287,20293,1,2,0:0:0:0:
310,287,20472,2,0,L|250:292,1,60,0|2,0:0|0:0,0:0:0:0:
194,269,20829,2,0,P|180:209|190:150,1,120,0|0,0:0|0:0,0:0:0:0:
222,102,21364,5,2,0:0:0:0:
389,167,21900,1,2,0:0:0:0:
376,225,22079,1,2,0:0:0:0:
225,323,22614,6,0,P|166:312|97:306,2,120,2|2|2,0:0|0:0|0:0,0:0:0:0:
278,349,23507,1,2,0:0:0:0:
329,317,23686,1,0,0:0:0:0:
314,259,23864,2,0,P|316:197|325:137,1,120,8|4,2:0|0:0,0:0:0:0:
357,23,24579,5,8,0:0:0:0:
440,109,24936,1,2,0:0:0:0:
324,139,25293,2,0,P|269:126|201:128,1,120,0|2,1:0|0:0,0:0:0:0:
89,158,26007,1,8,0:0:0:0:
25,259,26364,2,0,P|26:294|34:329,1,60,2|0,0:0|0:0,0:0:0:0:
81,350,26722,2,0,L|144:341,1,60,8|0,0:0|0:0,0:0:0:0:
165,286,27079,6,0,P|222:296|300:302,1,120,6|8,0:0|0:0,0:0:0:0:
400,273,27793,1,2,0:0:0:0:
316,186,28150,1,0,1:0:0:0:
241,92,28507,2,0,P|297:66|361:76,1,120,2|8,0:0|0:0,0:0:0:0:
432,163,29222,1,2,0:0:0:0:
316,186,29579,1,8,0:0:0:0:
241,92,29936,6,0,P|129:58|34:145,1,240,6|2,0:0|0:0,0:0:0:0:
46,248,31007,1,0,1:0:0:0:
141,321,31364,2,0,P|164:275|151:191,1,120,2|8,0:0|0:0,0:0:0:0:
247,126,32079,2,0,L|377:136,1,120,2|8,0:0|0:0,0:0:0:0:
461,61,32793,6,0,B|500:114|484:171|484:171|468:232|499:291,1,240,6|2,0:0|0:0,0:0:0:0:
399,357,33864,1,0,1:0:0:0:
291,303,34222,2,0,L|303:177,1,120,2|0,0:0|1:0,0:0:0:0:
397,110,34936,2,0,L|385:43,2,60,0|0|0,1:0|1:0|0:0,0:0:0:0:
473,202,35650,6,0,B|386:215|386:215|324:189|324:189|232:205,1,240,6|2,0:0|0:0,0:0:0:0:
122,229,36722,1,0,1:0:0:0:
203,316,37079,2,0,P|259:322|316:297,1,120,2|8,0:0|0:0,0:0:0:0:
377,193,37793,1,2,0:0:0:0:
461,277,38150,1,8,0:0:0:0:
377,193,38507,6,0,P|380:132|391:59,2,120,2|8|2,0:0|0:0|0:0,0:0:0:0:
317,297,39579,1,8,0:0:0:0:
227,217,39936,2,0,P|167:211|111:232,1,120,0|8,0:0|0:0,0:0:0:0:
70,343,40650,2,0,P|130:349|184:325,1,120,2|8,0:0|0:0,0:0:0:0:
277,251,41364,6,0,B|268:201|286:166|286:166|242:125|242:125|265:85|257:35,1,240,6|2,0:0|0:0,0:0:0:0:
139,61,42436,1,0,1:0:0:0:
257,35,42793,2,0,P|314:41|379:45,1,120,2|8,0:0|0:0,0:0:0:0:
469,121,43507,2,0,P|477:175|453:239,1,120,2|8,0:0|0:0,0:0:0:0:
374,322,44222,6,8,P|260:292|152:357,1,240,12|10,0:0|0:0,0:0:0:0:
49,293,45293,1,0,1:0:0:0:
147,225,45650,6,0,P|150:190|144:150,1,60,2|0,0:0|0:0,0:0:0:0:
95,134,46007,2,0,P|92:99|98:59,1,60,2|0,0:0|0:0,0:0:0:0:
129,25,46364,2,0,L|195:32,1,60,2|0,0:0|0:0,0:0:0:0:
236,68,46722,2,0,L|295:61,1,60,2|0,0:0|0:0,0:0:0:0:
346,93,47079,6,0,P|364:143|354:215,1,120,6|0,0:0|0:0,0:0:0:0:
259,278,47793,2,0,L|194:270,1,60,0|8,0:0|0:0,0:0:0:0:
98,202,48329,2,0,P|166:154|270:178,1,180,12|0,0:0|0:0,0:0:0:0:
337,258,49222,2,0,L|350:190,1,60,0|8,0:0|0:0,0:0:0:0:
432,39,49936,6,0,P|436:93|445:164,1,120,6|0,0:0|0:0,0:0:0:0:
488,269,50650,2,0,P|489:302|486:331,1,60,0|8,0:0|0:0,0:0:0:0:
368,305,51186,2,0,P|282:291|199:334,1,180,8|0,0:0|0:0,0:0:0:0:
149,223,52079,2,0,L|44:238,2,90,8|8|8,0:0|0:0|0:0,0:0:0:0:
173,168,52793,6,0,L|304:176,1,120,2|2,0:0|0:0,0:0:0:0:
412,181,53507,1,8,2:0:0:0:
355,74,53864,1,0,1:0:0:0:
292,175,54222,2,0,P|289:233|303:294,1,120,2|2,0:0|0:0,0:0:0:0:
194,345,54936,2,0,P|166:338|128:338,1,60,8|8,2:0|2:0,0:0:0:0:
75,345,55293,1,0,1:0:0:0:
24,236,55650,6,0,B|20:191|20:191|38:101,1,120,2|2,0:0|0:0,0:0:0:0:
137,55,56364,2,0,P|191:71|263:69,1,120,8|8,2:0|0:0,0:0:0:0:
370,40,57079,5,2,0:0:0:0:
437,139,57436,1,2,0:0:0:0:
358,230,57793,2,0,P|367:264|365:297,1,60,2|2,0:0|0:0,0:0:0:0:
341,343,58150,2,0,L|275:336,1,60,2|2,0:0|0:0,0:0:0:0:
221,328,58507,5,6,0:0:0:0:
221,328,58686,1,2,0:0:0:0:
118,265,59043,1,8,0:0:0:0:
148,148,59400,1,8,0:0:0:0:
267,144,59757,6,0,P|267:223|360:96,1,420,12|8,0:0|2:0,0:0:0:0:
292,23,61364,5,2,0:0:0:0:
187,82,61722,1,2,0:0:0:0:
83,142,62079,1,2,0:0:0:0:
183,207,62436,6,0,P|182:240|172:283,1,60,2|8,0:0|0:0,0:0:0:0:
269,343,62972,2,0,P|324:334|401:336,1,120,8|8,0:0|0:0,0:0:0:0:
447,341,63507,1,2,0:0:0:0:
475,102,64222,6,0,P|417:95|361:116,1,120,6|8,0:0|0:0,0:0:0:0:
309,225,64936,2,0,P|249:231|194:210,1,120,2|8,0:0|0:0,0:0:0:0:
129,109,65650,1,2,0:0:0:0:
79,218,66007,1,8,0:0:0:0:
148,315,66364,2,0,P|182:316|207:311,1,60,2|0,0:0|0:0,0:0:0:0:
257,277,66722,2,0,P|286:275|316:281,1,60,8|0,0:0|0:0,0:0:0:0:
373,299,67079,6,0,P|365:236|362:171,1,120,6|8,0:0|0:0,0:0:0:0:
361,59,67793,1,2,0:0:0:0:
460,125,68150,1,8,0:0:0:0:
362,179,68507,2,0,P|300:183|238:167,1,120,2|8,0:0|0:0,0:0:0:0:
147,98,69222,2,0,L|154:170,1,60,2|0,0:0|0:0,0:0:0:0:
109,199,69579,2,0,L|103:258,1,60,8|0,0:0|0:0,0:0:0:0:
134,308,69936,6,0,P|193:316|256:294,1,120,6|8,0:0|0:0,0:0:0:0:
294,258,70472,1,0,0:0:0:0:
313,139,70829,1,0,0:0:0:0:
201,95,71186,2,0,P|143:103|77:105,2,120,0|0|0,0:0|0:0|0:0,0:0:0:0:
296,22,72257,5,0,0:0:0:0:
398,83,72614,2,0,P|464:179|431:318,1,240,0|0,0:0|0:0,0:0:0:0:
404,339,73507,2,0,P|344:327|279:328,1,120,2|8,0:0|0:0,0:0:0:0:
167,351,74222,1,12,0:0:0:0:
79,268,74579,2,0,P|80:238|85:208,1,60,8|8,0:0|0:0,0:0:0:0:
138,100,75114,1,12,0:0:0:0:
246,49,75472,6,0,L|445:68,1,180,6|8,0:0|0:0,0:0:0:0:
480,172,76364,1,2,0:0:0:0:
411,270,76722,1,8,0:0:0:0:
411,270,76900,2,0,P|353:256|292:256,1,120,0|0,0:0|0:0,0:0:0:0:
244,292,77436,2,0,P|215:293|180:288,1,60,8|0,0:0|0:0,0:0:0:0:
129,263,77793,1,2,0:0:0:0:
55,168,78150,5,8,0:0:0:0:
55,168,78329,2,0,P|109:146|178:156,1,120,0|0,0:0|0:0,0:0:0:0:
218,186,78864,2,0,P|252:187|287:177,1,60,8|0,0:0|0:0,0:0:0:0:
322,141,79222,1,2,0:0:0:0:
234,58,79579,1,8,0:0:0:0:
234,58,79757,2,0,P|147:43|69:85,1,180,0|8,0:0|0:0,0:0:0:0:
33,199,80650,6,0,P|33:231|40:269,1,60,2|0,0:0|0:0,0:0:0:0:
16,315,81007,2,0,P|38:337|70:359,1,60,8|0,0:0|0:0,0:0:0:0:
121,355,81364,2,0,P|178:343|248:338,1,120,6|8,0:0|0:0,0:0:0:0:
298,349,81900,2,0,P|357:344|416:332,1,120,8|8,0:0|0:0,0:0:0:0:
464,295,82436,1,0,0:0:0:0:
389,201,82793,5,6,0:0:0:0:
459,104,83150,1,8,0:0:0:0:
459,104,83329,2,0,P|405:81|339:91,1,120,0|0,0:0|0:0,0:0:0:0:
292,115,83864,2,0,P|233:122|178:99,1,120,0|2,0:0|0:0,0:0:0:0:
30,201,84757,6,0,P|30:236|37:274,1,60,2|2,0:0|0:0,0:0:0:0:
196,338,85472,2,0,P|250:329|320:326,2,120,2|2|2,0:0|0:0|0:0,0:0:0:0:
142,311,86364,2,0,B|134:273|134:273|149:174,1,120,2|12,0:0|2:0,0:0:0:0:
