osu file format v14

[General]
AudioFilename: audio.mp3
AudioLeadIn: 0
PreviewTime: 63597
Countdown: 0
SampleSet: Soft
StackLeniency: 0.7
Mode: 0
LetterboxInBreaks: 0
WidescreenStoryboard: 1

[Editor]
DistanceSpacing: 1.1
BeatDivisor: 4
GridSize: 8
TimelineZoom: 3.099999

[Metadata]
Title:Trip Trip Trip(TV Size)
TitleUnicode:Trip Trip Trip(TV Size)
Artist:ORESAMA
ArtistUnicode:ORESAMA
Creator:RepL4y
Version:Hard
Source:魔法陣グルグル
Tags:anime op tv size maoujin guruguru
BeatmapID:1355649
BeatmapSetID:638965

[Difficulty]
HPDrainRate:5
CircleSize:4
OverallDifficulty:6
ApproachRate:8
SliderMultiplier:1.4
SliderTickRate:1

[Events]
//Background and Video events
0,0,"BG.jpg",0,0
//Break Periods
//Storyboard Layer 0 (Background)
//Storyboard Layer 1 (Fail)
//Storyboard Layer 2 (Pass)
//Storyboard Layer 3 (Foreground)
//Storyboard Sound Samples

[TimingPoints]
1365,357.142857142857,4,2,1,40,1,0
1365,-133.333333333333,4,2,1,40,0,0
12257,-100,4,3,1,40,0,0
12525,-100,4,3,1,5,0,0
12614,-100,4,3,1,50,0,0
16632,-100,4,3,1,5,0,0
16722,-100,4,3,1,50,0,0
20204,-100,4,3,1,5,0,0
20293,-100,4,3,1,50,0,0
24132,-100,4,3,1,5,0,0
24222,-100,4,3,1,50,0,0
24489,-100,4,3,1,10,0,0
24579,-100,4,3,1,50,0,0
27347,-100,4,3,1,5,0,0
27436,-100,4,3,1,50,0,0
28597,-100,4,3,1,5,0,0
28686,-100,4,3,1,60,0,0
30204,-100,4,3,1,5,0,0
30293,-100,4,3,1,50,0,0
31454,-100,4,3,1,5,0,0
31543,-100,4,3,1,50,0,0
33061,-100,4,3,1,5,0,0
33150,-100,4,3,1,50,0,0
35293,-125,4,3,99,50,0,0
35561,-125,4,3,1,5,0,0
35650,-100,4,3,1,50,0,0
35918,-100,4,3,1,5,0,0
36007,-100,4,3,1,50,0,0
37168,-100,4,3,1,5,0,0
37257,-100,4,3,1,50,0,0
38775,-100,4,3,1,5,0,0
38864,-100,4,3,1,50,0,0
40025,-100,4,3,1,5,0,0
40114,-100,4,3,1,50,0,0
41632,-100,4,3,1,5,0,0
41722,-100,4,3,1,50,0,0
42882,-100,4,3,1,5,0,0
42972,-100,4,3,1,50,0,0
44489,-100,4,3,1,5,0,0
44579,-100,4,3,1,50,0,0
46989,-100,4,2,0,5,0,0
47079,-133.333333333333,4,3,1,50,0,0
51097,-133.333333333333,4,3,1,5,0,0
51186,-133.333333333333,4,3,1,50,0,0
52079,-100,4,3,1,50,0,0
59311,-100,4,3,1,5,0,0
59400,-100,4,3,1,50,0,0
59668,-100,4,3,1,5,0,0
59757,-200,4,3,1,50,0,0
61007,-100,4,3,1,50,0,0
64222,-83.3333333333333,4,3,1,60,0,1
73061,-83.3333333333333,4,3,1,5,0,1
73150,-83.3333333333333,4,3,1,60,0,1
74132,-83.3333333333333,4,3,1,5,0,1
74222,-83.3333333333333,4,3,1,60,0,1
75114,-83.3333333333333,4,3,1,60,0,0
75382,-83.3333333333333,4,3,1,5,0,1
75472,-83.3333333333333,4,3,1,60,0,1
75739,-83.3333333333333,4,2,0,5,0,1
75829,-83.3333333333333,4,3,1,60,0,1
79489,-83.3333333333333,4,3,1,5,0,1
79579,-83.3333333333333,4,3,1,60,0,1
81364,-100,4,3,1,50,0,0
82168,-100,4,3,1,5,0,0
82257,-100,4,3,1,50,0,0
84222,-133.333333333333,4,2,1,50,0,0

[Colours]
Combo1 : 128,255,128
Combo2 : 255,128,128
Combo3 : 0,128,255
Combo4 : 255,255,128

[HitObjects]
54,109,1365,6,0,P|98:86|170:97,1,105.000004005432,2|0,0:0|0:0,0:0:0:0:
195,118,1900,2,0,L|187:240,1,105.000004005432,2|0,0:0|0:0,0:0:0:0:
211,269,2436,1,0,0:0:0:0:
211,269,2614,2,0,P|293:289|367:247,1,157.500006008148,2|0,0:0|0:0,0:0:0:0:
356,258,3329,1,2,0:0:0:0:
356,258,4222,6,0,L|342:131,1,105.000004005432,2|0,0:0|0:0,0:0:0:0:
294,136,4757,2,0,L|305:31,1,105.000004005432,2|0,0:0|0:0,0:0:0:0:
264,65,5293,1,0,0:0:0:0:
264,65,5472,2,0,P|193:92|116:75,1,157.500006008148,2|0,0:0|0:0,0:0:0:0:
116,75,6186,1,2,0:0:0:0:
32,143,7079,6,0,P|41:192|48:261,1,105.000004005432,2|0,0:0|0:0,0:0:0:0:
50,299,7614,1,2,0:0:0:0:
141,350,7972,2,0,L|204:342,1,52.5000020027161,0|0,0:0|0:0,0:0:0:0:
228,304,8329,2,0,L|334:314,2,105.000004005432,2|2|2,0:0|0:0|0:0,0:0:0:0:
140,245,9400,6,0,P|136:212|153:160,1,78.7500030040742,2|0,0:0|0:0,0:0:0:0:
166,149,9757,2,0,B|219:128|267:160|267:160|311:189|378:165,1,210.000008010865,2|2,0:0|0:0,0:0:0:0:
367,168,10650,1,2,0:0:0:0:
469,88,12257,6,0,P|428:80|377:78,1,78.7500030040742,2|0,0:0|0:0,0:0:0:0:
371,48,12614,2,0,P|301:59|232:57,1,140,6|2,0:0|0:0,0:0:0:0:
178,112,13150,2,0,L|193:203,1,70,2|0,0:0|0:0,0:0:0:0:
261,207,13507,2,0,L|246:298,1,70,2|0,0:0|0:0,0:0:0:0:
235,352,13864,1,2,0:0:0:0:
176,302,14043,2,0,P|112:285|48:331,1,140
124,364,14579,1,2,0:0:0:0:
176,302,14757,1,0,0:0:0:0:
225,242,14936,6,0,L|214:167,1,70,2|0,0:0|0:0,0:0:0:0:
202,96,15293,1,2,0:0:0:0:
144,147,15472,2,0,P|111:146|78:127,1,70,0|2,0:0|0:0,0:0:0:0:
130,68,15829,1,0,0:0:0:0:
202,96,16007,2,0,L|279:90,1,70,2|0,0:0|0:0,0:0:0:0:
312,25,16364,2,0,P|380:40|464:48,1,140,2|2,0:0|0:0,0:0:0:0:
508,7,16900,2,0,P|489:79|483:164,1,140,0|0,0:0|0:0,0:0:0:0:
407,161,17436,2,0,P|410:199|421:239,1,70,2|0,0:0|0:0,0:0:0:0:
345,257,17793,6,0,P|358:295|383:330,1,70,2|0,0:0|0:0,0:0:0:0:
441,360,18150,1,2,0:0:0:0:
375,320,18329,2,0,P|305:322|234:329,1,140,0|0,0:0|0:0,0:0:0:0:
161,348,18864,1,2,0:0:0:0:
118,283,19043,1,0,0:0:0:0:
166,223,19222,2,0,P|166:191|159:150,1,70,2|0,0:0|0:0,0:0:0:0:
94,112,19579,2,0,P|94:80|101:39,1,70,2|0,0:0|0:0,0:0:0:0:
166,3,19936,6,0,P|233:12|307:16,1,140,2|2,0:0|0:0,0:0:0:0:
382,14,20472,1,0,0:0:0:0:
285,133,20829,1,0,0:0:0:0:
362,265,21186,6,0,L|402:260,2,35,0|0|2,0:0|0:0|0:0,0:0:0:0:
133,233,21900,2,0,L|203:225,1,70,2|2,0:0|0:0,0:0:0:0:
429,183,22614,2,0,L|284:166,2,140,2|2|2,0:0|0:0|0:0,0:0:0:0:
463,252,23507,1,2,0:0:0:0:
415,312,23686,1,0,0:0:0:0:
415,312,23775,1,0,0:0:0:0:
415,312,23864,6,0,P|362:302|309:298,1,105,8|0,2:0|0:0,0:0:0:0:
279,321,24222,6,0,P|290:260|298:181,1,140,4|8,0:0|0:0,0:0:0:0:
270,110,24757,2,0,P|274:88|281:54,2,35,0|0|2,0:0|0:0|0:0,0:0:0:0:
224,172,25114,2,0,P|189:180|138:175,1,70,8|0,0:0|1:0,0:0:0:0:
108,117,25472,2,0,P|106:180|98:272,1,140,8|2,0:0|0:0,0:0:0:0:
80,331,26007,1,8,0:0:0:0:
143,374,26186,5,0,0:0:0:0:
143,374,26275,1,0,0:0:0:0:
143,374,26364,2,0,P|177:368|227:365,1,70,2|0,0:0|0:0,0:0:0:0:
258,303,26722,2,0,P|292:305|327:311,1,70,8|0,0:0|0:0,0:0:0:0:
381,366,27079,6,0,P|369:302|365:225,1,140,6|8,0:0|0:0,0:0:0:0:
411,166,27614,2,0,L|452:173,2,35,0|0|2,0:0|0:0|0:0,0:0:0:0:
358,109,27972,2,0,L|279:117,1,70,8|0,0:0|1:0,0:0:0:0:
244,179,28329,2,0,P|172:171|98:168,1,140,8|2,0:0|0:0,0:0:0:0:
31,190,28864,5,8,0:0:0:0:
84,245,29043,1,0,0:0:0:0:
104,168,29222,2,0,P|102:133|93:93,2,70,2|0|8,0:0|0:0|0:0,0:0:0:0:
84,245,29757,1,0,0:0:0:0:
134,303,29936,6,0,L|207:297,1,70,6|0,0:0|0:0,0:0:0:0:
256,240,30293,1,8,0:0:0:0:
256,240,30472,2,0,L|346:250,1,70,0|2,0:0|0:0,0:0:0:0:
385,296,30829,2,0,P|399:266|399:224,1,70,8|0,0:0|1:0,0:0:0:0:
472,204,31186,2,0,P|445:141|383:101,1,140,8|2,0:0|0:0,0:0:0:0:
311,88,31722,5,8,0:0:0:0:
257,143,31900,2,0,L|202:135,2,35,0|0|2,0:0|0:0|0:0,0:0:0:0:
311,88,32257,1,0,0:0:0:0:
387,102,32436,2,0,L|381:184,1,70,8|0,0:0|0:0,0:0:0:0:
312,205,32793,6,0,L|324:293,1,70,6|0,0:0|0:0,0:0:0:0:
352,344,33150,1,8,0:0:0:0:
352,344,33329,2,0,P|291:314|215:324,1,140,0|8,0:0|0:0,0:0:0:0:
162,371,33864,1,0,1:0:0:0:
162,371,34043,2,0,P|170:308|178:223,1,140,8|2,0:0|0:0,0:0:0:0:
118,181,34579,5,0,1:0:0:0:
119,154,34668,1,0,1:0:0:0:
123,128,34757,1,0,1:0:0:0:
128,103,34846,1,0,1:0:0:0:
134,77,34936,2,0,P|169:70|212:69,1,70,0|0,1:0|1:0,0:0:0:0:
253,127,35293,6,0,P|294:129|353:117,1,84
365,96,35650,6,0,L|351:242,1,140,6|8,0:0|0:0,0:0:0:0:
397,297,36186,2,0,P|416:297|442:293,2,35,0|0|2,0:0|0:0|0:0,0:0:0:0:
351,235,36543,2,0,L|278:245,1,70,8|0,0:0|1:0,0:0:0:0:
262,319,36900,2,0,P|193:305|121:303,1,140,8|2,0:0|0:0,0:0:0:0:
48,320,37436,1,8,0:0:0:0:
4,261,37614,2,0,L|15:175,1,70,0|2,0:0|0:0,0:0:0:0:
26,115,37972,1,0,0:0:0:0:
81,167,38150,2,0,P|116:168|155:161,1,70,8|0,0:0|0:0,0:0:0:0:
217,124,38507,6,0,P|283:113|352:149,1,140,2|8,0:0|0:0,0:0:0:0:
395,203,39043,2,0,L|438:198,2,35,0|0|2,0:0|0:0|0:0,0:0:0:0:
367,275,39400,2,0,P|332:267|289:265,1,70,8|0,0:0|1:0,0:0:0:0:
263,195,39757,2,0,P|192:198|125:215,1,140,8|2,0:0|0:0,0:0:0:0:
59,175,40293,2,0,L|69:120,3,35,8|0|0|0,0:0|0:0|0:0|0:0,0:0:0:0:
97,119,40650,2,0,L|87:64,3,35,2|0|0|0,0:0|0:0|0:0|0:0,0:0:0:0:
84,46,41007,1,8,0:0:0:0:
154,14,41186,1,0,0:0:0:0:
154,14,41275,1,0,0:0:0:0:
154,14,41364,6,0,L|299:24,1,140,6|8,0:0|0:0,0:0:0:0:
370,32,41900,1,0,0:0:0:0:
327,96,42079,1,2,0:0:0:0:
283,159,42257,2,0,P|286:195|298:249,1,70,8|0,0:0|1:0,0:0:0:0:
331,294,42614,2,0,P|260:273|190:275,1,140,8|2,0:0|0:0,0:0:0:0:
120,296,43150,1,8,0:0:0:0:
80,229,43329,2,0,L|37:235,2,35,0|0|2,0:0|0:0|0:0,0:0:0:0:
127,167,43686,1,0,0:0:0:0:
197,198,43864,2,0,P|232:201|276:192,1,70,8|0,0:0|0:0,0:0:0:0:
314,128,44222,6,0,L|470:145,1,140,2|8,0:0|0:0,0:0:0:0:
502,84,44757,2,0,L|493:40,2,35,0|0|2,0:0|0:0|0:0,0:0:0:0:
454,144,45114,2,0,L|444:242,1,70,8|0,0:0|1:0,0:0:0:0:
436,290,45472,1,0,0:0:0:0:
373,334,45650,6,0,P|357:337|327:337,3,35,2|0|0|0,0:0|0:0|0:0|0:0,0:0:0:0:
312,308,46007,2,0,P|294:308|277:311,3,35,2|0|0|0,0:0|0:0|0:0|0:0,0:0:0:0:
243,329,46364,1,2,0:0:0:0:
245,302,46453,1,0,0:0:0:0:
247,276,46542,1,0,0:0:0:0:
249,250,46631,1,0,0:0:0:0:
251,224,46721,1,6,0:0:0:0:
251,224,47079,6,0,B|178:233|178:233|123:210|123:210|47:221,1,210.000008010865,6|0,0:0|0:0,0:0:0:0:
1,185,47972,2,0,L|9:119,1,52.5000020027161,8|0,0:0|0:0,0:0:0:0:
50,94,48329,2,0,P|111:134|105:37,1,210.000008010865,12|0,0:0|0:0,0:0:0:0:
170,50,49222,2,0,P|200:50|234:41,1,52.5000020027161,0|8,0:0|0:0,0:0:0:0:
255,25,49936,6,0,L|237:145,1,105.000004005432,6|0,0:0|0:0,0:0:0:0:
228,185,50472,1,0,0:0:0:0:
261,231,50650,2,0,L|332:224,1,52.5000020027161,0|8,0:0|0:0,0:0:0:0:
333,339,51186,2,0,P|255:324|172:327,1,157.500006008148,8|0,0:0|0:0,0:0:0:0:
80,263,52079,2,0,L|65:366,2,105.000004005432,8|8|8,0:0|0:0|0:0,0:0:0:0:
92,186,52793,6,0,L|107:74,1,105,2|8,0:0|0:0,0:0:0:0:
88,47,53150,2,0,L|163:37,1,70,2|8,0:0|0:0,0:0:0:0:
233,23,53507,1,8,2:0:0:0:
207,95,53686,1,8,2:0:0:0:
283,84,53864,1,0,1:0:0:0:
233,23,54043,1,8,0:0:0:0:
207,95,54222,6,0,P|208:146|218:221,1,105,2|8,0:0|0:0,0:0:0:0:
240,227,54579,2,0,P|242:262|240:304,1,70,2|8,0:0|0:0,0:0:0:0:
220,371,54936,1,8,2:0:0:0:
165,316,55114,1,8,2:0:0:0:
96,350,55293,1,0,1:0:0:0:
96,350,55650,6,0,L|89:222,1,105,2|8,0:0|0:0,0:0:0:0:
56,226,56007,2,0,L|64:145,1,70,2|8,0:0|0:0,0:0:0:0:
75,80,56364,1,0,0:0:0:0:
138,36,56543,1,8,2:0:0:0:
146,112,56722,1,8,2:0:0:0:
209,68,56900,1,0,0:0:0:0:
270,21,57079,6,0,P|319:20|383:37,1,105,2|8,0:0|0:0,0:0:0:0:
396,63,57436,2,0,L|386:155,1,70,2|8,0:0|0:0,0:0:0:0:
340,193,57793,2,0,L|346:241,3,35,2|2|2|2,0:0|0:0|0:0|0:0,0:0:0:0:
375,250,58150,2,0,L|369:298,3,35,2|2|2|2,0:0|0:0|0:0|0:0,0:0:0:0:
365,323,58507,5,6,0:0:0:0:
291,345,58686,1,2,0:0:0:0:
277,340,59043,1,8,0:0:0:0:
263,335,59400,1,8,0:0:0:0:
249,329,59757,6,0,B|224:292|225:259|225:259|248:221|240:167|240:167|271:185|325:186,1,245,12|8,0:0|2:0,0:0:0:0:
311,185,61364,5,2,0:0:0:0:
324,180,61722,1,2,0:0:0:0:
337,176,62079,1,2,0:0:0:0:
350,172,62436,5,2,0:0:0:0:
229,100,62614,1,8,0:0:0:0:
232,113,62972,1,8,0:0:0:0:
235,126,63329,1,8,0:0:0:0:
329,65,63507,5,2,0:0:0:0:
329,65,63596,1,2,0:0:0:0:
329,65,63685,1,2,0:0:0:0:
329,65,63775,1,2,0:0:0:0:
329,65,63864,1,8,0:0:0:0:
329,65,64222,6,0,P|249:75|154:77,1,167.999994873047,6|8,0:0|0:0,0:0:0:0:
70,64,64757,1,0,0:0:0:0:
21,142,64936,2,0,L|34:226,1,83.9999974365235,2|0,0:0|0:0,0:0:0:0:
51,316,65293,1,8,0:0:0:0:
122,257,65472,1,0,0:0:0:0:
190,195,65650,6,0,P|269:203|358:203,1,167.999994873047,2|8,0:0|0:0,0:0:0:0:
442,166,66186,1,0,0:0:0:0:
473,79,66364,2,0,P|448:74|423:75,3,41.9999987182618,2|0|0|0,0:0|0:0|0:0|0:0,0:0:0:0:
387,89,66722,2,0,P|348:91|303:81,1,83.9999974365235,8|0,0:0|0:0,0:0:0:0:
224,33,67079,6,0,L|241:206,1,167.999994873047,6|8,0:0|0:0,0:0:0:0:
250,291,67614,1,0,0:0:0:0:
175,347,67793,2,0,P|130:349|90:335,1,83.9999974365235,2|0,0:0|0:0,0:0:0:0:
32,267,68150,2,0,L|43:171,1,83.9999974365235,8|0,0:0|0:0,0:0:0:0:
101,113,68507,6,0,P|186:122|268:126,1,167.999994873047,2|8,0:0|0:0,0:0:0:0:
360,114,69043,1,0,0:0:0:0:
425,179,69222,2,0,L|431:227,2,41.9999987182618,2|0|0,0:0|0:0|0:0,0:0:0:0:
347,230,69579,2,0,L|340:315,1,83.9999974365235,8|0,0:0|0:0,0:0:0:0:
252,346,69936,6,0,P|183:302|99:317,1,167.999994873047,6|8,0:0|0:0,0:0:0:0:
14,344,70472,2,0,P|22:308|32:245,1,83.9999974365235,0|2,0:0|0:0,0:0:0:0:
44,170,70829,1,0,0:0:0:0:
115,228,71007,1,8,0:0:0:0:
127,136,71186,6,0,P|166:149|198:186,1,83.9999974365235,0|2,0:0|0:0,0:0:0:0:
268,123,71543,2,0,P|286:159|282:208,1,83.9999974365235,0|8,0:0|0:0,0:0:0:0:
376,215,71900,2,0,P|362:254|326:286,1,83.9999974365235,0|2,0:0|0:0,0:0:0:0:
239,279,72257,2,0,L|142:271,1,83.9999974365235,0|8,0:0|0:0,0:0:0:0:
67,302,72614,1,0,0:0:0:0:
52,292,72704,1,0,0:0:0:0:
37,283,72793,6,0,P|47:204|57:107,1,167.999994873047,6|8,0:0|0:0,0:0:0:0:
114,43,73329,1,0,0:0:0:0:
198,79,73507,1,2,0:0:0:0:
199,171,73686,1,0,0:0:0:0:
199,171,73775,1,0,0:0:0:0:
199,171,73864,1,8,0:0:0:0:
109,193,74043,1,0,0:0:0:0:
199,171,74222,6,0,L|311:177,1,83.9999974365235,12|0,0:0|0:0,0:0:0:0:
367,213,74579,2,0,P|362:173|359:112,1,83.9999974365235,8|8,0:0|0:0,0:0:0:0:
357,82,74847,1,2,0:0:0:0:
357,82,75114,6,0,P|285:88|201:91,1,125.999996154785,12|0,0:0|0:0,0:0:0:0:
194,61,75472,6,0,P|204:126|210:242,1,167.999994873047,6|2,0:0|0:0,0:0:0:0:
209,320,76007,1,8,0:0:0:0:
293,280,76186,1,0,0:0:0:0:
210,227,76364,2,0,P|168:225|123:239,1,83.9999974365235,2|0,0:0|0:0,0:0:0:0:
59,298,76722,5,8,0:0:0:0:
3,225,76900,2,0,L|27:43,1,167.999994873047
94,119,77436,2,0,P|134:122|175:109,1,83.9999974365235,8|0,0:0|0:0,0:0:0:0:
254,61,77793,2,0,L|343:68,1,83.9999974365235,2|0,0:0|0:0,0:0:0:0:
429,80,78150,1,8,0:0:0:0:
457,168,78329,6,0,P|416:172|374:150,1,83.9999974365235,0|2,0:0|0:0,0:0:0:0:
337,67,78686,1,0,0:0:0:0:
292,147,78864,2,0,L|300:233,1,83.9999974365235,8|0,0:0|0:0,0:0:0:0:
273,320,79222,2,0,P|204:351|113:329,1,167.999994873047,2|8,0:0|0:0,0:0:0:0:
56,261,79757,6,0,L|73:75,1,167.999994873047
44,5,80293,2,0,L|-3:16,2,41.9999987182618,8|0|0,0:0|0:0|0:0,0:0:0:0:
134,23,80650,1,2,0:0:0:0:
224,42,80829,1,0,0:0:0:0:
164,112,81007,2,0,P|162:155|172:202,1,83.9999974365235,8|0,0:0|0:0,0:0:0:0:
232,239,81364,6,0,L|383:222,1,140,6|8,0:0|0:0,0:0:0:0:
444,246,81900,2,0,P|447:214|432:176,1,70,8|0,0:0|0:0,0:0:0:0:
364,145,82257,2,0,B|364:94|380:43|380:43|340:59,1,140,8|2,0:0|0:0,0:0:0:0:
277,92,82793,6,0,P|210:99|148:67,1,140,6|8,0:0|0:0,0:0:0:0:
91,12,83329,2,0,P|104:79|110:162,1,140,0|0,0:0|0:0,0:0:0:0:
62,210,83864,2,0,P|63:249|70:290,1,70,0|0,0:0|0:0,0:0:0:0:
85,334,84222,5,2,0:0:0:0:
236,251,84757,2,0,L|297:258,1,52.5000020027161,2|2,0:0|0:0,0:0:0:0:
432,159,85472,2,0,L|321:168,2,105.000004005432,2|2|2,0:0|0:0|0:0,0:0:0:0:
460,109,86364,6,0,L|501:114,4,26.2500010013581,2|0|0|0|12,0:0|0:0|0:0|0:0|2:0,0:0:0:0:
