osu file format v14

[General]
AudioFilename: audio.mp3
AudioLeadIn: 0
PreviewTime: 63686
Countdown: 0
SampleSet: None
StackLeniency: 0.7
Mode: 0
LetterboxInBreaks: 0
WidescreenStoryboard: 0

[Editor]
DistanceSpacing: 0.7
BeatDivisor: 8
GridSize: 8
TimelineZoom: 3.099999

[Metadata]
Title:Trip Trip Trip(TV Size)
TitleUnicode:Trip Trip Trip(TV Size)
Artist:ORESAMA
ArtistUnicode:ORESAMA
Creator:RepL4y
Version:GuruGuru
Source:魔法陣グルグル
Tags:anime op tv size maoujin guruguru
BeatmapID:1355304
BeatmapSetID:638965

[Difficulty]
HPDrainRate:7
CircleSize:4
OverallDifficulty:8
ApproachRate:9
SliderMultiplier:1.7
SliderTickRate:1

[Events]
//Background and Video events
0,0,"BG.jpg",0,0
//Break Periods
//Storyboard Layer 0 (Background)
//Storyboard Layer 1 (Fail)
//Storyboard Layer 2 (Pass)
//Storyboard Layer 3 (Foreground)
//Storyboard Sound Samples

[TimingPoints]
1365,357.142857142857,4,2,1,40,1,0
1365,-133.333333333333,4,2,1,40,0,0
12257,-133.333333333333,4,3,1,40,0,0
12525,-133.333333333333,4,3,1,5,0,0
12614,-100,4,3,1,50,0,0
16632,-100,4,3,1,5,0,0
16722,-100,4,3,1,50,0,0
20204,-100,4,3,1,5,0,0
20293,-100,4,3,1,50,0,0
23686,-66.6666666666667,4,3,1,50,0,0
23864,-100,4,3,1,50,0,0
24132,-133.333333333333,4,3,1,5,0,0
24222,-83.3333333333333,4,3,1,50,0,0
24489,-83.3333333333333,4,3,1,10,0,0
24579,-83.3333333333333,4,3,1,50,0,0
25739,-133.333333333333,4,3,1,50,0,0
25829,-83.3333333333333,4,3,1,50,0,0
27347,-133.333333333333,4,3,1,5,0,0
27436,-83.3333333333333,4,3,1,50,0,0
28597,-100,4,3,1,5,0,0
28686,-83.3333333333333,4,3,1,60,0,0
30204,-133.333333333333,4,3,1,5,0,0
30293,-83.3333333333333,4,3,1,50,0,0
31454,-133.333333333333,4,3,1,5,0,0
31543,-83.3333333333333,4,3,1,50,0,0
33061,-133.333333333333,4,3,1,5,0,0
33150,-83.3333333333333,4,3,1,50,0,0
35293,-200,4,3,99,50,0,0
35561,-100,4,3,1,5,0,0
35650,-100,4,3,1,50,0,0
35918,-100,4,3,1,5,0,0
36007,-100,4,3,1,50,0,0
37168,-100,4,3,1,5,0,0
37257,-100,4,3,1,50,0,0
38775,-100,4,3,1,5,0,0
38864,-100,4,3,1,50,0,0
40025,-100,4,3,1,5,0,0
40114,-100,4,3,1,50,0,0
41632,-100,4,3,1,5,0,0
41722,-100,4,3,1,50,0,0
42882,-100,4,3,1,5,0,0
42972,-100,4,3,1,50,0,0
44489,-100,4,3,1,5,0,0
44579,-100,4,3,1,50,0,0
46989,-133.333333333333,4,2,0,5,0,0
47079,-133.333333333333,4,3,1,50,0,0
51097,-133.333333333333,4,3,1,5,0,0
51186,-133.333333333333,4,3,1,50,0,0
52793,-100,4,3,1,50,0,0
59311,-100,4,3,1,5,0,0
59400,-100,4,3,1,50,0,0
59668,-133.333333333333,4,3,1,5,0,0
59757,-465,4,3,1,50,0,0
61007,-100,4,3,1,50,0,0
64222,-83.3333333333333,4,3,1,60,0,1
73061,-83.3333333333333,4,3,1,5,0,1
73150,-83.3333333333333,4,3,1,60,0,1
74132,-83.3333333333333,4,3,1,5,0,1
74222,-83.3333333333333,4,3,1,60,0,1
75114,-100,4,3,1,60,0,0
75382,-100,4,3,1,10,0,0
75472,-83.3333333333333,4,3,1,60,0,1
75739,-83.3333333333333,4,2,0,5,0,1
75829,-83.3333333333333,4,3,1,60,0,1
79489,-83.3333333333333,4,3,1,5,0,1
79579,-83.3333333333333,4,3,1,60,0,1
81364,-100,4,3,1,50,0,0
82168,-100,4,3,1,5,0,0
82257,-100,4,3,1,50,0,0
84222,-133.333333333333,4,2,1,40,0,0

[Colours]
Combo1 : 128,255,128
Combo2 : 255,128,128
Combo3 : 0,128,255
Combo4 : 255,255,128

[HitObjects]
76,209,1365,6,0,P|139:216|210:216,1,127.500004863739,2|0,0:0|0:0,0:0:0:0:
380,284,1900,2,0,P|318:267|258:297,1,127.500004863739,2|0,0:0|0:0,0:0:0:0:
329,369,2436,1,0,0:0:0:0:
472,337,2614,6,0,P|463:249|458:138,1,191.250007295609,2|0,0:0|0:0,0:0:0:0:
462,12,3329,1,2,0:0:0:0:
355,99,3507,2,0,P|347:129|345:161,1,63.7500024318696
255,192,3864,2,0,P|271:219|292:242,1,63.7500024318696
246,336,4222,6,0,P|308:348|365:320,1,127.500004863739,2|0,0:0|0:0,0:0:0:0:
422,233,4757,2,0,L|408:95,1,127.500004863739,2|0,0:0|0:0,0:0:0:0:
301,44,5293,1,0,0:0:0:0:
216,145,5472,6,0,P|272:179|336:177,1,127.500004863739,2|0,0:0|0:0,0:0:0:0:
406,86,6007,1,0,0:0:0:0:
272,52,6186,2,0,P|209:58|137:61,1,127.500004863739,2|0,0:0|0:0,0:0:0:0:
8,130,6722,2,0,P|41:130|74:125,1,63.7500024318696
115,61,7079,6,0,P|110:118|114:210,1,127.500004863739,2|0,0:0|0:0,0:0:0:0:
212,238,7614,2,0,P|213:301|208:365,1,127.500004863739,2|0,0:0|0:0,0:0:0:0:
123,298,8150,1,0,0:0:0:0:
199,125,8329,6,0,L|273:133,1,63.7500024318696,2|0,0:0|0:0,0:0:0:0:
453,206,8686,2,0,L|379:198,1,63.7500024318696,2|0,0:0|0:0,0:0:0:0:
181,147,9043,2,0,L|255:155,1,63.7500024318696,2|0,0:0|0:0,0:0:0:0:
473,185,9400,2,0,L|364:171,1,95.6250036478044,2|0,0:0|0:0,0:0:0:0:
337,85,9757,6,0,L|187:97,2,127.500004863739,2|0|2,0:0|0:0|0:0,0:0:0:0:
234,185,10650,6,0,P|202:187|165:175,1,63.7500024318696,2|0,0:0|0:0,0:0:0:0:
126,259,11007,2,0,P|101:237|84:203,1,63.7500024318696
0,234,11364,2,0,P|-2:202|10:165,1,63.7500024318696
96,68,11722,1,0,0:0:0:0:
234,185,11900,1,0,0:0:0:0:
227,215,11989,1,0,0:0:0:0:
219,246,12079,1,0,0:0:0:0:
344,351,12257,6,0,P|391:360|434:342,1,95.6250036478044,2|0,0:0|0:0,0:0:0:0:
471,276,12614,6,0,L|456:127,1,127.5,6|0,0:0|0:0,0:0:0:0:
458,149,12972,1,2,0:0:0:0:
388,36,13150,2,0,L|290:46,1,85,2|0,0:0|0:0,0:0:0:0:
238,101,13417,1,0,0:0:0:0:
238,101,13507,2,0,L|153:92,1,85,2|0,0:0|0:0,0:0:0:0:
6,71,13864,1,2,0:0:0:0:
63,213,14043,6,0,L|148:204,1,85,0|2,0:0|0:0,0:0:0:0:
337,165,14400,2,0,L|252:156,1,85,0|2,0:0|0:0,0:0:0:0:
73,130,14757,1,0,0:0:0:0:
271,255,14936,2,0,P|267:296|246:338,1,85,2|0,0:0|0:0,0:0:0:0:
211,125,15293,1,2,0:0:0:0:
337,165,15472,6,0,P|363:196|378:241,1,85,0|2,0:0|0:0,0:0:0:0:
193,131,15829,1,0,0:0:0:0:
324,51,16007,2,0,P|365:54|407:75,1,85,2|0,0:0|0:0,0:0:0:0:
475,181,16364,2,0,L|459:325,1,127.5,2|0,0:0|0:0,0:0:0:0:
454,344,16722,2,0,P|412:332|368:331,1,85,2|0,0:0|0:0,0:0:0:0:
239,380,17079,6,0,L|256:278,1,85,2|0,0:0|0:0,0:0:0:0:
278,142,17436,1,2,0:0:0:0:
470,223,17614,1,0,0:0:0:0:
442,238,17703,1,0,0:0:0:0:
411,247,17792,1,2,0:0:0:0:
380,247,17881,1,0,0:0:0:0:
349,238,17971,1,0,0:0:0:0:
278,142,18150,2,0,L|291:58,1,85,2|0,0:0|0:0,0:0:0:0:
448,104,18507,6,0,P|410:120|355:114,1,85,2|0,0:0|0:0,0:0:0:0:
224,0,18864,1,2,0:0:0:0:
90,109,19043,2,0,L|98:197,1,85,0|2,0:0|0:0,0:0:0:0:
111,331,19400,1,0,0:0:0:0:
256,190,19579,2,0,P|226:161|185:146,1,85,2|0,0:0|0:0,0:0:0:0:
236,307,19936,6,0,P|300:299|393:292,1,127.5,2|0,0:0|0:0,0:0:0:0:
362,293,20293,1,2,0:0:0:0:
466,193,20472,2,0,L|461:171,4,21.25,0|0|0|0|2,0:0|0:0|0:0|0:0|0:0,0:0:0:0:
262,81,20829,1,0,0:0:0:0:
406,63,21007,1,2,0:0:0:0:
235,222,21186,2,0,L|204:209,3,21.25
349,175,21364,5,2,0:0:0:0:
349,175,21900,5,2,0:0:0:0:
96,151,22079,1,2,0:0:0:0:
81,159,22614,5,2,0:0:0:0:
66,168,22972,1,2,0:0:0:0:
52,177,23329,1,2,0:0:0:0:
246,57,23508,1,2,0:0:0:0:
429,194,23686,2,0,P|400:203|364:205,1,63.7500024318696
202,268,23864,6,0,P|262:255|327:302,1,127.5,8|0,2:0|0:0,0:0:0:0:
153,324,24222,6,0,P|162:247|166:156,1,152.999995330811,4|0,0:0|0:0,0:0:0:0:
165,171,24579,1,8,0:0:0:0:
57,92,24757,1,0,0:0:0:0:
28,95,24846,1,0,0:0:0:0:
0,98,24935,1,2,0:0:0:0:
135,6,25114,2,0,L|240:19,1,101.999996887207,8|0,0:0|1:0,0:0:0:0:
308,110,25472,6,0,L|475:94,1,152.999995330811,8|0,0:0|0:0,0:0:0:0:
460,96,25829,1,2,0:0:0:0:
223,173,26007,1,8,0:0:0:0:
399,322,26186,1,0,0:0:0:0:
399,322,26275,1,0,0:0:0:0:
399,322,26364,1,2,0:0:0:0:
308,110,26543,1,0,0:0:0:0:
258,285,26722,2,0,P|209:278|156:275,1,101.999996887207,8|0,0:0|0:0,0:0:0:0:
6,163,27079,6,0,P|79:147|154:203,1,152.999995330811,6|0,0:0|0:0,0:0:0:0:
143,185,27436,1,8,0:0:0:0:
59,296,27614,1,0,0:0:0:0:
59,296,27704,1,0,0:0:0:0:
59,296,27793,1,2,0:0:0:0:
266,220,27972,2,0,P|261:170|251:117,1,101.999996887207,8|0,0:0|1:0,0:0:0:0:
355,317,28329,6,0,P|369:240|378:161,1,152.999995330811,8|0,0:0|0:0,0:0:0:0:
377,165,28686,1,2,0:0:0:0:
259,19,28864,1,8,0:0:0:0:
117,128,29043,1,0,0:0:0:0:
117,128,29132,1,0,0:0:0:0:
117,128,29222,1,2,0:0:0:0:
317,92,29400,5,0,0:0:0:0:
232,233,29579,1,8,0:0:0:0:
234,259,29668,1,0,0:0:0:0:
237,286,29757,1,0,0:0:0:0:
240,312,29846,1,0,0:0:0:0:
243,339,29936,6,0,P|176:304|102:325,1,152.999995330811,6|0,0:0|0:0,0:0:0:0:
83,344,30293,2,0,L|93:233,1,101.999996887207,8|0,0:0|0:0,0:0:0:0:
92,242,30561,1,0,0:0:0:0:
92,242,30650,1,2,0:0:0:0:
170,53,30829,2,0,P|175:103|178:154,1,101.999996887207,8|0,0:0|1:0,0:0:0:0:
293,93,31186,2,0,P|286:169|274:244,1,152.999995330811,8|0,0:0|0:0,0:0:0:0:
274,244,31543,1,2,0:0:0:0:
105,222,31722,6,0,P|153:200|207:202,1,101.999996887207,8|0,0:0|0:0,0:0:0:0:
201,200,31989,1,0,0:0:0:0:
201,200,32079,1,2,0:0:0:0:
179,341,32257,1,0,0:0:0:0:
8,261,32436,2,0,L|23:137,1,101.999996887207,8|0,0:0|0:0,0:0:0:0:
124,40,32793,6,0,P|196:47|282:50,1,152.999995330811,6|0,0:0|0:0,0:0:0:0:
277,50,33150,1,8,0:0:0:0:
461,109,33329,1,0,0:0:0:0:
461,109,33418,1,0,0:0:0:0:
461,109,33507,1,2,0:0:0:0:
331,204,33686,2,0,L|230:211,1,101.999996887207,8|0,0:0|1:0,0:0:0:0:
43,251,34043,2,0,P|114:236|169:307,1,152.999995330811,8|0,0:0|0:0,0:0:0:0:
132,357,34400,6,0,P|109:357|82:350,1,50.9999984436036,2|2,0:0|0:0,0:0:0:0:
43,251,34579,1,0,1:0:0:0:
45,219,34668,1,0,1:0:0:0:
50,188,34757,1,0,1:0:0:0:
53,158,34846,1,0,1:0:0:0:
58,127,34936,1,0,1:0:0:0:
337,40,35114,1,0,1:0:0:0:
167,59,35293,6,0,P|196:66|237:67,1,63.75
337,40,35650,6,0,L|323:180,1,127.5,6|0,0:0|0:0,0:0:0:0:
324,166,36007,1,8,0:0:0:0:
303,332,36186,1,0,0:0:0:0:
303,332,36275,1,0,0:0:0:0:
303,332,36364,1,2,0:0:0:0:
123,244,36543,2,0,P|164:239|209:252,1,85,8|0,0:0|1:0,0:0:0:0:
76,320,36900,6,0,P|39:272|44:203,1,127.5,8|0,0:0|0:0,0:0:0:0:
41,207,37257,1,2,0:0:0:0:
125,66,37436,2,0,L|111:170,1,85,8|0,0:0|0:0,0:0:0:0:
113,150,37704,1,0,0:0:0:0:
113,150,37793,1,2,0:0:0:0:
49,17,37972,1,0,0:0:0:0:
201,122,38150,2,0,P|243:122|296:108,1,85,8|0,0:0|0:0,0:0:0:0:
340,67,38418,1,0,0:0:0:0:
340,67,38507,6,0,L|328:204,1,127.5,2|0,0:0|0:0,0:0:0:0:
328,194,38864,1,8,0:0:0:0:
313,339,39043,1,0,0:0:0:0:
313,339,39132,1,0,0:0:0:0:
313,339,39222,1,2,0:0:0:0:
116,269,39400,2,0,P|159:258|200:256,1,85,8|0,0:0|1:0,0:0:0:0:
386,220,39757,2,0,P|324:192|264:203,1,127.5,8|0,0:0|0:0,0:0:0:0:
267,201,40114,1,2,0:0:0:0:
460,147,40293,5,8,0:0:0:0:
457,129,40382,1,0,0:0:0:0:
456,112,40471,1,0,0:0:0:0:
454,95,40560,1,0,0:0:0:0:
452,79,40650,1,2,0:0:0:0:
450,62,40739,1,0,0:0:0:0:
448,45,40828,1,0,0:0:0:0:
317,290,41007,1,8,0:0:0:0:
154,121,41186,2,0,L|205:124,1,42.5
350,171,41364,6,0,P|289:162|230:200,1,127.5,6|0,0:0|0:0,0:0:0:0:
234,194,41722,1,8,0:0:0:0:
165,348,41900,1,0,0:0:0:0:
165,348,41989,1,0,0:0:0:0:
165,348,42079,1,2,0:0:0:0:
401,281,42257,2,0,P|357:282|316:290,1,85,8|0,0:0|1:0,0:0:0:0:
474,196,42614,2,0,P|413:180|326:169,1,127.5,8|0,0:0|0:0,0:0:0:0:
349,170,42972,1,2,0:0:0:0:
199,179,43150,5,8,0:0:0:0:
287,308,43329,2,0,P|286:279|279:249,1,42.5
199,179,43507,2,0,P|209:116|217:40,1,127.5,2|0,0:0|0:0,0:0:0:0:
246,84,43864,1,8,0:0:0:0:
275,94,43953,1,0,0:0:0:0:
307,96,44042,1,0,0:0:0:0:
338,89,44131,1,0,0:0:0:0:
366,73,44222,6,0,P|423:51|495:72,1,127.5,2|0,0:0|0:0,0:0:0:0:
511,95,44579,2,0,L|504:184,1,85,8|0,0:0|0:0,0:0:0:0:
504,179,44847,1,0,0:0:0:0:
504,179,44936,1,2,0:0:0:0:
388,331,45114,2,0,L|381:246,1,85,8|0,0:0|1:0,0:0:0:0:
366,74,45472,5,0,0:0:0:0:
366,74,45561,1,0,0:0:0:0:
366,74,45650,1,2,0:0:0:0:
348,86,45739,1,0,0:0:0:0:
329,95,45828,1,0,0:0:0:0:
308,100,45917,1,0,0:0:0:0:
287,101,46007,1,2,0:0:0:0:
266,98,46096,5,0,0:0:0:0:
246,92,46185,1,0,0:0:0:0:
226,85,46275,1,0,0:0:0:0:
205,81,46364,1,2,0:0:0:0:
184,81,46453,1,0,0:0:0:0:
163,86,46542,1,0,0:0:0:0:
144,95,46632,1,0,0:0:0:0:
127,108,46722,2,0,P|137:171|144:239,1,127.5,6|0,0:0|0:0,0:0:0:0:
127,279,47079,6,0,P|172:268|240:269,1,95.6250036478044,6|0,0:0|0:0,0:0:0:0:
345,313,47436,2,0,P|311:320|276:320,1,63.7500024318696
221,266,47704,2,0,L|229:147,1,95.6250036478044,0|8,0:0|0:0,0:0:0:0:
232,141,48329,6,0,L|361:133,1,127.500004863739,12|0,0:0|0:0,0:0:0:0:
420,192,48775,1,0,0:0:0:0:
416,210,48864,1,0,0:0:0:0:
413,229,48953,1,0,0:0:0:0:
410,248,49042,1,0,0:0:0:0:
407,267,49132,1,0,0:0:0:0:
404,286,49222,2,0,L|380:214,1,63.7500024318696,0|8,0:0|0:0,0:0:0:0:
359,133,49757,6,0,L|370:105,3,15.9375006079674
296,202,49936,6,0,L|190:195,1,95.6250036478044,6|0,0:0|0:0,0:0:0:0:
135,129,50293,2,0,L|51:136,1,63.7500024318696
226,60,50650,1,0,0:0:0:0:
296,202,50829,2,0,B|303:236|303:236|288:302,1,95.6250036478044,8|0,0:0|0:0,0:0:0:0:
234,342,51186,2,0,P|294:321|365:332,1,127.500004863739,8|0,0:0|0:0,0:0:0:0:
377,352,51632,1,0,0:0:0:0:
377,352,51722,2,0,L|386:276,1,63.7500024318696
486,243,52079,6,0,L|471:132,2,95.6250036478044,8|8|8,0:0|0:0|0:0,0:0:0:0:
418,324,52793,2,0,P|357:297|290:308,1,127.5,2|8,0:0|0:0,0:0:0:0:
236,347,53150,2,0,P|194:349|152:333,1,85,2|8,0:0|0:0,0:0:0:0:
54,207,53507,1,8,2:0:0:0:
208,261,53686,1,8,2:0:0:0:
175,87,53864,1,0,1:0:0:0:
54,207,54043,1,8,0:0:0:0:
208,261,54222,6,0,L|370:241,1,127.5,2|8,0:0|0:0,0:0:0:0:
504,212,54579,2,0,L|416:199,1,85,2|8,0:0|0:0,0:0:0:0:
260,174,54936,1,8,2:0:0:0:
419,302,55114,1,8,2:0:0:0:
443,98,55293,1,0,1:0:0:0:
443,98,55650,6,0,P|389:71|318:82,1,127.5,2|8,0:0|0:0,0:0:0:0:
254,130,56007,2,0,L|266:222,1,85,2|8,0:0|0:0,0:0:0:0:
288,382,56364,2,0,L|277:297,1,85,8|8,2:0|2:0,0:0:0:0:
254,130,56722,1,8,0:0:0:0:
347,245,56900,1,0,0:0:0:0:
211,353,57079,2,0,P|147:358|83:330,1,127.5,2|8,0:0|0:0,0:0:0:0:
51,271,57436,2,0,L|64:174,1,85,2|8,0:0|0:0,0:0:0:0:
163,12,57793,5,2,0:0:0:0:
165,33,57882,1,2,0:0:0:0:
168,54,57971,1,2,0:0:0:0:
171,75,58060,1,2,0:0:0:0:
174,96,58150,1,2,0:0:0:0:
176,117,58239,1,2,0:0:0:0:
179,138,58328,1,2,0:0:0:0:
182,159,58418,1,2,0:0:0:0:
185,180,58507,5,6,0:0:0:0:
207,342,58686,1,2,0:0:0:0:
256,52,59043,2,0,P|299:102|317:178,1,127.5,8|0,0:0|0:0,0:0:0:0:
137,261,59400,2,0,P|158:198|215:145,1,127.5,8|0,0:0|0:0,0:0:0:0:
378,262,59757,6,0,P|313:274|249:253,1,127.956989247312,12|8,0:0|2:0,0:0:0:0:
94,79,61364,5,2,0:0:0:0:
115,83,61722,1,2,0:0:0:0:
136,87,62079,1,2,0:0:0:0:
157,90,62436,1,2,0:0:0:0:
393,38,62614,5,8,0:0:0:0:
388,59,62972,1,8,0:0:0:0:
382,80,63329,1,8,0:0:0:0:
278,299,63507,5,2,0:0:0:0:
275,271,63597,1,2,0:0:0:0:
272,243,63686,1,2,0:0:0:0:
270,215,63775,1,2,0:0:0:0:
267,188,63864,1,8,0:0:0:0:
267,188,64222,6,0,P|219:180|162:199,1,101.999996887207,6|0,0:0|0:0,0:0:0:0:
65,322,64579,1,8,0:0:0:0:
18,73,64757,2,0,L|3:193,1,101.999996887207,0|2,0:0|0:0,0:0:0:0:
88,316,65114,1,0,0:0:0:0:
193,168,65293,2,0,P|149:140|100:135,1,101.999996887207,8|0,0:0|0:0,0:0:0:0:
208,295,65650,6,0,L|325:286,1,101.999996887207,2|0,0:0|0:0,0:0:0:0:
474,277,66007,1,8,0:0:0:0:
326,142,66186,1,0,0:0:0:0:
397,355,66364,1,2,0:0:0:0:
368,329,66453,1,0,0:0:0:0:
333,314,66542,1,0,0:0:0:0:
295,312,66631,1,0,0:0:0:0:
259,323,66721,1,8,0:0:0:0:
219,178,66900,5,0,0:0:0:0:
219,178,66989,1,0,0:0:0:0:
219,178,67079,2,0,L|236:59,1,101.999996887207,6|0,0:0|0:0,0:0:0:0:
381,154,67436,1,8,0:0:0:0:
278,266,67614,2,0,P|232:285|173:277,1,101.999996887207,0|2,0:0|0:0,0:0:0:0:
56,115,67972,1,0,0:0:0:0:
45,216,68150,2,0,L|56:115,1,101.999996887207,8|0,0:0|0:0,0:0:0:0:
189,24,68507,5,2,0:0:0:0:
315,132,68686,1,0,0:0:0:0:
56,114,68864,1,8,0:0:0:0:
301,27,69043,1,0,0:0:0:0:
177,181,69222,1,2,0:0:0:0:
167,217,69311,1,0,0:0:0:0:
168,255,69400,1,0,0:0:0:0:
179,292,69489,1,0,0:0:0:0:
201,323,69579,1,8,0:0:0:0:
374,252,69757,5,0,0:0:0:0:
374,252,69847,1,0,0:0:0:0:
374,252,69936,2,0,L|254:238,1,101.999996887207,6|0,0:0|0:0,0:0:0:0:
332,373,70293,1,8,0:0:0:0:
464,290,70472,2,0,P|468:244|445:184,1,101.999996887207,0|2,0:0|0:0,0:0:0:0:
311,76,70829,6,0,L|195:88,1,101.999996887207,0|8,0:0|0:0,0:0:0:0:
6,159,71186,2,0,L|122:171,1,101.999996887207,0|2,0:0|0:0,0:0:0:0:
275,186,71543,1,0,0:0:0:0:
108,68,71722,1,8,0:0:0:0:
275,186,71900,1,0,0:0:0:0:
90,274,72079,1,2,0:0:0:0:
234,75,72257,1,0,0:0:0:0:
234,75,72347,1,0,0:0:0:0:
234,75,72436,2,0,P|284:70|348:92,1,101.999996887207,8|0,0:0|0:0,0:0:0:0:
424,179,72793,6,0,P|416:254|412:339,1,152.999995330811,6|0,0:0|0:0,0:0:0:0:
412,331,73150,1,8,0:0:0:0:
286,246,73329,1,0,0:0:0:0:
286,246,73418,1,0,0:0:0:0:
286,246,73507,1,2,0:0:0:0:
424,179,73686,1,0,0:0:0:0:
308,346,73864,2,0,P|231:337|153:338,1,152.999995330811,8|0,0:0|0:0,0:0:0:0:
125,364,74222,6,0,L|135:246,1,101.999996887207,12|0,0:0|0:0,0:0:0:0:
224,81,74579,2,8,L|232:182,1,101.999996887207
232,182,74847,1,2,0:0:0:0:
232,182,75114,6,0,L|359:171,1,127.5,12|0,0:0|0:0,0:0:0:0:
406,119,75472,6,0,P|400:174|396:274,1,152.999995330811,6|0,0:0|0:0,0:0:0:0:
395,271,75829,1,2,0:0:0:0:
497,147,76007,2,0,P|497:97|472:50,1,101.999996887207,8|0,0:0|0:0,0:0:0:0:
473,51,76275,1,0,0:0:0:0:
473,51,76364,1,2,0:0:0:0:
278,35,76543,2,0,L|379:25,1,101.999996887207,0|8,0:0|0:0,0:0:0:0:
321,156,76900,6,0,L|201:147,1,101.999996887207,0|2,0:0|0:0,0:0:0:0:
17,179,77257,1,0,0:0:0:0:
181,57,77436,1,8,0:0:0:0:
97,263,77614,1,0,0:0:0:0:
110,297,77704,1,0,0:0:0:0:
134,322,77793,6,0,P|183:337|233:328,1,101.999996887207,2|0,0:0|0:0,0:0:0:0:
344,229,78150,1,8,0:0:0:0:
496,277,78329,2,0,L|484:380,1,101.999996887207,0|2,0:0|0:0,0:0:0:0:
512,149,78686,1,0,0:0:0:0:
344,229,78864,2,0,L|356:332,1,101.999996887207,8|0,0:0|0:0,0:0:0:0:
401,140,79222,6,0,P|327:123|258:159,1,152.999995330811,2|0,0:0|0:0,0:0:0:0:
260,156,79579,1,8,0:0:0:0:
84,106,79757,2,0,P|133:112|179:89,1,101.999996887207,0|2,0:0|0:0,0:0:0:0:
6,40,80114,1,0,0:0:0:0:
222,62,80293,5,8,0:0:0:0:
200,75,80382,1,0,0:0:0:0:
178,89,80472,2,0,L|164:214,1,101.999996887207,0|2,0:0|0:0,0:0:0:0:
145,342,80829,1,0,0:0:0:0:
363,257,81007,2,0,L|246:245,1,101.999996887207,8|0,0:0|0:0,0:0:0:0:
17,216,81364,6,0,P|85:170|179:202,1,170,6|8,0:0|0:0,0:0:0:0:
363,257,81900,2,0,P|297:246|218:245,1,127.5,8|0,0:0|0:0,0:0:0:0:
165,189,82257,2,0,P|160:122|191:59,1,127.5,8|0,0:0|0:0,0:0:0:0:
183,67,82614,1,2,0:0:0:0:
356,136,82793,6,0,P|311:148|265:146,1,85,6|0,0:0|0:0,0:0:0:0:
438,35,83150,1,8,0:0:0:0:
469,169,83329,2,0,P|445:209|412:241,1,85,0|2,0:0|0:0,0:0:0:0:
305,294,83686,2,0,L|176:284,1,127.5
177,284,84043,1,0,0:0:0:0:
75,133,84222,5,2,0:0:0:0:
75,133,84757,1,2,0:0:0:0:
259,191,84936,1,2,0:0:0:0:
259,191,85472,6,0,L|410:179,2,127.500004863739,2|2|2,0:0|0:0|0:0,0:0:0:0:
68,107,86364,5,2,0:0:0:0:
96,109,86454,1,0,0:0:0:0:
125,111,86543,1,0,0:0:0:0:
153,113,86632,1,0,0:0:0:0:
182,116,86721,1,12,2:0:0:0:
