osu file format v14

[General]
AudioFilename: audio.mp3
AudioLeadIn: 0
PreviewTime: 63177
Countdown: 0
SampleSet: Normal
StackLeniency: 0.7
Mode: 1
LetterboxInBreaks: 0
WidescreenStoryboard: 0

[Editor]
Bookmarks: 12257,12614,21364,24222,34936,35114,35650,47079,58507,59043,59400,59757,61007,61364,62614,62972,63329,63507,64222,74222,74579,75114,75472,81364,84222,86722
DistanceSpacing: 0.7
BeatDivisor: 4
GridSize: 8
TimelineZoom: 1.5

[Metadata]
Title:Trip Trip Trip(TV Size)
TitleUnicode:Trip Trip Trip(TV Size)
Artist:ORESAMA
ArtistUnicode:ORESAMA
Creator:404 AccNotFound
Version:Oni
Source:魔法陣グルグル
Tags:anime op tv size maoujin guruguru
BeatmapID:1381945
BeatmapSetID:646079

[Difficulty]
HPDrainRate:6
CircleSize:5
OverallDifficulty:5.5
ApproachRate:5
SliderMultiplier:1.4
SliderTickRate:1

[Events]
//Background and Video events
0,0,"TATOE14.png",0,0
//Break Periods
//Storyboard Layer 0 (Background)
//Storyboard Layer 1 (Fail)
//Storyboard Layer 2 (Pass)
//Storyboard Layer 3 (Foreground)
//Storyboard Sound Samples

[TimingPoints]
1035,357.142857142857,4,1,0,85,1,0
12284,-100,4,1,0,95,0,0
21034,-100,4,1,0,80,0,0
23534,-76.9230769230769,4,1,2,100,0,0
23892,-100,4,1,0,90,0,0
34963,-100,4,1,3,100,0,0
35320,-100,4,1,0,85,0,0
46749,-100,4,1,0,90,0,0
52463,-100,4,1,0,95,0,0
60677,-76.9230769230769,4,1,2,100,0,0
61034,-100,4,1,0,80,0,0
62284,-100,4,1,0,90,0,0
63892,-100,4,1,0,100,0,1
73892,-100,4,1,0,95,0,0
75142,-100,4,1,0,100,0,1
81034,-100,4,1,0,90,0,0
83892,-100,4,1,0,80,0,0
86392,-76.9230769230769,4,1,4,100,0,0

[HitObjects]
176,160,499,5,0,0:0:0:0:
176,160,677,1,0,0:0:0:0:
176,160,1035,1,8,0:0:0:0:
176,160,1392,1,0,0:0:0:0:
176,160,1570,1,8,0:0:0:0:
176,160,1927,1,0,0:0:0:0:
176,160,2284,1,8,0:0:0:0:
176,160,2820,1,0,0:0:0:0:
176,160,2999,1,0,0:0:0:0:
176,160,3892,1,8,0:0:0:0:
176,160,4249,1,0,0:0:0:0:
184,160,4427,1,8,0:0:0:0:
184,160,4784,1,0,0:0:0:0:
184,160,5142,1,8,0:0:0:0:
184,160,5677,1,8,0:0:0:0:
184,160,5856,1,8,0:0:0:0:
184,160,6749,1,8,0:0:0:0:
184,160,7106,1,0,0:0:0:0:
184,160,7284,1,8,0:0:0:0:
184,160,7642,1,8,0:0:0:0:
184,160,7999,1,8,0:0:0:0:
184,160,8356,1,0,0:0:0:0:
184,160,8713,1,8,0:0:0:0:
184,160,9070,1,8,0:0:0:0:
184,160,9427,1,0,0:0:0:0:
184,160,10142,1,0,0:0:0:0:
184,160,10320,1,0,0:0:0:0:
208,200,11927,5,0,0:0:0:0:
216,200,12284,1,8,0:0:0:0:
216,200,12642,1,0,0:0:0:0:
216,200,12820,1,8,0:0:0:0:
296,128,12999,1,0,0:0:0:0:
168,136,13088,1,0,0:0:0:0:
216,200,13177,1,8,0:0:0:0:
224,144,13534,1,0,0:0:0:0:
304,192,13713,1,8,0:0:0:0:
96,136,14070,1,8,0:0:0:0:
224,144,14249,1,0,0:0:0:0:
168,88,14427,1,8,0:0:0:0:
232,168,14517,1,0,0:0:0:0:
224,144,14606,1,8,0:0:0:0:
208,88,14874,1,8,0:0:0:0:
224,144,14963,1,0,0:0:0:0:
192,88,15142,1,8,0:0:0:0:
160,176,15499,1,0,0:0:0:0:
160,176,15677,1,8,0:0:0:0:
256,136,15856,1,0,0:0:0:0:
248,136,15945,1,0,0:0:0:0:
160,176,16034,1,8,0:0:0:0:
160,176,16392,1,8,0:0:0:0:
200,56,16570,1,8,0:0:0:0:
320,120,16749,1,0,0:0:0:0:
160,176,17106,1,8,0:0:0:0:
160,176,17463,1,0,0:0:0:0:
32,144,17642,1,8,0:0:0:0:
160,176,17820,1,8,0:0:0:0:
208,112,17999,1,0,0:0:0:0:
176,88,18088,1,0,0:0:0:0:
48,176,18177,1,8,0:0:0:0:
160,176,18356,1,0,0:0:0:0:
160,176,18534,1,8,0:0:0:0:
32,176,18713,1,8,0:0:0:0:
160,176,19070,1,8,0:0:0:0:
160,176,19249,1,0,0:0:0:0:
192,64,19427,1,8,0:0:0:0:
192,112,19517,1,0,0:0:0:0:
160,176,19606,1,8,0:0:0:0:
160,176,19784,1,0,0:0:0:0:
168,104,20142,1,8,0:0:0:0:
192,88,20499,1,0,0:0:0:0:
272,96,20856,1,8,0:0:0:0:
160,176,21034,1,8,0:0:0:0:
208,144,21570,1,0,0:0:0:0:
208,144,21749,1,0,0:0:0:0:
208,144,22284,1,8,0:0:0:0:
208,144,22642,1,8,0:0:0:0:
208,144,22999,1,8,0:0:0:0:
208,144,23177,1,0,0:0:0:0:
208,144,23356,1,0,0:0:0:0:
208,144,23534,1,8,0:0:0:0:
208,152,23892,1,4,0:0:0:0:
256,144,24249,1,8,0:0:0:0:
256,144,24427,1,0,0:0:0:0:
256,144,24517,1,8,0:0:0:0:
256,144,24606,1,0,0:0:0:0:
248,152,24784,1,8,0:0:0:0:
256,144,24963,1,0,0:0:0:0:
256,144,25052,1,0,0:0:0:0:
256,144,25142,1,8,0:0:0:0:
240,152,25499,1,8,0:0:0:0:
240,160,25677,1,0,0:0:0:0:
240,152,25856,1,8,0:0:0:0:
248,152,25945,1,0,0:0:0:0:
248,152,26034,1,8,0:0:0:0:
208,152,26124,1,8,0:0:0:0:
248,152,26213,1,0,0:0:0:0:
248,152,26392,1,8,0:0:0:0:
184,80,26570,1,8,0:0:0:0:
240,168,26749,1,0,0:0:0:0:
240,168,27106,1,8,0:0:0:0:
240,168,27284,1,0,0:0:0:0:
240,168,27374,1,8,0:0:0:0:
240,168,27463,1,0,0:0:0:0:
240,168,27642,1,8,0:0:0:0:
136,152,27820,1,0,0:0:0:0:
144,152,27909,1,0,0:0:0:0:
136,152,27999,1,8,0:0:0:0:
144,152,28356,1,8,0:0:0:0:
184,120,28445,1,0,0:0:0:0:
144,152,28534,1,8,0:0:0:0:
184,80,28713,1,8,0:0:0:0:
184,80,28892,1,0,0:0:0:0:
192,104,29070,1,8,0:0:0:0:
224,112,29159,1,8,0:0:0:0:
208,120,29249,1,0,0:0:0:0:
192,104,29427,1,8,0:0:0:0:
176,96,29606,1,0,0:0:0:0:
232,112,29784,1,8,0:0:0:0:
16,128,29963,1,0,0:0:0:0:
24,128,30142,1,8,0:0:0:0:
24,128,30231,1,8,0:0:0:0:
24,128,30320,1,0,0:0:0:0:
184,208,30409,1,0,0:0:0:0:
40,136,30499,1,8,0:0:0:0:
40,136,30677,1,0,0:0:0:0:
40,136,30856,1,8,0:0:0:0:
160,160,31213,1,8,0:0:0:0:
160,160,31392,1,0,0:0:0:0:
160,160,31570,1,8,0:0:0:0:
160,160,31659,1,0,0:0:0:0:
160,160,31749,1,8,0:0:0:0:
160,160,31927,1,8,0:0:0:0:
160,160,32106,1,0,0:0:0:0:
160,160,32284,1,0,0:0:0:0:
16,160,32374,1,0,0:0:0:0:
160,160,32463,1,8,0:0:0:0:
184,88,32642,1,8,0:0:0:0:
184,96,32820,1,0,0:0:0:0:
184,96,32999,1,8,0:0:0:0:
80,176,33088,1,8,0:0:0:0:
144,176,33177,1,0,0:0:0:0:
224,128,33267,1,8,0:0:0:0:
168,112,33356,1,0,0:0:0:0:
168,112,33534,1,0,0:0:0:0:
120,184,33713,1,8,0:0:0:0:
216,160,34070,1,8,0:0:0:0:
216,152,34249,1,0,0:0:0:0:
216,152,34338,1,0,0:0:0:0:
216,152,34427,1,8,0:0:0:0:
216,152,34517,1,0,0:0:0:0:
216,112,34606,1,8,0:0:0:0:
216,112,34784,1,8,0:0:0:0:
216,112,34963,1,8,0:0:0:0:
216,112,35320,1,0,0:0:0:0:
312,128,35677,1,8,0:0:0:0:
264,136,35856,1,0,0:0:0:0:
184,120,35945,1,8,0:0:0:0:
352,176,36034,1,0,0:0:0:0:
352,176,36213,1,8,0:0:0:0:
312,128,36392,1,0,0:0:0:0:
312,136,36481,1,0,0:0:0:0:
352,176,36570,1,8,0:0:0:0:
352,176,36927,1,8,0:0:0:0:
312,136,37106,1,0,0:0:0:0:
352,176,37284,1,8,0:0:0:0:
352,176,37642,1,8,0:0:0:0:
320,128,37820,1,0,0:0:0:0:
352,176,37999,1,8,0:0:0:0:
304,128,38088,1,8,0:0:0:0:
312,136,38177,1,0,0:0:0:0:
312,136,38534,1,8,0:0:0:0:
112,184,38713,1,0,0:0:0:0:
304,144,38802,1,8,0:0:0:0:
312,136,38892,1,0,0:0:0:0:
312,136,39070,1,0,0:0:0:0:
352,176,39249,1,8,0:0:0:0:
352,176,39427,1,0,0:0:0:0:
312,136,39784,1,8,0:0:0:0:
312,136,39963,1,0,0:0:0:0:
352,176,40142,1,8,0:0:0:0:
312,136,40231,1,0,0:0:0:0:
352,176,40320,1,8,0:0:0:0:
352,176,40499,1,8,0:0:0:0:
352,176,40677,1,0,0:0:0:0:
352,176,40856,1,0,0:0:0:0:
256,152,40945,1,0,0:0:0:0:
248,152,41034,1,8,0:0:0:0:
352,176,41213,1,8,0:0:0:0:
184,112,41392,1,0,0:0:0:0:
184,112,41570,1,8,0:0:0:0:
184,112,41927,1,8,0:0:0:0:
184,112,42106,1,0,0:0:0:0:
184,112,42284,1,8,0:0:0:0:
184,112,42642,1,8,0:0:0:0:
112,128,42820,1,0,0:0:0:0:
344,176,42999,1,8,0:0:0:0:
216,48,43088,1,0,0:0:0:0:
344,176,43177,1,8,0:0:0:0:
344,176,43356,1,8,0:0:0:0:
344,176,43534,1,0,0:0:0:0:
344,176,43713,1,0,0:0:0:0:
184,80,43802,1,0,0:0:0:0:
344,176,43892,1,8,0:0:0:0:
136,160,44070,1,8,0:0:0:0:
112,96,44249,1,0,0:0:0:0:
344,176,44427,1,8,0:0:0:0:
208,160,44784,1,8,0:0:0:0:
208,160,44963,1,0,0:0:0:0:
208,160,45142,1,8,0:0:0:0:
80,136,45231,1,8,0:0:0:0:
272,96,45320,1,0,0:0:0:0:
272,104,45499,1,8,0:0:0:0:
264,104,45677,1,0,0:0:0:0:
264,104,45767,1,0,0:0:0:0:
264,104,45856,1,8,0:0:0:0:
240,112,45945,1,0,0:0:0:0:
264,104,46034,1,8,0:0:0:0:
240,112,46213,1,0,0:0:0:0:
56,160,46302,1,0,0:0:0:0:
240,112,46392,1,8,0:0:0:0:
240,112,46570,1,0,0:0:0:0:
240,112,46749,1,12,0:0:0:0:
224,144,47106,1,0,0:0:0:0:
208,88,47284,1,8,0:0:0:0:
336,136,47374,1,8,0:0:0:0:
208,120,47463,1,0,0:0:0:0:
224,144,47642,1,8,0:0:0:0:
208,120,47999,1,12,0:0:0:0:
168,120,48356,1,0,0:0:0:0:
168,120,48534,1,8,0:0:0:0:
184,128,48624,1,8,0:0:0:0:
168,120,48713,1,8,0:0:0:0:
160,120,48802,1,8,0:0:0:0:
168,120,48892,1,0,0:0:0:0:
168,120,49070,1,8,0:0:0:0:
168,120,49427,1,0,0:0:0:0:
168,120,49606,1,12,0:0:0:0:
168,120,49784,1,0,0:0:0:0:
168,112,49963,1,8,0:0:0:0:
168,112,50142,1,0,0:0:0:0:
40,168,50231,1,0,0:0:0:0:
168,112,50320,1,8,0:0:0:0:
168,112,50499,1,8,0:0:0:0:
256,112,50588,1,0,0:0:0:0:
168,112,50677,1,8,0:0:0:0:
168,112,50856,1,4,0:0:0:0:
168,112,51213,1,0,0:0:0:0:
168,112,51749,1,8,0:0:0:0:
168,112,52017,1,8,0:0:0:0:
168,112,52284,1,8,0:0:0:0:
168,112,52463,1,0,0:0:0:0:
256,88,52731,1,8,0:0:0:0:
168,112,52820,1,0,0:0:0:0:
168,120,52999,1,8,0:0:0:0:
256,88,53177,1,0,0:0:0:0:
256,88,53267,1,0,0:0:0:0:
168,120,53356,1,8,0:0:0:0:
256,88,53534,1,0,0:0:0:0:
160,120,53713,1,8,0:0:0:0:
168,120,54070,1,8,0:0:0:0:
168,120,54249,1,0,0:0:0:0:
160,120,54427,1,8,0:0:0:0:
256,88,54517,1,8,0:0:0:0:
160,120,54606,1,0,0:0:0:0:
168,120,54784,1,8,0:0:0:0:
184,72,55142,1,0,0:0:0:0:
160,120,55320,1,8,0:0:0:0:
184,72,55499,1,0,0:0:0:0:
184,72,55677,1,8,0:0:0:0:
184,72,55856,1,0,0:0:0:0:
16,144,55945,1,0,0:0:0:0:
184,72,56034,1,8,0:0:0:0:
184,72,56213,1,8,0:0:0:0:
160,96,56302,1,8,0:0:0:0:
184,72,56392,1,8,0:0:0:0:
184,72,56570,1,0,0:0:0:0:
184,72,56927,1,8,0:0:0:0:
216,96,57106,1,0,0:0:0:0:
216,96,57284,1,8,0:0:0:0:
216,96,57463,1,0,0:0:0:0:
216,96,57552,1,8,0:0:0:0:
152,232,57642,5,0,0:0:0:0:
224,144,57731,1,0,0:0:0:0:
152,232,57820,1,8,0:0:0:0:
200,160,57909,1,8,0:0:0:0:
152,232,57999,1,0,0:0:0:0:
264,216,58177,5,12,0:0:0:0:
160,184,58356,1,12,0:0:0:0:
264,216,58534,1,0,0:0:0:0:
264,216,58713,1,12,0:0:0:0:
264,216,59070,1,4,0:0:0:0:
264,216,59427,1,12,0:0:0:0:
256,192,59606,12,0,60499,0:0:0:0:
264,216,60677,5,8,0:0:0:0:
264,216,61034,1,0,0:0:0:0:
264,216,61392,1,0,0:0:0:0:
264,216,61749,1,0,0:0:0:0:
264,216,62106,1,0,0:0:0:0:
264,216,62284,1,8,0:0:0:0:
264,216,62642,1,8,0:0:0:0:
264,216,62999,1,8,0:0:0:0:
264,216,63177,1,0,0:0:0:0:
256,176,63267,1,0,0:0:0:0:
256,176,63356,1,0,0:0:0:0:
256,176,63445,1,0,0:0:0:0:
256,176,63534,1,8,0:0:0:0:
256,176,63892,1,4,0:0:0:0:
352,176,64249,1,0,0:0:0:0:
80,192,64427,1,8,0:0:0:0:
160,192,64606,1,0,0:0:0:0:
136,120,64784,1,8,0:0:0:0:
216,96,64874,1,8,0:0:0:0:
320,208,64963,1,0,0:0:0:0:
352,176,65142,1,8,0:0:0:0:
352,176,65499,1,8,0:0:0:0:
352,176,65677,1,0,0:0:0:0:
352,176,65856,1,8,0:0:0:0:
111,161,65945,1,8,0:0:0:0:
128,184,66034,1,0,0:0:0:0:
152,160,66124,1,8,0:0:0:0:
152,160,66213,1,0,0:0:0:0:
152,152,66392,1,8,0:0:0:0:
192,168,66570,1,0,0:0:0:0:
192,64,66659,1,0,0:0:0:0:
352,176,66749,1,8,0:0:0:0:
352,176,67106,1,0,0:0:0:0:
352,176,67284,1,8,0:0:0:0:
192,160,67463,1,0,0:0:0:0:
352,176,67642,1,0,0:0:0:0:
192,160,67731,1,0,0:0:0:0:
24,160,67820,1,8,0:0:0:0:
352,176,67999,1,0,0:0:0:0:
192,152,68356,1,8,0:0:0:0:
352,176,68534,1,0,0:0:0:0:
232,176,68713,1,8,0:0:0:0:
232,176,68802,1,8,0:0:0:0:
232,176,68892,1,0,0:0:0:0:
232,176,69070,1,0,0:0:0:0:
232,176,69249,1,8,0:0:0:0:
352,176,69606,1,0,0:0:0:0:
352,176,69963,1,0,0:0:0:0:
256,144,70142,1,8,0:0:0:0:
256,144,70320,1,0,0:0:0:0:
352,176,70499,1,8,0:0:0:0:
208,48,70588,1,8,0:0:0:0:
248,112,70677,1,8,0:0:0:0:
352,176,70856,1,0,0:0:0:0:
160,168,71213,1,8,0:0:0:0:
168,152,71392,1,0,0:0:0:0:
352,176,71570,1,8,0:0:0:0:
243,140,71659,1,8,0:0:0:0:
243,140,71749,1,0,0:0:0:0:
35,151,71838,1,0,0:0:0:0:
232,107,71927,1,8,0:0:0:0:
104,120,72106,1,0,0:0:0:0:
200,72,72284,1,0,0:0:0:0:
179,110,72642,1,0,0:0:0:0:
192,64,72820,1,8,0:0:0:0:
352,176,72999,1,0,0:0:0:0:
280,112,73088,1,8,0:0:0:0:
352,176,73177,1,0,0:0:0:0:
192,64,73356,1,8,0:0:0:0:
192,64,73445,1,8,0:0:0:0:
192,64,73534,1,0,0:0:0:0:
176,88,73713,1,0,0:0:0:0:
216,168,73892,1,12,0:0:0:0:
216,168,74249,1,12,0:0:0:0:
216,168,74427,1,0,0:0:0:0:
216,168,74517,1,8,0:0:0:0:
216,168,74606,1,0,0:0:0:0:
352,176,74784,1,8,0:0:0:0:
352,176,75142,1,12,0:0:0:0:
352,176,75499,1,0,0:0:0:0:
352,176,75677,1,8,0:0:0:0:
352,176,75856,1,0,0:0:0:0:
184,144,75945,1,0,0:0:0:0:
352,176,76034,1,8,0:0:0:0:
352,176,76392,1,0,0:0:0:0:
352,176,76570,1,8,0:0:0:0:
352,176,76927,1,8,0:0:0:0:
352,176,77106,1,0,0:0:0:0:
352,176,77284,1,0,0:0:0:0:
104,144,77374,1,0,0:0:0:0:
352,176,77463,1,8,0:0:0:0:
219,73,77552,1,0,0:0:0:0:
96,168,77642,1,8,0:0:0:0:
352,176,77820,1,0,0:0:0:0:
352,176,77999,1,8,0:0:0:0:
352,176,78356,1,0,0:0:0:0:
352,176,78534,1,8,0:0:0:0:
352,176,78713,1,0,0:0:0:0:
112,136,78802,1,0,0:0:0:0:
352,176,78892,1,8,0:0:0:0:
352,176,79249,1,8,0:0:0:0:
352,176,79427,1,0,0:0:0:0:
144,136,79784,1,0,0:0:0:0:
152,152,79963,1,8,0:0:0:0:
152,152,80052,1,8,0:0:0:0:
152,152,80142,1,8,0:0:0:0:
352,176,80320,1,0,0:0:0:0:
352,176,80499,1,0,0:0:0:0:
352,176,80677,1,8,0:0:0:0:
352,176,80856,1,0,0:0:0:0:
208,296,80945,1,0,0:0:0:0:
128,192,81034,1,8,0:0:0:0:
96,152,81392,1,0,0:0:0:0:
224,144,81570,1,8,0:0:0:0:
224,144,81927,1,8,0:0:0:0:
112,128,82106,1,0,0:0:0:0:
352,176,82284,1,8,0:0:0:0:
224,96,82374,1,0,0:0:0:0:
352,176,82463,1,8,0:0:0:0:
352,176,82642,1,8,0:0:0:0:
48,144,82820,1,0,0:0:0:0:
352,176,82999,1,8,0:0:0:0:
352,176,83356,1,8,0:0:0:0:
352,176,83713,1,0,0:0:0:0:
256,160,83892,1,8,0:0:0:0:
256,160,84427,1,0,0:0:0:0:
256,160,84606,1,0,0:0:0:0:
256,160,85142,1,8,0:0:0:0:
256,160,85499,1,8,0:0:0:0:
256,160,85856,1,0,0:0:0:0:
256,160,86034,1,0,0:0:0:0:
264,160,86392,1,8,0:0:0:0:
