osu file format v14

[General]
AudioFilename: audio.mp3
AudioLeadIn: 0
PreviewTime: 63507
Countdown: 0
SampleSet: Normal
StackLeniency: 0.7
Mode: 1
LetterboxInBreaks: 0
WidescreenStoryboard: 0

[Editor]
Bookmarks: 12257,12614,21364,24222,34936,35114,35650,47079,58507,59043,59400,59757,61007,61364,62614,62972,63329,63507,64222,74222,74579,75114,75472,81364,84222,86722
DistanceSpacing: 0.7
BeatDivisor: 2
GridSize: 8
TimelineZoom: 1

[Metadata]
Title:Trip Trip Trip(TV Size)
TitleUnicode:Trip Trip Trip(TV Size)
Artist:ORESAMA
ArtistUnicode:ORESAMA
Creator:404 AccNotFound
Version:Kantan
Source:魔法陣グルグル
Tags:anime op tv size maoujin guruguru
BeatmapID:1382667
BeatmapSetID:646079

[Difficulty]
HPDrainRate:8
CircleSize:5
OverallDifficulty:3
ApproachRate:5
SliderMultiplier:1.4
SliderTickRate:1

[Events]
//Background and Video events
0,0,"TATOE1.png",0,0
//Break Periods
//Storyboard Layer 0 (Background)
//Storyboard Layer 1 (Fail)
//Storyboard Layer 2 (Pass)
//Storyboard Layer 3 (Foreground)
//Storyboard Sound Samples

[TimingPoints]
1035,357.142857142857,4,1,0,85,1,0
12284,-100,4,1,0,95,0,0
21034,-100,4,1,0,80,0,0
23534,-100,4,1,2,100,0,0
23892,-100,4,1,0,90,0,0
34963,-100,4,1,3,100,0,0
35320,-100,4,1,0,85,0,0
46749,-100,4,1,0,90,0,0
52463,-100,4,1,0,95,0,0
60677,-100,4,1,2,100,0,0
61034,-100,4,1,0,80,0,0
62284,-100,4,1,0,90,0,0
63892,-100,4,1,0,100,0,1
73892,-100,4,1,0,95,0,0
75142,-100,4,1,0,100,0,1
81034,-100,4,1,0,90,0,0
83892,-100,4,1,0,80,0,0
86392,-100,4,1,4,100,0,0

[HitObjects]
272,232,1035,5,0,0:0:0:0:
272,232,2463,1,8,0:0:0:0:
272,232,3892,1,0,0:0:0:0:
272,224,5320,1,8,0:0:0:0:
272,224,6749,1,0,0:0:0:0:
272,224,8177,1,0,0:0:0:0:
272,224,9606,1,8,0:0:0:0:
272,224,11927,1,0,0:0:0:0:
272,224,12284,1,12,0:0:0:0:
264,168,13177,1,8,0:0:0:0:
272,176,13713,1,0,0:0:0:0:
352,136,15142,1,0,0:0:0:0:
352,136,16034,1,0,0:0:0:0:
360,128,16570,1,8,0:0:0:0:
360,128,18177,1,0,0:0:0:0:
360,128,19606,1,8,0:0:0:0:
194,124,20320,1,0,0:0:0:0:
360,128,21034,1,8,0:0:0:0:
360,128,22284,1,0,0:0:0:0:
360,128,23534,1,8,0:0:0:0:
360,128,23892,1,4,0:0:0:0:
272,120,24784,1,0,0:0:0:0:
272,112,25142,1,0,0:0:0:0:
232,80,25499,1,0,0:0:0:0:
192,112,26749,1,0,0:0:0:0:
232,80,27642,1,0,0:0:0:0:
232,80,27999,1,0,0:0:0:0:
352,192,28356,1,0,0:0:0:0:
216,160,29606,1,8,0:0:0:0:
272,64,30499,1,8,0:0:0:0:
216,160,30856,1,8,0:0:0:0:
216,160,31213,1,8,0:0:0:0:
216,160,32463,1,8,0:0:0:0:
248,224,33356,1,8,0:0:0:0:
232,136,33713,1,8,0:0:0:0:
216,168,34070,1,8,0:0:0:0:
328,136,34606,1,0,0:0:0:0:
192,128,35320,1,0,0:0:0:0:
240,160,36034,1,0,0:0:0:0:
216,160,36749,1,8,0:0:0:0:
216,152,38177,1,0,0:0:0:0:
200,128,38892,1,8,0:0:0:0:
216,152,39606,1,0,0:0:0:0:
216,152,41034,1,8,0:0:0:0:
240,96,41749,1,8,0:0:0:0:
240,96,42463,1,0,0:0:0:0:
240,112,43892,1,8,0:0:0:0:
232,96,44606,1,0,0:0:0:0:
232,96,45320,1,8,0:0:0:0:
232,96,45677,1,0,0:0:0:0:
232,96,46034,1,8,0:0:0:0:
232,96,46749,1,0,0:0:0:0:
232,112,47999,1,8,0:0:0:0:
184,144,48892,1,8,0:0:0:0:
232,144,49070,1,8,0:0:0:0:
232,112,49606,1,8,0:0:0:0:
232,112,50856,1,0,0:0:0:0:
232,112,52463,1,0,0:0:0:0:
232,112,53177,1,0,0:0:0:0:
232,112,53713,1,8,0:0:0:0:
232,112,54249,1,8,0:0:0:0:
232,112,54606,1,8,0:0:0:0:
232,112,55320,1,0,0:0:0:0:
232,112,56034,1,8,0:0:0:0:
232,112,56570,1,0,0:0:0:0:
224,112,58177,1,8,0:0:0:0:
224,112,58713,1,8,0:0:0:0:
224,112,59070,1,8,0:0:0:0:
224,112,59427,1,8,0:0:0:0:
224,112,60677,1,8,0:0:0:0:
224,112,61034,1,0,0:0:0:0:
224,112,62284,1,8,0:0:0:0:
224,112,63177,1,0,0:0:0:0:
224,112,63892,1,4,0:0:0:0:
224,176,64606,1,8,0:0:0:0:
216,176,65320,1,0,0:0:0:0:
216,176,66034,1,8,0:0:0:0:
216,176,66392,1,0,0:0:0:0:
216,176,66749,1,0,0:0:0:0:
216,176,67463,1,0,0:0:0:0:
216,176,68177,1,8,0:0:0:0:
216,176,69606,1,0,0:0:0:0:
216,176,70320,1,0,0:0:0:0:
216,176,71034,1,8,0:0:0:0:
224,176,71392,1,0,0:0:0:0:
224,176,71749,1,8,0:0:0:0:
224,176,72463,1,0,0:0:0:0:
216,72,73177,1,0,0:0:0:0:
224,176,73892,1,8,0:0:0:0:
224,176,74249,1,8,0:0:0:0:
224,176,75142,1,8,0:0:0:0:
224,184,76034,1,0,0:0:0:0:
224,184,76749,1,8,0:0:0:0:
224,184,77106,1,0,0:0:0:0:
224,184,77463,1,8,0:0:0:0:
224,184,78177,1,0,0:0:0:0:
224,184,78892,1,0,0:0:0:0:
224,184,79606,1,8,0:0:0:0:
232,184,81034,1,0,0:0:0:0:
320,136,81570,1,0,0:0:0:0:
320,144,82463,1,8,0:0:0:0:
320,144,82999,1,8,0:0:0:0:
320,144,83892,1,0,0:0:0:0:
312,144,85142,1,0,0:0:0:0:
312,144,86392,1,8,0:0:0:0:
