osu file format v14

[General]
AudioFilename: audio.mp3
AudioLeadIn: 0
PreviewTime: 55794
Countdown: 0
SampleSet: Soft
StackLeniency: 0.5
Mode: 0
LetterboxInBreaks: 0
WidescreenStoryboard: 0

[Editor]
Bookmarks: 8330,16901,28901,42615,56330,83758,88901,90615,104330,118044,133472,160901,174615,188330,202044,215758,229472
DistanceSpacing: 2.5
BeatDivisor: 6
GridSize: 4
TimelineZoom: 2.2

[Metadata]
Title:Hotohashiru
TitleUnicode:ホトハシル
Artist:ORESAMA
ArtistUnicode:ORESAMA
Creator:Meg
Version:sanairrt's Hard
Source:ムヒョとロージーの魔法律相談事務所
Tags:Muhyo to Roji no Mahouritsu Soudan Jimusho muhyoroji iMage-- kuei ed japanese anime jpop j-pop sanairrt Akitoshi Corinn -Laura-
BeatmapID:3418715
BeatmapSetID:1090567

[Difficulty]
HPDrainRate:5
CircleSize:3.9
OverallDifficulty:6
ApproachRate:8
SliderMultiplier:1.6
SliderTickRate:1

[Events]
//Background and Video events
0,0,"BG.png",0,0
//Break Periods
2,188529,200330
//Storyboard Layer 0 (Background)
//Storyboard Layer 1 (Fail)
//Storyboard Layer 2 (Pass)
//Storyboard Layer 3 (Foreground)
//Storyboard Layer 4 (Overlay)
//Storyboard Sound Samples

[TimingPoints]
1473,428.571428571429,4,2,69,60,1,0
1473,-111.111111111111,4,2,69,60,0,0
8330,-100,4,2,69,60,0,0
16258,-100,4,2,69,60,0,0
16473,-100,4,2,69,60,0,0
16901,-111.111111111111,4,2,69,60,0,0
42615,-166.666666666666,4,2,69,60,0,0
56330,-90.9090909090909,4,2,69,60,0,0
83758,-111.111111111111,4,2,69,60,0,0
90615,-111.111111111111,4,2,69,60,0,0
118044,-125,4,2,69,60,0,0
118901,-125,4,2,69,60,0,0
119115,-125,4,2,69,60,0,0
124901,-111.111111111111,4,2,69,60,0,0
125758,-111.111111111111,4,2,69,60,0,0
125972,-111.111111111111,4,2,69,60,0,0
130044,-125,4,2,69,60,0,0
131758,-125,4,2,69,60,0,0
133472,-90.9090909090909,4,2,69,60,0,0
160472,-90.9090909090909,4,2,69,60,0,0
160901,-90.9090909090909,4,2,69,60,0,0
174615,-100,4,2,69,60,0,0
187044,-142.857142857143,4,2,69,60,0,0
202044,-90.909090909091,4,2,69,60,0,0

[Colours]
Combo1 : 255,160,115
Combo2 : 142,142,255
Combo3 : 255,255,57
Combo4 : 183,232,255

[HitObjects]
77,229,1473,5,6,3:2:0:0:
77,229,2544,2,0,P|90:166|105:95,2,107.999996704102,6|6|6,3:2|3:2|3:2,0:0:0:0:
239,256,4258,2,0,P|252:319|267:390,2,107.999996704102,6|6|6,3:2|3:2|3:2,0:0:0:0:
400,228,5973,2,0,P|410:175|422:123,2,107.999996704102,6|6|6,3:2|3:2|3:2,0:0:0:0:
260,361,7687,2,0,P|294:335|371:345,2,107.999996704102,6|6|6,3:2|3:2|3:2,0:0:0:0:
179,328,8544,5,2,0:0:0:0:
179,328,8651,1,8,0:0:0:0:
179,328,8758,2,0,P|170:280|162:234,2,80,2|8|0,3:2|0:0|3:0,0:0:0:0:
268,362,9401,2,0,P|328:346|404:331,1,120,10|8,0:0|0:0,0:0:0:0:
430,318,9830,1,2,0:0:0:0:
482,237,10044,6,0,P|502:190|458:89,1,160,2|0,3:2|3:0,0:0:0:0:
406,171,10687,1,8,0:0:0:0:
338,103,10901,1,2,3:2:0:0:
338,103,11008,1,0,0:0:0:0:
338,103,11115,2,0,P|284:95|201:83,1,120,8|8,0:0|0:0,0:0:0:0:
179,112,11544,1,8,0:2:0:0:
99,58,11758,6,0,P|80:107|64:151,1,80,6|2,3:2|0:0,0:0:0:0:
50,176,12080,1,8,0:2:0:0:
50,176,12187,2,0,P|60:215|71:268,2,80,0|10|0,3:0|0:0|3:2,0:0:0:0:
116,106,12830,2,0,B|185:83|172:126|261:99,1,120,10|2,0:0|0:0,0:0:0:0:
277,86,13258,1,2,0:0:0:0:
345,154,13473,5,6,3:2:0:0:
256,192,13580,12,2,15187,0:0:0:0:
345,154,16258,6,0,L|337:179,3,26.6666666666667,8|8|8|12,0:0|0:0|0:0|0:0,0:0:0:0:
469,293,16901,6,0,P|431:265|374:281,1,107.999996704102,6|2,3:2|0:0,0:0:0:0:
339,304,17330,1,8,0:0:0:0:
258,272,17544,1,0,3:0:0:0:
207,343,17758,1,0,0:0:0:0:
207,343,17865,1,0,0:0:0:0:
207,343,17973,2,0,P|173:298|196:207,1,143.999995605469,0|2,3:0|0:0,0:0:0:0:
237,145,18615,6,0,P|299:155|375:171,1,107.999996704102,0|2,3:0|0:0,0:0:0:0:
386,178,19044,1,8,0:0:0:0:
455,127,19258,1,0,3:0:0:0:
438,41,19473,2,0,P|382:26|351:18,2,71.9999978027344,2|0|8,0:0|3:0|0:0,0:0:0:0:
455,127,20115,1,0,3:0:0:0:
384,177,20330,6,0,P|395:219|413:295,2,107.999996704102,0|10|10,3:0|0:0|0:0,0:0:0:0:
304,141,21187,2,0,P|291:88|277:36,2,107.999996704102,2|2|0,0:0|0:0|3:0,0:0:0:0:
281,224,22044,6,0,P|242:249|176:235,1,107.999996704102,6|2,3:2|0:0,0:0:0:0:
144,220,22473,1,10,0:0:0:0:
75,271,22687,1,0,3:0:0:0:
7,217,22901,1,2,0:0:0:0:
57,148,23115,2,0,P|51:106|43:62,1,71.9999978027344,2|10,0:0|0:0,0:0:0:0:
40,38,23437,1,0,0:0:0:0:
40,38,23544,1,0,3:0:0:0:
123,20,23758,6,0,P|159:56|218:50,1,107.999996704102,2|2,3:2|3:2,0:0:0:0:
249,29,24187,1,8,0:0:0:0:
310,89,24401,1,0,3:0:0:0:
380,37,24615,1,2,3:2:0:0:
380,37,24723,1,8,0:0:0:0:
380,37,24830,2,0,B|422:64|422:64|389:171,1,143.999995605469,0|0,3:0|3:0,0:0:0:0:
438,228,25473,6,0,P|404:242|345:224,1,71.9999978027344,0|2,3:2|0:0,0:0:0:0:
331,219,25794,1,2,0:0:0:0:
331,219,25901,1,8,0:0:0:0:
262,271,26115,2,0,P|214:295|132:265,1,143.999995605469,0|0,3:0|3:0,0:0:0:0:
71,204,26758,2,0,L|87:165,2,35.9999989013672,8|0|0,0:0|0:0|3:0,0:0:0:0:
13,269,27187,5,10,0:0:0:0:
13,269,27294,1,8,0:0:0:0:
13,269,27401,2,0,P|21:308|32:359,2,71.9999978027344,0|2|8,3:0|3:2|0:0,0:0:0:0:
71,204,28044,2,0,B|126:183|126:183|154:197|154:197|215:178,1,143.999995605469,10|8,0:0|0:0,0:0:0:0:
249,106,28687,1,0,3:0:0:0:
315,161,28901,6,0,P|323:212|336:288,1,107.999996704102,6|0,3:2|3:0,0:0:0:0:
342,310,29330,1,10,0:0:0:0:
420,346,29544,1,0,3:2:0:0:
466,273,29758,2,0,P|480:234|471:191,2,71.9999978027344,2|0|10,0:0|3:0|0:0,0:0:0:0:
420,346,30401,1,2,3:2:0:0:
342,310,30615,6,0,P|292:323|225:340,1,107.999996704102,2|2,3:2|0:0,0:0:0:0:
195,347,31044,1,10,3:2:0:0:
130,289,31258,1,2,0:0:0:0:
68,350,31473,2,0,P|45:311|51:268,1,71.9999978027344,2|0,0:0|3:2,0:0:0:0:
3,209,31901,2,0,P|25:169|65:153,1,71.9999978027344,8|0,0:0|3:2,0:0:0:0:
124,197,32330,6,0,P|171:187|243:173,1,107.999996704102,2|2,3:2|0:0,0:0:0:0:
271,163,32758,1,10,0:0:0:0:
334,222,32973,1,2,3:2:0:0:
407,175,33187,2,0,P|423:214|416:257,2,71.9999978027344,2|2|10,0:0|3:2|0:0,0:0:0:0:
360,102,33830,1,0,3:0:0:0:
439,67,34044,6,0,P|396:59|303:45,1,107.999996704102,2|2,3:2|0:0,0:0:0:0:
289,42,34473,2,0,P|273:85|259:126,1,71.9999978027344,10|2,0:2|0:0,0:0:0:0:
229,188,34901,1,2,3:2:0:0:
147,216,35115,1,0,3:0:0:0:
89,150,35330,2,0,P|32:150|-4:192,1,107.999996704102,8|0,0:0|0:0,0:0:0:0:
0,228,35758,6,0,P|11:270|27:335,1,107.999996704102,6|0,3:2|0:0,0:0:0:0:
41,373,36187,1,10,0:0:0:0:
113,326,36401,1,0,3:0:0:0:
188,367,36615,1,2,0:0:0:0:
250,307,36830,2,0,P|246:271|241:227,1,71.9999978027344,0|10,3:0|0:0,0:0:0:0:
236,192,37151,1,0,0:0:0:0:
236,192,37258,1,0,3:0:0:0:
180,125,37473,6,0,B|130:135|130:135|119:149|119:149|57:164,1,107.999996704102,2|2,3:2|0:0,0:0:0:0:
39,169,37901,1,10,0:2:0:0:
1,91,38115,1,0,3:2:0:0:
62,30,38330,1,2,0:0:0:0:
62,30,38437,1,0,3:0:0:0:
62,30,38544,2,0,P|136:4|210:43,1,143.999995605469,0|0,3:0|3:0,0:0:0:0:
260,82,39187,6,0,P|316:69|356:61,1,71.9999978027344,2|2,3:2|0:0,0:0:0:0:
374,56,39508,1,2,3:2:0:0:
374,56,39615,1,10,0:0:0:0:
452,19,39830,2,0,P|402:72|422:157,1,143.999995605469,2|2,3:2|3:2,0:0:0:0:
447,215,40473,2,0,L|494:203,2,35.9999989013672,10|0|0,0:0|0:0|3:0,0:0:0:0:
402,288,40901,6,0,P|363:316|301:304,1,107.999996704102,2|8,3:2|0:0,0:0:0:0:
267,288,41330,2,0,P|214:302|177:314,1,71.9999978027344,0|8,3:0|0:0,0:0:0:0:
120,267,41758,2,0,P|129:223|140:178,1,71.9999978027344,0|8,3:0|0:0,0:0:0:0:
173,173,42080,1,8,0:0:0:0:
173,173,42187,2,0,P|164:137|157:102,1,71.9999978027344,12|8,0:0|0:0,0:0:0:0:
73,88,42615,6,0,B|149:25|264:74|191:107|325:151|389:85,1,335.999989746094,6|0,3:2|3:0,0:0:0:0:
309,21,44330,6,0,P|272:172|409:247,1,335.999989746094,8|8,0:0|0:0,0:0:0:0:
495,195,46044,6,0,B|443:234|372:208|372:208|357:233|336:264|336:264|266:229|200:281,1,335.999989746094,0|0,3:0|3:0,0:0:0:0:
185,298,47651,1,0,3:0:0:0:
185,298,47758,6,0,P|160:154|143:55,1,239.999992675781,8|8,0:0|0:0,0:0:0:0:
144,61,49258,1,8,0:0:0:0:
79,128,49473,6,0,B|111:166|167:163|196:141|196:141|212:181|239:207|239:207|271:132|346:135,1,335.999989746094,0|0,3:0|3:0,0:0:0:0:
337,232,51187,6,0,B|351:278|397:295|397:295|465:234|423:143,1,239.999992675781,8|0,0:0|3:0,0:0:0:0:
404,80,52473,1,8,0:0:0:0:
289,19,52901,6,0,P|239:30|176:47,1,95.9999970703126,0|8,3:0|0:0,0:0:0:0:
56,144,53973,1,8,0:0:0:0:
56,144,54080,1,8,0:0:0:0:
56,144,54187,2,0,P|106:165|107:184,1,71.9999978027344,0|0,3:0|0:0,0:0:0:0:
119,219,54615,6,0,L|150:223,2,31.9999990234375,8|0|0,0:0|0:0|0:0,0:0:0:0:
188,260,55044,2,0,L|219:255,2,31.9999990234375
259,222,55473,2,0,L|290:226,2,31.9999990234375
330,258,55901,1,8,0:0:0:0:
330,258,56330,6,0,B|385:217|385:217|344:104,1,176.000005371094,6|10,3:2|0:0,0:0:0:0:
274,68,56973,1,0,3:0:0:0:
274,68,57080,1,0,0:0:0:0:
274,68,57187,2,0,L|292:6,2,44.0000013427735,2|2|2,3:2|0:0|3:2,0:0:0:0:
245,169,57615,1,10,0:0:0:0:
159,106,57830,6,0,P|101:98|36:205,1,176.000005371094,2|0,3:2|3:2,0:0:0:0:
14,285,58473,1,10,0:2:0:0:
97,350,58687,1,2,3:2:0:0:
180,285,58901,1,8,0:0:0:0:
180,285,59008,1,0,3:0:0:0:
180,285,59115,1,0,3:0:0:0:
180,285,59223,1,0,0:0:0:0:
180,285,59330,2,0,P|224:292|286:302,1,88.000002685547,10|2,0:2|3:2,0:0:0:0:
359,248,59758,6,0,P|317:204|270:196,1,88.000002685547,6|2,3:2|0:0,0:0:0:0:
292,90,60187,2,0,P|232:104|202:141,1,88.000002685547,10|0,0:0|3:0,0:0:0:0:
150,206,60615,1,2,3:2:0:0:
150,206,60723,1,2,0:0:0:0:
150,206,60830,1,2,3:2:0:0:
150,206,60937,1,2,0:0:0:0:
150,206,61044,2,0,L|123:103,1,88.000002685547,10|2,0:0|3:2,0:0:0:0:
50,49,61473,5,2,3:2:0:0:
151,24,61687,1,2,0:0:0:0:
238,77,61901,2,0,P|278:95|331:82,1,88.000002685547,10|0,0:0|3:0,0:0:0:0:
390,9,62330,1,2,3:2:0:0:
390,9,62437,2,0,P|424:57|423:111,1,88.000002685547,0|0,3:0|3:0,0:0:0:0:
407,133,62758,2,0,L|416:175,2,44.0000013427735,8|8|0,0:0|0:0|3:0,0:0:0:0:
502,200,63187,6,0,P|469:246|351:233,1,176.000005371094,6|10,3:2|0:0,0:0:0:0:
282,167,63830,1,0,3:0:0:0:
208,242,64044,1,2,3:2:0:0:
208,242,64151,1,2,3:2:0:0:
208,242,64258,2,0,L|225:304,2,44.0000013427735,2|2|10,3:2|0:0|0:0,0:0:0:0:
157,153,64687,6,0,P|113:207|146:319,1,176.000005371094,2|0,3:2|3:2,0:0:0:0:
207,380,65330,1,10,0:2:0:0:
286,311,65544,1,2,3:2:0:0:
223,254,65758,1,10,0:0:0:0:
223,254,65865,1,0,3:0:0:0:
223,254,65973,1,0,3:0:0:0:
223,254,66080,1,0,0:0:0:0:
223,254,66187,2,0,L|245:153,1,88.000002685547,10|0,0:0|3:2,0:0:0:0:
303,82,66615,6,0,P|345:133|345:183,1,88.000002685547,2|2,3:2|0:0,0:0:0:0:
453,165,67044,2,0,P|429:226|386:251,1,88.000002685547,10|0,0:0|3:2,0:0:0:0:
334,308,67473,1,2,3:2:0:0:
334,308,67580,1,2,3:2:0:0:
334,308,67687,1,2,3:2:0:0:
334,308,67794,1,2,0:0:0:0:
334,308,67901,2,0,P|292:316|241:328,1,88.000002685547,10|2,0:0|3:2,0:0:0:0:
129,233,68330,5,12,0:0:0:0:
203,158,68544,1,2,3:2:0:0:
129,82,68758,2,0,P|68:97|18:110,1,88.000002685547,12|2,0:0|3:2,0:0:0:0:
203,158,69187,2,0,P|245:147|288:136,1,88.000002685547,12|2,0:0|3:2,0:0:0:0:
337,118,69508,1,8,0:0:0:0:
337,118,69615,1,10,0:0:0:0:
412,192,69830,1,10,0:0:0:0:
352,299,70044,6,0,B|313:276|246:288|272:316|202:328|160:284,1,176.000005371094,6|10,3:2|0:0,0:0:0:0:
93,243,70687,1,2,3:2:0:0:
14,313,70901,1,2,3:2:0:0:
14,313,71008,1,2,3:2:0:0:
14,313,71115,2,0,L|29:384,2,44.0000013427735,2|2|10,3:2|0:0|0:0,0:0:0:0:
93,243,71544,6,0,P|161:267|242:193,1,176.000005371094,2|2,3:2|3:2,0:0:0:0:
287,115,72187,1,10,0:2:0:0:
211,41,72401,1,2,3:2:0:0:
125,103,72615,1,8,0:0:0:0:
125,103,72723,1,0,3:0:0:0:
125,103,72830,1,0,3:0:0:0:
125,103,72937,1,0,0:0:0:0:
125,103,73044,2,0,P|57:93|0:86,1,88.000002685547,10|2,0:0|3:2,0:0:0:0:
211,41,73473,6,0,P|218:82|226:129,1,88.000002685547,6|2,3:2|0:0,0:0:0:0:
330,145,73901,2,0,P|323:186|315:233,1,88.000002685547,10|0,0:0|3:0,0:0:0:0:
238,304,74330,1,2,3:2:0:0:
238,304,74437,1,2,0:0:0:0:
238,304,74544,1,2,3:2:0:0:
238,304,74651,1,2,0:0:0:0:
238,304,74758,2,0,P|199:279|146:284,1,88.000002685547,10|2,0:0|3:2,0:0:0:0:
74,344,75187,5,2,3:2:0:0:
3,265,75401,1,2,0:0:0:0:
77,190,75615,2,0,P|94:142|82:96,1,88.000002685547,10|2,0:0|0:0,0:0:0:0:
16,35,76044,1,2,3:2:0:0:
16,35,76151,2,0,L|120:15,1,88.000002685547,0|0,3:0|3:0,0:0:0:0:
148,43,76473,2,0,L|204:57,2,44.0000013427735,8|8|0,0:0|0:0|3:0,0:0:0:0:
258,0,76901,6,0,B|304:46|304:46|233:176,1,176.000005371094,6|10,3:2|0:0,0:0:0:0:
161,199,77544,1,2,3:2:0:0:
219,286,77758,1,2,3:2:0:0:
219,286,77865,1,2,3:2:0:0:
219,286,77973,2,0,L|199:356,2,44.0000013427735,2|0|10,3:2|3:0|0:0,0:0:0:0:
307,228,78401,6,0,B|351:203|413:223|379:241|454:259|494:227,1,176.000005371094,2|2,3:2|3:2,0:0:0:0:
441,136,79044,1,10,0:2:0:0:
511,57,79258,1,2,3:2:0:0:
418,7,79473,1,8,0:0:0:0:
418,7,79580,1,0,3:0:0:0:
418,7,79687,1,0,3:0:0:0:
418,7,79794,1,0,0:0:0:0:
418,7,79901,2,0,L|303:34,1,88.000002685547,10|0,0:0|3:0,0:0:0:0:
281,120,80330,6,0,P|212:100|107:76,1,176.000005371094,6|10,3:2|0:0,0:0:0:0:
23,136,80973,1,0,3:0:0:0:
94,214,81187,1,2,3:2:0:0:
94,214,81294,1,2,3:2:0:0:
94,214,81401,1,2,3:2:0:0:
18,288,81615,2,0,P|-3:348|8:396,1,88.000002685547,10|2,0:0|3:2,0:0:0:0:
111,360,82044,5,8,0:0:0:0:
111,360,82151,1,8,0:0:0:0:
111,360,82258,1,2,3:2:0:0:
185,285,82473,2,0,P|238:295|297:307,1,88.000002685547,8|2,0:0|0:2,0:0:0:0:
349,229,82901,1,10,0:0:0:0:
281,148,83115,1,0,3:0:0:0:
281,148,83223,1,0,3:0:0:0:
281,148,83330,2,0,P|268:97|296:38,1,88.000002685547,10|0,0:0|3:2,0:0:0:0:
373,105,83758,5,6,3:2:0:0:
373,105,84830,2,0,P|387:169|401:228,2,107.999996704102,6|6|6,3:2|3:2|3:2,0:0:0:0:
204,121,86544,2,0,P|216:68|228:15,2,107.999996704102,6|6|6,3:2|3:2|3:2,0:0:0:0:
35,105,88258,2,0,P|47:157|59:210,2,107.999996704102,6|6|6,3:2|3:2|3:2,0:0:0:0:
86,35,89115,6,0,L|134:51,3,35.9999989013672,8|8|2|2,0:0|0:0|0:0|0:0,0:0:0:0:
146,80,89544,2,0,L|194:64,3,35.9999989013672,8|8|10|10,0:0|0:0|0:0|0:0,0:0:0:0:
215,44,89973,2,0,L|249:55,3,35.9999989013672,12|10|10|14,0:0|0:0|0:0|0:0,0:0:0:0:
274,90,90401,1,10,0:0:0:0:
350,49,90615,6,0,P|356:93|367:170,1,107.999996704102,6|8,3:2|0:0,0:0:0:0:
373,198,91044,1,0,3:0:0:0:
437,254,91258,1,8,0:0:0:0:
384,323,91473,1,0,3:0:0:0:
384,323,91580,1,0,0:0:0:0:
384,323,91687,2,0,P|333:312|319:309,2,35.9999989013672,8|8|0,0:0|0:0|3:0,0:0:0:0:
437,254,92115,1,4,0:0:0:0:
373,198,92330,6,0,P|358:145|392:74,1,107.999996704102,0|8,3:0|0:0,0:0:0:0:
396,61,92758,1,0,3:0:0:0:
325,11,92973,1,8,0:0:0:0:
260,69,93187,2,0,P|225:78|190:87,1,71.9999978027344,0|8,3:0|0:0,0:0:0:0:
149,103,93508,1,8,0:0:0:0:
149,103,93615,1,0,3:0:0:0:
88,40,93830,1,8,0:0:0:0:
42,140,94044,6,0,P|53:182|71:258,1,107.999996704102,0|8,3:2|0:0,0:0:0:0:
83,285,94473,1,0,3:0:0:0:
156,238,94687,1,8,0:0:0:0:
225,289,94901,2,0,P|266:306|304:298,1,71.9999978027344,0|8,3:0|0:0,0:0:0:0:
333,285,95223,1,8,0:0:0:0:
333,285,95330,2,0,L|346:340,2,35.9999989013672,0|2|12,3:0|0:0|0:0,0:0:0:0:
273,217,95758,6,0,P|286:169|304:100,1,107.999996704102,0|8,3:2|0:0,0:0:0:0:
340,94,96187,1,2,3:2:0:0:
399,156,96401,1,2,0:2:0:0:
477,120,96615,2,0,L|463:63,3,35.9999989013672,2|8|8|8,3:2|0:0|0:0|0:0,0:0:0:0:
487,45,97044,2,0,L|495:10,3,35.9999989013672,2|8|8|8,3:2|0:0|0:0|0:0,0:0:0:0:
453,1,97473,6,0,P|409:10|334:25,1,107.999996704102,6|8,3:2|0:0,0:0:0:0:
312,1,97901,1,0,3:0:0:0:
260,70,98115,1,8,0:0:0:0:
317,147,98330,1,0,3:0:0:0:
317,147,98437,1,0,0:0:0:0:
317,147,98544,2,0,B|303:209,2,35.9999989013672,8|8|0,0:0|0:0|3:0,0:0:0:0:
260,70,98973,1,4,0:0:0:0:
191,123,99187,6,0,P|157:137|85:110,1,107.999996704102,0|8,3:0|0:0,0:0:0:0:
57,89,99615,1,0,3:0:0:0:
115,25,99830,1,8,0:0:0:0:
198,72,100044,1,0,3:0:0:0:
198,72,100151,1,0,0:0:0:0:
198,72,100258,2,0,P|256:62|343:49,1,143.999995605469,8|4,0:0|0:0,0:0:0:0:
425,32,100901,6,0,P|420:67|415:103,1,71.9999978027344,0|0,3:0|0:0,0:0:0:0:
413,149,101223,1,8,0:0:0:0:
413,149,101330,1,0,3:0:0:0:
482,200,101544,2,0,P|433:236|342:203,1,143.999995605469,8|8,0:0|0:0,0:0:0:0:
326,194,102080,1,8,0:0:0:0:
326,194,102187,2,0,L|312:141,2,35.9999989013672,0|8|4,3:0|0:0|0:0,0:0:0:0:
260,250,102615,6,0,P|213:275|158:261,1,107.999996704102,0|8,3:0|0:0,0:0:0:0:
126,238,103044,2,0,P|136:194|144:157,1,71.9999978027344,2|4,3:2|2:2,0:0:0:0:
207,112,103473,2,0,L|200:63,3,35.9999989013672,0|8|10|8,3:0|0:0|0:0|0:0,0:0:0:0:
194,32,103901,2,0,P|145:38|70:48,1,107.999996704102,2|0,3:3|0:0,0:0:0:0:
44,54,104330,6,0,P|9:97|29:167,1,107.999996704102,6|8,3:2|0:0,0:0:0:0:
32,185,104758,1,0,3:2:0:0:
104,232,104973,1,10,0:0:0:0:
169,175,105187,2,0,P|202:162|237:167,2,71.9999978027344,0|8|0,3:0|0:0|3:0,0:0:0:0:
104,232,105830,1,14,0:0:0:0:
160,297,106044,6,0,P|213:288|292:277,1,107.999996704102,0|8,3:2|0:0,0:0:0:0:
309,273,106473,1,0,3:0:0:0:
380,321,106687,1,8,0:0:0:0:
437,257,106901,2,0,P|452:213|445:177,1,71.9999978027344,0|8,3:0|0:0,0:0:0:0:
425,151,107223,1,8,0:0:0:0:
425,151,107330,2,0,P|410:107|417:71,1,71.9999978027344,0|10,3:0|0:0,0:0:0:0:
512,11,107758,6,0,P|458:5|372:-5,1,107.999996704102,2|8,3:2|0:0,0:0:0:0:
361,2,108187,1,0,3:0:0:0:
302,65,108401,1,10,0:0:0:0:
226,22,108615,2,0,L|148:32,2,71.9999978027344,0|8|0,3:2|0:0|3:0,0:0:0:0:
302,65,109258,1,14,0:0:0:0:
242,127,109473,6,0,P|208:176|218:235,1,107.999996704102,0|8,3:0|0:0,0:0:0:0:
242,253,109901,2,0,L|223:322,1,71.9999978027344,0|8,3:0|0:0,0:0:0:0:
144,359,110330,2,0,L|129:307,3,35.9999989013672,0|8|8|8,3:0|0:0|0:0|0:0,0:0:0:0:
96,302,110758,2,0,L|111:250,3,35.9999989013672,0|8|8|8,3:0|0:0|0:0|0:0,0:0:0:0:
139,239,111187,6,0,P|164:190|135:116,1,107.999996704102,6|8,3:2|0:0,0:0:0:0:
128,105,111615,1,0,3:0:0:0:
191,45,111830,1,10,0:0:0:0:
260,96,112044,1,0,3:0:0:0:
326,40,112258,1,8,0:0:0:0:
326,40,112365,1,8,0:0:0:0:
326,40,112473,2,0,L|388:52,2,35.9999989013672,0|2|12,3:0|0:0|0:0,0:0:0:0:
443,16,112901,6,0,P|408:51|427:128,1,107.999996704102,0|8,3:0|0:0,0:0:0:0:
431,144,113330,1,0,3:0:0:0:
368,202,113544,1,10,0:0:0:0:
442,263,113758,1,0,3:0:0:0:
442,263,113865,1,0,0:0:0:0:
442,263,113973,2,0,P|382:264|286:277,1,143.999995605469,8|12,0:0|0:0,0:0:0:0:
232,330,114615,6,0,P|216:284|218:249,1,71.9999978027344,0|0,3:0|0:0,0:0:0:0:
226,221,114937,1,8,0:0:0:0:
226,221,115044,1,0,3:0:0:0:
295,169,115258,2,0,P|322:108|282:30,1,143.999995605469,2|8,0:0|0:0,0:0:0:0:
214,5,115901,2,0,L|160:20,2,35.9999989013672,0|2|12,3:0|0:0|0:0,0:0:0:0:
90,17,116330,6,0,P|99:72|110:145,1,107.999996704102,2|0,3:2|0:0,0:0:0:0:
135,155,116758,2,0,P|121:187|105:245,1,71.9999978027344,0|14,3:0|0:0,0:0:0:0:
53,287,117187,2,0,P|87:297|120:311,1,71.9999978027344,0|12,3:0|0:0,0:0:0:0:
158,332,117508,1,8,0:0:0:0:
158,332,117615,1,0,3:0:0:0:
225,277,117830,1,12,0:0:0:0:
296,337,118044,6,0,B|350:325|393:352|393:352|388:272|388:272|441:267|465:224,1,256,6|6,3:2|0:0,0:0:0:0:
387,182,119115,2,0,P|325:157|276:183,1,96,0|0,3:0|3:0,0:0:0:0:
299,164,119758,6,0,B|161:129|200:232|43:183,1,256,2|0,3:2|0:0,0:0:0:0:
0,115,120830,2,0,P|48:94|105:113,1,96,0|0,3:0|3:0,0:0:0:0:
89,102,121473,6,0,B|114:188|82:260|82:260|121:219|172:211,1,256,0|0,3:0|0:0,0:0:0:0:
165,310,122544,2,0,P|205:333|251:324,1,96,0|0,3:0|3:0,0:0:0:0:
251,324,123187,6,0,B|224:237|197:154|197:154|236:189|291:193,1,256,0|2,3:0|0:0,0:0:0:0:
273,91,124258,2,0,P|330:67|376:85,1,96,0|0,3:0|3:0,0:0:0:0:
360,75,124901,6,0,B|429:138|400:241|400:241|334:230|318:145,1,287.999991210938,6|12,3:2|0:0,0:0:0:0:
266,111,125973,2,0,P|223:121|167:135,1,71.9999978027344,0|0,3:0|0:0,0:0:0:0:
154,139,126294,1,0,3:0:0:0:
154,139,126615,6,0,B|173:197|122:229|122:229|142:258|142:258|81:295|81:360|110:403,1,287.999991210938,0|2,3:0|0:0,0:0:0:0:
178,342,127687,2,0,P|222:359|266:344,1,71.9999978027344,0|0,3:0|0:0,0:0:0:0:
285,340,128008,1,0,3:0:0:0:
285,340,128330,6,0,P|319:280|284:204,1,143.999995605469,0|8,3:0|0:0,0:0:0:0:
295,213,129187,2,0,P|257:205|229:200,2,35.9999989013672,0|8|0,3:0|0:0|3:0,0:0:0:0:
362,159,129615,1,8,0:0:0:0:
426,216,129830,1,0,3:0:0:0:
498,169,130044,5,0,0:0:0:0:
498,169,131758,6,0,P|492:144|485:112,3,32,10|2|10|8,0:0|0:0|0:0|0:0,0:0:0:0:
455,122,132187,2,0,P|451:106|448:90,3,32,8|2|2|0,0:3|0:0|0:0|0:0,0:0:0:0:
417,67,132615,1,10,0:0:0:0:
354,112,132830,1,2,0:0:0:0:
293,65,133044,2,0,P|253:58|217:65,1,64,2|10,0:0|0:0,0:0:0:0:
140,4,133473,6,0,P|97:42|126:158,1,176.000005371094,6|10,3:2|0:0,0:0:0:0:
203,223,134115,1,0,3:0:0:0:
203,223,134223,1,0,0:0:0:0:
203,223,134330,2,0,L|221:161,2,44.0000013427735,2|2|2,3:2|0:0|3:2,0:0:0:0:
172,323,134758,1,10,0:0:0:0:
268,366,134973,6,0,P|354:350|440:333,1,176.000005371094,2|0,3:2|3:2,0:0:0:0:
489,239,135615,1,10,0:2:0:0:
417,163,135830,1,2,3:2:0:0:
445,73,136044,1,8,0:0:0:0:
445,73,136151,1,0,3:0:0:0:
445,73,136258,1,0,3:0:0:0:
445,73,136365,1,0,0:0:0:0:
445,73,136473,2,0,P|401:66|358:86,1,88.000002685547,10|0,0:0|3:0,0:0:0:0:
293,177,136901,6,0,P|282:128|266:62,1,88.000002685547,6|2,3:2|0:0,0:0:0:0:
188,27,137330,2,0,P|177:69|168:112,1,88.000002685547,10|0,0:0|3:0,0:0:0:0:
96,187,137758,1,2,3:2:0:0:
96,187,137865,1,2,0:0:0:0:
96,187,137973,1,2,3:2:0:0:
96,187,138080,1,2,0:0:0:0:
96,187,138187,2,0,P|132:214|208:201,1,88.000002685547,10|2,0:0|3:2,0:0:0:0:
269,173,138615,5,2,3:2:0:0:
212,83,138830,1,2,0:0:0:0:
291,13,139044,2,0,P|331:-5|384:8,1,88.000002685547,10|0,0:0|3:0,0:0:0:0:
441,82,139473,1,2,3:2:0:0:
441,82,139580,2,0,P|453:130|468:189,1,88.000002685547,0|0,3:0|3:0,0:0:0:0:
437,213,139901,2,0,L|428:255,2,44.0000013427735,8|8|0,0:0|0:0|3:0,0:0:0:0:
507,296,140330,6,0,P|466:335|352:302,1,176.000005371094,6|10,3:2|0:0,0:0:0:0:
297,225,140973,1,0,3:0:0:0:
212,283,141187,1,2,3:2:0:0:
212,283,141294,1,2,3:2:0:0:
212,283,141401,2,0,L|229:345,2,44.0000013427735,2|2|10,3:2|0:0|0:0,0:0:0:0:
106,269,141830,6,0,P|83:186|131:116,1,176.000005371094,2|0,3:2|3:2,0:0:0:0:
221,62,142473,1,10,0:2:0:0:
300,124,142687,1,2,3:2:0:0:
389,64,142901,1,10,0:0:0:0:
389,64,143008,1,0,3:0:0:0:
389,64,143115,1,0,3:0:0:0:
389,64,143223,1,0,0:0:0:0:
389,64,143330,2,0,B|436:56|436:56|487:90,1,88.000002685547,10|0,0:0|3:0,0:0:0:0:
459,189,143758,6,0,P|416:195|356:206,1,88.000002685547,2|2,3:2|0:0,0:0:0:0:
300,124,144187,2,0,P|257:118|197:107,1,88.000002685547,10|0,0:0|3:0,0:0:0:0:
133,170,144615,1,2,3:2:0:0:
133,170,144723,1,2,3:2:0:0:
133,170,144830,1,2,3:2:0:0:
133,170,144937,1,2,0:0:0:0:
133,170,145044,2,0,P|111:121|125:62,1,88.000002685547,10|2,0:0|3:2,0:0:0:0:
245,30,145473,5,12,0:0:0:0:
300,124,145687,1,2,3:2:0:0:
412,60,145901,2,0,P|403:100|391:154,1,88.000002685547,12|2,0:0|3:2,0:0:0:0:
260,258,146330,2,0,P|271:216|282:173,1,88.000002685547,12|2,0:0|3:2,0:0:0:0:
300,124,146651,1,8,0:0:0:0:
300,124,146758,1,10,0:0:0:0:
245,30,146973,1,10,0:0:0:0:
173,107,147187,6,0,B|134:84|67:96|93:124|23:136|-19:92,1,176.000005371094,6|10,3:2|0:0,0:0:0:0:
44,206,147830,1,2,3:2:0:0:
0,297,148044,1,2,3:2:0:0:
0,297,148151,1,2,3:2:0:0:
0,297,148258,2,0,L|15:368,2,44.0000013427735,2|2|10,3:2|0:0|0:0,0:0:0:0:
67,215,148687,6,0,B|129:231|129:231|164:205|164:205|237:229,1,176.000005371094,2|2,3:2|3:2,0:0:0:0:
312,161,149330,1,10,0:2:0:0:
245,79,149544,1,2,3:2:0:0:
337,22,149758,1,8,0:0:0:0:
337,22,149865,1,0,3:0:0:0:
337,22,149973,1,0,3:0:0:0:
337,22,150080,1,0,0:0:0:0:
337,22,150187,2,0,P|380:27|424:34,1,88.000002685547,10|2,0:0|3:0,0:0:0:0:
488,123,150615,6,0,P|481:164|473:211,1,88.000002685547,6|2,3:2|0:0,0:0:0:0:
377,303,151044,2,0,P|369:259|362:216,1,88.000002685547,10|0,0:0|3:0,0:0:0:0:
349,128,151473,1,2,3:2:0:0:
349,128,151580,1,2,0:0:0:0:
349,128,151687,1,2,3:2:0:0:
349,128,151794,1,2,0:0:0:0:
349,128,151901,2,0,P|310:103|257:108,1,88.000002685547,10|2,0:0|3:2,0:0:0:0:
191,175,152330,5,2,3:2:0:0:
120,96,152544,1,2,0:0:0:0:
44,169,152758,2,0,P|54:211|65:257,1,88.000002685547,10|2,0:0|0:0,0:0:0:0:
139,336,153187,1,2,3:2:0:0:
139,336,153294,2,0,L|243:316,1,88.000002685547,0|0,3:2|3:0,0:0:0:0:
271,344,153615,2,0,L|327:358,2,44.0000013427735,8|8|0,0:0|0:0|3:0,0:0:0:0:
386,292,154044,6,0,B|439:194|439:194|393:148,1,176.000005371094,6|10,3:2|0:0,0:0:0:0:
307,86,154687,1,2,3:2:0:0:
249,173,154901,1,2,3:2:0:0:
249,173,155008,1,2,3:2:0:0:
249,173,155115,2,0,L|261:215,2,44.0000013427735,2|2|10,3:2|0:0|0:0,0:0:0:0:
163,110,155544,6,0,P|98:98|27:184,1,176.000005371094,2|2,3:2|3:2,0:0:0:0:
10,277,156187,1,8,0:2:0:0:
108,238,156401,1,2,3:2:0:0:
184,338,156615,1,8,0:0:0:0:
184,338,156723,1,0,3:0:0:0:
184,338,156830,1,0,3:0:0:0:
184,338,156937,1,0,0:0:0:0:
184,338,157044,2,0,L|269:317,1,88.000002685547,10|0,0:0|3:0,0:0:0:0:
362,368,157473,6,0,P|396:283|346:215,1,176.000005371094,6|10,3:2|0:0,0:0:0:0:
260,166,158115,1,0,3:0:0:0:
189,244,158330,1,2,3:2:0:0:
189,244,158437,1,2,3:2:0:0:
189,244,158544,1,2,3:2:0:0:
104,181,158758,2,0,P|104:137|122:97,1,88.000002685547,10|2,0:0|3:2,0:0:0:0:
202,27,159187,5,8,0:0:0:0:
202,27,159294,1,8,0:0:0:0:
202,27,159401,1,2,3:2:0:0:
276,102,159615,2,0,P|329:92|388:80,1,88.000002685547,8|2,0:0|0:2,0:0:0:0:
440,158,160044,1,10,0:0:0:0:
372,239,160258,1,0,3:0:0:0:
372,239,160365,1,0,3:0:0:0:
372,239,160473,2,0,B|357:282|357:282|385:348,1,88.000002685547,12|0,0:0|3:0,0:0:0:0:
440,158,160901,6,0,P|369:147|249:129,1,176.000005371094,6|10,3:2|0:2,0:0:0:0:
187,202,161544,1,0,3:2:0:0:
127,128,161758,1,2,3:2:0:0:
127,128,161865,1,2,0:0:0:0:
127,128,161973,2,0,P|120:73|154:29,1,88.000002685547,2|10,3:2|0:0,0:0:0:0:
232,4,162401,6,0,B|272:-4|332:1|299:60|365:66|402:55,1,176.000005371094,2|0,3:2|3:0,0:0:0:0:
491,24,163044,1,10,0:0:0:0:
455,123,163258,1,0,3:0:0:0:
512,216,163473,2,0,P|468:221|405:229,1,88.000002685547,2|0,0:0|3:0,0:0:0:0:
375,238,163794,1,2,0:0:0:0:
375,238,163901,1,8,0:0:0:0:
293,170,164115,1,0,3:0:0:0:
212,238,164330,6,0,P|135:276|57:243,1,176.000005371094,2|10,3:2|0:0,0:0:0:0:
1,158,164973,1,0,3:0:0:0:
90,98,165187,1,2,3:2:0:0:
90,98,165294,1,2,0:0:0:0:
90,98,165401,2,0,B|114:136|114:136|101:202,1,88.000002685547,2|10,3:2|0:0,0:0:0:0:
39,274,165830,6,0,P|124:253|211:237,1,176.000005371094,0|2,3:0|0:0,0:0:0:0:
296,300,166473,1,10,0:0:0:0:
368,222,166687,1,0,3:0:0:0:
303,138,166901,2,0,P|285:93|306:43,1,88.000002685547,0|0,3:0|0:0,0:0:0:0:
387,4,167330,2,0,L|443:14,2,44.0000013427735,8|8|0,0:0|0:0|3:0,0:0:0:0:
468,84,167758,6,0,B|452:149|452:149|465:185|465:185|440:272,1,176.000005371094,6|10,3:2|0:0,0:0:0:0:
370,327,168401,1,0,3:0:0:0:
296,251,168615,1,2,3:2:0:0:
296,251,168723,1,2,0:0:0:0:
296,251,168830,2,0,P|238:238|191:261,1,88.000002685547,2|10,3:2|0:0,0:0:0:0:
141,324,169258,6,0,B|194:280|194:280|159:163,1,176.000005371094,0|0,3:0|3:0,0:0:0:0:
88,101,169901,2,0,P|63:136|59:180,1,88.000002685547,10|0,0:0|3:0,0:0:0:0:
138,249,170330,2,0,L|180:238,3,44.0000013427735,2|2|2|2,0:0|0:0|3:2|0:0,0:0:0:0:
218,201,170758,2,0,P|267:213|313:226,1,88.000002685547,10|0,0:0|3:0,0:0:0:0:
349,318,171187,6,0,P|400:261|378:158,1,176.000005371094,2|10,3:2|0:0,0:0:0:0:
323,82,171830,1,0,3:0:0:0:
248,156,172044,1,2,3:2:0:0:
248,156,172151,1,2,0:0:0:0:
248,156,172258,1,2,3:2:0:0:
172,82,172473,2,0,P|122:64|67:84,1,88.000002685547,10|0,0:2|3:2,0:0:0:0:
14,145,172901,6,0,L|27:202,2,44.0000013427735,10|2|2,0:0|0:0|3:2,0:0:0:0:
103,244,173330,2,0,L|112:201,2,44.0000013427735,10|2|2,0:0|0:0|3:2,0:0:0:0:
192,145,173758,2,0,P|239:167|284:151,1,88.000002685547,10|2,0:0|3:2,0:0:0:0:
307,128,174080,1,8,0:0:0:0:
307,128,174187,2,0,P|316:171|330:235,1,88.000002685547,10|2,0:0|3:2,0:0:0:0:
386,294,174615,6,0,P|333:238|260:258,1,160,6|10,3:2|0:0,0:0:0:0:
193,327,175258,1,0,3:0:0:0:
118,266,175473,2,0,P|132:180|147:100,1,160,2|10,3:2|0:0,0:0:0:0:
72,45,176115,6,0,P|140:11|226:60,1,160,2|0,3:2|3:2,0:0:0:0:
309,43,176758,2,0,P|301:82|295:121,1,80,10|0,0:2|3:2,0:0:0:0:
220,181,177187,1,2,0:0:0:0:
220,181,177294,2,0,P|227:220|233:259,1,80,0|0,3:0|3:0,0:0:0:0:
246,305,177615,2,0,P|281:322|322:310,1,80,10|0,0:0|3:0,0:0:0:0:
417,243,178044,6,0,B|447:141|447:141|420:164|384:191,1,160,2|10,3:2|0:0,0:0:0:0:
322,223,178687,1,0,3:0:0:0:
249,164,178901,1,2,3:2:0:0:
249,164,179008,1,0,3:0:0:0:
249,164,179115,1,2,3:2:0:0:
169,218,179330,2,0,P|149:171|162:119,1,80,10|0,0:0|3:0,0:0:0:0:
138,34,179758,6,0,P|175:47|218:51,1,80,2|2,3:2|0:0,0:0:0:0:
326,146,180187,2,0,P|286:149|248:163,1,80,10|2,0:2|3:2,0:0:0:0:
173,221,180615,1,2,3:2:0:0:
173,221,180723,2,0,P|181:261|191:315,1,80,0|0,3:0|3:0,0:0:0:0:
201,346,181044,2,0,L|141:362,2,40,10|8|0,0:0|0:0|3:0,0:0:0:0:
270,280,181473,6,0,P|331:233|404:258,1,160,6|10,3:2|0:0,0:0:0:0:
478,320,182115,1,0,3:0:0:0:
400,372,182330,1,2,3:2:0:0:
400,372,182437,1,0,3:0:0:0:
400,372,182544,1,2,3:2:0:0:
328,308,182758,1,10,0:0:0:0:
244,355,182973,6,0,P|165:340|86:326,1,160,2|0,3:2|3:2,0:0:0:0:
16,258,183615,2,0,P|46:233|85:228,1,80,10|0,0:2|3:2,0:0:0:0:
164,283,184044,1,2,0:0:0:0:
164,283,184151,1,0,3:0:0:0:
164,283,184258,1,0,3:0:0:0:
234,218,184473,2,0,B|244:172|244:172|221:130,1,80,10|0,0:0|3:0,0:0:0:0:
141,99,184901,6,0,P|197:47|274:58,1,160,6|10,3:2|0:0,0:0:0:0:
354,111,185544,1,0,3:0:0:0:
291,183,185758,1,2,3:2:0:0:
291,183,185865,1,0,3:0:0:0:
291,183,185973,1,2,3:2:0:0:
356,254,186187,2,0,P|374:289|371:328,1,80,10|0,0:0|3:0,0:0:0:0:
264,378,186615,6,0,P|205:364|138:365,1,120,4|2,3:0|0:0,0:0:0:0:
99,378,187044,6,0,B|77:326|68:253|141:273|156:198|143:129|143:129|130:187|96:208,1,335.999989746094,6|2,3:2|0:0,0:0:0:0:
356,254,202044,6,0,P|276:243|151:226,1,176.000005371094,6|10,3:2|0:0,0:0:0:0:
100,298,202687,1,2,3:2:0:0:
31,217,202901,1,2,3:2:0:0:
31,217,203008,1,2,3:2:0:0:
31,217,203115,2,0,L|48:148,2,44.0000013427735,2|2|10,3:2|0:0|0:0,0:0:0:0:
9,91,203544,6,0,P|64:82|114:75,1,88.000002685547,2|2,3:2|0:0,0:0:0:0:
134,41,203865,2,0,P|205:51|271:61,1,132.00000402832,8|10,0:0|0:2,0:0:0:0:
329,143,204401,1,2,3:2:0:0:
415,81,204615,1,8,0:0:0:0:
415,81,204723,1,0,3:0:0:0:
415,81,204830,2,0,P|438:132|427:195,1,88.000002685547,6|0,3:2|0:0,0:0:0:0:
466,207,205151,2,0,P|433:252|373:274,1,88.000002685547,6|0,3:2|0:0,0:0:0:0:
363,298,205473,6,0,B|324:248|257:270|257:270|260:312|316:327,2,176.000005371094,6|10|2,3:2|0:0|3:2,0:0:0:0:
449,234,206544,1,2,3:2:0:0:
449,234,206651,1,10,0:0:0:0:
449,234,206758,1,10,0:0:0:0:
371,161,206973,6,0,P|295:121|215:153,1,176.000005371094,2|2,3:2|0:0,0:0:0:0:
129,214,207615,2,0,P|113:179|114:127,1,88.000002685547,10|2,0:0|0:0,0:0:0:0:
176,44,208044,1,2,3:2:0:0:
176,44,208151,1,0,3:2:0:0:
176,44,208258,1,2,0:0:0:0:
260,107,208473,2,0,L|245:174,3,44.0000013427735,8|8|8|8,0:0|0:0|0:0|0:0,0:0:0:0:
237,201,208901,6,0,B|307:214|307:214|330:250|330:250|398:268,1,176.000005371094,6|10,3:2|0:0,0:0:0:0:
475,203,209544,1,2,3:2:0:0:
397,131,209758,1,2,3:2:0:0:
397,131,209865,1,0,3:0:0:0:
397,131,209973,2,0,L|381:190,2,44.0000013427735,2|0|10,3:2|3:0|0:0,0:0:0:0:
495,91,210401,6,0,P|466:47|323:46,1,176.000005371094,2|0,3:2|3:2,0:0:0:0:
245,26,211044,2,0,P|253:69|261:112,1,88.000002685547,10|2,0:2|3:2,0:0:0:0:
246,228,211473,1,8,0:0:0:0:
246,228,211580,1,0,3:0:0:0:
246,228,211687,1,0,3:0:0:0:
246,228,211794,1,0,0:0:0:0:
246,228,211901,2,0,P|284:203|339:213,1,88.000002685547,10|2,0:0|3:2,0:0:0:0:
421,162,212330,6,0,B|479:135|479:135|432:276,1,176.000005371094,6|10,3:2|0:0,0:0:0:0:
408,340,212973,1,0,3:2:0:0:
336,261,213187,1,2,3:2:0:0:
336,261,213294,1,2,3:2:0:0:
336,261,213401,1,2,3:2:0:0:
252,325,213615,2,0,P|197:337|142:313,1,88.000002685547,10|2,0:0|3:2,0:0:0:0:
82,265,214044,5,8,0:0:0:0:
82,265,214151,1,8,0:0:0:0:
82,265,214258,1,2,3:2:0:0:
158,191,214473,2,0,P|177:143|156:89,1,88.000002685547,8|2,0:0|0:2,0:0:0:0:
109,21,214901,1,10,0:0:0:0:
11,129,215115,1,0,3:0:0:0:
11,129,215223,1,8,0:0:0:0:
11,129,215330,2,0,P|57:135|120:143,1,88.000002685547,10|2,0:0|3:2,0:0:0:0:
184,79,215758,5,6,3:2:0:0:
184,79,216830,2,0,P|127:45|55:70,2,132.00000402832,6|6|6,3:2|3:2|3:2,0:0:0:0:
288,175,218544,2,0,P|345:141|417:166,2,132.00000402832,6|6|6,3:2|3:2|3:2,0:0:0:0:
184,271,220258,2,0,P|127:237|55:262,2,132.00000402832,6|6|6,3:2|3:2|3:2,0:0:0:0:
335,352,221973,2,0,P|346:276|359:197,2,132.00000402832,6|6|6,3:2|3:2|3:2,0:0:0:0:
238,306,222830,5,2,0:0:0:0:
238,306,222937,1,8,0:0:0:0:
238,306,223044,2,0,P|190:285|143:298,2,88.000002685547,2|8|0,3:2|0:2|3:0,0:0:0:0:
335,352,223687,2,0,L|483:332,1,132.00000402832,10|8,0:0|0:0,0:0:0:0:
512,326,224115,1,2,0:0:0:0:
449,240,224330,6,0,B|474:134|474:134|444:160|412:187,1,176.000005371094,2|0,3:2|3:0,0:0:0:0:
343,246,224973,1,8,0:0:0:0:
263,176,225187,1,2,3:2:0:0:
263,176,225294,1,0,0:0:0:0:
263,176,225401,2,0,P|201:187|125:202,1,132.00000402832,8|2,0:0|0:0,0:0:0:0:
81,211,225830,1,8,0:2:0:0:
11,131,226044,6,0,P|24:85|37:38,1,88.000002685547,6|2,3:2|0:0,0:0:0:0:
52,0,226365,1,8,0:2:0:0:
52,0,226473,2,0,P|103:2|138:34,2,88.000002685547,0|10|0,3:0|0:0|3:2,0:0:0:0:
19,102,227115,2,0,P|28:161|41:243,1,132.00000402832,10|2,0:0|0:0,0:0:0:0:
51,284,227544,1,2,0:0:0:0:
140,341,227758,5,6,3:2:0:0:
256,192,227865,12,2,229473,0:0:0:0:
