osu file format v14

[General]
AudioFilename: audio.mp3
AudioLeadIn: 0
PreviewTime: 48405
Countdown: 0
SampleSet: Soft
StackLeniency: 0.7
Mode: 0
LetterboxInBreaks: 0
WidescreenStoryboard: 1

[Editor]
Bookmarks: 20097,48969,81451,95887,124759,153631,182503,214984,247466,254684
DistanceSpacing: 1
BeatDivisor: 4
GridSize: 8
TimelineZoom: 2.710001

[Metadata]
Title:Gimmme!
TitleUnicode:Gimmme!
Artist:ORESAMA
ArtistUnicode:ORESAMA
Creator:kuuti
Version:Sweet Dreams
Source:魔王城でおやすみ
Tags:kudou chitose mrrrk hinae continew world maoujou de oyasumi sleepy princess in the demon castle ぽん pon 小島英也 kojima hideya anime ending ed jpop j pop japanese funk disco full version
BeatmapID:4439028
BeatmapSetID:2114113

[Difficulty]
HPDrainRate:5
CircleSize:3
OverallDifficulty:7.5
ApproachRate:8
SliderMultiplier:1.8
SliderTickRate:1

[Events]
//Background and Video events
0,0,"maoujou.jpg",0,0
//Break Periods
2,153821,166630
//Storyboard Layer 0 (Background)
//Storyboard Layer 1 (Fail)
//Storyboard Layer 2 (Pass)
//Storyboard Layer 3 (Foreground)
//Storyboard Layer 4 (Overlay)
//Storyboard Sound Samples

[TimingPoints]
238,451.127819548873,4,2,1,60,1,0
2493,-166.666666666667,4,2,1,60,0,0
3847,-166.666666666667,4,2,1,70,0,0
5200,-76.9230769230769,4,2,1,70,0,0
5651,-66.6666666666667,4,2,1,70,0,0
6102,-83.3333333333333,4,2,1,70,0,0
9260,-66.6666666666667,4,2,1,70,0,0
10613,-83.3333333333333,4,2,1,70,0,0
11065,-66.6666666666667,4,2,1,70,0,0
13320,-83.3333333333333,4,2,1,70,0,0
16478,-66.6666666666667,4,2,1,70,0,0
18283,-100,4,2,1,60,0,0
18734,-133.333333333333,4,2,1,60,0,0
19185,-100,4,2,1,60,0,0
19636,-666.666666666667,4,2,1,60,0,0
20087,-100,4,2,1,60,0,0
32719,-83.3333333333333,4,2,1,60,0,0
34523,-166.666666666667,4,2,1,70,0,0
35200,-166.666666666667,4,2,1,70,0,0
35425,-62.5,4,2,1,70,0,0
35764,-76.923076923077,4,2,1,70,0,0
36102,-166.666666666667,4,2,1,70,0,0
37230,-125,4,2,1,70,0,0
37907,-166.666666666667,4,2,1,70,0,0
39034,-100,4,2,1,70,0,0
39486,-76.9230769230769,4,2,1,70,0,0
39937,-142.857142857143,4,2,1,70,0,0
40839,-100,4,2,1,70,0,0
41065,-66.6666666666667,4,2,1,70,0,0
41516,-50,4,2,1,70,0,0
41741,-166.666666666667,4,2,1,70,0,0
42644,-125,4,2,1,70,0,0
42982,-50,4,2,1,70,0,0
43320,-166.666666666667,4,2,1,70,0,0
44448,-125,4,2,1,70,0,0
44786,-50,4,2,1,70,0,0
45125,-166.666666666667,4,2,1,60,0,0
45801,-166.666666666667,4,2,1,40,0,0
46253,-100,4,2,1,40,0,0
46704,-100,4,2,1,50,0,0
47155,-100,4,2,1,70,0,0
48508,-76.9230769230769,4,2,1,70,0,0
48959,-66.6666666666667,4,2,1,80,0,1
49410,-83.3333333333333,4,2,1,80,0,1
55726,-66.6666666666667,4,2,1,80,0,1
56177,-83.3333333333333,4,2,1,80,0,1
63395,-71.4285714285714,4,2,1,80,0,1
63847,-83.3333333333333,4,2,1,80,0,1
70162,-66.6666666666667,4,2,1,80,0,1
70613,-83.3333333333333,4,2,1,80,0,1
72418,-100,4,2,1,80,0,1
74222,-83.3333333333333,4,2,1,80,0,1
74899,-90.9090909090909,4,2,1,80,0,1
75801,-66.6666666666667,4,2,1,80,0,1
76253,-83.3333333333333,4,2,1,80,0,1
77831,-83.3333333333333,4,2,1,70,0,0
81441,-66.6666666666667,4,2,1,70,0,0
81892,-83.3333333333333,4,2,1,70,0,0
85050,-66.6666666666667,4,2,1,70,0,0
86403,-83.3333333333333,4,2,1,70,0,0
86854,-66.6666666666667,4,2,1,70,0,0
88659,-66.6666666666667,4,2,1,70,0,0
89110,-83.3333333333333,4,2,1,70,0,0
92268,-66.6666666666667,4,2,1,70,0,0
94072,-100,4,2,1,60,0,0
94523,-125,4,2,1,60,0,0
94974,-166.666666666667,4,2,1,60,0,0
95425,-125,4,2,1,60,0,0
95877,-76.9230769230769,4,2,1,60,0,0
96328,-111.111111111111,4,2,1,60,0,0
97681,-76.9230769230769,4,2,1,60,0,0
98132,-111.111111111111,4,2,1,60,0,0
99486,-83.3333333333333,4,2,1,60,0,0
99937,-111.111111111111,4,2,1,60,0,0
101290,-83.3333333333333,4,2,1,60,0,0
102192,-100,4,2,1,60,0,0
103095,-83.3333333333333,4,2,1,60,0,0
103546,-111.111111111111,4,2,1,60,0,0
104899,-83.3333333333333,4,2,1,60,0,0
105350,-111.111111111111,4,2,1,60,0,0
106704,-83.3333333333333,4,2,1,60,0,0
107155,-100,4,2,1,60,0,0
108508,-83.3333333333333,4,2,1,60,0,0
110313,-166.666666666667,4,2,1,70,0,0
111215,-58.8235294117647,4,2,1,70,0,0
111553,-50,4,2,1,70,0,0
111892,-153.846153846154,4,2,1,70,0,0
113019,-125,4,2,1,70,0,0
113696,-166.666666666667,4,2,1,70,0,0
114824,-100,4,2,1,70,0,0
115275,-76.9230769230769,4,2,1,70,0,0
115726,-166.666666666667,4,2,1,70,0,0
116628,-100,4,2,1,70,0,0
116967,-66.6666666666667,4,2,1,70,0,0
117305,-50,4,2,1,70,0,0
117531,-166.666666666667,4,2,1,70,0,0
118433,-125,4,2,1,70,0,0
118771,-50,4,2,1,70,0,0
119110,-166.666666666667,4,2,1,70,0,0
120238,-125,4,2,1,70,0,0
120576,-50,4,2,1,70,0,0
120914,-166.666666666667,4,2,1,60,0,0
122042,-100,4,2,1,40,0,0
122493,-100,4,2,1,50,0,0
122944,-100,4,2,1,70,0,0
124298,-76.9230769230769,4,2,1,70,0,0
124749,-66.6666666666667,4,2,1,80,0,1
125200,-83.3333333333333,4,2,1,80,0,1
131516,-66.6666666666667,4,2,1,80,0,1
131967,-83.3333333333333,4,2,1,80,0,1
139185,-71.4285714285714,4,2,1,80,0,1
139636,-83.3333333333333,4,2,1,80,0,1
145952,-66.6666666666667,4,2,1,80,0,1
146403,-83.3333333333333,4,2,1,80,0,1
148207,-100,4,2,1,80,0,1
150012,-83.3333333333333,4,2,1,80,0,1
150689,-90.9090909090909,4,2,1,80,0,1
151591,-117.647058823529,4,2,1,80,0,1
152944,-117.647058823529,4,2,1,70,0,1
153621,-100,4,2,1,60,0,0
167380,-100,4,2,1,40,0,0
168057,-250,4,2,1,40,0,0
175275,-285.714285714286,4,2,1,60,0,0
177080,-400,4,2,1,60,0,0
178884,-588.235294117647,4,2,1,60,0,0
180689,-76.9230769230769,4,2,1,70,0,0
182493,-66.6666666666667,4,2,1,10,0,0
182550,-66.6666666666667,4,2,2,15,0,0
182606,-66.6666666666667,4,2,1,20,0,0
182662,-66.6666666666667,4,2,2,25,0,0
182719,-66.6666666666667,4,2,1,30,0,0
182775,-66.6666666666667,4,2,2,40,0,0
182831,-66.6666666666667,4,2,1,50,0,0
182944,-66.6666666666667,4,2,1,80,0,1
183621,-83.3333333333333,4,2,1,80,0,1
189260,-66.6666666666667,4,2,1,80,0,1
189711,-83.3333333333333,4,2,1,80,0,1
196929,-66.6666666666667,4,2,1,80,0,1
197380,-83.3333333333333,4,2,1,80,0,1
202343,-66.6666666666667,4,2,1,80,0,1
204147,-83.3333333333333,4,2,1,80,0,1
205952,-100,4,2,1,80,0,1
207756,-76.9230769230769,4,2,1,80,0,1
208433,-83.3333333333333,4,2,1,80,0,1
209335,-62.5,4,2,1,80,0,1
209786,-83.3333333333333,4,2,1,80,0,1
211365,-83.3333333333333,4,2,1,70,0,0
214974,-66.6666666666667,4,2,1,80,0,1
215425,-83.3333333333333,4,2,1,80,0,1
216779,-66.6666666666667,4,2,1,80,0,1
218583,-83.3333333333333,4,2,1,80,0,1
220388,-66.6666666666667,4,2,1,80,0,1
221741,-58.8235294117647,4,2,1,80,0,1
222192,-66.6666666666667,4,2,1,80,0,1
225801,-83.3333333333333,4,2,1,80,0,1
226478,-76.9230769230769,4,2,1,80,0,1
226929,-71.4285714285714,4,2,1,80,0,1
228959,-58.8235294117647,4,2,1,80,0,1
229410,-66.6666666666667,4,2,1,80,0,1
229862,-83.3333333333333,4,2,1,80,0,1
231215,-66.6666666666667,4,2,1,80,0,1
233019,-83.3333333333333,4,2,1,80,0,1
234824,-66.6666666666667,4,2,1,80,0,1
236628,-83.3333333333333,4,2,1,80,0,1
238433,-100,4,2,1,80,0,1
240238,-76.9230769230769,4,2,1,80,0,1
240914,-83.3333333333333,4,2,1,80,0,1
241816,-66.6666666666667,4,2,1,80,0,1
242268,-83.3333333333333,4,2,1,80,0,1
243847,-83.3333333333333,4,2,1,70,0,0
245425,-166.666666666667,4,2,1,70,0,0
247456,-76.9230769230769,4,2,1,70,0,0
247794,-66.6666666666667,4,2,1,70,0,0
248809,-166.666666666667,4,2,1,70,0,0
249260,-76.9230769230769,4,2,1,70,0,0
249598,-66.6666666666667,4,2,1,70,0,0
249937,-66.6666666666667,4,2,1,70,0,0
250839,-100,4,2,1,70,0,0
252869,-100,4,2,1,55,0,0
253320,-100,4,2,1,40,0,0
253771,-100,4,2,1,30,0,0
254222,-100,4,2,1,20,0,0
254674,-100,4,2,1,5,0,0

[Colours]
Combo1 : 165,235,213
Combo2 : 99,170,222
Combo3 : 136,216,230

[HitObjects]
256,192,238,12,4,2042,0:1:0:0:
512,296,2493,6,0,L|405:279,1,107.999996704102,2|2,0:0|0:0,0:0:0:0:
321,326,3395,1,2,0:0:0:0:
211,200,3847,5,0,1:2:0:0:
206,166,3960,1,0,1:2:0:0:
202,133,4073,1,8,0:3:0:0:
302,153,4298,1,4,0:3:0:0:
116,234,4523,5,0,1:2:0:0:
109,176,4636,1,0,1:2:0:0:
101,118,4749,1,8,0:3:0:0:
302,153,4975,1,4,0:3:0:0:
22,278,5200,6,0,L|0:104,1,175.499991966248,6|0,1:2|0:0,0:0:0:0:
0,103,5651,6,0,P|50:145|116:144,1,135.000005149842,6|2,3:2|0:3,0:0:0:0:
191,207,5989,1,2,0:0:0:0:
203,200,6102,2,0,L|218:66,1,107.999996704102,0|2,1:2|0:3,0:0:0:0:
399,9,6553,2,0,L|407:70,2,53.9999983520508,0|0|2,3:0|0:0|0:3,0:0:0:0:
470,132,6892,1,2,0:0:0:0:
470,132,7004,2,0,P|418:122|363:148,1,107.999996704102,0|2,1:2|0:3,0:0:0:0:
146,308,7456,6,0,L|126:117,1,161.999995056153,2|0,3:2|0:0,0:0:0:0:
116,148,7907,2,0,L|132:309,1,161.999995056153,0|0,1:2|0:0,0:0:0:0:
225,366,8358,5,2,3:2:0:0:
277,353,8471,1,2,0:0:0:0:
312,312,8583,1,2,0:3:0:0:
311,257,8696,1,2,0:0:0:0:
255,186,8809,2,0,P|237:202|230:249,1,53.9999983520508,0|0,1:2|0:0,0:0:0:0:
134,257,9034,2,0,P|132:281|160:319,1,53.9999983520508,2|0,0:3|0:0,0:0:0:0:
238,373,9260,6,0,B|293:393|307:371|320:351|369:365,1,135.000005149842,2|2,3:2|0:3,0:0:0:0:
458,384,9598,1,2,0:0:0:0:
470,379,9711,2,0,L|483:280,1,67.5000025749208,0|0,1:2|0:0,0:0:0:0:
493,221,9937,1,2,0:3:0:0:
276,146,10162,1,2,3:2:0:0:
278,159,10275,1,2,0:0:0:0:
280,172,10388,1,2,0:3:0:0:
282,185,10501,1,2,0:0:0:0:
298,269,10613,2,0,P|354:272|401:230,1,107.999996704102,0|2,1:2|0:3,0:0:0:0:
492,74,11065,5,0,3:0:0:0:
253,21,11290,1,2,0:2:0:0:
239,24,11403,1,8,0:3:0:0:
227,28,11516,2,0,P|205:52|197:85,1,67.5000025749208,0|8,1:2|0:3,0:0:0:0:
100,110,11741,2,0,P|101:143|118:172,1,67.5000025749208,4|4,0:3|0:3,0:0:0:0:
197,241,11967,1,2,3:2:0:0:
197,241,12080,1,4,0:3:0:0:
197,241,12192,1,2,0:3:0:0:
92,366,12418,5,0,1:2:0:0:
287,204,12644,1,2,0:3:0:0:
465,352,12869,6,0,L|481:217,1,135.000005149842,6|2,3:2|0:3,0:0:0:0:
512,137,13207,1,2,0:0:0:0:
504,124,13320,2,0,P|453:116|411:76,1,107.999996704102,0|2,1:2|0:3,0:0:0:0:
194,0,13771,2,0,L|186:53,2,53.9999983520508,2|0|2,3:2|0:0|0:3,0:0:0:0:
122,112,14110,1,2,0:0:0:0:
122,112,14222,2,0,P|176:109|224:132,1,107.999996704102,0|2,1:2|0:3,0:0:0:0:
377,259,14674,6,0,P|315:273|269:371,1,161.999995056153,2|0,3:2|0:0,0:0:0:0:
277,365,15125,2,0,P|310:293|385:270,1,161.999995056153,0|0,1:2|0:0,0:0:0:0:
474,292,15576,5,2,3:2:0:0:
492,241,15689,1,2,0:0:0:0:
471,191,15801,2,0,P|450:173|407:165,1,53.9999983520508,2|2,0:3|0:0,0:0:0:0:
346,99,16027,2,0,P|319:108|291:141,1,53.9999983520508,0|2,1:2|0:0,0:0:0:0:
253,204,16253,1,2,0:3:0:0:
50,26,16478,6,0,L|65:161,1,135.000005149842,2|2,3:2|0:3,0:0:0:0:
23,241,16816,1,2,0:0:0:0:
33,251,16929,2,0,L|99:261,1,67.5000025749208,0|0,1:2|0:0,0:0:0:0:
190,276,17155,1,2,0:3:0:0:
11,373,17380,5,2,3:2:0:0:
24,371,17493,1,2,0:0:0:0:
37,369,17606,1,2,0:3:0:0:
50,367,17719,1,2,0:0:0:0:
63,365,17831,1,0,1:2:0:0:
262,226,18057,1,2,0:3:0:0:
474,373,18283,6,0,L|484:283,1,90,2|0,0:2|0:2,0:0:0:0:
381,351,18734,6,0,L|388:283,1,67.5000025749208,2|0,0:2|0:0,0:0:0:0:
289,329,19185,6,0,L|293:284,1,45,2|0,0:2|0:0,0:0:0:0:
292,284,19410,1,8,3:2:0:0:
198,307,19636,6,2,L|198:287,1,20.2499993820191,2|0,3:2|0:0,0:1:0:0:
186,320,20087,6,0,P|137:315|91:346,1,90,6|2,3:2|0:2,0:0:0:0:
22,377,20425,1,2,0:0:0:0:
9,370,20538,2,0,L|1:280,1,90,0|2,1:2|0:2,0:0:0:0:
0,99,20989,1,2,0:0:0:0:
9,119,21102,1,2,0:3:0:0:
29,128,21215,1,2,3:2:0:0:
118,221,21441,1,0,1:2:0:0:
118,221,21553,2,0,L|180:210,1,45,2|2,0:2|0:2,0:0:0:0:
420,266,21892,6,0,L|436:126,2,135,2|2|2,3:2|0:0|0:0,0:0:0:0:
470,350,22794,1,2,0:0:0:0:
321,384,23019,2,0,P|287:357|242:351,1,90,2|0,3:2|1:2,0:0:0:0:
156,367,23358,1,2,0:0:0:0:
144,374,23471,2,0,L|139:329,1,45,2|0,3:2|0:0,0:0:0:0:
89,220,23696,6,0,L|177:236,1,90,2|2,3:2|0:0,0:0:0:0:
267,253,24034,1,2,0:0:0:0:
278,262,24147,2,0,P|292:216|268:175,1,90,2|2,1:2|0:0,0:0:0:0:
184,28,24598,1,2,0:0:0:0:
182,41,24711,1,2,0:3:0:0:
180,54,24824,1,2,3:2:0:0:
178,67,24937,1,2,0:2:0:0:
176,80,25050,1,2,1:2:0:0:
15,242,25275,5,2,0:2:0:0:
15,242,25388,1,2,0:2:0:0:
15,242,25501,2,0,L|-1:102,2,135,2|2|2,3:2|0:0|0:0,0:0:0:0:
90,357,26403,1,2,0:0:0:0:
112,352,26516,1,2,0:0:0:0:
126,335,26628,1,0,3:0:0:0:
233,207,26854,1,0,1:2:0:0:
233,207,26967,2,0,L|227:251,2,45,2|2|2,0:0|3:3|0:2,0:0:0:0:
299,304,27305,6,0,P|337:326|382:326,1,90,2|2,3:2|0:0,0:0:0:0:
461,368,27644,1,2,0:0:0:0:
474,363,27756,2,0,L|485:272,1,90,0|2,1:2|0:0,0:0:0:0:
512,125,28207,1,2,0:0:0:0:
498,142,28320,1,2,0:3:0:0:
476,147,28433,1,2,3:2:0:0:
360,236,28659,1,0,1:2:0:0:
360,236,28771,2,0,L|352:184,1,45,2|2,0:0|0:2,0:0:0:0:
141,29,29110,6,0,P|88:70|22:80,2,135,2|2|2,3:2|0:0|0:0,0:0:0:0:
229,64,30012,1,2,0:0:0:0:
383,6,30238,2,0,L|395:101,1,90,2|0,3:2|1:0,0:0:0:0:
447,172,30576,1,2,0:0:0:0:
437,181,30689,2,0,P|415:186|399:202,1,45,2|0,3:2|0:0,0:0:0:0:
303,306,30914,6,0,L|311:197,1,90,2|2,3:2|0:0,0:0:0:0:
297,126,31253,1,2,0:0:0:0:
284,118,31365,2,0,P|250:145|206:147,1,90,0|2,1:2|0:0,0:0:0:0:
116,115,31816,1,2,0:0:0:0:
24,254,32042,1,2,3:2:0:0:
24,254,32155,1,2,0:0:0:0:
24,254,32268,2,0,L|78:262,2,45,0|0|2,1:2|0:0|0:0,0:0:0:0:
260,358,32719,6,0,B|289:276|255:255|218:233|251:151,2,215.999993408203,2|0|2,3:2|1:2|3:2,0:0:0:0:
0,364,33847,1,2,0:0:0:0:
16,312,33959,1,8,0:3:0:0:
50,286,34072,1,0,1:2:0:0:
86,283,34185,1,4,0:3:0:0:
113,292,34298,1,2,3:2:0:0:
124,304,34410,1,4,0:3:0:0:
183,367,34523,6,0,L|343:349,1,161.999995056153,4|2,3:1|0:0,0:0:0:0:
504,212,35425,6,0,B|507:196|518:187|518:187|512:140|456:129|429:154,1,144,2|0,3:1|0:0,0:0:0:0:
265,124,35764,6,0,B|276:133|282:148|282:148|313:160|344:138|346:107,1,116.999994644165,2|0,3:1|0:0,0:0:0:0:
376,25,36102,6,0,L|397:239,1,215.999993408203,2|2,3:1|0:0,0:0:0:0:
458,345,37230,6,0,L|463:309,1,36,10|0,0:2|0:0,0:0:0:0:
476,312,37568,6,0,L|470:347,1,36,2|0,3:1|0:0,0:0:0:0:
364,363,37907,6,0,B|282:392|259:358|239:321|156:354,1,215.999993408203,2|2,3:1|0:0,0:0:0:0:
15,146,39034,5,10,0:0:0:0:
15,146,39147,2,0,P|29:108|66:124,1,90,2|2,0:0|0:0,0:0:0:0:
79,132,39486,6,2,P|22:88|14:160,1,175.499991966248,2|0,0:2|0:0,0:1:0:0:
117,221,39937,6,0,L|136:33,1,188.999994232178,2|2,3:2|0:0,0:0:0:0:
330,59,40839,6,0,P|337:80|336:102,1,45,2|0,3:1|0:0,0:0:0:0:
428,129,41065,5,2,0:0:0:0:
428,129,41177,2,0,P|420:163|394:185,1,67.5000025749208,2|0,3:1|0:0,0:0:0:0:
478,251,41403,5,2,0:0:0:0:
478,251,41516,2,0,P|443:279|397:283,1,90,6|0,3:1|0:0,0:0:0:0:
335,368,41741,2,0,L|175:350,1,161.999995056153,2|2,0:0|0:0,0:0:0:0:
75,328,42644,6,0,L|70:292,1,36,10|0,0:0|0:0,0:0:0:0:
55,294,42982,6,0,B|63:334|63:334|104:348|161:303|139:239,1,180,2|0,3:1|0:0,0:0:0:0:
205,152,43320,6,0,P|125:154|124:30,1,215.999993408203,2|2,3:1|0:0,0:0:0:0:
228,18,44448,6,0,L|223:54,1,36,10|0,0:0|0:0,0:0:0:0:
208,51,44786,6,0,B|216:11|216:11|257:-3|314:42|292:106,1,180,2|0,3:1|0:0,0:0:0:0:
369,196,45125,6,0,P|291:191|265:267,1,161.999995056153,2|2,3:1|0:0,0:0:0:0:
347,309,46027,1,2,0:0:0:0:
461,215,46253,1,0,1:2:0:0:
464,206,46366,1,0,1:0:0:0:
467,197,46479,2,0,P|460:172|443:155,1,45,0|0,1:2|1:0,0:0:0:0:
429,65,46704,2,0,P|403:58|380:64,1,45,0|0,1:2|1:0,0:0:0:0:
292,32,46929,2,0,P|273:50|267:73,1,45,0|0,1:2|1:0,0:0:0:0:
201,151,47155,5,0,1:2:0:0:
206,184,47268,1,0,1:2:0:0:
211,217,47381,1,0,3:0:0:0:
298,170,47606,1,0,3:0:0:0:
100,142,47831,5,0,1:2:0:0:
109,200,47944,1,0,1:2:0:0:
118,258,48057,1,0,3:0:0:0:
298,170,48283,1,0,3:0:0:0:
0,129,48508,6,0,L|25:306,1,175.499991966248,4|0,1:2|0:0,0:0:0:0:
24,302,48959,6,0,B|77:292|89:309|103:331|156:318,1,135.000005149842,6|0,3:2|0:3,0:0:0:0:
232,384,49298,1,2,0:0:0:0:
244,377,49410,2,0,L|254:269,1,107.999996704102,0|2,1:2|0:2,0:0:0:0:
352,341,49862,1,0,3:2:0:0:
147,154,50087,1,2,0:2:0:0:
147,154,50200,1,2,0:0:0:0:
147,154,50313,2,0,L|156:224,2,53.9999983520508,0|2|2,1:2|0:0|0:2,0:0:0:0:
292,57,50764,6,0,P|331:92|384:98,1,107.999996704102,2|2,3:2|0:3,0:0:0:0:
476,46,51102,1,2,0:2:0:0:
486,55,51215,2,0,L|475:163,1,107.999996704102,0|2,1:2|0:0,0:0:0:0:
390,3,51666,1,2,3:2:0:0:
512,284,51892,5,2,0:0:0:0:
512,284,52005,1,2,0:0:0:0:
512,284,52117,2,0,P|492:265|463:257,1,53.9999983520508,0|2,1:2|0:0,0:0:0:0:
379,199,52343,2,0,P|353:207|332:229,1,53.9999983520508,2|0,0:0|0:0,0:0:0:0:
233,261,52568,5,0,3:2:0:0:
239,298,52681,1,2,0:0:0:0:
246,335,52794,1,2,0:0:0:0:
28,205,53019,2,0,L|39:97,1,107.999996704102,0|2,1:2|0:0,0:0:0:0:
32,10,53358,1,2,0:0:0:0:
41,0,53471,2,0,P|62:33|141:54,1,107.999996704102,0|2,3:0|0:0,0:0:0:0:
180,130,53809,1,2,0:0:0:0:
191,139,53922,2,0,L|270:129,1,53.9999983520508,0|2,1:2|0:0,0:0:0:0:
317,72,54147,2,0,L|396:82,1,53.9999983520508,2|0,0:0|0:0,0:0:0:0:
454,136,54373,6,0,P|468:83|459:31,1,107.999996704102,2|2,3:2|0:2,0:0:0:0:
285,214,54824,2,0,P|270:266|279:318,1,107.999996704102,0|2,1:2|0:0,0:0:0:0:
343,377,55162,1,2,0:2:0:0:
355,384,55275,1,0,3:2:0:0:
422,289,55501,1,2,0:0:0:0:
198,134,55726,6,2,P|135:78|115:160,1,202.500007724762,0|0,1:2|0:0,0:1:0:0:
184,224,56177,5,2,3:2:0:0:
261,276,56403,1,2,0:0:0:0:
366,280,56628,1,0,1:2:0:0:
468,226,56854,1,2,0:0:0:0:
512,112,57080,2,0,P|458:107|415:75,1,107.999996704102,2|2,3:2|0:0,0:0:0:0:
339,27,57418,1,2,0:0:0:0:
326,34,57531,2,0,L|318:89,1,53.9999983520508,0|2,1:2|0:0,0:0:0:0:
247,148,57756,2,0,L|255:203,1,53.9999983520508,2|0,0:2|0:2,0:0:0:0:
278,304,57982,5,2,3:2:0:0:
188,276,58208,1,2,0:0:0:0:
95,300,58433,1,0,1:2:0:0:
0,370,58659,1,2,0:0:0:0:
95,300,58884,1,2,3:2:0:0:
95,300,58997,1,2,0:2:0:0:
95,300,59110,2,0,P|109:271|105:233,1,53.9999983520508,2|2,0:3|0:0,0:0:0:0:
171,176,59335,2,0,P|152:149|117:133,1,53.9999983520508,0|0,1:2|0:0,0:0:0:0:
106,47,59561,1,2,0:0:0:0:
208,269,59786,6,0,L|412:254,1,161.999995056153,2|0,3:2|0:0,0:0:0:0:
385,268,60238,1,0,1:2:0:0:
481,37,60463,1,2,0:0:0:0:
481,37,60576,1,2,0:2:0:0:
481,37,60689,2,0,P|427:39|372:84,1,107.999996704102,0|2,3:2|0:0,0:0:0:0:
324,141,61027,1,2,0:0:0:0:
332,152,61140,1,0,1:2:0:0:
469,221,61365,1,2,0:0:0:0:
221,262,61591,5,0,1:2:0:0:
224,228,61704,1,0,1:2:0:0:
228,195,61817,1,0,3:0:0:0:
317,239,62042,1,0,3:0:0:0:
120,274,62267,5,0,1:2:0:0:
127,216,62380,1,0,1:2:0:0:
134,157,62493,1,0,3:0:0:0:
317,239,62719,1,2,3:2:0:0:
12,294,62944,6,0,L|21:229,1,53.9999983520508,0|0,1:2|0:0,0:0:0:0:
33,155,63170,2,0,L|42:90,1,53.9999983520508,0|0,1:2|0:0,0:0:0:0:
93,12,63395,6,0,P|115:48|196:70,1,125.999996154785,6|0,3:2|0:0,0:0:0:0:
281,128,63734,1,2,0:0:0:0:
291,117,63847,2,0,L|280:7,1,107.999996704102,0|2,1:0|0:0,0:0:0:0:
196,164,64298,1,0,3:0:0:0:
424,198,64523,1,2,0:0:0:0:
424,198,64636,1,2,0:0:0:0:
424,198,64749,2,0,L|431:144,2,53.9999983520508,0|2|2,1:0|0:0|0:0,0:0:0:0:
512,324,65200,6,0,P|450:325|404:360,1,107.999996704102,2|2,3:2|0:3,0:0:0:0:
334,384,65538,1,2,0:0:0:0:
321,376,65651,2,0,L|311:260,1,107.999996704102,0|2,1:0|0:0,0:0:0:0:
221,333,66102,1,2,3:2:0:0:
344,125,66328,5,2,0:0:0:0:
344,125,66441,1,2,0:0:0:0:
344,125,66553,2,0,P|324:144|295:152,1,53.9999983520508,0|2,1:0|0:0,0:0:0:0:
222,218,66779,2,0,P|196:210|175:188,1,53.9999983520508,2|0,0:0|0:0,0:0:0:0:
71,181,67004,5,0,3:2:0:0:
77,144,67117,1,2,0:0:0:0:
84,107,67230,1,2,0:0:0:0:
345,25,67456,2,0,L|356:133,1,107.999996704102,0|2,1:0|0:0,0:0:0:0:
426,191,67794,1,2,0:0:0:0:
435,200,67907,2,0,L|428:253,1,53.9999983520508,0|0,3:0|0:0,0:0:0:0:
422,354,68132,1,2,0:0:0:0:
422,354,68245,1,2,0:0:0:0:
422,354,68358,1,0,1:0:0:0:
223,277,68583,1,2,0:0:0:0:
23,365,68809,6,0,P|5:314|7:260,1,107.999996704102,2|2,3:2|0:2,0:0:0:0:
149,43,69260,2,0,P|167:93|163:146,1,107.999996704102,0|2,1:0|0:0,0:0:0:0:
94,206,69598,1,2,0:0:0:0:
81,211,69711,1,0,3:0:0:0:
0,120,69937,1,2,0:0:0:0:
254,80,70162,6,2,B|333:59|352:93|368:123|448:100,1,202.500007724762,0|0,1:0|0:0,0:1:0:0:
512,171,70613,5,2,3:2:0:0:
330,310,70839,1,2,0:0:0:0:
442,280,71065,1,0,1:0:0:0:
230,277,71290,2,0,L|219:163,1,107.999996704102,2|0,0:0|3:0,0:0:0:0:
208,75,71628,1,2,0:2:0:0:
198,66,71741,2,0,P|157:103|90:108,1,107.999996704102,2|0,0:0|1:0,0:0:0:0:
16,84,72192,1,2,0:0:0:0:
0,317,72418,5,2,3:2:0:0:
202,271,72644,1,2,0:2:0:0:
97,258,72869,1,0,1:0:0:0:
282,323,73095,2,0,L|294:213,1,90,2|0,0:0|3:0,0:0:0:0:
304,146,73433,1,2,0:0:0:0:
314,138,73546,2,0,P|347:167|395:172,1,90,2|0,0:2|1:0,0:0:0:0:
485,149,73997,1,2,0:0:0:0:
512,335,74222,6,0,P|453:328|359:381,1,161.999995056153,4|0,3:2|0:0,0:0:0:0:
348,384,74674,1,0,1:0:0:0:
169,210,74899,2,0,P|240:227|285:284,1,148.50000453186,4|0,0:2|0:0,0:0:0:0:
301,293,75350,1,2,0:0:0:0:
180,328,75576,1,0,1:0:0:0:
427,77,75801,6,0,P|360:147|380:242,1,202.500007724762,4|0,0:2|0:0,0:0:0:0:
470,300,76253,1,2,0:0:0:0:
470,300,76365,1,2,0:0:0:0:
470,300,76478,2,0,L|476:241,2,53.9999983520508,0|2|2,1:0|0:0|0:0,0:0:0:0:
201,384,76929,5,0,1:0:0:0:
149,371,77042,1,0,1:0:0:0:
114,330,77154,1,0,1:0:0:0:
115,275,77267,1,0,1:0:0:0:
147,230,77380,2,0,L|289:214,1,107.999996704102,0|0,1:0|3:0,0:0:0:0:
350,205,77719,5,2,0:2:0:0:
362,214,77831,2,0,P|371:139|229:98,1,215.999993408203,4|2,3:2|0:0,0:0:0:0:
73,4,78508,2,0,P|64:79|206:120,1,215.999993408203,4|2,3:2|0:0,0:0:0:0:
377,71,79185,1,2,0:0:0:0:
485,216,79410,5,4,3:2:0:0:
288,298,79636,1,0,1:0:0:0:
281,240,79749,1,0,1:0:0:0:
273,182,79862,1,8,0:3:0:0:
485,216,80087,5,4,0:3:0:0:
390,263,80312,1,0,1:0:0:0:
385,229,80425,1,0,1:0:0:0:
381,196,80538,1,8,0:3:0:0:
493,224,80764,5,4,0:3:0:0:
493,224,80989,1,0,1:0:0:0:
493,224,81441,6,0,P|457:286|369:293,1,135.000005149842,6|2,3:2|0:3,0:0:0:0:
323,368,81779,1,2,0:0:0:0:
311,360,81892,2,0,L|296:252,1,107.999996704102,0|2,1:2|0:3,0:0:0:0:
150,41,82343,2,0,L|143:94,2,53.9999983520508,2|0|2,3:2|0:0|0:3,0:0:0:0:
80,158,82681,1,2,0:0:0:0:
80,158,82794,2,0,P|132:152|182:176,1,107.999996704102,0|2,1:2|0:3,0:0:0:0:
410,189,83245,6,0,P|427:111|389:41,1,161.999995056153,2|0,3:2|0:0,0:0:0:0:
404,40,83696,2,0,P|441:110|424:187,1,161.999995056153,0|0,1:2|0:0,0:0:0:0:
416,281,84147,5,2,3:2:0:0:
365,261,84260,1,2,0:0:0:0:
312,271,84372,1,2,0:3:0:0:
274,309,84485,1,2,0:0:0:0:
231,384,84598,2,0,P|206:369|195:341,1,53.9999983520508,0|0,1:2|0:0,0:0:0:0:
104,326,84824,2,0,P|104:296|123:273,1,53.9999983520508,2|0,0:3|0:0,0:0:0:0:
62,193,85050,6,0,L|196:181,1,135.000005149842,2|2,3:2|0:3,0:0:0:0:
263,109,85388,1,2,0:0:0:0:
272,99,85501,2,0,L|205:90,1,67.5000025749208,0|0,1:2|0:0,0:0:0:0:
115,79,85726,1,2,0:3:0:0:
309,242,85952,1,2,3:2:0:0:
322,240,86065,1,2,0:0:0:0:
335,238,86178,1,2,0:3:0:0:
348,236,86291,1,2,0:0:0:0:
429,221,86403,2,0,P|449:167|420:105,1,107.999996704102,0|2,1:2|0:3,0:0:0:0:
256,5,86854,5,0,3:0:0:0:
32,134,87080,1,2,0:2:0:0:
39,145,87193,1,8,0:3:0:0:
46,155,87306,2,0,P|77:159|104:180,1,67.5000025749208,0|8,1:2|0:3,0:0:0:0:
208,162,87531,2,0,P|220:191|214:225,1,67.5000025749208,4|4,0:3|0:3,0:0:0:0:
296,311,87756,1,2,3:2:0:0:
296,311,87869,1,4,0:3:0:0:
296,311,87982,1,2,0:3:0:0:
114,363,88207,5,0,1:2:0:0:
322,213,88433,1,2,0:3:0:0:
454,366,88659,6,0,L|468:231,1,135.000005149842,6|2,3:2|0:3,0:0:0:0:
512,155,88997,1,2,0:0:0:0:
503,143,89110,2,0,P|450:132|411:95,1,107.999996704102,0|2,1:2|0:3,0:0:0:0:
177,28,89561,2,0,L|184:84,2,53.9999983520508,2|0|2,3:2|0:0|0:3,0:0:0:0:
150,163,89899,1,2,0:0:0:0:
150,163,90012,2,0,P|197:138|249:146,1,107.999996704102,0|2,1:2|0:3,0:0:0:0:
377,293,90463,6,0,L|215:276,1,161.999995056153,2|0,3:2|0:0,0:0:0:0:
214,290,90914,2,0,L|375:306,1,161.999995056153,0|0,1:2|0:0,0:0:0:0:
452,367,91365,5,2,3:2:0:0:
476,318,91478,1,2,0:0:0:0:
467,265,91590,2,0,P|452:244|424:228,1,53.9999983520508,2|2,0:3|0:0,0:0:0:0:
375,147,91816,2,0,P|350:149|322:165,1,53.9999983520508,0|2,1:2|0:0,0:0:0:0:
264,238,92042,1,2,0:3:0:0:
19,103,92268,6,0,P|9:168|43:225,1,135.000005149842,2|2,3:2|0:3,0:0:0:0:
117,287,92606,1,2,0:0:0:0:
128,279,92719,2,0,L|140:186,1,67.5000025749208,0|0,1:2|0:0,0:0:0:0:
152,123,92944,1,2,0:3:0:0:
346,27,93170,5,2,3:2:0:0:
348,40,93282,1,2,0:0:0:0:
349,53,93395,1,2,0:3:0:0:
351,66,93508,1,2,0:0:0:0:
352,79,93621,1,0,1:2:0:0:
366,173,93847,1,2,0:3:0:0:
512,207,94072,6,0,P|515:252|499:293,1,90,2|0,0:0|0:0,0:0:0:0:
378,182,94523,6,0,P|407:202|423:234,1,72,2|0,0:0|0:0,0:0:0:0:
282,268,94974,6,0,P|307:258|334:261,1,53.9999983520508,4|4,0:3|0:3,0:0:0:0:
344,270,95313,1,8,0:3:0:0:
295,377,95538,5,4,0:3:0:0:
295,377,95651,2,0,P|301:360|315:349,1,36,2|0,0:3|0:0,0:0:0:0:
441,322,95877,6,0,L|429:202,1,116.999994644165,4|0,3:2|0:0,0:0:0:0:
434,117,96215,1,2,0:0:0:0:
421,108,96328,2,0,P|385:114|347:150,1,80.9999975280763,0|2,1:0|0:0,0:0:0:0:
296,221,96779,1,2,0:0:0:0:
88,150,97004,1,0,3:2:0:0:
76,143,97117,2,0,L|67:67,1,40.4999987640381,2|0,0:0|1:0,0:0:0:0:
58,17,97343,5,2,0:0:0:0:
58,17,97456,1,2,0:3:0:0:
58,17,97568,1,2,0:0:0:0:
58,17,97681,2,0,P|125:20|173:62,1,116.999994644165,2|0,3:2|0:0,0:0:0:0:
225,116,98019,1,2,0:0:0:0:
232,126,98132,2,0,L|222:206,1,80.9999975280763,0|2,1:0|0:0,0:0:0:0:
280,286,98583,1,2,0:0:0:0:
103,384,98809,1,0,3:0:0:0:
92,377,98922,2,0,L|85:337,1,40.4999987640381,2|0,0:0|1:0,0:0:0:0:
81,252,99147,2,0,P|122:253|159:275,1,80.9999975280763,2|0,0:0|0:0,0:0:0:0:
212,343,99486,6,0,B|330:332,1,107.999996704102,2|0,3:2|0:0,0:0:0:0:
402,368,99824,1,2,0:0:0:0:
413,375,99937,2,0,P|431:337|419:296,1,80.9999975280763,0|2,1:0|0:0,0:0:0:0:
352,236,100388,1,2,0:0:0:0:
422,116,100613,1,0,3:0:0:0:
422,116,100726,1,2,0:0:0:0:
422,116,100839,1,0,1:0:0:0:
316,14,101065,1,2,0:0:0:0:
106,118,101290,6,0,P|160:114|211:95,1,107.999996704102,2|0,3:2|0:0,0:0:0:0:
405,265,101741,2,0,P|351:269|300:288,1,107.999996704102,0|2,1:0|0:0,0:0:0:0:
221,339,102080,1,2,0:0:0:0:
209,330,102192,2,0,P|206:284|192:243,1,90,2|0,3:2|3:0,0:0:0:0:
303,54,102644,2,0,P|306:100|320:141,1,90,0|0,1:0|3:0,0:0:0:0:
451,361,103095,6,0,P|414:322|356:312,1,107.999996704102,2|0,3:2|0:0,0:0:0:0:
294,249,103433,1,2,0:0:0:0:
282,241,103546,2,0,L|200:251,1,80.9999975280763,0|2,1:0|0:0,0:0:0:0:
128,311,103997,1,2,0:0:0:0:
19,174,104222,1,0,3:0:0:0:
11,163,104335,2,0,L|18:86,1,40.4999987640381,2|0,0:0|1:0,0:0:0:0:
45,27,104561,5,2,0:0:0:0:
45,27,104674,1,2,0:3:0:0:
45,27,104786,1,2,0:0:0:0:
45,27,104899,2,0,P|82:66|146:72,1,107.999996704102,2|0,3:2|0:0,0:0:0:0:
208,125,105238,1,2,0:0:0:0:
219,134,105351,2,0,L|306:126,1,80.9999975280763,0|2,1:0|0:0,0:0:0:0:
377,67,105801,1,2,0:0:0:0:
504,201,106027,1,0,3:0:0:0:
512,211,106140,2,0,L|507:261,1,40.4999987640381,2|0,0:0|1:0,0:0:0:0:
498,338,106365,2,0,P|457:336|421:353,1,80.9999975280763,2|0,0:0|0:0,0:0:0:0:
326,384,106704,6,0,L|311:273,1,107.999996704102,2|0,3:2|0:0,0:0:0:0:
252,213,107042,1,2,0:0:0:0:
244,202,107155,2,0,L|251:156,1,45,0|2,1:0|0:0,0:0:0:0:
291,64,107380,1,2,0:0:0:0:
291,64,107493,1,2,0:0:0:0:
291,64,107606,2,0,P|336:108|422:111,1,135,2|2,0:0|0:0,0:0:0:0:
419,102,108057,1,0,1:0:0:0:
382,0,108283,1,2,0:0:0:0:
109,38,108508,6,0,P|153:134|119:234,2,215.999993408203,2|0|2,3:2|1:0|3:2,0:0:0:0:
24,264,109636,1,2,0:0:0:0:
41,313,109748,1,8,0:3:0:0:
79,336,109861,1,0,1:2:0:0:
116,339,109974,1,4,0:3:0:0:
143,332,110087,1,2,3:2:0:0:
157,323,110199,1,4,0:3:0:0:
217,266,110313,6,0,B|278:249|296:274|313:300|373:282,1,161.999995056153,4|2,3:1|0:0,0:0:0:0:
443,68,111215,6,0,B|464:56|482:18|466:-15|466:-15|462:22|431:35,1,153.000002918243,2|0,3:1|0:0,0:0:0:0:
428,159,111553,6,0,B|426:187|456:229|501:233|501:233|464:206|468:166,1,180,2|0,3:1|0:0,0:0:0:0:
351,101,111892,6,0,B|265:78|238:114|214:149|126:126,1,233.999989288331,2|2,3:1|0:0,0:0:0:0:
31,135,113019,6,0,L|27:93,1,36,10|0,0:0|0:0,0:0:0:0:
14,100,113358,6,0,L|17:135,1,36,2|0,3:1|0:0,0:0:0:0:
19,230,113696,6,0,P|95:239|122:311,1,161.999995056153,2|2,3:1|0:0,0:0:0:0:
207,359,114598,1,2,0:0:0:0:
285,234,114824,5,10,0:0:0:0:
285,234,114937,2,0,P|257:205|230:235,1,90,2|2,0:0|0:0,0:0:0:0:
221,247,115276,6,2,P|255:183|291:246,1,175.499991966248,2|0,0:0|0:0,0:1:0:0:
390,311,115726,6,0,P|416:239|493:230,1,161.999995056153,2|2,3:2|0:0,0:0:0:0:
480,29,116628,6,0,P|458:36|436:34,1,45,2|0,3:1|0:0,0:0:0:0:
417,126,116854,5,2,0:0:0:0:
417,126,116967,2,0,P|385:120|357:96,1,67.5000025749208,2|0,3:1|0:0,0:0:0:0:
294,168,117192,5,2,0:0:0:0:
294,168,117305,2,0,P|266:133|259:87,1,90,6|0,3:1|0:0,0:0:0:0:
164,19,117531,2,0,L|146:201,1,161.999995056153,2|2,0:0|0:0,0:0:0:0:
84,278,118433,6,0,L|91:314,1,36,10|0,0:0|0:0,0:0:0:0:
77,319,118771,6,0,B|69:276|69:276|93:255|156:250|187:313,1,180,2|0,3:1|0:0,0:0:0:0:
246,376,119110,6,0,P|329:315|276:230,1,215.999993408203,2|2,3:1|0:0,0:0:0:0:
226,128,120238,6,0,L|233:92,1,36,10|0,0:0|0:0,0:0:0:0:
219,89,120576,6,0,B|211:132|211:132|233:155|304:158|326:94,1,180,2|0,3:1|0:0,0:0:0:0:
380,30,120914,6,0,P|442:77|415:150,1,161.999995056153,2|2,3:1|0:0,0:0:0:0:
349,214,121816,1,2,0:0:0:0:
478,252,122042,1,0,1:2:0:0:
473,260,122155,1,0,1:0:0:0:
468,268,122268,2,0,P|444:279|420:278,1,45,0|0,1:0|1:0,0:0:0:0:
350,338,122493,2,0,P|327:323|316:302,1,45,0|0,1:0|1:0,0:0:0:0:
230,272,122718,2,0,P|230:245|243:225,1,45,0|0,1:0|1:0,0:0:0:0:
298,87,122944,5,0,1:0:0:0:
303,120,123057,1,0,1:0:0:0:
308,153,123170,1,0,3:0:0:0:
208,135,123395,1,0,3:0:0:0:
391,46,123620,5,0,1:0:0:0:
400,104,123733,1,0,1:0:0:0:
409,162,123846,1,0,3:0:0:0:
208,135,124072,1,0,3:0:0:0:
487,7,124298,6,0,L|512:180,1,175.499991966248,4|0,1:2|0:0,0:0:0:0:
512,180,124749,6,0,B|493:221|493:221|404:235,1,135.000005149842,6|0,3:2|0:3,0:0:0:0:
332,305,125087,1,2,0:0:0:0:
319,297,125200,2,0,L|298:154,1,107.999996704102,0|2,1:2|0:2,0:0:0:0:
215,258,125651,1,0,3:2:0:0:
398,79,125877,1,2,0:2:0:0:
398,79,125990,1,2,0:0:0:0:
398,79,126103,2,0,L|389:149,2,53.9999983520508,0|2|2,1:2|0:0|0:2,0:0:0:0:
173,8,126553,6,0,P|130:39|77:37,1,107.999996704102,2|2,3:2|0:3,0:0:0:0:
8,94,126892,1,2,0:2:0:0:
0,105,127004,2,0,L|15:211,1,107.999996704102,0|2,1:2|0:0,0:0:0:0:
211,328,127456,1,2,3:2:0:0:
60,360,127681,5,2,0:0:0:0:
60,360,127794,1,2,0:0:0:0:
60,360,127906,2,0,P|68:333|90:313,1,53.9999983520508,0|2,1:2|0:0,0:0:0:0:
121,220,128132,2,0,P|147:214|176:224,1,53.9999983520508,2|2,0:0|0:0,0:0:0:0:
275,173,128358,5,0,3:2:0:0:
281,210,128471,1,2,0:0:0:0:
288,247,128584,1,2,0:0:0:0:
435,384,128809,2,0,L|441:312,1,53.9999983520508,0|0,1:0|0:0,0:0:0:0:
505,263,129034,1,2,0:0:0:0:
512,251,129147,2,0,P|489:204|485:142,1,107.999996704102,2|0,0:0|0:0,0:0:0:0:
496,53,129486,1,2,0:0:0:0:
496,53,129598,1,2,0:0:0:0:
496,53,129711,2,0,L|429:65,1,53.9999983520508,0|2,1:2|0:0,0:0:0:0:
370,127,129937,2,0,L|303:115,1,53.9999983520508,2|0,0:0|0:0,0:0:0:0:
245,43,130162,6,0,P|197:66|143:63,1,107.999996704102,2|2,3:2|0:2,0:0:0:0:
12,257,130613,2,0,P|59:233|113:236,1,107.999996704102,0|2,1:2|0:0,0:0:0:0:
193,280,130952,1,2,0:2:0:0:
200,293,131065,1,0,3:2:0:0:
109,348,131290,1,2,0:0:0:0:
157,103,131516,6,2,P|226:49|257:131,1,202.500007724762,0|0,1:2|0:0,0:1:0:0:
189,188,131967,5,2,3:2:0:0:
266,149,132192,1,2,0:0:0:0:
364,165,132418,1,0,1:2:0:0:
442,239,132644,1,2,0:0:0:0:
475,344,132869,2,0,L|367:356,1,107.999996704102,2|2,3:2|0:0,0:0:0:0:
278,384,133207,1,2,0:0:0:0:
269,374,133320,2,0,L|279:294,1,53.9999983520508,0|2,1:2|0:0,0:0:0:0:
352,263,133546,2,0,L|339:182,1,53.9999983520508,2|2,0:2|0:2,0:0:0:0:
321,118,133771,5,2,3:2:0:0:
249,168,133996,1,2,0:0:0:0:
152,169,134222,1,0,1:2:0:0:
61,112,134448,1,2,0:0:0:0:
25,4,134674,2,0,P|52:4|77:14,1,53.9999983520508,2|0,3:2|0:2,0:0:0:0:
173,0,134899,1,2,0:3:0:0:
184,7,135012,2,0,P|197:30|201:56,1,53.9999983520508,2|0,0:0|1:2,0:0:0:0:
281,115,135238,1,2,0:0:0:0:
283,128,135350,2,0,P|269:151|248:168,1,53.9999983520508,2|0,0:0|0:0,0:0:0:0:
231,308,135576,6,0,P|182:245|104:232,1,161.999995056153,2|0,3:2|0:0,0:0:0:0:
93,244,136027,1,0,1:2:0:0:
335,384,136253,1,2,0:0:0:0:
335,384,136365,1,2,0:2:0:0:
335,384,136478,2,0,L|347:263,1,107.999996704102,2|2,3:2|0:0,0:0:0:0:
414,209,136816,1,2,0:0:0:0:
410,195,136929,1,0,1:2:0:0:
380,37,137155,1,2,0:0:0:0:
209,94,137380,5,0,1:2:0:0:
212,128,137493,1,0,1:2:0:0:
216,161,137606,1,0,3:0:0:0:
305,117,137831,1,0,3:0:0:0:
108,82,138056,5,0,1:2:0:0:
115,140,138169,1,0,1:2:0:0:
122,199,138282,1,0,3:0:0:0:
305,117,138508,1,2,3:2:0:0:
0,62,138734,6,0,L|9:127,1,53.9999983520508,0|0,1:2|0:0,0:0:0:0:
21,201,138959,2,0,L|30:266,1,53.9999983520508,0|0,1:2|0:0,0:0:0:0:
56,357,139185,6,0,B|87:328|87:328|173:342,1,125.999996154785,6|0,3:2|0:0,0:0:0:0:
258,384,139523,1,2,0:0:0:0:
269,374,139636,2,0,L|255:258,1,107.999996704102,0|2,1:0|0:0,0:0:0:0:
139,204,140087,1,0,3:0:0:0:
375,104,140313,1,2,0:0:0:0:
375,104,140426,1,2,0:0:0:0:
375,104,140539,2,0,L|368:158,2,53.9999983520508,0|2|2,1:0|0:0|0:0,0:0:0:0:
168,18,140989,6,0,P|118:37|91:103,1,107.999996704102,2|2,3:2|0:3,0:0:0:0:
28,154,141328,1,2,0:0:0:0:
37,163,141441,2,0,L|167:180,1,107.999996704102,0|2,1:0|0:0,0:0:0:0:
353,345,141892,1,2,3:2:0:0:
490,292,142117,5,2,0:0:0:0:
490,292,142230,1,2,0:0:0:0:
490,292,142342,2,0,P|470:273|441:265,1,53.9999983520508,0|2,1:0|0:0,0:0:0:0:
361,202,142568,2,0,P|335:210|314:232,1,53.9999983520508,2|0,0:0|0:0,0:0:0:0:
214,262,142793,5,0,3:2:0:0:
220,299,142906,1,2,0:0:0:0:
227,336,143019,1,2,0:0:0:0:
11,214,143245,2,0,L|17:142,1,53.9999983520508,0|0,1:0|0:0,0:0:0:0:
5,72,143471,1,2,0:0:0:0:
16,62,143583,2,0,P|58:66|118:111,1,107.999996704102,2|0,0:0|0:0,0:0:0:0:
175,182,143922,1,2,0:0:0:0:
175,182,144034,1,2,0:0:0:0:
175,182,144147,1,0,1:0:0:0:
365,112,144373,1,2,0:0:0:0:
493,260,144598,6,0,P|495:323|472:371,1,107.999996704102,2|2,3:2|0:0,0:0:0:0:
268,170,145050,2,0,P|265:106|288:58,1,107.999996704102,0|2,1:0|0:0,0:0:0:0:
353,11,145388,1,2,0:0:0:0:
366,16,145501,1,0,3:0:0:0:
403,116,145726,1,2,0:0:0:0:
300,313,145952,6,2,B|227:301|227:301|179:331|179:331|106:318,1,202.500007724762,0|0,1:0|0:0,0:1:0:0:
37,377,146403,5,2,3:2:0:0:
92,222,146628,1,2,0:0:0:0:
33,118,146854,1,0,1:0:0:0:
82,21,147080,2,0,P|135:24|178:56,1,107.999996704102,2|0,0:0|3:0,0:0:0:0:
254,118,147418,1,2,0:2:0:0:
268,112,147531,2,0,L|280:-8,1,107.999996704102,2|0,0:0|1:0,0:0:0:0:
169,147,147982,1,2,0:0:0:0:
426,6,148207,5,2,3:2:0:0:
383,130,148432,1,2,0:0:0:0:
435,224,148658,1,0,1:0:0:0:
396,308,148884,2,0,P|351:309|312:334,1,90,2|0,0:0|3:0,0:0:0:0:
234,376,149222,1,2,0:0:0:0:
221,369,149335,2,0,L|210:267,1,90,2|0,0:0|1:0,0:0:0:0:
306,215,149786,1,2,0:0:0:0:
114,325,150012,6,0,P|32:287|4:212,1,161.999995056153,4|0,3:2|0:0,0:0:0:0:
17,212,150463,1,0,1:0:0:0:
212,60,150689,2,0,P|182:126|199:197,1,148.50000453186,4|0,3:2|0:0,0:0:0:0:
215,206,151140,1,2,0:0:0:0:
300,138,151365,1,0,1:0:0:0:
435,301,151591,6,0,B|376:255|353:144|411:78|522:65|560:113|564:189|514:213|482:174,1,382.500007295609,4|0,3:2|0:0,0:0:0:0:
396,93,152944,5,2,0:0:0:0:
402,54,153170,1,2,0:0:0:0:
420,33,153395,1,2,0:0:0:0:
437,26,153621,1,4,0:1:0:0:
161,75,167380,5,2,0:0:0:0:
185,87,167606,1,2,0:0:0:0:
197,100,167831,1,2,0:0:0:0:
204,111,168057,2,0,P|214:153|205:269,1,144,2|0,0:0|0:0,0:0:0:0:
151,318,169185,1,2,0:0:0:0:
142,326,169410,2,0,L|102:329,1,36,2|0,0:0|0:0,0:0:0:0:
11,338,169862,5,2,0:0:0:0:
56,236,170313,1,2,0:0:0:0:
155,222,170764,1,2,0:0:0:0:
234,279,171215,1,2,0:0:0:0:
234,279,171441,2,0,P|269:283|299:302,1,72,2|2,0:0|0:0,0:0:0:0:
382,344,172117,2,0,L|390:259,2,72,2|0|0,0:0|0:0|0:0,0:0:0:0:
399,359,173245,1,2,0:0:0:0:
491,326,173471,5,2,0:0:0:0:
450,248,173696,1,2,0:0:0:0:
385,219,173922,1,2,0:0:0:0:
334,222,174147,1,2,0:0:0:0:
277,256,174373,1,2,0:0:0:0:
227,322,174598,1,2,0:0:0:0:
131,350,174824,1,2,0:0:0:0:
29,327,175050,5,0,3:0:0:0:
29,327,175162,1,0,3:0:0:0:
29,327,175275,2,0,L|0:104,1,220.499993270874,4|0,3:2|0:0,0:0:0:0:
104,131,177080,6,0,L|123:287,1,157.5,4|0,3:2|0:0,0:0:0:0:
218,251,178884,6,0,L|204:144,1,107.100000653687,4|0,3:2|0:0,0:0:0:0:
301,152,180689,5,0,1:0:0:0:
306,186,180802,1,0,1:0:0:0:
310,219,180915,1,0,3:0:0:0:
211,199,181140,1,0,3:0:0:0:
396,118,181365,5,0,1:0:0:0:
403,176,181478,1,0,1:0:0:0:
411,234,181591,1,0,3:0:0:0:
211,199,181817,1,0,3:0:0:0:
490,74,182042,6,0,L|512:248,1,175.499991966248,4|0,1:2|0:0,0:0:0:0:
471,334,182493,6,2,B|447:371|344:382|302:292|367:269|379:309,1,202.500007724762,2|0,0:0|0:0,0:1:0:0:
387,319,182944,6,0,P|337:308|192:358,1,202.500007724762,4|0,1:2|0:0,0:0:0:0:
181,365,183395,1,0,3:0:0:0:
7,219,183621,1,2,0:0:0:0:
7,219,183734,1,2,0:0:0:0:
7,219,183847,2,0,L|0:165,2,53.9999983520508,0|2|2,1:0|0:0|0:0,0:0:0:0:
80,44,184298,6,0,P|115:85|166:100,1,107.999996704102,2|2,3:2|0:3,0:0:0:0:
243,165,184636,1,2,0:0:0:0:
256,158,184749,2,0,L|269:35,1,107.999996704102,0|2,1:0|0:0,0:0:0:0:
156,193,185200,1,2,3:2:0:0:
442,323,185425,5,2,0:0:0:0:
442,323,185538,1,2,0:0:0:0:
442,323,185650,2,0,P|422:304|393:296,1,53.9999983520508,0|2,1:0|0:0,0:0:0:0:
328,224,185876,2,0,P|302:232|281:254,1,53.9999983520508,2|0,0:0|0:0,0:0:0:0:
189,273,186101,5,0,3:2:0:0:
195,310,186214,1,2,0:2:0:0:
202,347,186327,1,2,0:2:0:0:
429,199,186553,2,0,L|435:136,1,53.9999983520508,0|0,1:0|0:0,0:0:0:0:
454,52,186779,1,2,0:0:0:0:
442,42,186892,2,0,P|394:66|337:65,1,107.999996704102,2|0,0:0|0:0,0:0:0:0:
263,125,187230,1,2,0:0:0:0:
263,125,187343,1,2,0:0:0:0:
263,125,187456,2,0,L|196:113,1,53.9999983520508,0|0,1:0|0:0,0:0:0:0:
145,44,187681,2,0,L|78:56,1,53.9999983520508,2|0,0:0|0:0,0:0:0:0:
7,104,187907,6,0,P|26:153|23:207,1,107.999996704102,2|2,3:2|0:2,0:0:0:0:
214,362,188358,2,0,P|194:312|197:258,1,107.999996704102,0|2,1:0|0:0,0:0:0:0:
233,177,188696,1,2,0:0:0:0:
247,171,188809,1,0,3:0:0:0:
320,265,189034,1,2,0:0:0:0:
0,304,189260,6,2,P|32:227|91:292,1,202.500007724762,0|0,1:0|0:0,0:1:0:0:
58,377,189711,5,2,3:2:0:0:
104,303,189937,1,2,0:0:0:0:
191,265,190162,1,0,1:0:0:0:
301,271,190388,1,2,0:0:0:0:
402,327,190613,1,2,3:2:0:0:
512,233,190839,1,2,0:0:0:0:
512,233,190952,1,2,0:0:0:0:
512,233,191065,2,0,P|488:218|474:195,1,53.9999983520508,0|2,1:0|0:0,0:0:0:0:
371,169,191290,2,0,P|364:142|371:116,1,53.9999983520508,2|0,0:0|0:0,0:0:0:0:
406,25,191516,5,2,3:2:0:0:
364,103,191742,1,2,0:2:0:0:
271,145,191967,1,0,1:0:0:0:
160,134,192193,1,2,0:0:0:0:
77,52,192418,2,0,P|112:39|153:51,1,53.9999983520508,2|0,3:2|0:0,0:0:0:0:
216,2,192644,1,2,0:3:0:0:
229,1,192756,2,0,P|257:24|267:66,1,53.9999983520508,2|0,0:0|1:0,0:0:0:0:
357,76,192982,1,2,0:0:0:0:
363,88,193095,2,0,P|356:124|325:154,1,53.9999983520508,2|0,0:0|0:0,0:0:0:0:
458,233,193320,6,0,P|379:233|327:292,1,161.999995056153,2|0,3:2|0:0,0:0:0:0:
337,304,193771,1,0,1:0:0:0:
120,365,193997,1,2,0:0:0:0:
120,365,194109,1,2,0:0:0:0:
120,365,194222,2,0,P|134:307|124:251,1,107.999996704102,0|2,3:0|0:0,0:0:0:0:
71,187,194561,1,2,0:2:0:0:
57,193,194674,1,0,1:0:0:0:
23,290,194899,1,2,0:0:0:0:
280,215,195125,5,0,1:0:0:0:
282,179,195238,1,0,1:0:0:0:
285,146,195351,1,0,3:0:0:0:
190,172,195576,1,0,3:0:0:0:
375,246,195801,5,0,1:0:0:0:
381,188,195914,1,0,1:0:0:0:
386,130,196027,1,0,3:0:0:0:
190,172,196253,1,2,3:2:0:0:
476,291,196478,6,0,L|481:224,1,53.9999983520508,0|0,1:0|0:0,0:0:0:0:
489,148,196704,2,0,L|492:81,1,53.9999983520508,0|0,1:0|0:0,0:0:0:0:
451,9,196929,6,0,P|391:44|323:36,1,135.000005149842,4|0,3:2|0:0,0:0:0:0:
239,2,197268,1,2,0:0:0:0:
230,14,197380,2,0,L|243:135,1,107.999996704102,0|2,1:0|0:0,0:0:0:0:
316,185,197719,1,2,0:0:0:0:
312,199,197831,1,2,3:2:0:0:
77,270,198057,1,2,0:0:0:0:
77,270,198170,1,2,0:0:0:0:
77,270,198283,2,0,L|82:198,2,53.9999983520508,0|2|2,1:0|0:0|0:0,0:0:0:0:
216,377,198734,6,0,P|257:343|313:336,1,107.999996704102,2|2,3:2|0:3,0:0:0:0:
396,384,199072,1,2,0:0:0:0:
405,372,199184,2,0,L|388:254,1,107.999996704102,0|2,1:0|0:0,0:0:0:0:
241,193,199636,1,2,3:2:0:0:
478,43,199862,5,2,0:0:0:0:
478,43,199975,1,2,0:0:0:0:
478,43,200087,2,0,P|458:62|429:70,1,53.9999983520508,0|2,1:0|0:0,0:0:0:0:
353,131,200313,2,0,P|327:123|306:101,1,53.9999983520508,2|0,0:0|0:0,0:0:0:0:
209,84,200538,5,0,3:2:0:0:
215,47,200651,1,2,0:2:0:0:
222,10,200764,1,2,0:2:0:0:
0,174,200989,2,0,L|8:241,1,53.9999983520508,0|0,1:0|0:0,0:0:0:0:
45,309,201215,1,2,0:0:0:0:
56,317,201328,2,0,P|104:293|161:294,1,107.999996704102,2|0,0:0|0:0,0:0:0:0:
253,333,201666,1,2,0:0:0:0:
253,333,201779,1,2,0:0:0:0:
253,333,201892,1,0,1:0:0:0:
373,168,202117,1,2,0:0:0:0:
209,41,202343,6,2,B|214:80|202:106|202:106|229:123|236:157|236:157|213:193|228:227,1,202.500007724762,2|0,3:2|0:0,0:1:0:0:
242,222,202794,2,2,B|235:179|208:161|208:161|225:140|224:102|224:102|196:83|195:42,1,202.500007724762,0|0,1:0|0:0,0:1:0:0:
361,147,203245,6,2,B|355:186|367:212|367:212|340:229|333:263|333:263|356:299|341:333,1,202.500007724762,2|0,3:2|0:0,0:1:0:0:
327,327,203696,2,2,B|334:285|361:267|361:267|344:246|345:208|345:208|373:189|373:148,1,202.500007724762,0|0,1:0|0:0,0:1:0:0:
470,123,204147,5,2,3:2:0:0:
271,17,204373,1,2,0:0:0:0:
384,32,204598,1,0,1:0:0:0:
183,66,204824,2,0,P|176:119|187:172,1,107.999996704102,2|0,0:0|3:0,0:0:0:0:
267,237,205162,1,2,0:0:0:0:
279,228,205275,2,0,P|285:174|274:121,1,107.999996704102,2|0,0:0|1:0,0:0:0:0:
96,20,205726,1,2,0:0:0:0:
33,273,205952,5,2,3:2:0:0:
200,186,206178,1,2,0:0:0:0:
103,197,206403,1,0,1:0:0:0:
279,228,206629,2,0,P|284:272|272:318,1,90,2|0,0:0|3:0,0:0:0:0:
195,373,206967,1,2,0:0:0:0:
182,364,207080,2,0,P|176:317|188:273,1,90,2|0,0:2|1:0,0:0:0:0:
371,193,207531,1,2,0:0:0:0:
229,46,207756,6,0,B|158:30|148:54|132:84|57:67,1,175.499991966248,4|0,3:2|0:0,0:0:0:0:
47,82,208207,1,0,1:0:0:0:
326,181,208433,2,0,B|390:167|399:188|413:215|481:200,1,161.999995056153,4|0,0:0|0:0,0:0:0:0:
496,212,208884,1,2,0:0:0:0:
438,102,209110,1,0,1:0:0:0:
248,333,209335,6,0,P|189:247|222:148,1,216,4|0,0:0|0:0,0:0:0:0:
318,113,209786,1,2,0:0:0:0:
318,113,209898,1,2,0:0:0:0:
318,113,210011,2,0,L|324:172,2,53.9999983520508,0|2|2,1:0|0:0|0:0,0:0:0:0:
80,2,210463,5,0,1:0:0:0:
25,25,210576,1,0,1:0:0:0:
0,79,210689,1,0,1:0:0:0:
9,135,210801,1,0,1:0:0:0:
51,176,210914,2,0,L|158:188,1,107.999996704102,0|0,1:0|3:0,0:0:0:0:
249,203,211253,5,2,0:0:0:0:
259,214,211365,2,0,P|311:125|257:37,1,215.999993408203,4|2,3:2|0:0,0:0:0:0:
150,175,212042,2,0,P|97:263|150:350,1,215.999993408203,4|2,3:2|0:0,0:0:0:0:
285,367,212719,1,2,0:0:0:0:
463,187,212944,5,4,3:2:0:0:
251,158,213170,1,0,1:0:0:0:
259,216,213283,1,0,1:0:0:0:
267,274,213396,1,8,0:3:0:0:
463,187,213621,5,4,0:3:0:0:
359,166,213846,1,0,1:0:0:0:
363,200,213959,1,0,1:0:0:0:
367,233,214072,1,8,0:3:0:0:
471,195,214298,5,4,0:3:0:0:
471,195,214523,1,0,1:0:0:0:
471,195,214974,6,0,P|446:130|375:100,1,135.000005149842,4|2,3:2|0:3,0:0:0:0:
332,31,215313,1,2,0:0:0:0:
319,22,215425,2,0,L|260:30,1,53.9999983520508,0|0,1:0|0:0,0:0:0:0:
175,40,215651,1,2,0:3:0:0:
30,163,215877,5,2,3:2:0:0:
81,143,215990,1,2,0:0:0:0:
134,153,216102,1,2,0:3:0:0:
172,191,216215,1,2,0:0:0:0:
237,254,216328,2,0,P|255:234|262:208,1,53.9999983520508,0|0,1:0|0:0,0:0:0:0:
360,146,216553,5,2,0:3:0:0:
360,146,216666,1,2,0:0:0:0:
360,146,216779,2,0,L|448:158,2,67.5000025749208,2|2|0,3:2|0:0|0:0,0:0:0:0:
146,279,217230,2,0,L|59:289,2,67.5000025749208,0|0|2,1:0|0:0|0:2,0:0:0:0:
261,326,217568,5,2,0:0:0:0:
261,326,217681,2,0,B|216:253|254:226|291:193|234:107,1,202.500007724762,2|2,3:2|0:0,0:0:0:0:
265,23,218132,2,0,P|235:38|200:41,1,67.5000025749208,0|0,1:0|0:0,0:0:0:0:
90,114,218358,2,0,P|124:115|155:129,1,67.5000025749208,2|0,0:3|0:0,0:0:0:0:
385,142,218583,5,2,3:2:0:0:
360,189,218696,1,2,0:0:0:0:
372,241,218809,1,2,0:3:0:0:
216,345,219034,2,0,L|208:274,1,53.9999983520508,0|0,1:0|0:0,0:0:0:0:
153,220,219260,1,2,0:3:0:0:
142,210,219373,2,0,P|158:153|153:95,1,107.999996704102,2|0,0:0|0:0,0:0:0:0:
143,11,219711,5,2,0:3:0:0:
143,11,219824,1,2,0:0:0:0:
143,11,219937,2,0,L|218:21,1,53.9999983520508,0|0,1:0|0:0,0:0:0:0:
273,82,220162,2,0,L|348:72,1,53.9999983520508,2|0,0:3|0:0,0:0:0:0:
420,34,220388,5,2,3:2:0:0:
429,43,220501,2,0,P|434:76|425:108,1,67.5000025749208,2|0,0:0|0:0,0:0:0:0:
254,250,220839,6,0,P|245:216|254:176,1,67.5000025749208,0|0,1:0|0:0,0:0:0:0:
332,135,221065,1,2,0:0:0:0:
332,135,221177,1,2,0:0:0:0:
332,135,221290,2,0,B|283:106|228:120|222:178|140:162,1,202.500007724762,2|0,3:2|0:0,0:0:0:0:
68,92,221741,6,2,P|111:-1|168:74,1,229.500004377365,0|0,1:0|0:0,0:1:0:0:
150,171,222192,5,2,3:1:0:0:
150,171,222305,1,2,0:0:0:0:
150,171,222418,1,2,0:2:0:0:
6,217,222644,6,0,P|32:238|65:246,1,67.5000025749208,2|0,1:1|0:0,0:0:0:0:
231,270,222869,2,0,P|198:273|168:288,1,67.5000025749208,2|0,0:1|0:0,0:0:0:0:
85,341,223095,6,2,B|204:296|251:345|302:391|417:343,1,337.500012874604,2|0,3:2|0:0,0:1:0:0:
502,377,223771,5,2,0:0:0:0:
512,327,223884,1,2,0:0:0:0:
489,283,223997,2,0,L|502:184,2,90.0000034332277,2|2|2,3:1|0:2|0:2,0:0:0:0:
407,229,224448,5,2,1:0:0:0:
407,229,224561,2,2,B|354:274|227:264|199:224|208:220|182:94|-30:98|-63:185|-42:292|81:330|143:239,1,607.500023174287,2|0,0:2|0:0,0:1:0:0:
306,146,225801,5,2,3:2:0:0:
306,146,225914,1,2,0:0:0:0:
306,146,226027,2,0,P|294:122|259:104,1,53.9999983520508,2|0,0:1|0:0,0:0:0:0:
216,24,226253,2,0,P|189:22|156:43,1,53.9999983520508,2|0,1:1|0:0,0:0:0:0:
74,0,226478,1,2,0:2:0:0:
62,7,226591,2,0,P|49:72|56:130,1,116.999994644165,2|2,0:1|0:0,0:0:0:0:
136,237,226929,1,2,0:0:0:0:
147,248,227042,2,0,P|164:180|157:122,1,125.999996154785,2|0,0:1|0:0,0:0:0:0:
43,227,227380,2,0,P|44:265|58:296,1,62.9999980773926,2|2,0:1|0:0,0:0:0:0:
290,345,227606,5,0,1:0:0:0:
287,311,227719,1,0,1:0:0:0:
283,278,227832,1,0,3:0:0:0:
194,322,228057,1,0,3:0:0:0:
391,357,228282,5,0,1:0:0:0:
384,299,228395,1,0,1:0:0:0:
377,240,228508,1,0,3:0:0:0:
194,322,228734,1,0,3:0:0:0:
507,385,228959,6,2,B|510:342|476:317|476:317|472:280|504:258|504:258|470:233|470:173,1,229.500004377365,0|0,1:0|0:0,0:1:0:0:
450,64,229410,6,0,P|416:111|329:121,1,135.000005149842,4|2,3:2|0:3,0:0:0:0:
259,156,229749,1,2,0:0:0:0:
247,147,229862,2,0,L|252:74,1,53.9999983520508,0|0,1:0|0:0,0:0:0:0:
258,7,230087,1,2,0:3:0:0:
19,160,230313,5,2,3:2:0:0:
23,211,230426,1,2,0:0:0:0:
59,253,230538,1,2,0:3:0:0:
111,269,230651,1,2,0:0:0:0:
202,278,230764,2,0,P|203:252|193:227,1,53.9999983520508,0|0,1:0|0:0,0:0:0:0:
132,150,230989,5,2,0:3:0:0:
132,150,231102,1,2,0:0:0:0:
132,150,231215,2,0,L|120:62,2,67.5000025749208,2|2|0,3:2|0:0|0:0,0:0:0:0:
348,294,231666,2,0,L|360:206,2,67.5000025749208,0|0|2,1:0|0:0|0:0,0:0:0:0:
255,355,232004,5,2,0:0:0:0:
255,355,232117,2,0,P|242:254|251:143,1,202.500007724762,2|0,3:2|0:0,0:0:0:0:
266,145,232568,1,0,1:0:0:0:
297,2,232794,2,0,P|331:26|372:37,1,67.5000025749208,2|0,0:3|0:0,0:0:0:0:
512,159,233019,5,2,3:2:0:0:
465,150,233132,1,2,0:0:0:0:
428,180,233245,1,2,0:3:0:0:
230,266,233471,2,0,L|222:208,1,53.9999983520508,0|0,1:0|0:0,0:0:0:0:
246,113,233696,1,2,0:3:0:0:
234,104,233809,2,0,P|180:130|122:131,1,107.999996704102,2|0,0:0|0:0,0:0:0:0:
41,106,234147,5,2,0:3:0:0:
41,106,234260,1,2,0:0:0:0:
41,106,234373,2,0,L|33:159,1,53.9999983520508,0|0,1:0|0:0,0:0:0:0:
106,221,234598,2,0,L|112:274,1,53.9999983520508,2|0,0:3|0:0,0:0:0:0:
68,358,234824,5,2,3:2:0:0:
78,367,234937,2,0,P|122:373|156:397,1,67.5000025749208,2|0,0:0|0:0,0:0:0:0:
374,270,235275,6,0,P|330:276|296:300,1,67.5000025749208,0|0,1:0|0:0,0:0:0:0:
234,329,235501,1,2,0:0:0:0:
234,329,235613,1,2,0:0:0:0:
234,329,235726,2,0,P|210:264|247:190,1,135.000005149842,2|0,3:2|0:0,0:0:0:0:
197,116,236065,5,2,0:0:0:0:
208,106,236177,2,2,B|286:92|304:124|318:156|403:138,1,202.500007724762,0|0,1:0|0:0,0:1:0:0:
470,219,236628,5,2,3:2:0:0:
296,355,236854,1,2,0:0:0:0:
408,328,237079,1,0,1:0:0:0:
206,308,237305,2,0,P|199:255|212:202,1,107.999996704102,2|0,0:2|3:0,0:0:0:0:
296,146,237644,1,2,0:0:0:0:
306,156,237756,2,0,P|313:209|301:262,1,107.999996704102,2|0,0:0|1:0,0:0:0:0:
101,314,238207,1,2,0:0:0:0:
49,79,238433,5,2,3:2:0:0:
203,193,238659,1,2,0:0:0:0:
104,171,238884,1,0,1:0:0:0:
285,154,239110,2,0,P|292:109|283:65,1,90,2|0,0:0|3:0,0:0:0:0:
206,4,239449,1,2,0:0:0:0:
195,12,239561,2,0,P|187:57|199:104,1,90,2|0,0:0|1:0,0:0:0:0:
383,164,240012,1,2,0:0:0:0:
243,319,240238,6,0,B|172:303|162:327|146:357|71:340,1,175.499991966248,4|0,3:2|0:0,0:0:0:0:
62,354,240689,1,0,1:0:0:0:
275,207,240914,2,0,B|339:193|348:214|362:241|430:226,1,161.999995056153,4|0,0:0|0:0,0:0:0:0:
445,238,241365,1,2,0:0:0:0:
394,325,241591,1,0,1:0:0:0:
164,71,241816,6,0,P|95:141|125:233,1,202.500007724762,4|0,0:0|0:0,0:0:0:0:
212,286,242268,1,2,0:0:0:0:
212,286,242380,1,2,0:0:0:0:
212,286,242493,2,0,L|218:227,2,53.9999983520508,0|2|2,1:0|0:0|0:0,0:0:0:0:
423,376,242944,5,0,1:0:0:0:
475,363,243057,1,0,1:0:0:0:
510,322,243169,1,0,1:0:0:0:
509,267,243282,1,0,1:0:0:0:
477,222,243395,2,0,L|335:206,1,107.999996704102,0|0,1:0|3:0,0:0:0:0:
272,235,243734,5,2,0:0:0:0:
262,247,243847,2,0,P|327:341|420:305,1,215.999993408203,4|2,3:2|0:0,0:0:0:0:
254,142,244523,2,0,P|154:123|106:212,1,215.999993408203,4|2,3:2|0:0,0:0:0:0:
238,334,245200,1,2,0:0:0:0:
351,186,245425,6,0,B|422:170|490:82|468:0|375:-59|321:-33|285:31|319:74|364:53,1,377.999988464356,4|0,3:2|3:0,0:0:0:0:
493,329,247456,6,0,P|465:266|402:274,1,116.999994644165,4|0,3:2|0:0,0:0:0:0:
255,242,247794,6,0,P|277:301|341:300,1,135.000005149842,2|0,3:2|0:0,0:0:0:0:
375,384,248132,6,0,L|390:137,1,202.500007724762,2|0,3:2|0:0,0:0:0:0:
400,168,248583,1,2,3:2:0:0:
170,23,248809,2,0,P|123:26|88:64,1,80.9999975280763,0|0,1:0|0:0,0:0:0:0:
0,114,249260,6,0,P|12:167|67:170,1,116.999994644165,2|0,3:2|0:0,0:0:0:0:
207,210,249598,6,0,P|190:132|126:133,1,135.000005149842,2|0,3:2|0:0,0:0:0:0:
98,47,249937,6,0,L|116:292,1,202.500007724762,2|0,3:2|0:0,0:0:0:0:
101,263,250388,1,2,3:2:0:0:
307,352,250613,1,0,1:0:0:0:
426,235,250839,5,4,3:1:0:0:
256,192,250952,12,0,254674,0:0:0:0:
