osu file format v14

[General]
AudioFilename: audio.mp3
AudioLeadIn: 0
PreviewTime: 48405
Countdown: 0
SampleSet: Soft
StackLeniency: 0.5
Mode: 0
LetterboxInBreaks: 0
WidescreenStoryboard: 1

[Editor]
Bookmarks: 20097,48969,81451,95887,124759,153631,168067,182503,214984,247466,254684
DistanceSpacing: 1
BeatDivisor: 4
GridSize: 8
TimelineZoom: 1.46

[Metadata]
Title:Gimmme!
TitleUnicode:Gimmme!
Artist:ORESAMA
ArtistUnicode:ORESAMA
Creator:kuuti
Version:Chitose's Hyper
Source:魔王城でおやすみ
Tags:kudou chitose mrrrk hinae continew world maoujou de oyasumi sleepy princess in the demon castle ぽん pon 小島英也 kojima hideya anime ending ed jpop j pop japanese funk disco full version
BeatmapID:4485877
BeatmapSetID:2114113

[Difficulty]
HPDrainRate:4
CircleSize:4
OverallDifficulty:7
ApproachRate:7.5
SliderMultiplier:1.6
SliderTickRate:1

[Events]
//Background and Video events
0,0,"maoujou.jpg",0,0
//Break Periods
2,81641,94072
2,153821,167157
//Storyboard Layer 0 (Background)
//Storyboard Layer 1 (Fail)
//Storyboard Layer 2 (Pass)
//Storyboard Layer 3 (Foreground)
//Storyboard Layer 4 (Overlay)
//Storyboard Sound Samples

[TimingPoints]
238,451.127819548873,4,2,1,60,1,0
3847,-100,4,2,1,70,0,0
18283,-100,4,2,1,60,0,0
32719,-90.9090909090909,4,2,1,60,0,0
34523,-100,4,2,1,70,0,0
39486,-90.9090909090909,4,2,1,70,0,0
39937,-125,4,2,1,70,0,0
40839,-100,4,2,1,70,0,0
45125,-100,4,2,1,60,0,0
45801,-100,4,2,1,40,0,0
46704,-100,4,2,1,50,0,0
47155,-100,4,2,1,70,0,0
48959,-83.3333333333333,4,2,1,80,0,1
77380,-100,4,2,1,80,0,1
77831,-83.3333333333333,4,2,1,70,0,1
81441,-100,4,2,1,70,0,0
94072,-100,4,2,1,60,0,0
110313,-100,4,2,1,70,0,0
115275,-90.9090909090909,4,2,1,70,0,0
115726,-125,4,2,1,70,0,0
116628,-100,4,2,1,70,0,0
120914,-100,4,2,1,60,0,0
122042,-100,4,2,1,40,0,0
122493,-100,4,2,1,50,0,0
122944,-100,4,2,1,70,0,0
124749,-83.3333333333333,4,2,1,80,0,1
152944,-83.3333333333333,4,2,1,70,0,1
153621,-100,4,2,1,60,0,0
167380,-100,4,2,1,40,0,0
175275,-100,4,2,1,60,0,0
180689,-100,4,2,1,70,0,0
182493,-111.111111111111,4,2,1,10,0,0
182550,-111.111111111111,4,2,2,15,0,0
182606,-111.111111111111,4,2,1,20,0,0
182662,-111.111111111111,4,2,2,25,0,0
182719,-111.111111111111,4,2,1,30,0,0
182775,-111.111111111111,4,2,2,40,0,0
182831,-111.111111111111,4,2,1,50,0,0
182944,-83.3333333333333,4,2,1,80,0,1
211365,-83.3333333333333,4,2,1,70,0,0
214974,-100,4,2,1,80,0,1
236177,-83.3333333333333,4,2,1,80,0,1
236628,-100,4,2,1,80,0,1
243847,-100,4,2,1,70,0,0
252869,-100,4,2,1,55,0,0
253320,-100,4,2,1,40,0,0
253771,-100,4,2,1,30,0,0
254222,-100,4,2,1,20,0,0
254674,-100,4,2,1,5,0,0

[Colours]
Combo1 : 165,235,213
Combo2 : 99,170,222
Combo3 : 136,216,230

[HitObjects]
84,95,3847,5,0,1:2:0:0:
84,95,3960,1,0,1:2:0:0:
159,364,4523,1,0,1:2:0:0:
159,364,4636,1,0,1:2:0:0:
428,289,5200,1,6,1:2:0:0:
446,277,5651,6,0,P|436:221|440:159,1,120,6|2,3:2|0:0,0:0:0:0:
460,141,6102,2,0,P|453:101|462:48,1,80,0|2,1:2|0:3,0:0:0:0:
398,12,6553,1,0,3:0:0:0:
310,38,6779,1,2,0:3:0:0:
310,38,6892,1,2,0:0:0:0:
310,38,7004,1,0,1:2:0:0:
225,4,7230,1,2,0:3:0:0:
157,49,7456,6,0,P|109:55|19:49,1,120,2|0,3:2|0:0,0:0:0:0:
12,73,7907,2,0,P|18:121|12:183,1,80,0|2,1:2|0:3,0:0:0:0:
45,267,8358,1,2,3:2:0:0:
45,267,8471,1,2,0:0:0:0:
45,267,8583,1,2,0:3:0:0:
45,267,8696,1,2,0:0:0:0:
45,267,8809,2,0,P|93:261|155:267,1,80,0|2,1:2|0:3,0:0:0:0:
193,331,9260,6,0,P|249:325|265:269,1,120,2|2,3:2|0:0,0:0:0:0:
288,243,9711,2,0,P|282:195|288:133,1,80,0|2,1:2|0:3,0:0:0:0:
232,107,10162,1,2,3:2:0:0:
295,31,10388,1,2,0:3:0:0:
295,31,10501,1,2,0:0:0:0:
295,31,10613,2,0,P|343:25|405:31,1,80,0|2,1:2|0:3,0:0:0:0:
459,77,11065,1,0,3:0:0:0:
424,145,11290,6,0,P|422:172|425:202,1,40,2|8,0:2|0:3,0:0:0:0:
455,226,11516,1,0,1:2:0:0:
455,226,11628,1,8,0:3:0:0:
455,226,11741,1,4,0:3:0:0:
397,285,11967,1,2,3:2:0:0:
397,285,12079,1,4,0:3:0:0:
397,285,12192,1,2,0:3:0:0:
434,357,12418,5,0,1:2:0:0:
335,384,12644,1,2,0:3:0:0:
242,338,12869,2,0,P|187:332|113:340,1,120,6|2,3:2|0:0,0:0:0:0:
110,361,13320,2,0,P|76:367|47:317,1,80,0|2,1:2|0:3,0:0:0:0:
2,275,13771,1,2,3:2:0:0:
88,237,13997,1,2,0:3:0:0:
88,237,14110,1,2,0:0:0:0:
88,237,14222,1,0,1:2:0:0:
72,145,14448,1,2,0:3:0:0:
129,87,14674,6,0,P|191:84|268:89,1,120,2|0,3:2|0:0,0:0:0:0:
266,114,15125,2,0,P|306:117|350:115,1,80,0|2,1:2|0:3,0:0:0:0:
419,69,15576,1,2,3:2:0:0:
419,69,15689,1,2,0:0:0:0:
419,69,15801,1,2,0:3:0:0:
419,69,15914,1,2,0:0:0:0:
419,69,16027,2,0,P|379:70|339:67,1,80,0|2,1:2|0:3,0:0:0:0:
269,116,16478,6,0,P|209:113|149:116,1,120,2|2,3:2|0:0,0:0:0:0:
136,103,16929,1,0,1:2:0:0:
47,140,17155,1,2,0:3:0:0:
130,187,17380,1,2,3:2:0:0:
41,224,17606,1,2,0:3:0:0:
78,293,17831,5,0,1:2:0:0:
27,350,18057,2,0,P|61:367|119:357,1,80,2|2,0:3|0:2,0:0:0:0:
291,279,18734,1,2,0:2:0:0:
207,95,19185,1,2,0:2:0:0:
229,24,19410,1,8,3:2:0:0:
303,21,19636,2,2,B|307:15|307:15|413:7|413:7|417:14,1,120,2|0,3:2|0:0,0:1:0:0:
430,32,20087,5,6,3:2:0:0:
511,163,20538,2,0,P|482:200|373:211,1,160,0|2,1:2|0:0,0:0:0:0:
327,153,21215,1,2,3:2:0:0:
377,82,21441,2,0,P|347:104|325:150,1,80,0|2,1:2|0:2,0:0:0:0:
294,227,21892,2,0,P|227:257|132:243,1,160,2|0,3:2|1:0,0:0:0:0:
77,188,22568,1,2,0:0:0:0:
77,188,23471,5,2,3:2:0:0:
104,271,23696,2,0,P|77:238|69:192,1,80,2|2,3:2|0:0,0:0:0:0:
14,146,24147,2,0,P|18:106|41:69,1,80,2|2,1:2|0:0,0:0:0:0:
103,22,24598,1,2,0:0:0:0:
184,11,24824,1,2,3:2:0:0:
258,48,25050,1,2,1:2:0:0:
308,127,25275,1,2,0:2:0:0:
308,127,25388,1,2,0:2:0:0:
308,127,25501,2,0,P|353:144|448:142,2,120,2|2|2,3:2|0:0|0:0,0:0:0:0:
231,166,26403,6,0,P|211:163|194:154,2,40,2|2|0,0:0|0:0|3:0,0:0:0:0:
259,265,26854,2,0,P|276:274|296:277,2,40,0|2|2,1:2|0:0|3:3,0:0:0:0:
236,285,27192,1,2,0:2:0:0:
236,285,27305,1,2,3:2:0:0:
179,229,27531,1,2,0:0:0:0:
141,294,27756,1,0,1:2:0:0:
71,268,27982,5,2,0:0:0:0:
0,293,28207,2,0,P|17:322|67:342,1,80,2|2,0:0|3:2,0:0:0:0:
136,372,28659,2,0,P|177:365|211:326,1,80,0|2,1:2|0:2,0:0:0:0:
286,297,29110,2,0,P|337:270|438:268,1,160,2|0,3:2|1:0,0:0:0:0:
507,313,29786,1,2,0:0:0:0:
507,313,30689,6,0,P|499:330|497:369,2,40,2|0|2,3:2|0:0|3:2,0:0:0:0:
447,251,31140,1,2,0:0:0:0:
384,311,31365,2,0,P|406:275|454:242,1,80,0|2,1:2|0:0,0:0:0:0:
474,182,31816,1,2,0:0:0:0:
408,137,32042,2,0,P|369:143|328:166,1,80,2|0,3:2|1:2,0:0:0:0:
225,171,32493,5,2,0:0:0:0:
216,178,32606,1,2,0:0:0:0:
221,187,32719,2,0,P|207:217|218:282,1,88.000002685547,2|2,3:2|0:0,0:0:0:0:
290,321,33170,2,0,P|304:291|293:226,1,88.000002685547,0|2,1:2|0:0,0:0:0:0:
229,191,33621,1,2,3:2:0:0:
189,115,33847,1,2,0:0:0:0:
220,34,34072,1,0,1:2:0:0:
304,13,34298,1,2,3:2:0:0:
386,15,34523,6,0,P|458:52|483:124,1,160,4|2,3:1|0:0,0:0:0:0:
451,191,35200,1,2,0:0:0:0:
491,276,35425,2,0,P|496:298|513:327,1,40,2|0,3:1|0:0,0:0:0:0:
376,309,35764,2,0,P|369:330|369:364,1,40,2|0,3:1|0:0,0:0:0:0:
281,240,36102,2,0,P|264:255|199:387,1,160,2|2,3:1|0:0,0:0:0:0:
122,384,36779,2,0,P|82:375|37:381,1,80,2|2,0:0|0:0,0:0:0:0:
34,296,37230,6,0,P|23:277|-6:259,1,40,10|0,0:2|0:0,0:0:0:0:
116,193,37568,2,0,P|96:182|62:180,1,40,2|0,3:1|0:0,0:0:0:0:
85,58,37907,2,0,P|63:58|-3:90,1,80,2|0,3:1|0:0,0:0:0:0:
9,78,38358,1,2,0:0:0:0:
93,75,38583,2,0,P|131:82|181:64,1,80,2|0,0:0|0:0,0:0:0:0:
222,18,39034,1,10,0:0:0:0:
283,118,39373,5,2,0:0:0:0:
291,129,39486,2,2,B|250:249|250:249|260:315,1,176.000005371094,2|2,0:2|3:2,0:1:0:0:
331,320,40162,2,0,L|340:383,1,64,2|0,0:0|0:0,0:0:0:0:
341,384,40501,1,2,0:0:0:0:
341,384,40613,1,2,0:0:0:0:
428,373,40839,6,0,P|441:355|444:323,1,40,2|0,3:1|0:0,0:0:0:0:
491,230,41177,2,0,P|493:207|479:178,1,40,2|0,3:1|0:0,0:0:0:0:
501,74,41516,2,0,P|491:53|438:18,1,80,6|2,3:1|0:0,0:0:0:0:
370,14,41967,1,2,0:0:0:0:
308,89,42192,2,0,P|269:91|228:115,1,80,2|0,0:0|0:0,0:0:0:0:
157,141,42644,6,0,P|151:162|153:198,1,40,10|0,0:0|0:0,0:0:0:0:
83,40,42982,2,0,P|77:19|79:-17,1,40,2|0,3:1|0:0,0:0:0:0:
42,160,43320,2,0,P|64:236|52:325,1,160,2|2,3:1|0:0,0:0:0:0:
100,376,43997,1,2,0:0:0:0:
181,336,44222,1,2,0:0:0:0:
262,378,44448,6,0,P|285:376|311:383,1,40,10|0,0:0|0:0,0:0:0:0:
393,289,44786,2,0,P|370:287|344:294,1,40,2|0,3:1|0:0,0:0:0:0:
289,181,45125,6,0,P|207:168|117:176,1,160,2|2,3:1|0:0,0:0:0:0:
71,215,45801,1,2,0:0:0:0:
0,164,46027,1,2,0:0:0:0:
3,79,46253,1,0,1:2:0:0:
3,79,46365,1,0,1:0:0:0:
3,79,46478,2,0,P|8:62|7:30,1,40,0|0,1:2|1:0,0:0:0:0:
89,0,46704,1,0,0:0:0:0:
89,0,46816,1,0,0:0:0:0:
89,0,46929,2,0,P|94:17|117:42,1,40,0|0,1:2|1:0,0:0:0:0:
188,79,47155,5,0,1:2:0:0:
188,79,47268,2,0,L|175:136,1,40,0|0,1:2|3:0,0:0:0:0:
108,181,47606,1,0,3:0:0:0:
143,260,47831,1,0,1:2:0:0:
143,260,47944,2,0,L|200:273,1,40,0|0,1:2|3:0,0:0:0:0:
245,340,48283,1,0,3:0:0:0:
324,305,48508,1,4,1:2:0:0:
335,311,48959,6,0,P|321:212|336:90,2,191.999994140625,6|0|0,3:2|1:2|3:2,0:0:0:0:
409,349,50087,1,2,0:2:0:0:
441,368,50200,1,2,0:0:0:0:
476,359,50313,1,0,1:2:0:0:
512,266,50538,1,2,0:2:0:0:
447,190,50764,6,0,P|442:144|446:93,1,95.9999970703126,2|2,3:2|0:3,0:0:0:0:
345,29,51215,2,0,P|340:75|344:126,1,95.9999970703126,0|2,1:2|0:0,0:0:0:0:
361,140,51553,1,2,0:0:0:0:
340,147,51666,2,0,P|294:142|230:152,1,95.9999970703126,2|2,3:2|0:0,0:0:0:0:
169,215,52117,1,0,1:2:0:0:
71,212,52343,6,0,P|32:183|34:123,1,95.9999970703126,2|0,0:0|3:2,0:0:0:0:
10,122,52681,1,2,0:0:0:0:
23,108,52794,1,2,0:0:0:0:
35,34,53019,1,0,1:2:0:0:
120,65,53245,1,2,0:0:0:0:
146,76,53358,2,0,P|185:59|242:57,1,95.9999970703126,2|0,0:0|0:0,0:0:0:0:
259,36,53696,1,2,0:0:0:0:
122,0,53922,5,0,1:2:0:0:
105,78,54147,1,2,0:0:0:0:
99,89,54260,1,2,0:0:0:0:
104,98,54373,2,0,B|94:159|116:224|116:224|101:292,1,191.999994140625,2|0,3:2|1:2,0:0:0:0:
25,344,55050,2,0,P|14:369|-1:384,2,47.9999985351563,2|2|0,0:0|0:2|3:2,0:0:0:0:
121,301,55501,1,2,0:0:0:0:
196,368,55726,2,2,B|270:378|270:378|356:346,1,143.999995605469,0|0,1:2|0:0,0:1:0:0:
382,331,56177,5,2,3:2:0:0:
353,240,56403,1,2,0:0:0:0:
445,260,56628,1,0,1:2:0:0:
417,170,56854,1,2,0:0:0:0:
509,190,57080,1,2,3:2:0:0:
512,202,57531,5,0,1:2:0:0:
406,171,57756,1,2,0:2:0:0:
449,272,57982,1,2,3:2:0:0:
342,241,58207,1,2,0:0:0:0:
385,343,58433,2,0,P|333:354|283:382,1,95.9999970703126,0|2,1:2|0:0,0:0:0:0:
284,363,58771,1,2,0:0:0:0:
271,374,58884,2,0,P|225:359|173:359,1,95.9999970703126,2|2,3:2|0:3,0:0:0:0:
95,384,59335,1,0,1:2:0:0:
141,287,59561,5,2,0:0:0:0:
46,245,59786,2,0,P|3:172|33:71,1,191.999994140625,2|0,3:2|1:2,0:0:0:0:
129,26,60463,2,0,P|142:70|129:122,1,95.9999970703126,2|0,0:0|3:2,0:0:0:0:
44,73,60914,1,2,0:0:0:0:
129,10,61140,1,0,1:2:0:0:
215,69,61365,1,2,0:0:0:0:
321,64,61591,5,0,1:2:0:0:
321,64,61704,2,0,L|327:120,1,47.9999985351563,0|0,1:2|3:0,0:0:0:0:
415,179,62042,1,0,3:0:0:0:
384,257,62268,5,0,1:2:0:0:
384,257,62380,1,0,1:2:0:0:
384,257,62493,2,0,L|328:263,1,47.9999985351563,0|0,3:0|0:0,0:0:0:0:
290,245,62719,2,0,L|234:251,1,47.9999985351563,2|0,3:2|0:0,0:0:0:0:
216,327,62944,1,0,1:2:0:0:
127,302,63170,1,0,1:2:0:0:
83,384,63395,6,0,P|154:376|295:389,2,191.999994140625,6|0|0,3:2|1:0|3:0,0:0:0:0:
11,349,64523,1,2,0:0:0:0:
29,315,64636,1,2,0:0:0:0:
66,305,64749,1,0,1:0:0:0:
60,203,64974,1,2,0:0:0:0:
122,154,65200,6,0,P|133:110|61:36,1,143.999995605469,2|0,3:2|0:0,0:0:0:0:
88,20,65651,2,0,P|137:27|188:20,1,95.9999970703126,0|2,1:0|0:0,0:0:0:0:
203,44,65989,1,2,0:0:0:0:
213,29,66102,2,0,P|262:22|313:29,1,95.9999970703126,2|2,3:2|0:0,0:0:0:0:
393,0,66553,1,0,1:0:0:0:
471,62,66779,5,2,0:0:0:0:
478,73,66892,1,2,0:0:0:0:
475,83,67004,2,0,P|475:130|421:167,1,95.9999970703126,0|2,3:2|0:0,0:0:0:0:
375,226,67456,1,0,1:0:0:0:
373,246,67568,1,2,0:0:0:0:
364,262,67681,1,2,0:0:0:0:
368,275,67794,1,2,0:0:0:0:
380,283,67907,2,0,P|333:292|281:323,1,95.9999970703126,0|2,3:0|0:0,0:0:0:0:
203,285,68358,1,0,1:0:0:0:
142,369,68583,5,2,0:0:0:0:
128,369,68696,1,2,0:0:0:0:
119,362,68809,1,2,3:2:0:0:
50,324,69034,1,2,0:2:0:0:
87,253,69260,1,0,1:0:0:0:
4,194,69486,1,2,0:0:0:0:
9,81,69711,6,0,P|79:52|126:-2,1,143.999995605469,2|0,3:2|0:0,0:0:0:0:
160,15,70162,2,2,B|207:5|207:5|255:18,1,95.9999970703126,0|2,1:0|0:0,0:1:0:0:
323,49,70613,1,2,3:2:0:0:
239,94,70839,1,2,0:0:0:0:
234,190,71065,1,0,1:0:0:0:
302,256,71290,2,0,P|349:269|393:305,1,95.9999970703126,2|0,0:0|3:0,0:0:0:0:
486,253,71741,2,0,P|473:205|482:149,1,95.9999970703126,2|0,0:0|1:0,0:0:0:0:
385,192,72192,5,2,0:0:0:0:
423,108,72418,1,2,3:2:0:0:
388,22,72644,2,0,P|338:25|287:19,1,95.9999970703126,2|0,0:2|1:0,0:0:0:0:
192,69,73095,2,0,P|142:72|91:66,1,95.9999970703126,2|0,0:0|3:0,0:0:0:0:
10,14,73546,2,0,P|57:18|105:15,1,95.9999970703126,2|0,0:2|1:0,0:0:0:0:
181,77,73997,5,2,0:0:0:0:
120,146,74222,1,4,3:2:0:0:
171,223,74448,1,2,0:0:0:0:
83,249,74674,1,0,1:0:0:0:
84,343,74899,2,0,P|131:357|175:379,1,95.9999970703126,4|0,0:0|3:0,0:0:0:0:
243,345,75350,1,2,0:0:0:0:
327,384,75576,5,0,1:0:0:0:
428,350,75801,2,0,B|437:274|489:225|489:225|501:168,1,191.999994140625,4|2,0:2|0:0,0:0:0:0:
473,74,76478,1,0,1:0:0:0:
292,23,76929,5,0,1:0:0:0:
292,23,77042,1,0,1:0:0:0:
292,23,77155,1,0,1:0:0:0:
292,23,77268,1,0,1:0:0:0:
292,23,77380,2,0,B|306:125|306:125|334:142,1,120,0|0,1:0|0:0,0:0:0:0:
339,123,77831,6,0,P|357:205|269:267,1,191.999994140625,4|2,3:2|0:0,0:0:0:0:
238,350,78508,2,0,P|168:369|83:293,1,191.999994140625,4|2,3:2|0:0,0:0:0:0:
36,234,79185,1,2,0:0:0:0:
117,186,79410,1,4,3:2:0:0:
102,94,79636,5,0,1:0:0:0:
102,94,79749,1,0,1:0:0:0:
158,346,80313,1,0,1:0:0:0:
158,346,80426,1,0,1:0:0:0:
410,290,80989,1,0,1:0:0:0:
382,165,81441,5,6,3:2:0:0:
382,165,95651,5,2,0:3:0:0:
348,236,95877,2,0,P|270:255|195:307,1,160,4|0,3:2|1:0,0:0:0:0:
126,285,97004,5,0,3:2:0:0:
111,209,97230,1,0,1:0:0:0:
99,202,97343,1,2,0:0:0:0:
95,190,97456,2,0,P|71:190|33:163,1,40,2|2,0:3|0:0,0:0:0:0:
23,161,97681,2,0,P|25:101|-9:38,1,120,2|2,3:2|0:0,0:0:0:0:
10,10,98132,1,0,1:0:0:0:
85,0,98809,5,0,3:0:0:0:
133,60,99034,2,0,P|157:67|181:84,1,40,0|2,1:0|0:0,0:0:0:0:
209,61,99260,1,0,3:0:0:0:
254,129,99486,2,0,P|307:124|375:150,1,120,2|2,3:2|0:0,0:0:0:0:
398,141,99937,1,0,1:0:0:0:
464,47,100275,5,2,0:0:0:0:
464,47,100388,1,2,0:0:0:0:
510,108,100613,1,0,3:0:0:0:
467,172,100839,1,0,1:0:0:0:
512,237,101065,5,2,0:0:0:0:
428,286,101290,2,0,P|351:300|271:361,1,160,2|0,3:2|1:0,0:0:0:0:
209,367,101967,1,2,0:0:0:0:
200,363,102080,1,2,0:0:0:0:
195,356,102192,2,0,P|162:332|124:320,1,80,2|0,3:2|3:0,0:0:0:0:
67,270,102644,5,0,1:0:0:0:
158,246,102869,1,0,3:0:0:0:
226,282,103095,2,0,P|311:289|390:327,1,160,2|0,3:2|1:0,0:0:0:0:
455,301,104222,5,0,3:0:0:0:
425,219,104448,1,0,1:0:0:0:
488,158,104674,1,2,0:3:0:0:
480,144,104786,1,2,0:0:0:0:
490,133,104899,2,0,P|465:81|384:70,1,120,2|2,3:2|0:0,0:0:0:0:
391,73,105350,1,0,1:0:0:0:
325,36,105914,5,2,0:0:0:0:
325,36,106027,1,0,3:0:0:0:
262,86,106253,1,0,1:0:0:0:
285,166,106478,1,0,3:0:0:0:
278,173,106591,1,2,0:0:0:0:
280,182,106704,2,0,P|257:247|196:262,1,120,2|2,3:2|0:0,0:0:0:0:
182,263,107155,1,0,1:0:0:0:
96,320,107380,6,0,P|70:329|47:354,2,40,2|2|2,0:0|0:0|0:0,0:0:0:0:
109,246,107831,1,0,3:0:0:0:
110,234,107944,1,2,0:0:0:0:
105,223,108057,1,0,1:0:0:0:
31,200,108283,1,2,0:0:0:0:
64,130,108508,6,0,P|77:92|66:37,2,80,2|2|0,3:2|0:0|1:0,0:0:0:0:
51,41,109185,1,2,0:0:0:0:
129,8,109410,2,0,P|156:34|177:86,1,80,2|2,3:2|0:0,0:0:0:0:
260,111,109862,1,0,1:2:0:0:
230,182,110087,1,2,3:2:0:0:
279,242,110313,6,0,P|342:255|491:368,1,240,4|2,3:1|0:0,0:0:0:0:
482,355,111215,5,2,3:1:0:0:
512,236,111553,1,2,3:1:0:0:
414,154,111892,2,0,P|324:232|210:267,1,240,2|2,3:1|0:0,0:0:0:0:
179,340,112794,1,2,0:0:0:0:
101,356,113019,5,10,0:0:0:0:
3,292,113358,1,2,3:1:0:0:
36,177,113696,1,2,3:1:0:0:
27,163,114147,5,2,0:0:0:0:
79,106,114373,2,0,P|75:67|44:35,1,80,2|0,0:0|0:0,0:0:0:0:
39,36,114711,1,2,0:0:0:0:
33,43,114824,1,10,0:0:0:0:
194,7,115162,5,2,0:0:0:0:
202,5,115275,2,2,B|282:42|282:42|381:23,1,176.000005371094,2|2,0:0|3:2,0:1:0:0:
427,77,115952,2,0,L|489:63,1,64,2|0,0:0|0:0,0:0:0:0:
489,63,116290,1,2,0:0:0:0:
489,63,116403,1,2,0:0:0:0:
512,146,116628,6,0,P|495:157|455:154,1,40,2|0,3:1|0:0,0:0:0:0:
378,198,116967,2,0,P|358:197|332:181,1,40,2|0,3:1|0:0,0:0:0:0:
229,179,117305,2,0,P|189:129|184:24,1,160,4|2,3:1|0:0,0:0:0:0:
249,3,117982,1,2,0:0:0:0:
301,72,118207,1,2,0:0:0:0:
237,130,118433,6,0,P|218:127|173:134,1,40,10|0,0:0|0:0,0:0:0:0:
79,123,118771,2,0,P|64:142|51:178,1,40,2|0,3:1|0:0,0:0:0:0:
2,261,119110,2,0,P|39:334|111:376,1,160,2|2,3:1|0:0,0:0:0:0:
170,339,119786,1,2,0:0:0:0:
244,383,120012,1,2,0:0:0:0:
311,331,120238,5,10,0:0:0:0:
279,216,120576,1,2,3:1:0:0:
247,101,120914,1,2,3:1:0:0:
252,90,121365,5,2,0:0:0:0:
283,13,121591,1,2,0:0:0:0:
357,53,121816,1,2,0:0:0:0:
439,18,122042,1,0,1:2:0:0:
439,18,122155,1,0,1:0:0:0:
439,18,122268,2,0,P|438:43|449:72,1,40,0|0,1:0|1:0,0:0:0:0:
462,150,122493,1,0,1:0:0:0:
462,150,122606,1,0,1:0:0:0:
462,150,122719,2,0,P|463:175|452:204,1,40,0|0,1:0|1:0,0:0:0:0:
379,201,122944,5,0,1:0:0:0:
377,212,123057,2,0,L|389:274,1,40,0|0,1:0|3:0,0:0:0:0:
332,320,123395,1,0,3:0:0:0:
247,315,123621,1,0,1:0:0:0:
236,313,123734,2,0,L|174:325,1,40,0|0,1:0|3:0,0:0:0:0:
128,268,124072,1,0,3:0:0:0:
133,183,124298,1,4,1:2:0:0:
120,176,124749,6,0,P|93:80|34:3,2,191.999994140625,6|0|0,3:2|1:2|3:2,0:0:0:0:
168,243,125877,1,2,0:2:0:0:
136,259,125989,1,2,0:0:0:0:
124,295,126102,1,0,1:2:0:0:
175,384,126328,1,2,0:2:0:0:
96,312,126553,6,0,P|60:287|-6:280,1,95.9999970703126,2|2,3:2|0:3,0:0:0:0:
100,193,127004,2,0,P|98:148|126:83,1,95.9999970703126,0|2,1:2|0:0,0:0:0:0:
113,61,127343,1,2,0:0:0:0:
130,68,127456,2,0,P|232:64|308:0,1,191.999994140625,2|0,3:2|1:2,0:0:0:0:
411,31,128132,5,2,0:0:0:0:
418,37,128245,1,2,0:0:0:0:
416,45,128358,2,0,P|407:94|363:117,1,95.9999970703126,2|2,3:2|0:0,0:0:0:0:
287,100,128809,1,0,1:0:0:0:
235,185,129034,1,2,0:0:0:0:
199,191,129147,2,0,P|147:172|89:169,1,95.9999970703126,2|2,0:0|0:0,0:0:0:0:
80,146,129486,1,2,0:0:0:0:
171,79,129711,5,0,1:2:0:0:
218,160,129937,1,2,0:0:0:0:
223,165,130050,1,2,0:0:0:0:
229,169,130162,2,0,B|247:252|247:252|300:299|319:359,1,191.999994140625,2|0,3:2|1:2,0:0:0:0:
419,376,130839,2,0,P|444:377|477:390,2,47.9999985351563,2|2|0,0:0|0:2|3:2,0:0:0:0:
328,327,131290,5,2,0:0:0:0:
393,251,131516,2,2,B|456:236|456:236|502:256|502:256|445:255,1,143.999995605469,0|0,1:2|0:0,0:1:0:0:
464,270,131967,5,2,3:2:0:0:
383,214,132192,1,2,0:0:0:0:
422,125,132418,1,0,1:2:0:0:
367,43,132644,1,2,0:0:0:0:
270,47,132869,1,2,3:2:0:0:
276,57,133320,5,0,1:2:0:0:
247,151,133546,1,2,0:2:0:0:
150,164,133771,1,2,3:2:0:0:
81,95,133997,1,2,0:0:0:0:
0,148,134222,5,0,1:2:0:0:
62,199,134448,1,2,0:0:0:0:
33,273,134674,1,2,3:2:0:0:
35,279,134786,1,2,0:2:0:0:
38,285,134899,2,0,P|84:300|124:333,1,95.9999970703126,2|0,0:3|1:2,0:0:0:0:
199,313,135350,5,2,0:0:0:0:
283,379,135576,2,0,P|359:353|395:249,1,191.999994140625,2|0,3:2|1:2,0:0:0:0:
415,236,136140,1,2,0:0:0:0:
387,231,136253,2,0,P|379:186|383:136,1,95.9999970703126,2|0,0:0|3:2,0:0:0:0:
454,95,136704,1,2,0:0:0:0:
420,4,136929,1,0,1:2:0:0:
323,0,137155,1,2,0:0:0:0:
284,72,137380,5,0,1:2:0:0:
284,72,137493,2,0,L|202:79,1,47.9999985351563,0|0,1:2|3:0,0:0:0:0:
126,75,137831,1,0,3:0:0:0:
136,164,138057,5,0,1:2:0:0:
136,164,138170,1,0,1:2:0:0:
136,164,138283,2,0,L|143:246,1,47.9999985351563,0|0,3:0|0:0,0:0:0:0:
170,245,138508,2,0,L|177:327,1,47.9999985351563,2|0,3:2|0:0,0:0:0:0:
99,318,138734,1,0,1:2:0:0:
144,384,138959,1,0,1:2:0:0:
76,317,139185,6,0,P|63:255|66:114,2,191.999994140625,6|0|0,3:2|1:0|3:0,0:0:0:0:
145,370,140313,1,2,0:0:0:0:
182,362,140425,1,2,0:0:0:0:
206,334,140538,1,0,1:0:0:0:
296,381,140764,1,2,0:0:0:0:
395,356,140989,6,0,P|438:349|494:358,1,95.9999970703126,2|2,3:2|0:3,0:0:0:0:
443,245,141441,2,0,P|487:217|501:162,1,95.9999970703126,0|2,1:0|0:0,0:0:0:0:
512,160,141779,1,2,0:0:0:0:
496,149,141892,2,0,P|487:56|382:11,1,191.999994140625,2|0,3:2|1:0,0:0:0:0:
318,0,142568,5,2,0:0:0:0:
310,8,142681,1,2,0:0:0:0:
315,17,142794,2,0,P|298:59|231:73,1,95.9999970703126,0|2,3:2|0:0,0:0:0:0:
240,158,143245,1,0,1:0:0:0:
230,163,143358,1,2,0:0:0:0:
224,172,143471,1,2,0:0:0:0:
220,185,143583,1,2,0:0:0:0:
212,197,143696,1,0,3:0:0:0:
210,300,143922,1,2,0:0:0:0:
115,342,144147,2,0,P|71:351|19:384,1,95.9999970703126,0|2,1:0|0:0,0:0:0:0:
88,269,144598,5,2,3:2:0:0:
11,221,144824,1,2,0:0:0:0:
64,147,145050,1,0,1:0:0:0:
142,195,145275,1,2,0:0:0:0:
159,313,145501,2,0,P|241:336|304:395,1,143.999995605469,2|0,3:2|0:0,0:0:0:0:
306,355,145952,6,2,B|353:361|353:361|411:339,1,95.9999970703126,0|0,1:0|0:0,0:1:0:0:
480,308,146403,1,2,3:2:0:0:
437,218,146628,1,2,0:0:0:0:
493,135,146854,1,0,1:0:0:0:
411,69,147080,2,0,P|366:52|330:16,1,95.9999970703126,2|0,0:0|3:0,0:0:0:0:
309,135,147531,2,0,P|271:165|222:178,1,95.9999970703126,2|0,0:0|1:0,0:0:0:0:
184,251,147982,1,2,0:0:0:0:
93,216,148207,5,2,3:2:0:0:
42,298,148433,2,0,P|67:258|77:198,1,95.9999970703126,2|0,0:2|1:0,0:0:0:0:
47,112,148884,2,0,P|45:159|66:216,1,95.9999970703126,2|0,0:0|3:0,0:0:0:0:
61,299,149335,1,2,0:0:0:0:
147,327,149561,1,0,1:0:0:0:
160,320,150012,5,4,3:2:0:0:
260,305,150238,1,2,0:0:0:0:
321,384,150463,1,0,1:0:0:0:
266,293,150689,2,0,P|264:238|360:138,1,191.999994140625,4|2,3:2|0:0,0:0:0:0:
429,93,151365,1,0,1:0:0:0:
375,40,151591,2,0,P|184:50|0:0,1,383.99998828125,4|0,3:2|0:0,0:0:0:0:
0,9,152944,5,2,0:0:0:0:
55,64,153170,1,2,0:0:0:0:
9,126,153395,1,2,0:0:0:0:
9,126,153621,1,4,0:1:0:0:
256,192,168057,12,2,174373,0:0:0:0:
9,126,175050,5,0,3:0:0:0:
15,201,175275,2,0,P|118:256|196:356,1,240,4|2,3:2|0:0,0:0:0:0:
193,351,176403,1,2,0:0:0:0:
193,351,176854,5,2,0:0:0:0:
254,308,177079,2,0,P|250:191|297:73,1,240,4|2,3:2|0:0,0:0:0:0:
294,78,178207,1,2,0:0:0:0:
294,78,178659,5,2,0:0:0:0:
226,46,178884,2,0,P|126:107|1:125,1,240,4|2,3:2|0:0,0:0:0:0:
6,125,180012,1,2,0:0:0:0:
63,69,180238,2,0,P|110:110|169:127,1,120,2|0,0:0|0:0,0:0:0:0:
131,173,180689,5,0,1:0:0:0:
135,197,180801,2,0,L|146:272,1,40,0|0,1:0|3:0,0:0:0:0:
156,329,181140,1,0,3:0:0:0:
237,317,181365,1,0,1:0:0:0:
261,312,181477,2,0,L|336:301,1,40,0|0,1:0|3:0,0:0:0:0:
393,292,181816,1,0,3:0:0:0:
377,200,182041,1,4,1:2:0:0:
387,169,182493,6,2,P|363:118|358:44,1,107.999996704102,2|0,0:0|0:0,0:1:0:0:
410,0,182944,6,0,P|420:82|357:190,1,191.999994140625,4|0,1:2|3:0,0:0:0:0:
393,253,183621,1,2,0:0:0:0:
362,274,183734,1,2,0:0:0:0:
325,272,183847,1,0,1:0:0:0:
286,353,184072,1,2,0:0:0:0:
194,310,184298,2,0,P|155:301|96:309,1,95.9999970703126,2|2,3:2|0:3,0:0:0:0:
5,261,184749,2,0,P|44:252|103:260,1,95.9999970703126,0|2,1:0|0:0,0:0:0:0:
113,243,185087,1,2,0:0:0:0:
118,248,185200,6,0,P|157:256|204:127,1,191.999994140625,2|0,3:2|1:0,0:0:0:0:
295,67,185877,1,2,0:0:0:0:
289,61,185989,1,2,0:0:0:0:
295,55,186102,2,0,P|327:21|380:7,1,95.9999970703126,0|2,3:2|0:2,0:0:0:0:
470,28,186553,1,0,1:0:0:0:
407,107,186779,1,2,0:0:0:0:
409,133,186892,2,0,P|437:173|457:247,1,95.9999970703126,2|2,0:0|0:0,0:0:0:0:
475,228,187230,1,2,0:0:0:0:
446,99,187456,5,0,1:0:0:0:
370,163,187681,1,2,0:0:0:0:
362,165,187794,1,2,0:0:0:0:
355,167,187907,2,0,B|295:187|295:187|245:243|158:262,1,191.999994140625,2|0,3:2|1:0,0:0:0:0:
136,356,188583,2,0,P|112:371|88:399,2,47.9999985351563,2|2|0,0:0|0:0|3:0,0:0:0:0:
166,256,189034,5,2,0:0:0:0:
65,267,189260,2,2,B|13:221|13:221|-1:146,1,143.999995605469,0|0,1:0|0:0,0:1:0:0:
0,106,189711,5,2,3:2:0:0:
46,19,189937,1,2,0:0:0:0:
142,0,190162,1,0,1:0:0:0:
238,19,190387,1,2,0:0:0:0:
284,106,190613,1,2,3:2:0:0:
274,117,191065,5,0,1:0:0:0:
320,204,191291,1,2,0:0:0:0:
416,223,191516,1,2,3:2:0:0:
436,302,191741,1,2,0:2:0:0:
512,330,191967,1,0,1:0:0:0:
498,246,192192,1,2,0:0:0:0:
407,233,192418,5,2,3:2:0:0:
348,287,192644,2,0,P|302:297|257:330,1,95.9999970703126,2|0,0:3|1:0,0:0:0:0:
184,317,193095,1,2,0:0:0:0:
94,342,193320,2,0,P|27:299|28:196,1,191.999994140625,2|0,3:2|1:0,0:0:0:0:
93,105,193997,2,0,P|105:58|86:10,1,95.9999970703126,2|0,0:0|3:0,0:0:0:0:
23,62,194448,1,2,0:0:0:0:
88,134,194674,1,0,1:0:0:0:
185,126,194899,1,2,0:0:0:0:
239,51,195125,5,0,1:0:0:0:
239,51,195238,2,0,L|302:61,1,47.9999985351563,0|0,1:0|3:0,0:0:0:0:
396,81,195576,1,0,3:0:0:0:
397,175,195801,5,0,1:0:0:0:
397,175,195914,1,0,1:0:0:0:
397,175,196027,2,0,L|387:238,1,47.9999985351563,0|0,3:0|0:0,0:0:0:0:
343,235,196253,2,0,L|333:298,1,47.9999985351563,2|0,3:2|0:0,0:0:0:0:
424,307,196478,1,0,1:0:0:0:
370,367,196704,1,0,1:0:0:0:
466,323,196929,6,0,P|485:248|467:122,2,191.999994140625,4|0|2,3:2|1:0|3:2,0:0:0:0:
395,350,198057,1,2,0:0:0:0:
355,351,198170,1,2,0:0:0:0:
328,318,198283,1,0,1:0:0:0:
242,368,198508,1,2,0:0:0:0:
164,311,198734,2,0,P|156:261|178:218,1,95.9999970703126,2|2,3:2|0:3,0:0:0:0:
270,176,199185,2,0,P|279:103|256:63,1,95.9999970703126,0|2,1:0|0:0,0:0:0:0:
254,79,199523,1,2,0:0:0:0:
246,84,199636,6,0,P|234:131|287:259,1,191.999994140625,2|0,3:2|1:0,0:0:0:0:
386,300,200313,2,0,P|395:255|373:196,1,95.9999970703126,2|0,0:0|3:2,0:0:0:0:
293,274,200764,1,2,0:2:0:0:
211,331,200989,2,0,P|149:319|70:213,1,191.999994140625,0|0,1:0|3:0,0:0:0:0:
21,164,201666,1,2,0:0:0:0:
48,92,201892,1,0,1:0:0:0:
0,168,202117,5,2,0:0:0:0:
71,222,202343,1,2,3:1:0:0:
144,169,202568,1,0,0:0:0:0:
208,209,202794,1,2,1:1:0:0:
298,134,203019,5,0,0:0:0:0:
323,210,203245,2,2,P|324:264|368:331,1,95.9999970703126,2|0,3:2|0:0,0:1:0:0:
440,364,203696,6,2,B|492:314|492:314|486:230,1,143.999995605469,0|0,1:0|0:0,0:1:0:0:
503,226,204147,1,2,3:2:0:0:
453,150,204373,1,2,0:0:0:0:
504,74,204598,1,0,1:0:0:0:
458,10,204824,2,0,P|412:16|351:7,1,95.9999970703126,2|0,0:0|3:0,0:0:0:0:
278,65,205275,2,0,P|226:60|117:70,1,143.999995605469,2|0,0:0|0:0,0:0:0:0:
123,52,205726,1,2,0:0:0:0:
54,85,205952,5,2,3:2:0:0:
0,33,206177,1,2,0:0:0:0:
87,11,206403,1,0,1:0:0:0:
128,90,206628,2,0,P|136:141|118:186,1,95.9999970703126,2|0,0:0|3:0,0:0:0:0:
97,264,207080,2,0,P|89:213|107:168,1,95.9999970703126,2|0,0:2|1:0,0:0:0:0:
210,143,207531,1,2,0:0:0:0:
273,187,207756,5,4,3:2:0:0:
370,151,207982,1,2,0:0:0:0:
355,46,208207,1,0,1:0:0:0:
390,149,208433,2,0,P|417:242|502:306,1,191.999994140625,4|2,0:0|0:0,0:0:0:0:
498,384,209110,1,0,1:0:0:0:
400,361,209335,2,0,P|262:353|90:365,1,287.999991210938,4|0,0:0|1:0,0:0:0:0:
97,353,210463,5,0,1:0:0:0:
96,346,210576,1,0,1:0:0:0:
95,339,210689,1,0,1:0:0:0:
94,332,210801,1,0,1:0:0:0:
94,325,210914,2,0,B|113:256|113:256|93:147,1,143.999995605469,0|2,1:0|0:0,0:0:0:0:
68,184,211365,2,0,P|68:90|158:33,1,191.999994140625,4|2,3:2|0:0,0:0:0:0:
215,0,212042,2,0,P|304:20|344:137,1,191.999994140625,4|2,3:2|0:0,0:0:0:0:
415,151,212719,1,2,0:0:0:0:
377,223,212944,1,4,3:2:0:0:
425,301,213170,5,0,1:0:0:0:
425,301,213283,1,0,1:0:0:0:
147,361,213847,1,0,1:0:0:0:
147,361,213960,1,0,1:0:0:0:
87,83,214523,1,0,1:0:0:0:
66,90,214974,6,0,P|73:150|58:241,1,120,4|2,3:2|0:0,0:0:0:0:
36,232,215425,2,0,P|31:291|44:329,1,80,0|2,1:0|0:3,0:0:0:0:
90,365,215877,1,2,3:2:0:0:
186,330,216102,1,2,0:3:0:0:
186,330,216215,1,2,0:0:0:0:
186,330,216328,1,0,1:0:0:0:
269,376,216553,1,2,0:3:0:0:
340,350,216779,6,0,P|380:347|440:353,1,80,2|0,3:2|0:0,0:0:0:0:
490,321,217230,2,0,P|450:318|410:321,1,80,0|0,1:0|0:2,0:0:0:0:
343,234,217681,2,0,P|383:231|443:237,1,80,2|0,3:2|0:0,0:0:0:0:
508,207,218132,1,0,1:0:0:0:
482,124,218358,1,2,0:3:0:0:
486,116,218471,1,2,0:0:0:0:
481,109,218583,2,0,P|429:103|356:111,1,120,2|0,3:2|0:0,0:0:0:0:
378,59,219034,1,0,1:0:0:0:
374,50,219147,1,2,0:0:0:0:
371,42,219260,1,2,0:0:0:0:
368,34,219373,1,2,0:0:0:0:
364,25,219486,2,0,P|323:21|266:27,1,80,0|2,3:0|0:3,0:0:0:0:
270,31,219824,1,2,0:0:0:0:
284,41,219937,6,0,P|325:45|382:39,1,80,0|2,1:0|0:3,0:0:0:0:
438,13,220388,2,0,P|460:11|482:13,2,40,2|2|0,3:2|0:0|0:0,0:0:0:0:
427,91,220839,1,0,1:0:0:0:
457,217,221177,1,2,0:0:0:0:
492,237,221290,2,0,P|502:285|427:314,1,120,2|0,3:2|0:0,0:0:0:0:
441,328,221741,6,2,B|383:319|383:319|319:329,1,120,0|0,1:0|0:0,0:1:0:0:
300,350,222192,2,0,P|261:353|204:346,1,80,2|2,3:1|0:2,0:0:0:0:
131,310,222644,2,0,P|91:306|51:309,1,80,2|2,1:1|0:1,0:0:0:0:
159,237,223095,2,2,P|198:233|238:236,1,80,2|0,3:2|0:0,0:1:0:0:
250,251,223433,1,2,0:0:0:0:
262,244,223546,2,0,P|277:188|258:83,1,160,0|2,1:0|3:1,0:0:0:0:
209,23,224222,1,2,0:0:0:0:
204,15,224335,1,2,0:0:0:0:
198,19,224448,2,2,P|124:12|27:45,1,160,0|0,1:0|3:0,0:1:0:0:
0,110,225125,1,2,0:0:0:0:
0,110,225238,1,2,0:0:0:0:
0,110,225350,2,0,P|25:143|39:194,2,80,0|2|0,1:0|0:0|3:0,0:0:0:0:
120,132,226027,5,2,0:1:0:0:
120,132,226140,1,2,0:0:0:0:
120,132,226253,1,2,1:1:0:0:
120,132,226365,1,2,0:0:0:0:
120,132,226478,2,2,P|91:167|74:223,1,80,2|0,0:2|3:0,0:1:0:0:
141,255,226929,1,2,0:1:0:0:
142,267,227042,1,2,0:2:0:0:
152,271,227155,2,0,P|154:304|182:350,1,80,0|2,1:0|0:1,0:0:0:0:
248,295,227606,5,0,1:0:0:0:
259,292,227719,2,0,L|321:305,1,40,0|0,1:0|3:0,0:0:0:0:
381,298,227944,1,2,0:0:0:0:
381,298,228057,1,0,3:0:0:0:
359,200,228283,1,0,1:0:0:0:
356,189,228396,2,0,L|369:127,1,40,0|0,1:0|3:0,0:0:0:0:
362,67,228621,1,2,0:0:0:0:
362,67,228734,1,0,3:0:0:0:
447,114,228959,6,0,L|460:52,1,40,2|0,1:1|0:0,0:0:0:0:
431,41,229185,2,0,L|444:-21,1,40,0|0,1:0|0:0,0:0:0:0:
512,25,229410,6,0,P|463:35|371:20,1,120,4|2,3:2|0:0,0:0:0:0:
375,38,229862,2,0,P|325:34|279:41,1,80,0|2,1:0|0:3,0:0:0:0:
222,10,230313,1,2,3:2:0:0:
131,53,230538,1,2,0:3:0:0:
131,53,230651,1,2,0:0:0:0:
131,53,230764,1,0,1:0:0:0:
37,12,230989,1,2,0:3:0:0:
17,82,231215,6,0,P|14:122|22:180,1,80,2|0,3:2|0:0,0:0:0:0:
38,244,231666,2,0,P|34:204|37:164,1,80,0|0,1:0|0:0,0:0:0:0:
127,124,232117,2,0,P|123:163|127:203,1,80,2|0,3:2|0:0,0:0:0:0:
78,294,232568,1,0,1:0:0:0:
78,294,232681,1,2,0:0:0:0:
78,294,232794,1,2,0:3:0:0:
139,344,233019,6,0,P|179:342|239:346,1,80,2|2,3:2|0:3,0:0:0:0:
298,293,233471,2,0,P|337:294|377:292,1,80,0|2,1:0|0:3,0:0:0:0:
446,349,233922,1,0,3:0:0:0:
512,310,234147,1,2,0:3:0:0:
512,310,234260,1,2,0:0:0:0:
512,310,234373,2,0,P|503:244|509:205,1,80,0|2,1:0|0:3,0:0:0:0:
512,153,234824,1,2,3:2:0:0:
345,80,235275,1,0,1:0:0:0:
225,129,235613,5,2,0:0:0:0:
219,135,235726,2,0,P|180:139|122:130,1,80,2|0,3:2|0:0,0:0:0:0:
128,105,236065,1,2,0:0:0:0:
107,111,236177,6,2,B|42:137|42:137|8:215,1,143.999995605469,0|0,1:0|0:0,0:1:0:0:
30,237,236628,1,2,3:2:0:0:
83,321,236854,1,2,0:0:0:0:
6,384,237080,1,0,1:0:0:0:
96,332,237305,2,0,P|144:330|189:340,1,80,2|0,0:2|3:0,0:0:0:0:
252,295,237756,2,0,P|300:297|345:287,1,80,2|0,0:0|1:0,0:0:0:0:
392,336,238207,5,2,0:0:0:0:
471,301,238433,1,2,3:2:0:0:
433,222,238659,1,2,0:0:0:0:
512,187,238884,1,0,1:0:0:0:
416,207,239110,2,0,P|376:203|322:208,1,80,2|0,0:0|3:0,0:0:0:0:
264,251,239561,2,0,P|224:255|170:250,1,80,2|0,0:0|1:0,0:0:0:0:
112,286,240012,1,2,0:0:0:0:
50,237,240238,5,4,3:2:0:0:
120,212,240463,1,2,0:0:0:0:
94,142,240689,1,0,1:0:0:0:
98,68,240914,2,0,P|131:22|249:23,1,160,4|2,0:0|0:0,0:0:0:0:
318,1,241591,1,0,1:0:0:0:
369,73,241816,2,0,P|356:192|368:311,1,240,4|0,0:0|1:0,0:0:0:0:
411,323,242944,5,0,1:0:0:0:
411,323,243057,1,0,1:0:0:0:
411,323,243170,1,0,1:0:0:0:
411,323,243283,1,0,1:0:0:0:
411,323,243395,2,0,B|426:265|426:265|408:185,1,120,0|0,1:0|0:0,0:0:0:0:
415,174,243847,6,0,P|340:162|249:172,1,160,4|2,3:2|0:0,0:0:0:0:
188,245,244523,2,0,P|108:253|29:241,1,160,4|2,3:2|0:0,0:0:0:0:
0,168,245200,1,2,0:0:0:0:
97,137,245425,2,0,P|256:156|431:140,1,320,4|0,3:2|0:0,0:0:0:0:
438,154,246779,5,2,0:0:0:0:
512,135,247004,1,2,3:2:0:0:
493,61,247230,1,2,0:0:0:0:
419,80,247456,6,0,L|316:105,1,80,4|0,3:2|0:0,0:0:0:0:
332,120,247794,2,0,L|229:145,1,80,2|0,3:2|0:0,0:0:0:0:
196,87,248132,2,0,L|53:122,1,120,2|0,3:2|0:0,0:0:0:0:
67,137,248583,2,0,L|5:152,1,40,2|0,3:2|0:0,0:0:0:0:
0,132,248809,1,0,1:0:0:0:
119,0,249260,6,0,L|141:87,1,80,2|0,3:2|0:0,0:0:0:0:
162,80,249598,2,0,L|184:167,1,80,2|0,3:2|0:0,0:0:0:0:
151,223,249937,1,2,3:2:0:0:
332,164,250388,2,0,L|349:228,1,40,2|0,3:2|0:0,0:0:0:0:
311,248,250614,1,0,1:0:0:0:
256,192,250839,5,4,3:1:0:0:
256,192,251065,12,0,254674,0:0:0:0:
