osu file format v14

[General]
AudioFilename: gimmme1.04.mp3
AudioLeadIn: 0
PreviewTime: 89011
Countdown: 0
SampleSet: Soft
StackLeniency: 0.7
Mode: 3
LetterboxInBreaks: 0
SpecialStyle: 0
WidescreenStoryboard: 0

[Editor]
DistanceSpacing: 2
BeatDivisor: 4
GridSize: 4
TimelineZoom: 5.399997

[Metadata]
Title:Gimmme!
TitleUnicode:Gimmme!
Artist:ORESAMA
ArtistUnicode:ORESAMA
Creator:Lung_P
Version:Oyasumi 1.4x
Source:魔王城でおやすみ
Tags:Anime Japanese Pop JPop J-Pop Sleepy Princess in the Demon Castle Maoujou de Oyasumi Ending ED LACM-24047
BeatmapID:3498415
BeatmapSetID:1712056

[Difficulty]
HPDrainRate:8
CircleSize:7
OverallDifficulty:8
ApproachRate:5
SliderMultiplier:1.4
SliderTickRate:1

[Events]
//Background and Video events
0,0,"88224725_p0.jpg",0,0
//Break Periods
//Storyboard Layer 0 (Background)
//Storyboard Layer 1 (Fail)
//Storyboard Layer 2 (Pass)
//Storyboard Layer 3 (Foreground)
//Storyboard Layer 4 (Overlay)
//Storyboard Sound Samples

[TimingPoints]
1394,322.234156820623,4,2,0,5,1,0
3649,-20,4,2,0,5,0,0
3689,-133.333333333333,4,2,0,5,0,0
3810,-100,4,2,0,5,0,0
3971,-100,4,2,0,5,0,1
14283,-100,4,2,0,5,0,0
34584,-20,4,2,0,5,0,0
34624,-133.333333333333,4,2,0,5,0,0
34745,-100,4,2,0,5,0,0
34906,-100,4,2,0,5,0,1
43928,-100,4,2,0,5,0,0
45217,-100,4,2,0,5,0,1
55529,-100,4,2,0,5,0,0
57784,-20,4,2,0,5,0,0
57825,-133.333333333333,4,2,0,5,0,0
57946,-100,4,2,0,5,0,0
58107,-100,4,2,0,5,0,1
68418,-100,4,2,0,5,0,0
88719,-20,4,2,0,5,0,0
88759,-133.333333333333,4,2,0,5,0,0
88880,-100,4,2,0,5,0,0
89041,-100,4,2,0,5,0,1
98064,-100,4,2,0,5,0,0
99353,-100,4,2,0,5,0,1
109664,-100,4,2,0,5,0,1
109704,-100,4,2,0,5,0,0
129964,-20,4,2,0,5,0,0
130005,-133.333333333333,4,2,0,5,0,0
130126,-100,4,2,0,5,0,0
130609,-100,4,2,0,5,0,1
139310,-100,4,2,0,5,0,0
140599,-100,4,2,0,5,0,1
150910,-100,4,2,0,5,0,0
153166,-20,4,2,0,5,0,0
153206,-133.333333333333,4,2,0,5,0,0
153327,-100,4,2,0,5,0,0
153488,-100,4,2,0,5,0,1
162511,-100,4,2,0,5,0,0
163800,-100,4,2,0,5,0,1
174111,-100,4,2,0,5,0,0

[HitObjects]
182,192,1394,128,0,2682:0:0:0:0:
329,192,1716,128,0,2682:0:0:0:0:
36,192,2038,128,0,2682:0:0:0:0:
475,192,2360,128,0,2682:0:0:0:0:
402,192,2682,1,0,0:0:0:0:
256,192,2682,1,0,0:0:0:0:
109,192,2682,1,0,0:0:0:0:
402,192,2763,1,0,0:0:0:0:
256,192,2763,1,0,0:0:0:0:
109,192,2763,1,0,0:0:0:0:
329,192,2844,128,0,3005:0:0:0:0:
475,192,2844,128,0,3005:0:0:0:0:
182,192,3005,128,0,3166:0:0:0:0:
36,192,3005,128,0,3166:0:0:0:0:
402,192,3166,1,0,0:0:0:0:
256,192,3166,1,0,0:0:0:0:
109,192,3166,1,0,0:0:0:0:
256,192,3246,1,0,0:0:0:0:
402,192,3246,1,0,0:0:0:0:
109,192,3246,1,0,0:0:0:0:
182,192,3327,128,0,3488:0:0:0:0:
36,192,3327,128,0,3488:0:0:0:0:
329,192,3488,128,0,3649:0:0:0:0:
475,192,3488,128,0,3649:0:0:0:0:
256,192,3649,128,0,3971:0:0:0:0:
402,192,3649,1,0,0:0:0:0:
36,192,3649,1,0,0:0:0:0:
182,192,3649,1,0,0:0:0:0:
36,192,3971,1,0,0:0:0:0:
475,192,3971,1,0,0:0:0:0:
182,192,3971,1,0,0:0:0:0:
402,192,3971,1,0,0:0:0:0:
256,192,4052,1,0,0:0:0:0:
475,192,4132,1,0,0:0:0:0:
109,192,4132,1,0,0:0:0:0:
329,192,4132,1,0,0:0:0:0:
256,192,4213,1,0,0:0:0:0:
182,192,4294,1,0,0:0:0:0:
36,192,4294,1,0,0:0:0:0:
475,192,4294,1,0,0:0:0:0:
402,192,4294,1,0,0:0:0:0:
329,192,4374,1,0,0:0:0:0:
109,192,4455,1,0,0:0:0:0:
475,192,4455,1,0,0:0:0:0:
256,192,4455,1,0,0:0:0:0:
329,192,4535,1,0,0:0:0:0:
402,192,4616,1,0,0:0:0:0:
36,192,4616,1,0,0:0:0:0:
182,192,4616,1,0,0:0:0:0:
256,192,4696,1,0,0:0:0:0:
475,192,4696,1,0,0:0:0:0:
182,192,4777,1,0,0:0:0:0:
36,192,4777,1,0,0:0:0:0:
402,192,4777,1,0,0:0:0:0:
256,192,4858,1,0,0:0:0:0:
109,192,4858,1,0,0:0:0:0:
329,192,4938,1,0,0:0:0:0:
182,192,4938,1,0,0:0:0:0:
475,192,4938,1,0,0:0:0:0:
402,192,4938,1,0,0:0:0:0:
109,192,5019,1,0,0:0:0:0:
36,192,5099,1,0,0:0:0:0:
256,192,5099,1,0,0:0:0:0:
402,192,5099,1,0,0:0:0:0:
109,192,5180,1,0,0:0:0:0:
182,192,5260,1,0,0:0:0:0:
329,192,5260,1,0,0:0:0:0:
475,192,5260,1,0,0:0:0:0:
36,192,5341,1,0,0:0:0:0:
109,192,5341,1,0,0:0:0:0:
256,192,5421,1,0,0:0:0:0:
402,192,5421,1,0,0:0:0:0:
109,192,5502,1,0,0:0:0:0:
182,192,5502,1,0,0:0:0:0:
329,192,5583,1,0,0:0:0:0:
475,192,5583,1,0,0:0:0:0:
36,192,5583,1,0,0:0:0:0:
182,192,5663,1,0,0:0:0:0:
256,192,5663,1,0,0:0:0:0:
402,192,5744,1,0,0:0:0:0:
36,192,5744,1,0,0:0:0:0:
109,192,5744,1,0,0:0:0:0:
256,192,5824,1,0,0:0:0:0:
329,192,5824,1,0,0:0:0:0:
109,192,5905,1,0,0:0:0:0:
182,192,5905,1,0,0:0:0:0:
475,192,5905,1,0,0:0:0:0:
329,192,5985,1,0,0:0:0:0:
402,192,5985,1,0,0:0:0:0:
182,192,6066,1,0,0:0:0:0:
256,192,6066,1,0,0:0:0:0:
36,192,6066,1,0,0:0:0:0:
402,192,6146,1,0,0:0:0:0:
475,192,6146,1,0,0:0:0:0:
256,192,6227,1,0,0:0:0:0:
329,192,6227,1,0,0:0:0:0:
109,192,6227,1,0,0:0:0:0:
475,192,6308,1,0,0:0:0:0:
36,192,6308,1,0,0:0:0:0:
329,192,6388,1,0,0:0:0:0:
402,192,6388,1,0,0:0:0:0:
182,192,6388,1,0,0:0:0:0:
109,192,6469,1,0,0:0:0:0:
36,192,6469,1,0,0:0:0:0:
475,192,6549,1,0,0:0:0:0:
402,192,6549,1,0,0:0:0:0:
256,192,6549,1,0,0:0:0:0:
329,192,6630,1,0,0:0:0:0:
36,192,6710,1,0,0:0:0:0:
182,192,6710,1,0,0:0:0:0:
402,192,6710,1,0,0:0:0:0:
256,192,6791,1,0,0:0:0:0:
329,192,6871,1,0,0:0:0:0:
475,192,6871,1,0,0:0:0:0:
36,192,6871,1,0,0:0:0:0:
109,192,6871,1,0,0:0:0:0:
182,192,6952,1,0,0:0:0:0:
402,192,7033,1,0,0:0:0:0:
36,192,7033,1,0,0:0:0:0:
256,192,7033,1,0,0:0:0:0:
182,192,7113,1,0,0:0:0:0:
109,192,7194,1,0,0:0:0:0:
475,192,7194,1,0,0:0:0:0:
329,192,7194,1,0,0:0:0:0:
256,192,7274,1,0,0:0:0:0:
36,192,7274,1,0,0:0:0:0:
329,192,7355,1,0,0:0:0:0:
475,192,7355,1,0,0:0:0:0:
109,192,7355,1,0,0:0:0:0:
256,192,7435,1,0,0:0:0:0:
402,192,7435,1,0,0:0:0:0:
182,192,7516,1,0,0:0:0:0:
329,192,7516,1,0,0:0:0:0:
36,192,7516,1,0,0:0:0:0:
109,192,7516,1,0,0:0:0:0:
402,192,7597,1,0,0:0:0:0:
475,192,7677,1,0,0:0:0:0:
256,192,7677,1,0,0:0:0:0:
109,192,7677,1,0,0:0:0:0:
402,192,7758,1,0,0:0:0:0:
36,192,7838,1,0,0:0:0:0:
329,192,7838,1,0,0:0:0:0:
182,192,7838,1,0,0:0:0:0:
402,192,7919,1,0,0:0:0:0:
109,192,7919,1,0,0:0:0:0:
256,192,7999,1,0,0:0:0:0:
475,192,7999,1,0,0:0:0:0:
329,192,7999,1,0,0:0:0:0:
36,192,7999,1,0,0:0:0:0:
182,192,8080,1,0,0:0:0:0:
109,192,8080,1,0,0:0:0:0:
256,192,8160,1,0,0:0:0:0:
402,192,8160,1,0,0:0:0:0:
475,192,8160,1,0,0:0:0:0:
36,192,8160,1,0,0:0:0:0:
109,192,8241,1,0,0:0:0:0:
182,192,8241,1,0,0:0:0:0:
475,192,8322,1,0,0:0:0:0:
329,192,8322,1,0,0:0:0:0:
36,192,8322,1,0,0:0:0:0:
256,192,8402,1,0,0:0:0:0:
182,192,8402,1,0,0:0:0:0:
36,192,8483,1,0,0:0:0:0:
109,192,8483,1,0,0:0:0:0:
329,192,8483,1,0,0:0:0:0:
475,192,8483,1,0,0:0:0:0:
256,192,8563,1,0,0:0:0:0:
402,192,8563,1,0,0:0:0:0:
329,192,8644,1,0,0:0:0:0:
109,192,8644,1,0,0:0:0:0:
182,192,8644,1,0,0:0:0:0:
36,192,8805,1,0,0:0:0:0:
256,192,8805,1,0,0:0:0:0:
402,192,8805,1,0,0:0:0:0:
475,192,8805,1,0,0:0:0:0:
109,192,8805,1,0,0:0:0:0:
329,192,8966,1,0,0:0:0:0:
402,192,8966,1,0,0:0:0:0:
182,192,8966,1,0,0:0:0:0:
109,192,8966,1,0,0:0:0:0:
475,192,9127,1,0,0:0:0:0:
36,192,9127,1,0,0:0:0:0:
329,192,9127,1,0,0:0:0:0:
109,192,9127,1,0,0:0:0:0:
256,192,9208,1,0,0:0:0:0:
36,192,9288,1,0,0:0:0:0:
402,192,9288,1,0,0:0:0:0:
182,192,9288,1,0,0:0:0:0:
256,192,9369,1,0,0:0:0:0:
329,192,9449,1,0,0:0:0:0:
475,192,9449,1,0,0:0:0:0:
36,192,9449,1,0,0:0:0:0:
109,192,9449,1,0,0:0:0:0:
182,192,9530,1,0,0:0:0:0:
402,192,9610,1,0,0:0:0:0:
36,192,9610,1,0,0:0:0:0:
256,192,9610,1,0,0:0:0:0:
182,192,9691,1,0,0:0:0:0:
109,192,9772,1,0,0:0:0:0:
475,192,9772,1,0,0:0:0:0:
329,192,9772,1,0,0:0:0:0:
256,192,9852,1,0,0:0:0:0:
36,192,9852,1,0,0:0:0:0:
329,192,9933,1,0,0:0:0:0:
475,192,9933,1,0,0:0:0:0:
109,192,9933,1,0,0:0:0:0:
256,192,10013,1,0,0:0:0:0:
402,192,10013,1,0,0:0:0:0:
182,192,10094,1,0,0:0:0:0:
329,192,10094,1,0,0:0:0:0:
36,192,10094,1,0,0:0:0:0:
109,192,10094,1,0,0:0:0:0:
402,192,10174,1,0,0:0:0:0:
475,192,10255,1,0,0:0:0:0:
256,192,10255,1,0,0:0:0:0:
109,192,10255,1,0,0:0:0:0:
402,192,10335,1,0,0:0:0:0:
329,192,10416,1,0,0:0:0:0:
182,192,10416,1,0,0:0:0:0:
36,192,10416,1,0,0:0:0:0:
475,192,10497,1,0,0:0:0:0:
402,192,10497,1,0,0:0:0:0:
256,192,10577,1,0,0:0:0:0:
109,192,10577,1,0,0:0:0:0:
402,192,10658,1,0,0:0:0:0:
329,192,10658,1,0,0:0:0:0:
182,192,10738,1,0,0:0:0:0:
36,192,10738,1,0,0:0:0:0:
475,192,10738,1,0,0:0:0:0:
329,192,10819,1,0,0:0:0:0:
256,192,10819,1,0,0:0:0:0:
109,192,10899,1,0,0:0:0:0:
475,192,10899,1,0,0:0:0:0:
402,192,10899,1,0,0:0:0:0:
256,192,10980,1,0,0:0:0:0:
182,192,10980,1,0,0:0:0:0:
402,192,11061,1,0,0:0:0:0:
329,192,11061,1,0,0:0:0:0:
36,192,11061,1,0,0:0:0:0:
182,192,11141,1,0,0:0:0:0:
109,192,11141,1,0,0:0:0:0:
329,192,11222,1,0,0:0:0:0:
256,192,11222,1,0,0:0:0:0:
475,192,11222,1,0,0:0:0:0:
109,192,11302,1,0,0:0:0:0:
36,192,11302,1,0,0:0:0:0:
256,192,11383,1,0,0:0:0:0:
182,192,11383,1,0,0:0:0:0:
402,192,11383,1,0,0:0:0:0:
36,192,11463,1,0,0:0:0:0:
475,192,11463,1,0,0:0:0:0:
182,192,11544,1,0,0:0:0:0:
109,192,11544,1,0,0:0:0:0:
329,192,11544,1,0,0:0:0:0:
402,192,11624,1,0,0:0:0:0:
475,192,11624,1,0,0:0:0:0:
36,192,11705,1,0,0:0:0:0:
109,192,11705,1,0,0:0:0:0:
256,192,11705,1,0,0:0:0:0:
182,192,11786,1,0,0:0:0:0:
475,192,11866,1,0,0:0:0:0:
109,192,11866,1,0,0:0:0:0:
329,192,11866,1,0,0:0:0:0:
256,192,11947,1,0,0:0:0:0:
182,192,12027,1,0,0:0:0:0:
36,192,12027,1,0,0:0:0:0:
475,192,12027,1,0,0:0:0:0:
402,192,12027,1,0,0:0:0:0:
329,192,12108,1,0,0:0:0:0:
109,192,12188,1,0,0:0:0:0:
475,192,12188,1,0,0:0:0:0:
256,192,12188,1,0,0:0:0:0:
329,192,12269,1,0,0:0:0:0:
402,192,12349,1,0,0:0:0:0:
36,192,12349,1,0,0:0:0:0:
182,192,12349,1,0,0:0:0:0:
256,192,12430,1,0,0:0:0:0:
475,192,12430,1,0,0:0:0:0:
182,192,12511,1,0,0:0:0:0:
36,192,12511,1,0,0:0:0:0:
402,192,12511,1,0,0:0:0:0:
256,192,12591,1,0,0:0:0:0:
109,192,12591,1,0,0:0:0:0:
329,192,12672,1,0,0:0:0:0:
182,192,12672,1,0,0:0:0:0:
475,192,12672,1,0,0:0:0:0:
402,192,12672,1,0,0:0:0:0:
109,192,12752,1,0,0:0:0:0:
36,192,12833,1,0,0:0:0:0:
256,192,12833,1,0,0:0:0:0:
402,192,12833,1,0,0:0:0:0:
109,192,12913,1,0,0:0:0:0:
475,192,12994,1,0,0:0:0:0:
182,192,12994,1,0,0:0:0:0:
329,192,12994,1,0,0:0:0:0:
109,192,13074,1,0,0:0:0:0:
475,192,13155,1,0,0:0:0:0:
329,192,13155,1,0,0:0:0:0:
36,192,13155,1,0,0:0:0:0:
256,192,13236,1,0,0:0:0:0:
402,192,13236,1,0,0:0:0:0:
36,192,13316,1,0,0:0:0:0:
182,192,13316,1,0,0:0:0:0:
329,192,13316,1,0,0:0:0:0:
402,192,13397,1,0,0:0:0:0:
36,192,13477,1,0,0:0:0:0:
182,192,13477,1,0,0:0:0:0:
475,192,13477,1,0,0:0:0:0:
109,192,13558,1,0,0:0:0:0:
256,192,13558,1,0,0:0:0:0:
182,192,13638,1,0,0:0:0:0:
329,192,13638,1,0,0:0:0:0:
475,192,13638,1,0,0:0:0:0:
36,192,13800,1,0,0:0:0:0:
256,192,13800,1,0,0:0:0:0:
402,192,13800,1,0,0:0:0:0:
182,192,13800,1,0,0:0:0:0:
256,192,13961,1,0,0:0:0:0:
109,192,13961,1,0,0:0:0:0:
329,192,13961,128,0,14283:0:0:0:0:
475,192,13961,128,0,14283:0:0:0:0:
109,192,14283,1,0,0:0:0:0:
36,192,14283,1,0,0:0:0:0:
256,192,14283,1,0,0:0:0:0:
402,192,14283,1,0,0:0:0:0:
182,192,14444,1,0,0:0:0:0:
329,192,14444,1,0,0:0:0:0:
475,192,14444,1,0,0:0:0:0:
402,192,14605,1,0,0:0:0:0:
475,192,14605,1,0,0:0:0:0:
256,192,14605,1,0,0:0:0:0:
109,192,14605,1,0,0:0:0:0:
36,192,14605,1,0,0:0:0:0:
182,192,14766,1,0,0:0:0:0:
329,192,14766,1,0,0:0:0:0:
36,192,14766,1,0,0:0:0:0:
256,192,14927,1,0,0:0:0:0:
402,192,14927,1,0,0:0:0:0:
475,192,15088,1,0,0:0:0:0:
36,192,15088,1,0,0:0:0:0:
182,192,15088,1,0,0:0:0:0:
329,192,15088,1,0,0:0:0:0:
36,192,15250,1,0,0:0:0:0:
109,192,15250,1,0,0:0:0:0:
256,192,15250,1,0,0:0:0:0:
329,192,15250,1,0,0:0:0:0:
475,192,15250,1,0,0:0:0:0:
182,192,15411,1,0,0:0:0:0:
329,192,15411,1,0,0:0:0:0:
475,192,15411,1,0,0:0:0:0:
109,192,15491,1,0,0:0:0:0:
36,192,15572,1,0,0:0:0:0:
256,192,15572,1,0,0:0:0:0:
475,192,15572,1,0,0:0:0:0:
402,192,15572,1,0,0:0:0:0:
182,192,15733,1,0,0:0:0:0:
329,192,15733,1,0,0:0:0:0:
36,192,15733,1,0,0:0:0:0:
109,192,15894,1,0,0:0:0:0:
256,192,15894,1,0,0:0:0:0:
402,192,15894,1,0,0:0:0:0:
475,192,15894,1,0,0:0:0:0:
36,192,15894,1,0,0:0:0:0:
182,192,16055,1,0,0:0:0:0:
329,192,16055,1,0,0:0:0:0:
475,192,16055,1,0,0:0:0:0:
256,192,16216,1,0,0:0:0:0:
109,192,16216,1,0,0:0:0:0:
475,192,16377,1,0,0:0:0:0:
402,192,16377,1,0,0:0:0:0:
182,192,16377,1,0,0:0:0:0:
36,192,16377,1,0,0:0:0:0:
36,192,16539,1,0,0:0:0:0:
109,192,16539,1,0,0:0:0:0:
256,192,16539,1,0,0:0:0:0:
329,192,16539,1,0,0:0:0:0:
475,192,16539,1,0,0:0:0:0:
402,192,16700,1,0,0:0:0:0:
182,192,16700,1,0,0:0:0:0:
329,192,16700,1,0,0:0:0:0:
36,192,16700,1,0,0:0:0:0:
402,192,16861,1,0,0:0:0:0:
475,192,16861,1,0,0:0:0:0:
256,192,16861,1,0,0:0:0:0:
109,192,16861,1,0,0:0:0:0:
329,192,17022,1,0,0:0:0:0:
182,192,17022,1,0,0:0:0:0:
36,192,17022,1,0,0:0:0:0:
109,192,17183,1,0,0:0:0:0:
36,192,17183,1,0,0:0:0:0:
256,192,17183,1,0,0:0:0:0:
402,192,17183,1,0,0:0:0:0:
475,192,17183,1,0,0:0:0:0:
329,192,17344,1,0,0:0:0:0:
182,192,17344,1,0,0:0:0:0:
475,192,17344,1,0,0:0:0:0:
256,192,17505,1,0,0:0:0:0:
109,192,17505,1,0,0:0:0:0:
36,192,17666,1,0,0:0:0:0:
475,192,17666,1,0,0:0:0:0:
329,192,17666,1,0,0:0:0:0:
182,192,17666,1,0,0:0:0:0:
475,192,17827,1,0,0:0:0:0:
402,192,17827,1,0,0:0:0:0:
256,192,17827,1,0,0:0:0:0:
182,192,17827,1,0,0:0:0:0:
36,192,17827,1,0,0:0:0:0:
329,192,17989,1,0,0:0:0:0:
182,192,17989,1,0,0:0:0:0:
36,192,17989,1,0,0:0:0:0:
402,192,18069,1,0,0:0:0:0:
475,192,18150,1,0,0:0:0:0:
256,192,18150,1,0,0:0:0:0:
36,192,18150,1,0,0:0:0:0:
109,192,18150,1,0,0:0:0:0:
329,192,18311,1,0,0:0:0:0:
182,192,18311,1,0,0:0:0:0:
475,192,18311,1,0,0:0:0:0:
402,192,18472,1,0,0:0:0:0:
256,192,18472,1,0,0:0:0:0:
109,192,18472,1,0,0:0:0:0:
36,192,18472,1,0,0:0:0:0:
475,192,18472,1,0,0:0:0:0:
329,192,18633,1,0,0:0:0:0:
182,192,18633,1,0,0:0:0:0:
36,192,18633,1,0,0:0:0:0:
256,192,18794,1,0,0:0:0:0:
402,192,18794,1,0,0:0:0:0:
36,192,18955,1,0,0:0:0:0:
109,192,18955,1,0,0:0:0:0:
329,192,18955,1,0,0:0:0:0:
475,192,18955,1,0,0:0:0:0:
475,192,19116,1,0,0:0:0:0:
402,192,19116,1,0,0:0:0:0:
256,192,19116,1,0,0:0:0:0:
182,192,19116,1,0,0:0:0:0:
36,192,19116,1,0,0:0:0:0:
109,192,19277,1,0,0:0:0:0:
329,192,19277,1,0,0:0:0:0:
182,192,19277,1,0,0:0:0:0:
475,192,19277,1,0,0:0:0:0:
256,192,19439,1,0,0:0:0:0:
109,192,19439,1,0,0:0:0:0:
36,192,19439,1,0,0:0:0:0:
402,192,19439,1,0,0:0:0:0:
182,192,19600,1,0,0:0:0:0:
329,192,19600,1,0,0:0:0:0:
475,192,19600,1,0,0:0:0:0:
402,192,19761,1,0,0:0:0:0:
256,192,19761,1,0,0:0:0:0:
109,192,19761,1,0,0:0:0:0:
36,192,19761,1,0,0:0:0:0:
475,192,19761,1,0,0:0:0:0:
475,192,19922,1,0,0:0:0:0:
329,192,19922,1,0,0:0:0:0:
182,192,19922,1,0,0:0:0:0:
36,192,20083,1,0,0:0:0:0:
256,192,20083,1,0,0:0:0:0:
182,192,20244,1,0,0:0:0:0:
329,192,20244,1,0,0:0:0:0:
475,192,20244,1,0,0:0:0:0:
109,192,20244,1,0,0:0:0:0:
36,192,20405,1,0,0:0:0:0:
109,192,20405,1,0,0:0:0:0:
256,192,20405,1,0,0:0:0:0:
402,192,20405,1,0,0:0:0:0:
475,192,20405,1,0,0:0:0:0:
182,192,20566,1,0,0:0:0:0:
329,192,20566,1,0,0:0:0:0:
475,192,20566,1,0,0:0:0:0:
109,192,20647,1,0,0:0:0:0:
36,192,20728,1,0,0:0:0:0:
256,192,20728,1,0,0:0:0:0:
402,192,20728,1,0,0:0:0:0:
475,192,20728,1,0,0:0:0:0:
329,192,20889,1,0,0:0:0:0:
182,192,20889,1,0,0:0:0:0:
36,192,20889,1,0,0:0:0:0:
109,192,21050,1,0,0:0:0:0:
256,192,21050,1,0,0:0:0:0:
402,192,21050,1,0,0:0:0:0:
475,192,21050,1,0,0:0:0:0:
36,192,21050,1,0,0:0:0:0:
182,192,21211,1,0,0:0:0:0:
329,192,21211,1,0,0:0:0:0:
475,192,21211,1,0,0:0:0:0:
256,192,21372,1,0,0:0:0:0:
109,192,21372,1,0,0:0:0:0:
182,192,21533,1,0,0:0:0:0:
36,192,21533,1,0,0:0:0:0:
329,192,21533,1,0,0:0:0:0:
402,192,21533,1,0,0:0:0:0:
475,192,21694,1,0,0:0:0:0:
402,192,21694,1,0,0:0:0:0:
256,192,21694,1,0,0:0:0:0:
109,192,21694,1,0,0:0:0:0:
36,192,21694,1,0,0:0:0:0:
329,192,21855,1,0,0:0:0:0:
402,192,21855,1,0,0:0:0:0:
182,192,21855,1,0,0:0:0:0:
36,192,21855,1,0,0:0:0:0:
402,192,22016,1,0,0:0:0:0:
475,192,22016,1,0,0:0:0:0:
256,192,22016,1,0,0:0:0:0:
109,192,22016,1,0,0:0:0:0:
182,192,22178,1,0,0:0:0:0:
329,192,22178,1,0,0:0:0:0:
36,192,22178,1,0,0:0:0:0:
36,192,22339,1,0,0:0:0:0:
109,192,22339,1,0,0:0:0:0:
256,192,22339,1,0,0:0:0:0:
475,192,22339,1,0,0:0:0:0:
329,192,22339,1,0,0:0:0:0:
182,192,22500,1,0,0:0:0:0:
329,192,22500,1,0,0:0:0:0:
36,192,22500,1,0,0:0:0:0:
402,192,22661,1,0,0:0:0:0:
256,192,22661,1,0,0:0:0:0:
182,192,22822,1,0,0:0:0:0:
329,192,22822,1,0,0:0:0:0:
475,192,22822,1,0,0:0:0:0:
109,192,22822,1,0,0:0:0:0:
402,192,22983,1,0,0:0:0:0:
475,192,22983,1,0,0:0:0:0:
256,192,22983,1,0,0:0:0:0:
182,192,22983,1,0,0:0:0:0:
36,192,22983,1,0,0:0:0:0:
329,192,23144,1,0,0:0:0:0:
182,192,23144,1,0,0:0:0:0:
475,192,23144,1,0,0:0:0:0:
109,192,23225,1,0,0:0:0:0:
36,192,23305,1,0,0:0:0:0:
402,192,23305,1,0,0:0:0:0:
475,192,23305,1,0,0:0:0:0:
256,192,23305,1,0,0:0:0:0:
182,192,23467,1,0,0:0:0:0:
329,192,23467,1,0,0:0:0:0:
402,192,23467,1,0,0:0:0:0:
36,192,23628,1,0,0:0:0:0:
109,192,23628,1,0,0:0:0:0:
256,192,23628,1,0,0:0:0:0:
475,192,23628,1,0,0:0:0:0:
329,192,23789,1,0,0:0:0:0:
182,192,23789,1,0,0:0:0:0:
109,192,23789,1,0,0:0:0:0:
256,192,23950,1,0,0:0:0:0:
402,192,23950,1,0,0:0:0:0:
475,192,23950,1,0,0:0:0:0:
36,192,23950,1,0,0:0:0:0:
329,192,24111,1,0,0:0:0:0:
182,192,24111,1,0,0:0:0:0:
402,192,24111,1,0,0:0:0:0:
109,192,24272,1,0,0:0:0:0:
36,192,24272,1,0,0:0:0:0:
256,192,24272,1,0,0:0:0:0:
475,192,24272,1,0,0:0:0:0:
109,192,24433,1,0,0:0:0:0:
182,192,24433,1,0,0:0:0:0:
329,192,24433,1,0,0:0:0:0:
402,192,24594,1,0,0:0:0:0:
475,192,24594,1,0,0:0:0:0:
182,192,24594,1,0,0:0:0:0:
256,192,24594,1,0,0:0:0:0:
36,192,24594,1,0,0:0:0:0:
109,192,24755,1,0,0:0:0:0:
329,192,24755,1,0,0:0:0:0:
182,192,24917,1,0,0:0:0:0:
402,192,24917,1,0,0:0:0:0:
109,192,25078,1,0,0:0:0:0:
329,192,25078,1,0,0:0:0:0:
256,192,25239,1,0,0:0:0:0:
36,192,25239,1,0,0:0:0:0:
402,192,25239,1,0,0:0:0:0:
182,192,25239,128,0,25481:0:0:0:0:
256,192,25481,1,0,0:0:0:0:
475,192,25481,1,0,0:0:0:0:
109,192,25481,1,0,0:0:0:0:
329,192,25481,128,0,25722:0:0:0:0:
256,192,25722,1,0,0:0:0:0:
402,192,25722,1,0,0:0:0:0:
36,192,25722,1,0,0:0:0:0:
182,192,25722,128,0,26528:0:0:0:0:
329,192,26044,1,0,0:0:0:0:
475,192,26044,1,0,0:0:0:0:
402,192,26206,1,0,0:0:0:0:
256,192,26206,1,0,0:0:0:0:
329,192,26367,1,0,0:0:0:0:
475,192,26367,1,0,0:0:0:0:
402,192,26528,1,0,0:0:0:0:
256,192,26528,1,0,0:0:0:0:
109,192,26528,1,0,0:0:0:0:
36,192,26528,128,0,26769:0:0:0:0:
402,192,26769,1,0,0:0:0:0:
256,192,26769,1,0,0:0:0:0:
109,192,26769,1,0,0:0:0:0:
475,192,26769,128,0,27011:0:0:0:0:
256,192,27011,1,0,0:0:0:0:
402,192,27011,1,0,0:0:0:0:
109,192,27011,1,0,0:0:0:0:
36,192,27011,128,0,27817:0:0:0:0:
182,192,27333,128,0,27817:0:0:0:0:
329,192,27494,128,0,27817:0:0:0:0:
475,192,27656,1,0,0:0:0:0:
109,192,27656,1,0,0:0:0:0:
402,192,27656,1,0,0:0:0:0:
256,192,27736,1,0,0:0:0:0:
109,192,27817,1,0,0:0:0:0:
402,192,27817,1,0,0:0:0:0:
475,192,27817,1,0,0:0:0:0:
109,192,28058,1,0,0:0:0:0:
329,192,28058,1,0,0:0:0:0:
182,192,28139,128,0,28300:0:0:0:0:
402,192,28139,128,0,28300:0:0:0:0:
109,192,28300,1,0,0:0:0:0:
329,192,28300,1,0,0:0:0:0:
256,192,28381,1,0,0:0:0:0:
475,192,28381,1,0,0:0:0:0:
329,192,28461,1,0,0:0:0:0:
109,192,28461,1,0,0:0:0:0:
182,192,28542,1,0,0:0:0:0:
402,192,28542,1,0,0:0:0:0:
256,192,28622,1,0,0:0:0:0:
475,192,28622,1,0,0:0:0:0:
109,192,28703,1,0,0:0:0:0:
329,192,28703,1,0,0:0:0:0:
256,192,28783,1,0,0:0:0:0:
475,192,28783,1,0,0:0:0:0:
182,192,28864,1,0,0:0:0:0:
402,192,28864,1,0,0:0:0:0:
109,192,28945,1,0,0:0:0:0:
329,192,28945,1,0,0:0:0:0:
256,192,29025,1,0,0:0:0:0:
475,192,29025,1,0,0:0:0:0:
402,192,29106,1,0,0:0:0:0:
182,192,29106,1,0,0:0:0:0:
36,192,29106,128,0,29347:0:0:0:0:
109,192,29347,1,0,0:0:0:0:
256,192,29347,1,0,0:0:0:0:
475,192,29347,128,0,29589:0:0:0:0:
182,192,29589,1,0,0:0:0:0:
402,192,29589,1,0,0:0:0:0:
36,192,29589,1,0,0:0:0:0:
109,192,29750,1,0,0:0:0:0:
329,192,29750,1,0,0:0:0:0:
402,192,29911,1,0,0:0:0:0:
182,192,29911,1,0,0:0:0:0:
329,192,30072,1,0,0:0:0:0:
109,192,30072,1,0,0:0:0:0:
402,192,30233,1,0,0:0:0:0:
182,192,30233,1,0,0:0:0:0:
256,192,30395,1,0,0:0:0:0:
475,192,30395,1,0,0:0:0:0:
109,192,30395,1,0,0:0:0:0:
329,192,30395,128,0,30636:0:0:0:0:
256,192,30636,1,0,0:0:0:0:
36,192,30636,1,0,0:0:0:0:
402,192,30636,1,0,0:0:0:0:
182,192,30636,128,0,30878:0:0:0:0:
256,192,30878,1,0,0:0:0:0:
109,192,30878,1,0,0:0:0:0:
475,192,30878,1,0,0:0:0:0:
329,192,30878,128,0,31684:0:0:0:0:
182,192,31200,1,0,0:0:0:0:
36,192,31200,1,0,0:0:0:0:
109,192,31361,1,0,0:0:0:0:
256,192,31361,1,0,0:0:0:0:
182,192,31522,1,0,0:0:0:0:
36,192,31522,1,0,0:0:0:0:
109,192,31684,1,0,0:0:0:0:
256,192,31684,1,0,0:0:0:0:
402,192,31684,1,0,0:0:0:0:
475,192,31684,128,0,31925:0:0:0:0:
109,192,31925,1,0,0:0:0:0:
256,192,31925,1,0,0:0:0:0:
402,192,31925,1,0,0:0:0:0:
36,192,31925,128,0,32167:0:0:0:0:
256,192,32167,1,0,0:0:0:0:
109,192,32167,1,0,0:0:0:0:
402,192,32167,1,0,0:0:0:0:
475,192,32167,128,0,32972:0:0:0:0:
329,192,32489,128,0,32972:0:0:0:0:
182,192,32650,128,0,32972:0:0:0:0:
36,192,32811,128,0,32972:0:0:0:0:
402,192,32972,1,0,0:0:0:0:
109,192,32972,1,0,0:0:0:0:
329,192,33053,1,0,0:0:0:0:
182,192,33053,1,0,0:0:0:0:
109,192,33134,1,0,0:0:0:0:
256,192,33134,1,0,0:0:0:0:
402,192,33214,1,0,0:0:0:0:
329,192,33214,1,0,0:0:0:0:
182,192,33295,1,0,0:0:0:0:
109,192,33295,1,0,0:0:0:0:
329,192,33375,1,0,0:0:0:0:
256,192,33375,1,0,0:0:0:0:
109,192,33456,1,0,0:0:0:0:
402,192,33456,1,0,0:0:0:0:
256,192,33536,1,0,0:0:0:0:
182,192,33536,1,0,0:0:0:0:
329,192,33617,1,0,0:0:0:0:
475,192,33617,1,0,0:0:0:0:
109,192,33617,1,0,0:0:0:0:
36,192,33617,1,0,0:0:0:0:
109,192,33697,1,0,0:0:0:0:
36,192,33697,1,0,0:0:0:0:
329,192,33697,1,0,0:0:0:0:
475,192,33697,1,0,0:0:0:0:
402,192,33778,1,0,0:0:0:0:
256,192,33778,1,0,0:0:0:0:
182,192,33778,1,0,0:0:0:0:
402,192,33939,1,0,0:0:0:0:
256,192,33939,1,0,0:0:0:0:
182,192,33939,1,0,0:0:0:0:
475,192,34100,1,0,0:0:0:0:
402,192,34100,1,0,0:0:0:0:
182,192,34100,1,0,0:0:0:0:
36,192,34100,1,0,0:0:0:0:
475,192,34181,1,0,0:0:0:0:
402,192,34181,1,0,0:0:0:0:
182,192,34181,1,0,0:0:0:0:
36,192,34181,1,0,0:0:0:0:
109,192,34261,1,0,0:0:0:0:
256,192,34261,1,0,0:0:0:0:
329,192,34261,1,0,0:0:0:0:
256,192,34423,1,0,0:0:0:0:
329,192,34423,1,0,0:0:0:0:
109,192,34423,1,0,0:0:0:0:
109,192,34584,1,0,0:0:0:0:
36,192,34584,1,0,0:0:0:0:
329,192,34584,1,0,0:0:0:0:
475,192,34584,1,0,0:0:0:0:
256,192,34584,1,0,0:0:0:0:
256,192,34906,5,0,0:0:0:0:
182,192,34906,1,0,0:0:0:0:
402,192,34906,1,0,0:0:0:0:
475,192,34906,1,0,0:0:0:0:
109,192,34986,1,0,0:0:0:0:
36,192,34986,1,0,0:0:0:0:
256,192,35067,1,0,0:0:0:0:
329,192,35067,1,0,0:0:0:0:
475,192,35067,1,0,0:0:0:0:
109,192,35148,1,0,0:0:0:0:
182,192,35148,1,0,0:0:0:0:
329,192,35228,1,0,0:0:0:0:
402,192,35228,1,0,0:0:0:0:
36,192,35228,1,0,0:0:0:0:
182,192,35309,1,0,0:0:0:0:
256,192,35309,1,0,0:0:0:0:
402,192,35389,1,0,0:0:0:0:
475,192,35389,1,0,0:0:0:0:
109,192,35389,1,0,0:0:0:0:
256,192,35470,1,0,0:0:0:0:
329,192,35470,1,0,0:0:0:0:
182,192,35550,1,0,0:0:0:0:
475,192,35550,1,0,0:0:0:0:
36,192,35550,1,0,0:0:0:0:
329,192,35631,1,0,0:0:0:0:
402,192,35631,1,0,0:0:0:0:
109,192,35711,1,0,0:0:0:0:
256,192,35711,1,0,0:0:0:0:
36,192,35711,1,0,0:0:0:0:
402,192,35792,1,0,0:0:0:0:
475,192,35792,1,0,0:0:0:0:
182,192,35873,1,0,0:0:0:0:
329,192,35873,1,0,0:0:0:0:
109,192,35873,1,0,0:0:0:0:
36,192,35873,1,0,0:0:0:0:
402,192,35953,1,0,0:0:0:0:
256,192,35953,1,0,0:0:0:0:
475,192,36034,1,0,0:0:0:0:
109,192,36034,1,0,0:0:0:0:
329,192,36034,1,0,0:0:0:0:
182,192,36114,1,0,0:0:0:0:
475,192,36195,1,0,0:0:0:0:
36,192,36195,1,0,0:0:0:0:
256,192,36195,1,0,0:0:0:0:
402,192,36195,1,0,0:0:0:0:
182,192,36275,1,0,0:0:0:0:
109,192,36356,1,0,0:0:0:0:
329,192,36356,1,0,0:0:0:0:
402,192,36356,1,0,0:0:0:0:
256,192,36436,1,0,0:0:0:0:
182,192,36517,1,0,0:0:0:0:
36,192,36517,1,0,0:0:0:0:
402,192,36517,1,0,0:0:0:0:
475,192,36517,1,0,0:0:0:0:
256,192,36598,1,0,0:0:0:0:
109,192,36598,1,0,0:0:0:0:
329,192,36678,1,0,0:0:0:0:
402,192,36678,1,0,0:0:0:0:
182,192,36678,1,0,0:0:0:0:
109,192,36759,1,0,0:0:0:0:
256,192,36839,1,0,0:0:0:0:
36,192,36839,1,0,0:0:0:0:
402,192,36839,1,0,0:0:0:0:
475,192,36839,1,0,0:0:0:0:
182,192,36920,1,0,0:0:0:0:
329,192,36920,1,0,0:0:0:0:
109,192,37000,1,0,0:0:0:0:
256,192,37000,1,0,0:0:0:0:
36,192,37000,1,0,0:0:0:0:
329,192,37081,1,0,0:0:0:0:
475,192,37161,1,0,0:0:0:0:
402,192,37161,1,0,0:0:0:0:
182,192,37161,1,0,0:0:0:0:
36,192,37161,1,0,0:0:0:0:
256,192,37242,1,0,0:0:0:0:
109,192,37242,1,0,0:0:0:0:
402,192,37323,1,0,0:0:0:0:
329,192,37323,1,0,0:0:0:0:
182,192,37323,1,0,0:0:0:0:
109,192,37403,1,0,0:0:0:0:
36,192,37484,1,0,0:0:0:0:
329,192,37484,1,0,0:0:0:0:
475,192,37484,1,0,0:0:0:0:
256,192,37484,1,0,0:0:0:0:
182,192,37564,1,0,0:0:0:0:
109,192,37645,1,0,0:0:0:0:
329,192,37645,1,0,0:0:0:0:
36,192,37645,1,0,0:0:0:0:
402,192,37725,1,0,0:0:0:0:
475,192,37806,1,0,0:0:0:0:
256,192,37806,1,0,0:0:0:0:
182,192,37806,1,0,0:0:0:0:
36,192,37806,1,0,0:0:0:0:
329,192,37887,1,0,0:0:0:0:
402,192,37967,1,0,0:0:0:0:
475,192,37967,1,0,0:0:0:0:
182,192,37967,1,0,0:0:0:0:
109,192,38048,1,0,0:0:0:0:
329,192,38048,1,0,0:0:0:0:
36,192,38128,1,0,0:0:0:0:
256,192,38128,1,0,0:0:0:0:
475,192,38128,1,0,0:0:0:0:
182,192,38209,1,0,0:0:0:0:
402,192,38209,1,0,0:0:0:0:
475,192,38289,1,0,0:0:0:0:
256,192,38289,1,0,0:0:0:0:
36,192,38289,1,0,0:0:0:0:
329,192,38370,1,0,0:0:0:0:
109,192,38370,1,0,0:0:0:0:
182,192,38450,1,0,0:0:0:0:
475,192,38450,1,0,0:0:0:0:
402,192,38450,1,0,0:0:0:0:
329,192,38531,1,0,0:0:0:0:
256,192,38531,1,0,0:0:0:0:
109,192,38612,1,0,0:0:0:0:
182,192,38612,1,0,0:0:0:0:
402,192,38612,1,0,0:0:0:0:
329,192,38692,1,0,0:0:0:0:
256,192,38692,1,0,0:0:0:0:
182,192,38773,1,0,0:0:0:0:
36,192,38773,1,0,0:0:0:0:
402,192,38773,1,0,0:0:0:0:
475,192,38773,1,0,0:0:0:0:
329,192,38853,1,0,0:0:0:0:
256,192,38934,1,0,0:0:0:0:
109,192,38934,1,0,0:0:0:0:
475,192,38934,1,0,0:0:0:0:
402,192,39014,1,0,0:0:0:0:
329,192,39095,1,0,0:0:0:0:
36,192,39095,1,0,0:0:0:0:
182,192,39095,1,0,0:0:0:0:
109,192,39095,1,0,0:0:0:0:
256,192,39175,1,0,0:0:0:0:
402,192,39175,1,0,0:0:0:0:
329,192,39256,1,0,0:0:0:0:
475,192,39256,1,0,0:0:0:0:
109,192,39256,1,0,0:0:0:0:
182,192,39337,1,0,0:0:0:0:
256,192,39337,1,0,0:0:0:0:
402,192,39417,1,0,0:0:0:0:
475,192,39417,1,0,0:0:0:0:
36,192,39417,1,0,0:0:0:0:
109,192,39417,1,0,0:0:0:0:
256,192,39498,1,0,0:0:0:0:
329,192,39498,1,0,0:0:0:0:
182,192,39578,1,0,0:0:0:0:
109,192,39578,1,0,0:0:0:0:
475,192,39578,1,0,0:0:0:0:
256,192,39659,1,0,0:0:0:0:
329,192,39659,1,0,0:0:0:0:
109,192,39739,1,0,0:0:0:0:
36,192,39739,1,0,0:0:0:0:
475,192,39739,1,0,0:0:0:0:
402,192,39739,1,0,0:0:0:0:
182,192,39820,1,0,0:0:0:0:
256,192,39900,1,0,0:0:0:0:
329,192,39900,1,0,0:0:0:0:
36,192,39900,1,0,0:0:0:0:
109,192,39981,1,0,0:0:0:0:
182,192,40062,1,0,0:0:0:0:
256,192,40062,1,0,0:0:0:0:
402,192,40062,1,0,0:0:0:0:
475,192,40062,1,0,0:0:0:0:
36,192,40142,1,0,0:0:0:0:
109,192,40223,1,0,0:0:0:0:
182,192,40223,1,0,0:0:0:0:
329,192,40223,1,0,0:0:0:0:
402,192,40223,1,0,0:0:0:0:
475,192,40303,1,0,0:0:0:0:
36,192,40384,1,0,0:0:0:0:
109,192,40384,1,0,0:0:0:0:
256,192,40384,1,0,0:0:0:0:
329,192,40384,1,0,0:0:0:0:
475,192,40464,1,0,0:0:0:0:
182,192,40545,1,0,0:0:0:0:
109,192,40545,1,0,0:0:0:0:
329,192,40545,1,0,0:0:0:0:
402,192,40545,1,0,0:0:0:0:
36,192,40626,1,0,0:0:0:0:
182,192,40706,1,0,0:0:0:0:
256,192,40706,1,0,0:0:0:0:
402,192,40706,1,0,0:0:0:0:
475,192,40706,1,0,0:0:0:0:
329,192,40787,1,0,0:0:0:0:
109,192,40787,1,0,0:0:0:0:
256,192,40867,1,0,0:0:0:0:
36,192,40867,1,0,0:0:0:0:
475,192,40867,1,0,0:0:0:0:
402,192,40948,1,0,0:0:0:0:
182,192,40948,1,0,0:0:0:0:
329,192,41028,1,0,0:0:0:0:
109,192,41028,1,0,0:0:0:0:
36,192,41028,1,0,0:0:0:0:
256,192,41028,1,0,0:0:0:0:
475,192,41109,1,0,0:0:0:0:
109,192,41189,1,0,0:0:0:0:
182,192,41189,1,0,0:0:0:0:
402,192,41189,1,0,0:0:0:0:
329,192,41189,1,0,0:0:0:0:
36,192,41270,1,0,0:0:0:0:
182,192,41351,1,0,0:0:0:0:
256,192,41351,1,0,0:0:0:0:
402,192,41351,1,0,0:0:0:0:
475,192,41351,1,0,0:0:0:0:
36,192,41431,1,0,0:0:0:0:
109,192,41512,1,0,0:0:0:0:
182,192,41512,1,0,0:0:0:0:
329,192,41512,1,0,0:0:0:0:
402,192,41512,1,0,0:0:0:0:
475,192,41592,1,0,0:0:0:0:
109,192,41673,1,0,0:0:0:0:
36,192,41673,1,0,0:0:0:0:
329,192,41673,1,0,0:0:0:0:
256,192,41673,1,0,0:0:0:0:
402,192,41753,1,0,0:0:0:0:
182,192,41753,1,0,0:0:0:0:
475,192,41834,1,0,0:0:0:0:
256,192,41834,1,0,0:0:0:0:
36,192,41834,1,0,0:0:0:0:
109,192,41914,1,0,0:0:0:0:
329,192,41914,1,0,0:0:0:0:
182,192,41995,1,0,0:0:0:0:
402,192,41995,1,0,0:0:0:0:
475,192,41995,1,0,0:0:0:0:
256,192,42076,1,0,0:0:0:0:
36,192,42076,1,0,0:0:0:0:
329,192,42156,1,0,0:0:0:0:
109,192,42156,1,0,0:0:0:0:
402,192,42156,1,0,0:0:0:0:
182,192,42237,1,0,0:0:0:0:
256,192,42317,1,0,0:0:0:0:
36,192,42317,1,0,0:0:0:0:
329,192,42317,1,0,0:0:0:0:
475,192,42317,1,0,0:0:0:0:
109,192,42398,1,0,0:0:0:0:
182,192,42398,1,0,0:0:0:0:
256,192,42478,1,0,0:0:0:0:
475,192,42478,1,0,0:0:0:0:
36,192,42478,1,0,0:0:0:0:
329,192,42559,1,0,0:0:0:0:
402,192,42559,1,0,0:0:0:0:
182,192,42639,1,0,0:0:0:0:
256,192,42639,1,0,0:0:0:0:
475,192,42639,1,0,0:0:0:0:
36,192,42639,1,0,0:0:0:0:
329,192,42720,1,0,0:0:0:0:
402,192,42801,1,0,0:0:0:0:
109,192,42801,1,0,0:0:0:0:
182,192,42801,1,0,0:0:0:0:
329,192,42881,1,0,0:0:0:0:
256,192,42962,1,0,0:0:0:0:
109,192,42962,1,0,0:0:0:0:
36,192,42962,1,0,0:0:0:0:
475,192,42962,1,0,0:0:0:0:
402,192,42962,1,0,0:0:0:0:
182,192,43042,1,0,0:0:0:0:
109,192,43123,1,0,0:0:0:0:
329,192,43123,1,0,0:0:0:0:
402,192,43123,1,0,0:0:0:0:
182,192,43203,1,0,0:0:0:0:
256,192,43284,1,0,0:0:0:0:
402,192,43284,1,0,0:0:0:0:
475,192,43284,1,0,0:0:0:0:
36,192,43284,1,0,0:0:0:0:
329,192,43364,1,0,0:0:0:0:
402,192,43445,1,0,0:0:0:0:
109,192,43445,1,0,0:0:0:0:
182,192,43445,1,0,0:0:0:0:
329,192,43526,1,0,0:0:0:0:
256,192,43606,1,0,0:0:0:0:
109,192,43606,1,0,0:0:0:0:
36,192,43606,1,0,0:0:0:0:
475,192,43606,1,0,0:0:0:0:
402,192,43606,1,0,0:0:0:0:
182,192,43687,1,0,0:0:0:0:
109,192,43767,1,0,0:0:0:0:
329,192,43767,1,0,0:0:0:0:
402,192,43767,1,0,0:0:0:0:
256,192,43848,1,0,0:0:0:0:
182,192,43928,1,0,0:0:0:0:
36,192,43928,1,0,0:0:0:0:
402,192,43928,1,0,0:0:0:0:
475,192,43928,1,0,0:0:0:0:
402,192,44009,1,0,0:0:0:0:
475,192,44009,1,0,0:0:0:0:
182,192,44009,1,0,0:0:0:0:
36,192,44009,1,0,0:0:0:0:
109,192,44090,1,0,0:0:0:0:
256,192,44090,1,0,0:0:0:0:
329,192,44090,1,0,0:0:0:0:
109,192,44251,1,0,0:0:0:0:
256,192,44251,1,0,0:0:0:0:
329,192,44251,1,0,0:0:0:0:
36,192,44412,1,0,0:0:0:0:
109,192,44412,1,0,0:0:0:0:
329,192,44412,1,0,0:0:0:0:
475,192,44412,1,0,0:0:0:0:
36,192,44492,1,0,0:0:0:0:
109,192,44492,1,0,0:0:0:0:
329,192,44492,1,0,0:0:0:0:
475,192,44492,1,0,0:0:0:0:
402,192,44573,1,0,0:0:0:0:
256,192,44573,1,0,0:0:0:0:
182,192,44573,1,0,0:0:0:0:
109,192,44653,1,0,0:0:0:0:
36,192,44653,1,0,0:0:0:0:
256,192,44734,1,0,0:0:0:0:
329,192,44734,1,0,0:0:0:0:
475,192,44734,1,0,0:0:0:0:
182,192,44815,1,0,0:0:0:0:
109,192,44895,1,0,0:0:0:0:
36,192,44895,1,0,0:0:0:0:
329,192,44895,1,0,0:0:0:0:
475,192,44895,1,0,0:0:0:0:
329,192,45056,1,0,0:0:0:0:
475,192,45056,1,0,0:0:0:0:
109,192,45056,1,0,0:0:0:0:
36,192,45056,1,0,0:0:0:0:
256,192,45217,5,0,0:0:0:0:
109,192,45217,1,0,0:0:0:0:
329,192,45217,1,0,0:0:0:0:
36,192,45217,1,0,0:0:0:0:
402,192,45298,1,0,0:0:0:0:
475,192,45298,1,0,0:0:0:0:
256,192,45378,1,0,0:0:0:0:
182,192,45378,1,0,0:0:0:0:
36,192,45378,1,0,0:0:0:0:
402,192,45459,1,0,0:0:0:0:
329,192,45459,1,0,0:0:0:0:
182,192,45540,1,0,0:0:0:0:
109,192,45540,1,0,0:0:0:0:
475,192,45540,1,0,0:0:0:0:
329,192,45620,1,0,0:0:0:0:
256,192,45620,1,0,0:0:0:0:
109,192,45701,1,0,0:0:0:0:
36,192,45701,1,0,0:0:0:0:
402,192,45701,1,0,0:0:0:0:
256,192,45781,1,0,0:0:0:0:
182,192,45781,1,0,0:0:0:0:
329,192,45862,1,0,0:0:0:0:
36,192,45862,1,0,0:0:0:0:
475,192,45862,1,0,0:0:0:0:
182,192,45942,1,0,0:0:0:0:
109,192,45942,1,0,0:0:0:0:
402,192,46023,1,0,0:0:0:0:
256,192,46023,1,0,0:0:0:0:
475,192,46023,1,0,0:0:0:0:
109,192,46103,1,0,0:0:0:0:
36,192,46103,1,0,0:0:0:0:
329,192,46184,1,0,0:0:0:0:
182,192,46184,1,0,0:0:0:0:
402,192,46184,1,0,0:0:0:0:
475,192,46184,1,0,0:0:0:0:
109,192,46265,1,0,0:0:0:0:
256,192,46265,1,0,0:0:0:0:
36,192,46345,1,0,0:0:0:0:
402,192,46345,1,0,0:0:0:0:
182,192,46345,1,0,0:0:0:0:
329,192,46426,1,0,0:0:0:0:
36,192,46506,1,0,0:0:0:0:
475,192,46506,1,0,0:0:0:0:
256,192,46506,1,0,0:0:0:0:
109,192,46506,1,0,0:0:0:0:
329,192,46587,1,0,0:0:0:0:
402,192,46667,1,0,0:0:0:0:
182,192,46667,1,0,0:0:0:0:
109,192,46667,1,0,0:0:0:0:
256,192,46748,1,0,0:0:0:0:
329,192,46829,1,0,0:0:0:0:
475,192,46829,1,0,0:0:0:0:
109,192,46829,1,0,0:0:0:0:
36,192,46829,1,0,0:0:0:0:
256,192,46909,1,0,0:0:0:0:
402,192,46909,1,0,0:0:0:0:
182,192,46990,1,0,0:0:0:0:
109,192,46990,1,0,0:0:0:0:
329,192,46990,1,0,0:0:0:0:
402,192,47070,1,0,0:0:0:0:
256,192,47151,1,0,0:0:0:0:
475,192,47151,1,0,0:0:0:0:
109,192,47151,1,0,0:0:0:0:
36,192,47151,1,0,0:0:0:0:
329,192,47231,1,0,0:0:0:0:
182,192,47231,1,0,0:0:0:0:
402,192,47312,1,0,0:0:0:0:
256,192,47312,1,0,0:0:0:0:
475,192,47312,1,0,0:0:0:0:
182,192,47392,1,0,0:0:0:0:
36,192,47473,1,0,0:0:0:0:
109,192,47473,1,0,0:0:0:0:
329,192,47473,1,0,0:0:0:0:
475,192,47473,1,0,0:0:0:0:
256,192,47554,1,0,0:0:0:0:
402,192,47554,1,0,0:0:0:0:
109,192,47634,1,0,0:0:0:0:
182,192,47634,1,0,0:0:0:0:
329,192,47634,1,0,0:0:0:0:
402,192,47715,1,0,0:0:0:0:
475,192,47795,1,0,0:0:0:0:
182,192,47795,1,0,0:0:0:0:
36,192,47795,1,0,0:0:0:0:
256,192,47795,1,0,0:0:0:0:
329,192,47876,1,0,0:0:0:0:
402,192,47956,1,0,0:0:0:0:
182,192,47956,1,0,0:0:0:0:
475,192,47956,1,0,0:0:0:0:
109,192,48037,1,0,0:0:0:0:
36,192,48117,1,0,0:0:0:0:
256,192,48117,1,0,0:0:0:0:
329,192,48117,1,0,0:0:0:0:
475,192,48117,1,0,0:0:0:0:
182,192,48198,1,0,0:0:0:0:
109,192,48279,1,0,0:0:0:0:
36,192,48279,1,0,0:0:0:0:
329,192,48279,1,0,0:0:0:0:
402,192,48359,1,0,0:0:0:0:
182,192,48359,1,0,0:0:0:0:
475,192,48440,1,0,0:0:0:0:
256,192,48440,1,0,0:0:0:0:
36,192,48440,1,0,0:0:0:0:
329,192,48520,1,0,0:0:0:0:
109,192,48520,1,0,0:0:0:0:
36,192,48601,1,0,0:0:0:0:
256,192,48601,1,0,0:0:0:0:
475,192,48601,1,0,0:0:0:0:
182,192,48681,1,0,0:0:0:0:
402,192,48681,1,0,0:0:0:0:
329,192,48762,1,0,0:0:0:0:
36,192,48762,1,0,0:0:0:0:
109,192,48762,1,0,0:0:0:0:
182,192,48842,1,0,0:0:0:0:
256,192,48842,1,0,0:0:0:0:
402,192,48923,1,0,0:0:0:0:
329,192,48923,1,0,0:0:0:0:
109,192,48923,1,0,0:0:0:0:
182,192,49004,1,0,0:0:0:0:
256,192,49004,1,0,0:0:0:0:
329,192,49084,1,0,0:0:0:0:
475,192,49084,1,0,0:0:0:0:
109,192,49084,1,0,0:0:0:0:
36,192,49084,1,0,0:0:0:0:
182,192,49165,1,0,0:0:0:0:
402,192,49245,1,0,0:0:0:0:
475,192,49245,1,0,0:0:0:0:
329,192,49245,1,0,0:0:0:0:
109,192,49245,1,0,0:0:0:0:
256,192,49326,1,0,0:0:0:0:
475,192,49406,1,0,0:0:0:0:
36,192,49406,1,0,0:0:0:0:
402,192,49406,1,0,0:0:0:0:
182,192,49406,1,0,0:0:0:0:
329,192,49487,1,0,0:0:0:0:
402,192,49568,1,0,0:0:0:0:
182,192,49568,1,0,0:0:0:0:
109,192,49568,1,0,0:0:0:0:
36,192,49568,1,0,0:0:0:0:
256,192,49648,1,0,0:0:0:0:
329,192,49729,1,0,0:0:0:0:
475,192,49729,1,0,0:0:0:0:
109,192,49729,1,0,0:0:0:0:
36,192,49729,1,0,0:0:0:0:
182,192,49809,1,0,0:0:0:0:
256,192,49809,1,0,0:0:0:0:
402,192,49890,1,0,0:0:0:0:
329,192,49890,1,0,0:0:0:0:
36,192,49890,1,0,0:0:0:0:
109,192,49970,1,0,0:0:0:0:
182,192,49970,1,0,0:0:0:0:
256,192,50051,1,0,0:0:0:0:
475,192,50051,1,0,0:0:0:0:
402,192,50051,1,0,0:0:0:0:
36,192,50051,1,0,0:0:0:0:
182,192,50131,1,0,0:0:0:0:
329,192,50212,1,0,0:0:0:0:
109,192,50212,1,0,0:0:0:0:
402,192,50212,1,0,0:0:0:0:
475,192,50212,1,0,0:0:0:0:
182,192,50293,1,0,0:0:0:0:
256,192,50373,1,0,0:0:0:0:
402,192,50373,1,0,0:0:0:0:
475,192,50373,1,0,0:0:0:0:
36,192,50373,1,0,0:0:0:0:
109,192,50454,1,0,0:0:0:0:
182,192,50534,1,0,0:0:0:0:
256,192,50534,1,0,0:0:0:0:
402,192,50534,1,0,0:0:0:0:
475,192,50534,1,0,0:0:0:0:
36,192,50615,1,0,0:0:0:0:
109,192,50695,1,0,0:0:0:0:
182,192,50695,1,0,0:0:0:0:
329,192,50695,1,0,0:0:0:0:
402,192,50695,1,0,0:0:0:0:
475,192,50776,1,0,0:0:0:0:
329,192,50856,1,0,0:0:0:0:
256,192,50856,1,0,0:0:0:0:
109,192,50856,1,0,0:0:0:0:
36,192,50856,1,0,0:0:0:0:
402,192,50937,1,0,0:0:0:0:
475,192,51018,1,0,0:0:0:0:
256,192,51018,1,0,0:0:0:0:
182,192,51018,1,0,0:0:0:0:
36,192,51018,1,0,0:0:0:0:
329,192,51098,1,0,0:0:0:0:
402,192,51179,1,0,0:0:0:0:
109,192,51179,1,0,0:0:0:0:
182,192,51179,1,0,0:0:0:0:
329,192,51259,1,0,0:0:0:0:
256,192,51340,1,0,0:0:0:0:
36,192,51340,1,0,0:0:0:0:
109,192,51340,1,0,0:0:0:0:
475,192,51340,1,0,0:0:0:0:
329,192,51420,1,0,0:0:0:0:
182,192,51501,1,0,0:0:0:0:
36,192,51501,1,0,0:0:0:0:
109,192,51501,1,0,0:0:0:0:
402,192,51501,1,0,0:0:0:0:
329,192,51581,1,0,0:0:0:0:
256,192,51662,1,0,0:0:0:0:
109,192,51662,1,0,0:0:0:0:
36,192,51662,1,0,0:0:0:0:
475,192,51662,1,0,0:0:0:0:
402,192,51743,1,0,0:0:0:0:
329,192,51823,1,0,0:0:0:0:
256,192,51823,1,0,0:0:0:0:
109,192,51823,1,0,0:0:0:0:
36,192,51823,1,0,0:0:0:0:
475,192,51904,1,0,0:0:0:0:
402,192,51984,1,0,0:0:0:0:
329,192,51984,1,0,0:0:0:0:
182,192,51984,1,0,0:0:0:0:
109,192,51984,1,0,0:0:0:0:
36,192,52065,1,0,0:0:0:0:
182,192,52145,1,0,0:0:0:0:
256,192,52145,1,0,0:0:0:0:
402,192,52145,1,0,0:0:0:0:
475,192,52145,1,0,0:0:0:0:
109,192,52226,1,0,0:0:0:0:
36,192,52306,1,0,0:0:0:0:
256,192,52306,1,0,0:0:0:0:
329,192,52306,1,0,0:0:0:0:
475,192,52306,1,0,0:0:0:0:
182,192,52387,1,0,0:0:0:0:
109,192,52468,1,0,0:0:0:0:
402,192,52468,1,0,0:0:0:0:
329,192,52468,1,0,0:0:0:0:
182,192,52548,1,0,0:0:0:0:
256,192,52629,1,0,0:0:0:0:
475,192,52629,1,0,0:0:0:0:
402,192,52629,1,0,0:0:0:0:
36,192,52629,1,0,0:0:0:0:
182,192,52709,1,0,0:0:0:0:
329,192,52790,1,0,0:0:0:0:
475,192,52790,1,0,0:0:0:0:
402,192,52790,1,0,0:0:0:0:
109,192,52790,1,0,0:0:0:0:
182,192,52870,1,0,0:0:0:0:
256,192,52951,1,0,0:0:0:0:
402,192,52951,1,0,0:0:0:0:
36,192,52951,1,0,0:0:0:0:
475,192,52951,1,0,0:0:0:0:
109,192,53032,1,0,0:0:0:0:
329,192,53032,1,0,0:0:0:0:
182,192,53112,1,0,0:0:0:0:
402,192,53112,1,0,0:0:0:0:
256,192,53112,1,0,0:0:0:0:
36,192,53193,1,0,0:0:0:0:
109,192,53273,1,0,0:0:0:0:
256,192,53273,1,0,0:0:0:0:
329,192,53273,1,0,0:0:0:0:
475,192,53273,1,0,0:0:0:0:
182,192,53354,1,0,0:0:0:0:
402,192,53434,1,0,0:0:0:0:
475,192,53434,1,0,0:0:0:0:
256,192,53434,1,0,0:0:0:0:
36,192,53434,1,0,0:0:0:0:
256,192,53595,1,0,0:0:0:0:
109,192,53595,1,0,0:0:0:0:
36,192,53595,1,0,0:0:0:0:
475,192,53595,1,0,0:0:0:0:
402,192,53676,1,0,0:0:0:0:
182,192,53676,1,0,0:0:0:0:
329,192,53757,1,0,0:0:0:0:
109,192,53757,1,0,0:0:0:0:
256,192,53757,1,0,0:0:0:0:
475,192,53837,1,0,0:0:0:0:
402,192,53918,1,0,0:0:0:0:
256,192,53918,1,0,0:0:0:0:
182,192,53918,1,0,0:0:0:0:
36,192,53918,1,0,0:0:0:0:
329,192,53998,1,0,0:0:0:0:
256,192,54079,1,0,0:0:0:0:
109,192,54079,1,0,0:0:0:0:
36,192,54079,1,0,0:0:0:0:
475,192,54079,1,0,0:0:0:0:
109,192,54240,1,0,0:0:0:0:
36,192,54240,1,0,0:0:0:0:
256,192,54240,1,0,0:0:0:0:
402,192,54240,1,0,0:0:0:0:
329,192,54401,1,0,0:0:0:0:
182,192,54401,1,0,0:0:0:0:
475,192,54401,1,0,0:0:0:0:
402,192,54562,1,0,0:0:0:0:
256,192,54562,1,0,0:0:0:0:
36,192,54562,1,0,0:0:0:0:
475,192,54562,1,0,0:0:0:0:
329,192,54723,1,0,0:0:0:0:
182,192,54723,1,0,0:0:0:0:
109,192,54723,1,0,0:0:0:0:
402,192,54884,1,0,0:0:0:0:
475,192,54884,1,0,0:0:0:0:
256,192,54884,1,0,0:0:0:0:
109,192,54965,1,0,0:0:0:0:
182,192,54965,1,0,0:0:0:0:
36,192,54965,1,0,0:0:0:0:
402,192,55045,1,0,0:0:0:0:
329,192,55045,1,0,0:0:0:0:
475,192,55045,1,0,0:0:0:0:
182,192,55126,1,0,0:0:0:0:
109,192,55126,1,0,0:0:0:0:
36,192,55126,1,0,0:0:0:0:
402,192,55207,1,0,0:0:0:0:
256,192,55207,1,0,0:0:0:0:
475,192,55207,1,0,0:0:0:0:
182,192,55287,1,0,0:0:0:0:
109,192,55368,1,0,0:0:0:0:
329,192,55368,1,0,0:0:0:0:
256,192,55448,1,0,0:0:0:0:
182,192,55529,1,0,0:0:0:0:
402,192,55529,1,0,0:0:0:0:
475,192,55529,1,0,0:0:0:0:
36,192,55529,128,0,55932:0:0:0:0:
256,192,55690,1,0,0:0:0:0:
329,192,55851,1,0,0:0:0:0:
475,192,56012,1,0,0:0:0:0:
402,192,56012,1,0,0:0:0:0:
182,192,56012,1,0,0:0:0:0:
36,192,56012,128,0,56576:0:0:0:0:
256,192,56334,1,0,0:0:0:0:
329,192,56496,1,0,0:0:0:0:
402,192,56657,1,0,0:0:0:0:
475,192,56657,1,0,0:0:0:0:
182,192,56657,1,0,0:0:0:0:
36,192,56657,1,0,0:0:0:0:
329,192,56818,1,0,0:0:0:0:
475,192,56818,1,0,0:0:0:0:
256,192,56898,1,0,0:0:0:0:
182,192,56979,1,0,0:0:0:0:
36,192,56979,1,0,0:0:0:0:
109,192,57140,1,0,0:0:0:0:
402,192,57140,1,0,0:0:0:0:
329,192,57301,5,0,0:0:0:0:
402,192,57301,1,0,0:0:0:0:
256,192,57382,1,0,0:0:0:0:
109,192,57462,1,0,0:0:0:0:
182,192,57462,1,0,0:0:0:0:
36,192,57623,1,0,0:0:0:0:
182,192,57623,1,0,0:0:0:0:
329,192,57623,1,0,0:0:0:0:
475,192,57623,1,0,0:0:0:0:
402,192,57784,1,0,0:0:0:0:
256,192,57784,1,0,0:0:0:0:
109,192,57784,1,0,0:0:0:0:
36,192,58107,5,0,0:0:0:0:
475,192,58107,1,0,0:0:0:0:
182,192,58107,1,0,0:0:0:0:
402,192,58107,1,0,0:0:0:0:
256,192,58187,1,0,0:0:0:0:
475,192,58268,1,0,0:0:0:0:
109,192,58268,1,0,0:0:0:0:
329,192,58268,1,0,0:0:0:0:
256,192,58348,1,0,0:0:0:0:
182,192,58429,1,0,0:0:0:0:
36,192,58429,1,0,0:0:0:0:
475,192,58429,1,0,0:0:0:0:
402,192,58429,1,0,0:0:0:0:
329,192,58510,1,0,0:0:0:0:
109,192,58590,1,0,0:0:0:0:
475,192,58590,1,0,0:0:0:0:
256,192,58590,1,0,0:0:0:0:
329,192,58671,1,0,0:0:0:0:
402,192,58751,1,0,0:0:0:0:
36,192,58751,1,0,0:0:0:0:
182,192,58751,1,0,0:0:0:0:
256,192,58832,1,0,0:0:0:0:
475,192,58832,1,0,0:0:0:0:
182,192,58912,1,0,0:0:0:0:
36,192,58912,1,0,0:0:0:0:
402,192,58912,1,0,0:0:0:0:
256,192,58993,1,0,0:0:0:0:
109,192,58993,1,0,0:0:0:0:
329,192,59073,1,0,0:0:0:0:
182,192,59073,1,0,0:0:0:0:
475,192,59073,1,0,0:0:0:0:
402,192,59073,1,0,0:0:0:0:
109,192,59154,1,0,0:0:0:0:
36,192,59235,1,0,0:0:0:0:
256,192,59235,1,0,0:0:0:0:
402,192,59235,1,0,0:0:0:0:
109,192,59315,1,0,0:0:0:0:
182,192,59396,1,0,0:0:0:0:
329,192,59396,1,0,0:0:0:0:
475,192,59396,1,0,0:0:0:0:
36,192,59476,1,0,0:0:0:0:
109,192,59476,1,0,0:0:0:0:
256,192,59557,1,0,0:0:0:0:
402,192,59557,1,0,0:0:0:0:
109,192,59637,1,0,0:0:0:0:
182,192,59637,1,0,0:0:0:0:
329,192,59718,1,0,0:0:0:0:
475,192,59718,1,0,0:0:0:0:
36,192,59718,1,0,0:0:0:0:
182,192,59798,1,0,0:0:0:0:
256,192,59798,1,0,0:0:0:0:
402,192,59879,1,0,0:0:0:0:
36,192,59879,1,0,0:0:0:0:
109,192,59879,1,0,0:0:0:0:
256,192,59960,1,0,0:0:0:0:
329,192,59960,1,0,0:0:0:0:
109,192,60040,1,0,0:0:0:0:
182,192,60040,1,0,0:0:0:0:
475,192,60040,1,0,0:0:0:0:
329,192,60121,1,0,0:0:0:0:
402,192,60121,1,0,0:0:0:0:
182,192,60201,1,0,0:0:0:0:
256,192,60201,1,0,0:0:0:0:
36,192,60201,1,0,0:0:0:0:
402,192,60282,1,0,0:0:0:0:
475,192,60282,1,0,0:0:0:0:
256,192,60362,1,0,0:0:0:0:
329,192,60362,1,0,0:0:0:0:
109,192,60362,1,0,0:0:0:0:
475,192,60443,1,0,0:0:0:0:
36,192,60443,1,0,0:0:0:0:
329,192,60523,1,0,0:0:0:0:
402,192,60523,1,0,0:0:0:0:
182,192,60523,1,0,0:0:0:0:
109,192,60604,1,0,0:0:0:0:
36,192,60604,1,0,0:0:0:0:
475,192,60685,1,0,0:0:0:0:
402,192,60685,1,0,0:0:0:0:
256,192,60685,1,0,0:0:0:0:
329,192,60765,1,0,0:0:0:0:
36,192,60846,1,0,0:0:0:0:
182,192,60846,1,0,0:0:0:0:
402,192,60846,1,0,0:0:0:0:
256,192,60926,1,0,0:0:0:0:
329,192,61007,1,0,0:0:0:0:
475,192,61007,1,0,0:0:0:0:
36,192,61007,1,0,0:0:0:0:
109,192,61007,1,0,0:0:0:0:
182,192,61087,1,0,0:0:0:0:
402,192,61168,1,0,0:0:0:0:
36,192,61168,1,0,0:0:0:0:
256,192,61168,1,0,0:0:0:0:
182,192,61248,1,0,0:0:0:0:
109,192,61329,1,0,0:0:0:0:
475,192,61329,1,0,0:0:0:0:
329,192,61329,1,0,0:0:0:0:
256,192,61410,1,0,0:0:0:0:
36,192,61410,1,0,0:0:0:0:
329,192,61490,1,0,0:0:0:0:
475,192,61490,1,0,0:0:0:0:
109,192,61490,1,0,0:0:0:0:
256,192,61571,1,0,0:0:0:0:
402,192,61571,1,0,0:0:0:0:
182,192,61651,1,0,0:0:0:0:
329,192,61651,1,0,0:0:0:0:
36,192,61651,1,0,0:0:0:0:
109,192,61651,1,0,0:0:0:0:
402,192,61732,1,0,0:0:0:0:
475,192,61812,1,0,0:0:0:0:
256,192,61812,1,0,0:0:0:0:
109,192,61812,1,0,0:0:0:0:
402,192,61893,1,0,0:0:0:0:
36,192,61974,1,0,0:0:0:0:
329,192,61974,1,0,0:0:0:0:
182,192,61974,1,0,0:0:0:0:
402,192,62054,1,0,0:0:0:0:
109,192,62054,1,0,0:0:0:0:
256,192,62135,1,0,0:0:0:0:
475,192,62135,1,0,0:0:0:0:
329,192,62135,1,0,0:0:0:0:
36,192,62135,1,0,0:0:0:0:
182,192,62215,1,0,0:0:0:0:
109,192,62215,1,0,0:0:0:0:
256,192,62296,1,0,0:0:0:0:
402,192,62296,1,0,0:0:0:0:
475,192,62296,1,0,0:0:0:0:
36,192,62296,1,0,0:0:0:0:
109,192,62376,1,0,0:0:0:0:
182,192,62376,1,0,0:0:0:0:
475,192,62457,1,0,0:0:0:0:
329,192,62457,1,0,0:0:0:0:
36,192,62457,1,0,0:0:0:0:
256,192,62537,1,0,0:0:0:0:
182,192,62537,1,0,0:0:0:0:
36,192,62618,1,0,0:0:0:0:
109,192,62618,1,0,0:0:0:0:
329,192,62618,1,0,0:0:0:0:
475,192,62618,1,0,0:0:0:0:
256,192,62699,1,0,0:0:0:0:
402,192,62699,1,0,0:0:0:0:
329,192,62779,1,0,0:0:0:0:
109,192,62779,1,0,0:0:0:0:
182,192,62779,1,0,0:0:0:0:
36,192,62940,1,0,0:0:0:0:
256,192,62940,1,0,0:0:0:0:
402,192,62940,1,0,0:0:0:0:
475,192,62940,1,0,0:0:0:0:
109,192,62940,1,0,0:0:0:0:
329,192,63101,1,0,0:0:0:0:
402,192,63101,1,0,0:0:0:0:
182,192,63101,1,0,0:0:0:0:
109,192,63101,1,0,0:0:0:0:
475,192,63262,1,0,0:0:0:0:
36,192,63262,1,0,0:0:0:0:
329,192,63262,1,0,0:0:0:0:
109,192,63262,1,0,0:0:0:0:
256,192,63343,1,0,0:0:0:0:
36,192,63424,1,0,0:0:0:0:
402,192,63424,1,0,0:0:0:0:
182,192,63424,1,0,0:0:0:0:
256,192,63504,1,0,0:0:0:0:
329,192,63585,1,0,0:0:0:0:
475,192,63585,1,0,0:0:0:0:
36,192,63585,1,0,0:0:0:0:
109,192,63585,1,0,0:0:0:0:
182,192,63665,1,0,0:0:0:0:
402,192,63746,1,0,0:0:0:0:
36,192,63746,1,0,0:0:0:0:
256,192,63746,1,0,0:0:0:0:
182,192,63826,1,0,0:0:0:0:
109,192,63907,1,0,0:0:0:0:
475,192,63907,1,0,0:0:0:0:
329,192,63907,1,0,0:0:0:0:
256,192,63987,1,0,0:0:0:0:
36,192,63987,1,0,0:0:0:0:
329,192,64068,1,0,0:0:0:0:
475,192,64068,1,0,0:0:0:0:
109,192,64068,1,0,0:0:0:0:
256,192,64149,1,0,0:0:0:0:
402,192,64149,1,0,0:0:0:0:
182,192,64229,1,0,0:0:0:0:
329,192,64229,1,0,0:0:0:0:
36,192,64229,1,0,0:0:0:0:
109,192,64229,1,0,0:0:0:0:
402,192,64310,1,0,0:0:0:0:
475,192,64390,1,0,0:0:0:0:
256,192,64390,1,0,0:0:0:0:
109,192,64390,1,0,0:0:0:0:
402,192,64471,1,0,0:0:0:0:
329,192,64551,1,0,0:0:0:0:
182,192,64551,1,0,0:0:0:0:
36,192,64551,1,0,0:0:0:0:
475,192,64632,1,0,0:0:0:0:
402,192,64632,1,0,0:0:0:0:
256,192,64713,1,0,0:0:0:0:
109,192,64713,1,0,0:0:0:0:
402,192,64793,1,0,0:0:0:0:
329,192,64793,1,0,0:0:0:0:
182,192,64874,1,0,0:0:0:0:
36,192,64874,1,0,0:0:0:0:
475,192,64874,1,0,0:0:0:0:
329,192,64954,1,0,0:0:0:0:
256,192,64954,1,0,0:0:0:0:
109,192,65035,1,0,0:0:0:0:
475,192,65035,1,0,0:0:0:0:
402,192,65035,1,0,0:0:0:0:
256,192,65115,1,0,0:0:0:0:
182,192,65115,1,0,0:0:0:0:
402,192,65196,1,0,0:0:0:0:
329,192,65196,1,0,0:0:0:0:
36,192,65196,1,0,0:0:0:0:
182,192,65276,1,0,0:0:0:0:
109,192,65276,1,0,0:0:0:0:
329,192,65357,1,0,0:0:0:0:
256,192,65357,1,0,0:0:0:0:
475,192,65357,1,0,0:0:0:0:
109,192,65438,1,0,0:0:0:0:
36,192,65438,1,0,0:0:0:0:
256,192,65518,1,0,0:0:0:0:
182,192,65518,1,0,0:0:0:0:
402,192,65518,1,0,0:0:0:0:
36,192,65599,1,0,0:0:0:0:
475,192,65599,1,0,0:0:0:0:
182,192,65679,1,0,0:0:0:0:
109,192,65679,1,0,0:0:0:0:
329,192,65679,1,0,0:0:0:0:
402,192,65760,1,0,0:0:0:0:
475,192,65760,1,0,0:0:0:0:
36,192,65840,1,0,0:0:0:0:
109,192,65840,1,0,0:0:0:0:
256,192,65840,1,0,0:0:0:0:
182,192,65921,1,0,0:0:0:0:
475,192,66001,1,0,0:0:0:0:
109,192,66001,1,0,0:0:0:0:
329,192,66001,1,0,0:0:0:0:
256,192,66082,1,0,0:0:0:0:
182,192,66163,1,0,0:0:0:0:
36,192,66163,1,0,0:0:0:0:
475,192,66163,1,0,0:0:0:0:
402,192,66163,1,0,0:0:0:0:
329,192,66243,1,0,0:0:0:0:
109,192,66324,1,0,0:0:0:0:
475,192,66324,1,0,0:0:0:0:
256,192,66324,1,0,0:0:0:0:
329,192,66404,1,0,0:0:0:0:
402,192,66485,1,0,0:0:0:0:
36,192,66485,1,0,0:0:0:0:
182,192,66485,1,0,0:0:0:0:
256,192,66565,1,0,0:0:0:0:
475,192,66565,1,0,0:0:0:0:
182,192,66646,1,0,0:0:0:0:
36,192,66646,1,0,0:0:0:0:
402,192,66646,1,0,0:0:0:0:
256,192,66726,1,0,0:0:0:0:
109,192,66726,1,0,0:0:0:0:
329,192,66807,1,0,0:0:0:0:
182,192,66807,1,0,0:0:0:0:
475,192,66807,1,0,0:0:0:0:
402,192,66807,1,0,0:0:0:0:
109,192,66888,1,0,0:0:0:0:
36,192,66968,1,0,0:0:0:0:
256,192,66968,1,0,0:0:0:0:
402,192,66968,1,0,0:0:0:0:
109,192,67049,1,0,0:0:0:0:
475,192,67129,1,0,0:0:0:0:
182,192,67129,1,0,0:0:0:0:
329,192,67129,1,0,0:0:0:0:
256,192,67290,1,0,0:0:0:0:
402,192,67290,1,0,0:0:0:0:
182,192,67452,1,0,0:0:0:0:
329,192,67452,1,0,0:0:0:0:
475,192,67452,1,0,0:0:0:0:
256,192,67613,1,0,0:0:0:0:
402,192,67613,1,0,0:0:0:0:
329,192,67774,1,0,0:0:0:0:
182,192,67774,1,0,0:0:0:0:
36,192,67774,1,0,0:0:0:0:
256,192,67935,1,0,0:0:0:0:
402,192,67935,1,0,0:0:0:0:
329,192,68015,1,0,0:0:0:0:
182,192,68015,1,0,0:0:0:0:
256,192,68096,1,0,0:0:0:0:
109,192,68096,1,0,0:0:0:0:
329,192,68177,1,0,0:0:0:0:
475,192,68177,1,0,0:0:0:0:
402,192,68257,1,0,0:0:0:0:
256,192,68257,1,0,0:0:0:0:
329,192,68338,1,0,0:0:0:0:
182,192,68338,1,0,0:0:0:0:
256,192,68418,1,0,0:0:0:0:
36,192,68418,1,0,0:0:0:0:
109,192,68418,1,0,0:0:0:0:
475,192,68418,1,0,0:0:0:0:
329,192,68579,1,0,0:0:0:0:
109,192,68579,1,0,0:0:0:0:
256,192,68660,1,0,0:0:0:0:
182,192,68740,1,0,0:0:0:0:
475,192,68740,1,0,0:0:0:0:
402,192,68740,1,0,0:0:0:0:
36,192,68740,1,0,0:0:0:0:
329,192,68902,1,0,0:0:0:0:
109,192,68902,1,0,0:0:0:0:
182,192,68982,1,0,0:0:0:0:
256,192,69063,1,0,0:0:0:0:
402,192,69063,1,0,0:0:0:0:
182,192,69224,1,0,0:0:0:0:
36,192,69224,1,0,0:0:0:0:
475,192,69224,1,0,0:0:0:0:
402,192,69224,1,0,0:0:0:0:
36,192,69304,1,0,0:0:0:0:
182,192,69304,1,0,0:0:0:0:
329,192,69385,1,0,0:0:0:0:
475,192,69385,1,0,0:0:0:0:
256,192,69385,1,0,0:0:0:0:
402,192,69385,1,0,0:0:0:0:
182,192,69465,1,0,0:0:0:0:
109,192,69546,1,0,0:0:0:0:
329,192,69546,1,0,0:0:0:0:
256,192,69627,1,0,0:0:0:0:
182,192,69707,1,0,0:0:0:0:
36,192,69707,1,0,0:0:0:0:
402,192,69707,1,0,0:0:0:0:
475,192,69707,1,0,0:0:0:0:
256,192,69868,1,0,0:0:0:0:
109,192,69868,1,0,0:0:0:0:
182,192,69949,1,0,0:0:0:0:
329,192,69949,1,0,0:0:0:0:
256,192,70029,1,0,0:0:0:0:
402,192,70029,1,0,0:0:0:0:
475,192,70029,1,0,0:0:0:0:
36,192,70029,1,0,0:0:0:0:
182,192,70110,1,0,0:0:0:0:
329,192,70190,1,0,0:0:0:0:
36,192,70190,1,0,0:0:0:0:
182,192,70271,1,0,0:0:0:0:
36,192,70352,1,0,0:0:0:0:
402,192,70352,1,0,0:0:0:0:
256,192,70432,1,0,0:0:0:0:
329,192,70513,1,0,0:0:0:0:
475,192,70513,1,0,0:0:0:0:
109,192,70513,1,0,0:0:0:0:
36,192,70513,1,0,0:0:0:0:
329,192,70593,1,0,0:0:0:0:
475,192,70593,1,0,0:0:0:0:
109,192,70674,1,0,0:0:0:0:
36,192,70674,1,0,0:0:0:0:
256,192,70674,1,0,0:0:0:0:
182,192,70674,1,0,0:0:0:0:
329,192,70754,1,0,0:0:0:0:
402,192,70835,1,0,0:0:0:0:
182,192,70835,1,0,0:0:0:0:
256,192,70916,1,0,0:0:0:0:
329,192,70996,1,0,0:0:0:0:
475,192,70996,1,0,0:0:0:0:
109,192,70996,1,0,0:0:0:0:
36,192,70996,1,0,0:0:0:0:
182,192,71157,1,0,0:0:0:0:
402,192,71157,1,0,0:0:0:0:
256,192,71318,1,0,0:0:0:0:
109,192,71318,1,0,0:0:0:0:
36,192,71318,1,0,0:0:0:0:
475,192,71318,1,0,0:0:0:0:
329,192,71399,1,0,0:0:0:0:
182,192,71479,1,0,0:0:0:0:
475,192,71479,1,0,0:0:0:0:
329,192,71560,1,0,0:0:0:0:
475,192,71641,1,0,0:0:0:0:
109,192,71641,1,0,0:0:0:0:
256,192,71721,1,0,0:0:0:0:
182,192,71802,1,0,0:0:0:0:
36,192,71802,1,0,0:0:0:0:
402,192,71802,1,0,0:0:0:0:
475,192,71802,1,0,0:0:0:0:
182,192,71882,1,0,0:0:0:0:
36,192,71882,1,0,0:0:0:0:
402,192,71963,1,0,0:0:0:0:
475,192,71963,1,0,0:0:0:0:
256,192,71963,1,0,0:0:0:0:
329,192,71963,1,0,0:0:0:0:
109,192,72124,1,0,0:0:0:0:
329,192,72124,1,0,0:0:0:0:
182,192,72204,1,0,0:0:0:0:
402,192,72204,1,0,0:0:0:0:
36,192,72285,1,0,0:0:0:0:
475,192,72285,1,0,0:0:0:0:
256,192,72285,1,0,0:0:0:0:
109,192,72285,1,0,0:0:0:0:
182,192,72446,1,0,0:0:0:0:
402,192,72446,1,0,0:0:0:0:
329,192,72527,1,0,0:0:0:0:
109,192,72527,1,0,0:0:0:0:
256,192,72607,1,0,0:0:0:0:
36,192,72607,1,0,0:0:0:0:
475,192,72607,1,0,0:0:0:0:
402,192,72607,1,0,0:0:0:0:
109,192,72768,1,0,0:0:0:0:
329,192,72768,1,0,0:0:0:0:
182,192,72849,1,0,0:0:0:0:
402,192,72849,1,0,0:0:0:0:
256,192,72929,1,0,0:0:0:0:
109,192,72929,1,0,0:0:0:0:
36,192,72929,1,0,0:0:0:0:
475,192,72929,1,0,0:0:0:0:
182,192,73091,1,0,0:0:0:0:
329,192,73091,1,0,0:0:0:0:
402,192,73091,1,0,0:0:0:0:
109,192,73091,1,0,0:0:0:0:
256,192,73252,1,0,0:0:0:0:
475,192,73252,1,0,0:0:0:0:
36,192,73252,1,0,0:0:0:0:
182,192,73252,1,0,0:0:0:0:
402,192,73252,1,0,0:0:0:0:
109,192,73413,1,0,0:0:0:0:
182,192,73413,1,0,0:0:0:0:
402,192,73413,1,0,0:0:0:0:
329,192,73413,1,0,0:0:0:0:
36,192,73574,1,0,0:0:0:0:
475,192,73574,1,0,0:0:0:0:
256,192,73574,1,0,0:0:0:0:
329,192,73574,1,0,0:0:0:0:
182,192,73735,1,0,0:0:0:0:
402,192,73735,1,0,0:0:0:0:
256,192,73816,1,0,0:0:0:0:
329,192,73896,1,0,0:0:0:0:
475,192,73896,1,0,0:0:0:0:
109,192,73896,1,0,0:0:0:0:
36,192,73896,1,0,0:0:0:0:
256,192,73977,1,0,0:0:0:0:
109,192,74057,1,0,0:0:0:0:
402,192,74057,1,0,0:0:0:0:
256,192,74138,1,0,0:0:0:0:
36,192,74218,1,0,0:0:0:0:
182,192,74218,1,0,0:0:0:0:
182,192,74380,1,0,0:0:0:0:
36,192,74380,1,0,0:0:0:0:
402,192,74380,1,0,0:0:0:0:
475,192,74380,1,0,0:0:0:0:
36,192,74460,1,0,0:0:0:0:
182,192,74460,1,0,0:0:0:0:
256,192,74541,1,0,0:0:0:0:
402,192,74541,1,0,0:0:0:0:
475,192,74541,1,0,0:0:0:0:
329,192,74541,1,0,0:0:0:0:
182,192,74621,1,0,0:0:0:0:
109,192,74702,1,0,0:0:0:0:
329,192,74702,1,0,0:0:0:0:
402,192,74782,1,0,0:0:0:0:
475,192,74863,1,0,0:0:0:0:
256,192,74863,1,0,0:0:0:0:
182,192,74863,1,0,0:0:0:0:
36,192,74863,1,0,0:0:0:0:
256,192,75024,1,0,0:0:0:0:
109,192,75024,1,0,0:0:0:0:
329,192,75105,1,0,0:0:0:0:
182,192,75185,1,0,0:0:0:0:
36,192,75185,1,0,0:0:0:0:
402,192,75185,1,0,0:0:0:0:
475,192,75185,1,0,0:0:0:0:
256,192,75266,1,0,0:0:0:0:
402,192,75346,1,0,0:0:0:0:
109,192,75346,1,0,0:0:0:0:
256,192,75427,1,0,0:0:0:0:
475,192,75507,1,0,0:0:0:0:
329,192,75507,1,0,0:0:0:0:
182,192,75588,1,0,0:0:0:0:
329,192,75668,1,0,0:0:0:0:
475,192,75668,1,0,0:0:0:0:
109,192,75668,1,0,0:0:0:0:
36,192,75668,1,0,0:0:0:0:
475,192,75749,1,0,0:0:0:0:
329,192,75749,1,0,0:0:0:0:
256,192,75830,1,0,0:0:0:0:
109,192,75830,1,0,0:0:0:0:
36,192,75830,1,0,0:0:0:0:
182,192,75830,1,0,0:0:0:0:
402,192,75991,1,0,0:0:0:0:
182,192,75991,1,0,0:0:0:0:
109,192,75991,1,0,0:0:0:0:
329,192,75991,1,0,0:0:0:0:
256,192,76152,1,0,0:0:0:0:
329,192,76152,1,0,0:0:0:0:
475,192,76152,1,0,0:0:0:0:
36,192,76152,1,0,0:0:0:0:
402,192,76313,1,0,0:0:0:0:
182,192,76313,1,0,0:0:0:0:
329,192,76394,1,0,0:0:0:0:
256,192,76474,1,0,0:0:0:0:
109,192,76474,1,0,0:0:0:0:
36,192,76474,1,0,0:0:0:0:
475,192,76474,1,0,0:0:0:0:
402,192,76555,1,0,0:0:0:0:
256,192,76635,1,0,0:0:0:0:
182,192,76635,1,0,0:0:0:0:
402,192,76716,1,0,0:0:0:0:
256,192,76796,1,0,0:0:0:0:
109,192,76796,1,0,0:0:0:0:
329,192,76877,1,0,0:0:0:0:
182,192,76957,1,0,0:0:0:0:
36,192,76957,1,0,0:0:0:0:
402,192,76957,1,0,0:0:0:0:
475,192,76957,1,0,0:0:0:0:
36,192,77038,1,0,0:0:0:0:
182,192,77038,1,0,0:0:0:0:
475,192,77119,1,0,0:0:0:0:
402,192,77119,1,0,0:0:0:0:
329,192,77119,1,0,0:0:0:0:
256,192,77119,1,0,0:0:0:0:
109,192,77280,1,0,0:0:0:0:
256,192,77280,1,0,0:0:0:0:
402,192,77280,1,0,0:0:0:0:
36,192,77441,1,0,0:0:0:0:
182,192,77441,1,0,0:0:0:0:
329,192,77441,1,0,0:0:0:0:
256,192,77602,1,0,0:0:0:0:
109,192,77602,1,0,0:0:0:0:
36,192,77763,1,0,0:0:0:0:
182,192,77763,1,0,0:0:0:0:
329,192,77763,1,0,0:0:0:0:
256,192,77924,5,0,0:0:0:0:
402,192,77924,1,0,0:0:0:0:
329,192,78085,1,0,0:0:0:0:
475,192,78085,1,0,0:0:0:0:
182,192,78085,1,0,0:0:0:0:
256,192,78246,1,0,0:0:0:0:
109,192,78246,1,0,0:0:0:0:
475,192,78246,1,0,0:0:0:0:
402,192,78327,1,0,0:0:0:0:
182,192,78407,1,0,0:0:0:0:
36,192,78407,1,0,0:0:0:0:
329,192,78407,1,0,0:0:0:0:
256,192,78488,1,0,0:0:0:0:
109,192,78569,1,0,0:0:0:0:
329,192,78569,1,0,0:0:0:0:
182,192,78649,1,0,0:0:0:0:
402,192,78649,1,0,0:0:0:0:
109,192,78730,5,0,0:0:0:0:
36,192,78730,1,0,0:0:0:0:
329,192,78730,1,0,0:0:0:0:
256,192,78730,1,0,0:0:0:0:
475,192,78730,1,0,0:0:0:0:
402,192,78891,1,0,0:0:0:0:
182,192,78891,1,0,0:0:0:0:
329,192,79052,1,0,0:0:0:0:
109,192,79052,1,0,0:0:0:0:
402,192,79213,1,0,0:0:0:0:
182,192,79213,1,0,0:0:0:0:
256,192,79374,1,0,0:0:0:0:
475,192,79374,1,0,0:0:0:0:
109,192,79374,1,0,0:0:0:0:
329,192,79374,128,0,79616:0:0:0:0:
256,192,79616,1,0,0:0:0:0:
36,192,79616,1,0,0:0:0:0:
402,192,79616,1,0,0:0:0:0:
182,192,79616,128,0,79858:0:0:0:0:
256,192,79858,1,0,0:0:0:0:
109,192,79858,1,0,0:0:0:0:
475,192,79858,1,0,0:0:0:0:
329,192,79858,128,0,80663:0:0:0:0:
182,192,80180,1,0,0:0:0:0:
36,192,80180,1,0,0:0:0:0:
109,192,80341,1,0,0:0:0:0:
256,192,80341,1,0,0:0:0:0:
182,192,80502,1,0,0:0:0:0:
36,192,80502,1,0,0:0:0:0:
109,192,80663,1,0,0:0:0:0:
256,192,80663,1,0,0:0:0:0:
402,192,80663,1,0,0:0:0:0:
475,192,80663,128,0,80905:0:0:0:0:
109,192,80905,1,0,0:0:0:0:
256,192,80905,1,0,0:0:0:0:
402,192,80905,1,0,0:0:0:0:
36,192,80905,128,0,81146:0:0:0:0:
256,192,81146,1,0,0:0:0:0:
109,192,81146,1,0,0:0:0:0:
402,192,81146,1,0,0:0:0:0:
475,192,81146,128,0,81952:0:0:0:0:
329,192,81469,128,0,81952:0:0:0:0:
182,192,81630,128,0,81952:0:0:0:0:
36,192,81791,1,0,0:0:0:0:
402,192,81791,1,0,0:0:0:0:
109,192,81791,1,0,0:0:0:0:
256,192,81871,1,0,0:0:0:0:
402,192,81952,1,0,0:0:0:0:
109,192,81952,1,0,0:0:0:0:
36,192,81952,1,0,0:0:0:0:
402,192,82194,1,0,0:0:0:0:
182,192,82194,1,0,0:0:0:0:
329,192,82274,128,0,82435:0:0:0:0:
109,192,82274,128,0,82435:0:0:0:0:
402,192,82435,1,0,0:0:0:0:
182,192,82435,1,0,0:0:0:0:
256,192,82516,1,0,0:0:0:0:
36,192,82516,1,0,0:0:0:0:
182,192,82597,1,0,0:0:0:0:
402,192,82597,1,0,0:0:0:0:
329,192,82677,1,0,0:0:0:0:
109,192,82677,1,0,0:0:0:0:
256,192,82758,1,0,0:0:0:0:
36,192,82758,1,0,0:0:0:0:
402,192,82838,1,0,0:0:0:0:
182,192,82838,1,0,0:0:0:0:
256,192,82919,1,0,0:0:0:0:
36,192,82919,1,0,0:0:0:0:
329,192,82999,1,0,0:0:0:0:
109,192,82999,1,0,0:0:0:0:
402,192,83080,1,0,0:0:0:0:
182,192,83080,1,0,0:0:0:0:
256,192,83160,1,0,0:0:0:0:
36,192,83160,1,0,0:0:0:0:
109,192,83241,1,0,0:0:0:0:
329,192,83241,1,0,0:0:0:0:
475,192,83241,128,0,83483:0:0:0:0:
402,192,83483,1,0,0:0:0:0:
256,192,83483,1,0,0:0:0:0:
36,192,83483,128,0,83724:0:0:0:0:
329,192,83724,1,0,0:0:0:0:
109,192,83724,1,0,0:0:0:0:
475,192,83724,1,0,0:0:0:0:
402,192,83885,1,0,0:0:0:0:
182,192,83885,1,0,0:0:0:0:
109,192,84047,1,0,0:0:0:0:
329,192,84047,1,0,0:0:0:0:
182,192,84208,1,0,0:0:0:0:
402,192,84208,1,0,0:0:0:0:
109,192,84369,1,0,0:0:0:0:
329,192,84369,1,0,0:0:0:0:
256,192,84530,1,0,0:0:0:0:
36,192,84530,1,0,0:0:0:0:
402,192,84530,1,0,0:0:0:0:
182,192,84530,128,0,84772:0:0:0:0:
256,192,84772,1,0,0:0:0:0:
475,192,84772,1,0,0:0:0:0:
109,192,84772,1,0,0:0:0:0:
329,192,84772,128,0,85013:0:0:0:0:
256,192,85013,1,0,0:0:0:0:
402,192,85013,1,0,0:0:0:0:
36,192,85013,1,0,0:0:0:0:
182,192,85013,128,0,85819:0:0:0:0:
329,192,85335,1,0,0:0:0:0:
475,192,85335,1,0,0:0:0:0:
402,192,85497,1,0,0:0:0:0:
256,192,85497,1,0,0:0:0:0:
329,192,85658,1,0,0:0:0:0:
475,192,85658,1,0,0:0:0:0:
402,192,85819,1,0,0:0:0:0:
256,192,85819,1,0,0:0:0:0:
109,192,85819,1,0,0:0:0:0:
36,192,85819,128,0,86061:0:0:0:0:
402,192,86061,1,0,0:0:0:0:
256,192,86061,1,0,0:0:0:0:
109,192,86061,1,0,0:0:0:0:
475,192,86061,128,0,86302:0:0:0:0:
256,192,86302,1,0,0:0:0:0:
402,192,86302,1,0,0:0:0:0:
109,192,86302,1,0,0:0:0:0:
36,192,86302,128,0,87108:0:0:0:0:
182,192,86624,128,0,87108:0:0:0:0:
329,192,86786,128,0,87108:0:0:0:0:
475,192,86947,128,0,87108:0:0:0:0:
109,192,87108,1,0,0:0:0:0:
402,192,87108,1,0,0:0:0:0:
182,192,87188,1,0,0:0:0:0:
329,192,87188,1,0,0:0:0:0:
402,192,87269,1,0,0:0:0:0:
256,192,87269,1,0,0:0:0:0:
109,192,87349,1,0,0:0:0:0:
182,192,87349,1,0,0:0:0:0:
329,192,87430,1,0,0:0:0:0:
402,192,87430,1,0,0:0:0:0:
182,192,87511,1,0,0:0:0:0:
256,192,87511,1,0,0:0:0:0:
402,192,87591,1,0,0:0:0:0:
109,192,87591,1,0,0:0:0:0:
256,192,87672,1,0,0:0:0:0:
329,192,87672,1,0,0:0:0:0:
182,192,87752,1,0,0:0:0:0:
36,192,87752,1,0,0:0:0:0:
402,192,87752,1,0,0:0:0:0:
475,192,87752,1,0,0:0:0:0:
402,192,87833,1,0,0:0:0:0:
475,192,87833,1,0,0:0:0:0:
182,192,87833,1,0,0:0:0:0:
36,192,87833,1,0,0:0:0:0:
109,192,87913,1,0,0:0:0:0:
256,192,87913,1,0,0:0:0:0:
329,192,87913,1,0,0:0:0:0:
109,192,88074,1,0,0:0:0:0:
256,192,88074,1,0,0:0:0:0:
329,192,88074,1,0,0:0:0:0:
36,192,88236,5,0,0:0:0:0:
109,192,88236,1,0,0:0:0:0:
329,192,88236,1,0,0:0:0:0:
475,192,88236,1,0,0:0:0:0:
36,192,88316,1,0,0:0:0:0:
109,192,88316,1,0,0:0:0:0:
329,192,88316,1,0,0:0:0:0:
475,192,88316,1,0,0:0:0:0:
402,192,88397,1,0,0:0:0:0:
256,192,88397,1,0,0:0:0:0:
182,192,88397,1,0,0:0:0:0:
182,192,88558,1,0,0:0:0:0:
256,192,88558,1,0,0:0:0:0:
402,192,88558,1,0,0:0:0:0:
256,192,88719,1,0,0:0:0:0:
402,192,88719,1,0,0:0:0:0:
475,192,88719,1,0,0:0:0:0:
182,192,88719,1,0,0:0:0:0:
36,192,88719,1,0,0:0:0:0:
256,192,89041,5,0,0:0:0:0:
36,192,89041,1,0,0:0:0:0:
109,192,89041,1,0,0:0:0:0:
329,192,89041,1,0,0:0:0:0:
475,192,89122,1,0,0:0:0:0:
402,192,89122,1,0,0:0:0:0:
36,192,89202,1,0,0:0:0:0:
182,192,89202,1,0,0:0:0:0:
256,192,89202,1,0,0:0:0:0:
329,192,89283,1,0,0:0:0:0:
402,192,89283,1,0,0:0:0:0:
475,192,89363,1,0,0:0:0:0:
109,192,89363,1,0,0:0:0:0:
182,192,89363,1,0,0:0:0:0:
256,192,89444,1,0,0:0:0:0:
329,192,89444,1,0,0:0:0:0:
402,192,89525,1,0,0:0:0:0:
36,192,89525,1,0,0:0:0:0:
109,192,89525,1,0,0:0:0:0:
182,192,89605,1,0,0:0:0:0:
256,192,89605,1,0,0:0:0:0:
475,192,89686,1,0,0:0:0:0:
36,192,89686,1,0,0:0:0:0:
329,192,89686,1,0,0:0:0:0:
109,192,89766,1,0,0:0:0:0:
182,192,89766,1,0,0:0:0:0:
475,192,89847,1,0,0:0:0:0:
256,192,89847,1,0,0:0:0:0:
402,192,89847,1,0,0:0:0:0:
36,192,89927,1,0,0:0:0:0:
109,192,89927,1,0,0:0:0:0:
402,192,90008,1,0,0:0:0:0:
475,192,90008,1,0,0:0:0:0:
329,192,90008,1,0,0:0:0:0:
182,192,90008,1,0,0:0:0:0:
256,192,90088,1,0,0:0:0:0:
109,192,90088,1,0,0:0:0:0:
182,192,90169,1,0,0:0:0:0:
402,192,90169,1,0,0:0:0:0:
36,192,90169,1,0,0:0:0:0:
329,192,90250,1,0,0:0:0:0:
256,192,90330,1,0,0:0:0:0:
109,192,90330,1,0,0:0:0:0:
36,192,90330,1,0,0:0:0:0:
475,192,90330,1,0,0:0:0:0:
329,192,90411,1,0,0:0:0:0:
109,192,90491,1,0,0:0:0:0:
182,192,90491,1,0,0:0:0:0:
402,192,90491,1,0,0:0:0:0:
256,192,90572,1,0,0:0:0:0:
109,192,90652,1,0,0:0:0:0:
36,192,90652,1,0,0:0:0:0:
329,192,90652,1,0,0:0:0:0:
475,192,90652,1,0,0:0:0:0:
402,192,90733,1,0,0:0:0:0:
256,192,90733,1,0,0:0:0:0:
329,192,90813,1,0,0:0:0:0:
109,192,90813,1,0,0:0:0:0:
182,192,90813,1,0,0:0:0:0:
402,192,90894,1,0,0:0:0:0:
109,192,90975,1,0,0:0:0:0:
36,192,90975,1,0,0:0:0:0:
256,192,90975,1,0,0:0:0:0:
475,192,90975,1,0,0:0:0:0:
182,192,91055,1,0,0:0:0:0:
329,192,91055,1,0,0:0:0:0:
475,192,91136,1,0,0:0:0:0:
256,192,91136,1,0,0:0:0:0:
402,192,91136,1,0,0:0:0:0:
182,192,91216,1,0,0:0:0:0:
329,192,91297,1,0,0:0:0:0:
475,192,91297,1,0,0:0:0:0:
36,192,91297,1,0,0:0:0:0:
109,192,91297,1,0,0:0:0:0:
402,192,91377,1,0,0:0:0:0:
256,192,91377,1,0,0:0:0:0:
329,192,91458,1,0,0:0:0:0:
182,192,91458,1,0,0:0:0:0:
109,192,91458,1,0,0:0:0:0:
402,192,91539,1,0,0:0:0:0:
36,192,91619,1,0,0:0:0:0:
256,192,91619,1,0,0:0:0:0:
475,192,91619,1,0,0:0:0:0:
182,192,91619,1,0,0:0:0:0:
329,192,91700,1,0,0:0:0:0:
475,192,91780,1,0,0:0:0:0:
182,192,91780,1,0,0:0:0:0:
402,192,91780,1,0,0:0:0:0:
109,192,91861,1,0,0:0:0:0:
329,192,91941,1,0,0:0:0:0:
475,192,91941,1,0,0:0:0:0:
36,192,91941,1,0,0:0:0:0:
256,192,91941,1,0,0:0:0:0:
182,192,92022,1,0,0:0:0:0:
329,192,92102,1,0,0:0:0:0:
36,192,92102,1,0,0:0:0:0:
109,192,92102,1,0,0:0:0:0:
182,192,92183,1,0,0:0:0:0:
402,192,92183,1,0,0:0:0:0:
36,192,92264,1,0,0:0:0:0:
256,192,92264,1,0,0:0:0:0:
475,192,92264,1,0,0:0:0:0:
109,192,92344,1,0,0:0:0:0:
329,192,92344,1,0,0:0:0:0:
475,192,92425,1,0,0:0:0:0:
256,192,92425,1,0,0:0:0:0:
36,192,92425,1,0,0:0:0:0:
402,192,92505,1,0,0:0:0:0:
182,192,92505,1,0,0:0:0:0:
109,192,92586,1,0,0:0:0:0:
36,192,92586,1,0,0:0:0:0:
329,192,92586,1,0,0:0:0:0:
256,192,92666,1,0,0:0:0:0:
182,192,92666,1,0,0:0:0:0:
109,192,92747,1,0,0:0:0:0:
329,192,92747,1,0,0:0:0:0:
402,192,92747,1,0,0:0:0:0:
256,192,92827,1,0,0:0:0:0:
182,192,92827,1,0,0:0:0:0:
109,192,92908,1,0,0:0:0:0:
36,192,92908,1,0,0:0:0:0:
329,192,92908,1,0,0:0:0:0:
475,192,92908,1,0,0:0:0:0:
182,192,92989,1,0,0:0:0:0:
36,192,93069,1,0,0:0:0:0:
402,192,93069,1,0,0:0:0:0:
256,192,93069,1,0,0:0:0:0:
109,192,93150,1,0,0:0:0:0:
329,192,93230,1,0,0:0:0:0:
402,192,93230,1,0,0:0:0:0:
182,192,93230,1,0,0:0:0:0:
475,192,93230,1,0,0:0:0:0:
109,192,93311,1,0,0:0:0:0:
256,192,93311,1,0,0:0:0:0:
402,192,93391,1,0,0:0:0:0:
36,192,93391,1,0,0:0:0:0:
182,192,93391,1,0,0:0:0:0:
256,192,93472,1,0,0:0:0:0:
329,192,93472,1,0,0:0:0:0:
475,192,93552,1,0,0:0:0:0:
402,192,93552,1,0,0:0:0:0:
109,192,93552,1,0,0:0:0:0:
36,192,93552,1,0,0:0:0:0:
182,192,93633,1,0,0:0:0:0:
256,192,93633,1,0,0:0:0:0:
36,192,93714,1,0,0:0:0:0:
402,192,93714,1,0,0:0:0:0:
329,192,93714,1,0,0:0:0:0:
182,192,93794,1,0,0:0:0:0:
256,192,93794,1,0,0:0:0:0:
36,192,93875,1,0,0:0:0:0:
109,192,93875,1,0,0:0:0:0:
402,192,93875,1,0,0:0:0:0:
475,192,93875,1,0,0:0:0:0:
329,192,93955,1,0,0:0:0:0:
475,192,94036,1,0,0:0:0:0:
182,192,94036,1,0,0:0:0:0:
256,192,94036,1,0,0:0:0:0:
402,192,94116,1,0,0:0:0:0:
109,192,94197,1,0,0:0:0:0:
36,192,94197,1,0,0:0:0:0:
329,192,94197,1,0,0:0:0:0:
256,192,94197,1,0,0:0:0:0:
475,192,94277,1,0,0:0:0:0:
182,192,94358,1,0,0:0:0:0:
109,192,94358,1,0,0:0:0:0:
402,192,94358,1,0,0:0:0:0:
329,192,94358,1,0,0:0:0:0:
36,192,94439,1,0,0:0:0:0:
256,192,94519,1,0,0:0:0:0:
182,192,94519,1,0,0:0:0:0:
475,192,94519,1,0,0:0:0:0:
402,192,94519,1,0,0:0:0:0:
36,192,94600,1,0,0:0:0:0:
182,192,94680,1,0,0:0:0:0:
109,192,94680,1,0,0:0:0:0:
329,192,94680,1,0,0:0:0:0:
402,192,94680,1,0,0:0:0:0:
475,192,94761,1,0,0:0:0:0:
109,192,94841,1,0,0:0:0:0:
36,192,94841,1,0,0:0:0:0:
329,192,94841,1,0,0:0:0:0:
256,192,94841,1,0,0:0:0:0:
402,192,94922,1,0,0:0:0:0:
182,192,94922,1,0,0:0:0:0:
36,192,95003,1,0,0:0:0:0:
475,192,95003,1,0,0:0:0:0:
256,192,95003,1,0,0:0:0:0:
329,192,95083,1,0,0:0:0:0:
109,192,95083,1,0,0:0:0:0:
475,192,95164,1,0,0:0:0:0:
256,192,95164,1,0,0:0:0:0:
182,192,95164,1,0,0:0:0:0:
402,192,95164,1,0,0:0:0:0:
36,192,95244,1,0,0:0:0:0:
109,192,95325,1,0,0:0:0:0:
182,192,95325,1,0,0:0:0:0:
402,192,95325,1,0,0:0:0:0:
329,192,95325,1,0,0:0:0:0:
475,192,95405,1,0,0:0:0:0:
109,192,95486,1,0,0:0:0:0:
36,192,95486,1,0,0:0:0:0:
329,192,95486,1,0,0:0:0:0:
256,192,95486,1,0,0:0:0:0:
475,192,95566,1,0,0:0:0:0:
182,192,95647,1,0,0:0:0:0:
109,192,95647,1,0,0:0:0:0:
402,192,95647,1,0,0:0:0:0:
329,192,95647,1,0,0:0:0:0:
36,192,95728,1,0,0:0:0:0:
182,192,95808,1,0,0:0:0:0:
256,192,95808,1,0,0:0:0:0:
402,192,95808,1,0,0:0:0:0:
475,192,95808,1,0,0:0:0:0:
329,192,95889,1,0,0:0:0:0:
109,192,95889,1,0,0:0:0:0:
475,192,95969,1,0,0:0:0:0:
256,192,95969,1,0,0:0:0:0:
36,192,95969,1,0,0:0:0:0:
182,192,96050,1,0,0:0:0:0:
402,192,96050,1,0,0:0:0:0:
36,192,96130,1,0,0:0:0:0:
109,192,96130,1,0,0:0:0:0:
329,192,96130,1,0,0:0:0:0:
475,192,96211,1,0,0:0:0:0:
256,192,96211,1,0,0:0:0:0:
109,192,96291,1,0,0:0:0:0:
402,192,96291,1,0,0:0:0:0:
182,192,96291,1,0,0:0:0:0:
329,192,96372,1,0,0:0:0:0:
182,192,96453,1,0,0:0:0:0:
36,192,96453,1,0,0:0:0:0:
256,192,96453,1,0,0:0:0:0:
475,192,96453,1,0,0:0:0:0:
329,192,96533,1,0,0:0:0:0:
402,192,96533,1,0,0:0:0:0:
475,192,96614,1,0,0:0:0:0:
36,192,96614,1,0,0:0:0:0:
256,192,96614,1,0,0:0:0:0:
109,192,96694,1,0,0:0:0:0:
182,192,96694,1,0,0:0:0:0:
36,192,96775,1,0,0:0:0:0:
475,192,96775,1,0,0:0:0:0:
329,192,96775,1,0,0:0:0:0:
256,192,96775,1,0,0:0:0:0:
182,192,96855,1,0,0:0:0:0:
329,192,96936,1,0,0:0:0:0:
402,192,96936,1,0,0:0:0:0:
109,192,96936,1,0,0:0:0:0:
182,192,97016,1,0,0:0:0:0:
36,192,97097,1,0,0:0:0:0:
109,192,97097,1,0,0:0:0:0:
475,192,97097,1,0,0:0:0:0:
256,192,97097,1,0,0:0:0:0:
402,192,97097,1,0,0:0:0:0:
329,192,97178,1,0,0:0:0:0:
109,192,97258,1,0,0:0:0:0:
182,192,97258,1,0,0:0:0:0:
402,192,97258,1,0,0:0:0:0:
329,192,97339,1,0,0:0:0:0:
36,192,97419,1,0,0:0:0:0:
475,192,97419,1,0,0:0:0:0:
256,192,97419,1,0,0:0:0:0:
109,192,97419,1,0,0:0:0:0:
182,192,97500,1,0,0:0:0:0:
329,192,97580,1,0,0:0:0:0:
402,192,97580,1,0,0:0:0:0:
109,192,97580,1,0,0:0:0:0:
182,192,97661,1,0,0:0:0:0:
36,192,97742,1,0,0:0:0:0:
109,192,97742,1,0,0:0:0:0:
475,192,97742,1,0,0:0:0:0:
256,192,97742,1,0,0:0:0:0:
402,192,97742,1,0,0:0:0:0:
329,192,97822,1,0,0:0:0:0:
109,192,97903,1,0,0:0:0:0:
182,192,97903,1,0,0:0:0:0:
402,192,97903,1,0,0:0:0:0:
256,192,97983,1,0,0:0:0:0:
109,192,98064,1,0,0:0:0:0:
36,192,98064,1,0,0:0:0:0:
329,192,98064,1,0,0:0:0:0:
475,192,98064,1,0,0:0:0:0:
329,192,98144,1,0,0:0:0:0:
475,192,98144,1,0,0:0:0:0:
109,192,98144,1,0,0:0:0:0:
36,192,98144,1,0,0:0:0:0:
182,192,98225,1,0,0:0:0:0:
256,192,98225,1,0,0:0:0:0:
402,192,98225,1,0,0:0:0:0:
182,192,98386,1,0,0:0:0:0:
256,192,98386,1,0,0:0:0:0:
402,192,98386,1,0,0:0:0:0:
182,192,98547,1,0,0:0:0:0:
36,192,98547,1,0,0:0:0:0:
475,192,98547,1,0,0:0:0:0:
402,192,98547,1,0,0:0:0:0:
182,192,98628,1,0,0:0:0:0:
36,192,98628,1,0,0:0:0:0:
475,192,98628,1,0,0:0:0:0:
402,192,98628,1,0,0:0:0:0:
329,192,98708,1,0,0:0:0:0:
256,192,98708,1,0,0:0:0:0:
109,192,98708,1,0,0:0:0:0:
475,192,98789,1,0,0:0:0:0:
402,192,98789,1,0,0:0:0:0:
36,192,98869,1,0,0:0:0:0:
182,192,98869,1,0,0:0:0:0:
256,192,98869,1,0,0:0:0:0:
329,192,98950,1,0,0:0:0:0:
182,192,99030,1,0,0:0:0:0:
36,192,99030,1,0,0:0:0:0:
402,192,99030,1,0,0:0:0:0:
475,192,99030,1,0,0:0:0:0:
402,192,99192,1,0,0:0:0:0:
475,192,99192,1,0,0:0:0:0:
182,192,99192,1,0,0:0:0:0:
36,192,99192,1,0,0:0:0:0:
256,192,99353,5,0,0:0:0:0:
475,192,99353,1,0,0:0:0:0:
182,192,99353,1,0,0:0:0:0:
402,192,99353,1,0,0:0:0:0:
36,192,99433,1,0,0:0:0:0:
109,192,99433,1,0,0:0:0:0:
475,192,99514,1,0,0:0:0:0:
329,192,99514,1,0,0:0:0:0:
256,192,99514,1,0,0:0:0:0:
182,192,99594,1,0,0:0:0:0:
109,192,99594,1,0,0:0:0:0:
36,192,99675,1,0,0:0:0:0:
402,192,99675,1,0,0:0:0:0:
329,192,99675,1,0,0:0:0:0:
256,192,99755,1,0,0:0:0:0:
182,192,99755,1,0,0:0:0:0:
109,192,99836,1,0,0:0:0:0:
475,192,99836,1,0,0:0:0:0:
402,192,99836,1,0,0:0:0:0:
329,192,99917,1,0,0:0:0:0:
256,192,99917,1,0,0:0:0:0:
36,192,99997,1,0,0:0:0:0:
475,192,99997,1,0,0:0:0:0:
182,192,99997,1,0,0:0:0:0:
402,192,100078,1,0,0:0:0:0:
329,192,100078,1,0,0:0:0:0:
36,192,100158,1,0,0:0:0:0:
256,192,100158,1,0,0:0:0:0:
109,192,100158,1,0,0:0:0:0:
475,192,100239,1,0,0:0:0:0:
402,192,100239,1,0,0:0:0:0:
109,192,100319,1,0,0:0:0:0:
36,192,100319,1,0,0:0:0:0:
182,192,100319,1,0,0:0:0:0:
329,192,100319,1,0,0:0:0:0:
256,192,100400,1,0,0:0:0:0:
402,192,100400,1,0,0:0:0:0:
329,192,100481,1,0,0:0:0:0:
109,192,100481,1,0,0:0:0:0:
475,192,100481,1,0,0:0:0:0:
182,192,100561,1,0,0:0:0:0:
256,192,100642,1,0,0:0:0:0:
402,192,100642,1,0,0:0:0:0:
475,192,100642,1,0,0:0:0:0:
36,192,100642,1,0,0:0:0:0:
182,192,100722,1,0,0:0:0:0:
402,192,100803,1,0,0:0:0:0:
329,192,100803,1,0,0:0:0:0:
109,192,100803,1,0,0:0:0:0:
256,192,100883,1,0,0:0:0:0:
402,192,100964,1,0,0:0:0:0:
475,192,100964,1,0,0:0:0:0:
182,192,100964,1,0,0:0:0:0:
36,192,100964,1,0,0:0:0:0:
109,192,101044,1,0,0:0:0:0:
256,192,101044,1,0,0:0:0:0:
182,192,101125,1,0,0:0:0:0:
402,192,101125,1,0,0:0:0:0:
329,192,101125,1,0,0:0:0:0:
109,192,101206,1,0,0:0:0:0:
402,192,101286,1,0,0:0:0:0:
475,192,101286,1,0,0:0:0:0:
256,192,101286,1,0,0:0:0:0:
36,192,101286,1,0,0:0:0:0:
329,192,101367,1,0,0:0:0:0:
182,192,101367,1,0,0:0:0:0:
36,192,101447,1,0,0:0:0:0:
256,192,101447,1,0,0:0:0:0:
109,192,101447,1,0,0:0:0:0:
329,192,101528,1,0,0:0:0:0:
182,192,101608,1,0,0:0:0:0:
36,192,101608,1,0,0:0:0:0:
475,192,101608,1,0,0:0:0:0:
402,192,101608,1,0,0:0:0:0:
109,192,101689,1,0,0:0:0:0:
256,192,101689,1,0,0:0:0:0:
182,192,101769,1,0,0:0:0:0:
329,192,101769,1,0,0:0:0:0:
402,192,101769,1,0,0:0:0:0:
109,192,101850,1,0,0:0:0:0:
475,192,101931,1,0,0:0:0:0:
256,192,101931,1,0,0:0:0:0:
36,192,101931,1,0,0:0:0:0:
329,192,101931,1,0,0:0:0:0:
182,192,102011,1,0,0:0:0:0:
36,192,102092,1,0,0:0:0:0:
329,192,102092,1,0,0:0:0:0:
109,192,102092,1,0,0:0:0:0:
402,192,102172,1,0,0:0:0:0:
475,192,102253,1,0,0:0:0:0:
256,192,102253,1,0,0:0:0:0:
182,192,102253,1,0,0:0:0:0:
36,192,102253,1,0,0:0:0:0:
329,192,102333,1,0,0:0:0:0:
402,192,102414,1,0,0:0:0:0:
475,192,102414,1,0,0:0:0:0:
182,192,102414,1,0,0:0:0:0:
109,192,102494,1,0,0:0:0:0:
329,192,102494,1,0,0:0:0:0:
36,192,102575,1,0,0:0:0:0:
256,192,102575,1,0,0:0:0:0:
475,192,102575,1,0,0:0:0:0:
182,192,102656,1,0,0:0:0:0:
402,192,102656,1,0,0:0:0:0:
475,192,102736,1,0,0:0:0:0:
256,192,102736,1,0,0:0:0:0:
36,192,102736,1,0,0:0:0:0:
329,192,102817,1,0,0:0:0:0:
109,192,102817,1,0,0:0:0:0:
182,192,102897,1,0,0:0:0:0:
475,192,102897,1,0,0:0:0:0:
402,192,102897,1,0,0:0:0:0:
329,192,102978,1,0,0:0:0:0:
256,192,102978,1,0,0:0:0:0:
109,192,103058,1,0,0:0:0:0:
182,192,103058,1,0,0:0:0:0:
402,192,103058,1,0,0:0:0:0:
329,192,103139,1,0,0:0:0:0:
256,192,103139,1,0,0:0:0:0:
402,192,103219,1,0,0:0:0:0:
475,192,103219,1,0,0:0:0:0:
182,192,103219,1,0,0:0:0:0:
36,192,103219,1,0,0:0:0:0:
329,192,103300,1,0,0:0:0:0:
182,192,103381,1,0,0:0:0:0:
402,192,103381,1,0,0:0:0:0:
109,192,103381,1,0,0:0:0:0:
36,192,103381,1,0,0:0:0:0:
256,192,103461,1,0,0:0:0:0:
109,192,103542,1,0,0:0:0:0:
329,192,103542,1,0,0:0:0:0:
36,192,103542,1,0,0:0:0:0:
475,192,103542,1,0,0:0:0:0:
182,192,103622,1,0,0:0:0:0:
402,192,103703,1,0,0:0:0:0:
475,192,103703,1,0,0:0:0:0:
109,192,103703,1,0,0:0:0:0:
329,192,103703,1,0,0:0:0:0:
256,192,103783,1,0,0:0:0:0:
402,192,103864,1,0,0:0:0:0:
475,192,103864,1,0,0:0:0:0:
182,192,103864,1,0,0:0:0:0:
36,192,103864,1,0,0:0:0:0:
256,192,103945,1,0,0:0:0:0:
329,192,103945,1,0,0:0:0:0:
475,192,104025,1,0,0:0:0:0:
182,192,104025,1,0,0:0:0:0:
109,192,104025,1,0,0:0:0:0:
329,192,104106,1,0,0:0:0:0:
402,192,104106,1,0,0:0:0:0:
109,192,104186,1,0,0:0:0:0:
475,192,104186,1,0,0:0:0:0:
256,192,104186,1,0,0:0:0:0:
36,192,104186,1,0,0:0:0:0:
329,192,104267,1,0,0:0:0:0:
109,192,104347,1,0,0:0:0:0:
36,192,104347,1,0,0:0:0:0:
182,192,104347,1,0,0:0:0:0:
402,192,104347,1,0,0:0:0:0:
329,192,104428,1,0,0:0:0:0:
36,192,104508,1,0,0:0:0:0:
475,192,104508,1,0,0:0:0:0:
256,192,104508,1,0,0:0:0:0:
109,192,104508,1,0,0:0:0:0:
402,192,104589,1,0,0:0:0:0:
109,192,104670,1,0,0:0:0:0:
36,192,104670,1,0,0:0:0:0:
329,192,104670,1,0,0:0:0:0:
256,192,104670,1,0,0:0:0:0:
475,192,104750,1,0,0:0:0:0:
182,192,104831,1,0,0:0:0:0:
109,192,104831,1,0,0:0:0:0:
402,192,104831,1,0,0:0:0:0:
329,192,104831,1,0,0:0:0:0:
36,192,104911,1,0,0:0:0:0:
402,192,104992,1,0,0:0:0:0:
475,192,104992,1,0,0:0:0:0:
182,192,104992,1,0,0:0:0:0:
256,192,104992,1,0,0:0:0:0:
109,192,105072,1,0,0:0:0:0:
329,192,105153,1,0,0:0:0:0:
475,192,105153,1,0,0:0:0:0:
36,192,105153,1,0,0:0:0:0:
256,192,105153,1,0,0:0:0:0:
182,192,105233,1,0,0:0:0:0:
329,192,105314,1,0,0:0:0:0:
402,192,105314,1,0,0:0:0:0:
109,192,105314,1,0,0:0:0:0:
182,192,105395,1,0,0:0:0:0:
402,192,105475,1,0,0:0:0:0:
36,192,105475,1,0,0:0:0:0:
256,192,105475,1,0,0:0:0:0:
475,192,105475,1,0,0:0:0:0:
182,192,105556,1,0,0:0:0:0:
402,192,105636,1,0,0:0:0:0:
109,192,105636,1,0,0:0:0:0:
329,192,105636,1,0,0:0:0:0:
475,192,105636,1,0,0:0:0:0:
182,192,105717,1,0,0:0:0:0:
475,192,105797,1,0,0:0:0:0:
36,192,105797,1,0,0:0:0:0:
256,192,105797,1,0,0:0:0:0:
402,192,105797,1,0,0:0:0:0:
109,192,105878,1,0,0:0:0:0:
402,192,105958,1,0,0:0:0:0:
475,192,105958,1,0,0:0:0:0:
182,192,105958,1,0,0:0:0:0:
256,192,105958,1,0,0:0:0:0:
36,192,106039,1,0,0:0:0:0:
329,192,106120,1,0,0:0:0:0:
402,192,106120,1,0,0:0:0:0:
109,192,106120,1,0,0:0:0:0:
182,192,106120,1,0,0:0:0:0:
475,192,106200,1,0,0:0:0:0:
109,192,106281,1,0,0:0:0:0:
36,192,106281,1,0,0:0:0:0:
329,192,106281,1,0,0:0:0:0:
256,192,106281,1,0,0:0:0:0:
402,192,106361,1,0,0:0:0:0:
182,192,106442,1,0,0:0:0:0:
36,192,106442,1,0,0:0:0:0:
475,192,106442,1,0,0:0:0:0:
256,192,106442,1,0,0:0:0:0:
329,192,106522,1,0,0:0:0:0:
182,192,106603,1,0,0:0:0:0:
109,192,106603,1,0,0:0:0:0:
402,192,106603,1,0,0:0:0:0:
329,192,106684,1,0,0:0:0:0:
109,192,106764,1,0,0:0:0:0:
475,192,106764,1,0,0:0:0:0:
256,192,106764,1,0,0:0:0:0:
36,192,106764,1,0,0:0:0:0:
329,192,106845,1,0,0:0:0:0:
109,192,106925,1,0,0:0:0:0:
402,192,106925,1,0,0:0:0:0:
182,192,106925,1,0,0:0:0:0:
36,192,106925,1,0,0:0:0:0:
329,192,107006,1,0,0:0:0:0:
475,192,107086,1,0,0:0:0:0:
36,192,107086,1,0,0:0:0:0:
256,192,107086,1,0,0:0:0:0:
109,192,107086,1,0,0:0:0:0:
182,192,107167,1,0,0:0:0:0:
402,192,107167,1,0,0:0:0:0:
256,192,107247,1,0,0:0:0:0:
109,192,107247,1,0,0:0:0:0:
329,192,107247,1,0,0:0:0:0:
475,192,107328,1,0,0:0:0:0:
182,192,107409,1,0,0:0:0:0:
36,192,107409,1,0,0:0:0:0:
402,192,107409,1,0,0:0:0:0:
256,192,107409,1,0,0:0:0:0:
329,192,107489,1,0,0:0:0:0:
256,192,107570,1,0,0:0:0:0:
475,192,107570,1,0,0:0:0:0:
109,192,107570,1,0,0:0:0:0:
36,192,107570,1,0,0:0:0:0:
475,192,107731,1,0,0:0:0:0:
36,192,107731,1,0,0:0:0:0:
256,192,107731,1,0,0:0:0:0:
402,192,107731,1,0,0:0:0:0:
329,192,107811,1,0,0:0:0:0:
109,192,107811,1,0,0:0:0:0:
256,192,107892,1,0,0:0:0:0:
402,192,107892,1,0,0:0:0:0:
182,192,107892,1,0,0:0:0:0:
36,192,107972,1,0,0:0:0:0:
329,192,108053,1,0,0:0:0:0:
475,192,108053,1,0,0:0:0:0:
109,192,108053,1,0,0:0:0:0:
256,192,108053,1,0,0:0:0:0:
182,192,108134,1,0,0:0:0:0:
475,192,108214,1,0,0:0:0:0:
36,192,108214,1,0,0:0:0:0:
402,192,108214,1,0,0:0:0:0:
256,192,108214,128,0,109664:0:0:0:0:
329,192,108295,1,0,0:0:0:0:
109,192,108295,1,0,0:0:0:0:
402,192,108375,1,0,0:0:0:0:
36,192,108375,1,0,0:0:0:0:
475,192,108456,1,0,0:0:0:0:
109,192,108456,1,0,0:0:0:0:
182,192,108536,1,0,0:0:0:0:
329,192,108536,1,0,0:0:0:0:
475,192,108617,1,0,0:0:0:0:
36,192,108617,1,0,0:0:0:0:
402,192,108697,1,0,0:0:0:0:
182,192,108697,1,0,0:0:0:0:
329,192,108778,1,0,0:0:0:0:
109,192,108778,1,0,0:0:0:0:
36,192,108859,1,0,0:0:0:0:
475,192,108859,1,0,0:0:0:0:
329,192,108939,1,0,0:0:0:0:
182,192,108939,1,0,0:0:0:0:
402,192,109020,1,0,0:0:0:0:
36,192,109020,1,0,0:0:0:0:
475,192,109100,1,0,0:0:0:0:
109,192,109100,1,0,0:0:0:0:
182,192,109181,1,0,0:0:0:0:
329,192,109181,1,0,0:0:0:0:
475,192,109261,1,0,0:0:0:0:
36,192,109261,1,0,0:0:0:0:
402,192,109342,1,0,0:0:0:0:
182,192,109342,1,0,0:0:0:0:
329,192,109423,1,0,0:0:0:0:
109,192,109423,1,0,0:0:0:0:
36,192,109503,1,0,0:0:0:0:
475,192,109503,1,0,0:0:0:0:
182,192,109584,1,0,0:0:0:0:
402,192,109584,1,0,0:0:0:0:
36,192,109664,1,0,0:0:0:0:
329,192,109664,1,0,0:0:0:0:
109,192,109986,1,0,0:0:0:0:
256,192,109986,1,0,0:0:0:0:
182,192,110148,1,0,0:0:0:0:
329,192,110148,1,0,0:0:0:0:
256,192,110309,1,0,0:0:0:0:
402,192,110309,1,0,0:0:0:0:
475,192,110309,1,0,0:0:0:0:
109,192,110631,1,0,0:0:0:0:
329,192,110631,1,0,0:0:0:0:
36,192,110873,1,0,0:0:0:0:
182,192,110913,1,0,0:0:0:0:
475,192,110953,1,0,0:0:0:0:
329,192,110953,1,0,0:0:0:0:
109,192,110953,1,0,0:0:0:0:
182,192,111114,1,0,0:0:0:0:
256,192,111275,1,0,0:0:0:0:
402,192,111275,1,0,0:0:0:0:
109,192,111436,1,0,0:0:0:0:
329,192,111598,1,0,0:0:0:0:
182,192,111598,1,0,0:0:0:0:
475,192,111598,1,0,0:0:0:0:
36,192,111759,1,0,0:0:0:0:
329,192,111920,1,0,0:0:0:0:
475,192,111920,1,0,0:0:0:0:
402,192,112081,1,0,0:0:0:0:
256,192,112081,1,0,0:0:0:0:
475,192,112242,1,0,0:0:0:0:
329,192,112242,1,0,0:0:0:0:
182,192,112242,1,0,0:0:0:0:
256,192,112403,1,0,0:0:0:0:
109,192,112403,1,0,0:0:0:0:
182,192,112564,1,0,0:0:0:0:
36,192,112564,1,0,0:0:0:0:
256,192,112725,1,0,0:0:0:0:
109,192,112725,1,0,0:0:0:0:
36,192,112887,1,0,0:0:0:0:
475,192,112887,1,0,0:0:0:0:
182,192,112887,1,0,0:0:0:0:
109,192,113048,1,0,0:0:0:0:
256,192,113048,1,0,0:0:0:0:
182,192,113209,1,0,0:0:0:0:
329,192,113209,1,0,0:0:0:0:
256,192,113370,1,0,0:0:0:0:
402,192,113370,1,0,0:0:0:0:
329,192,113531,1,0,0:0:0:0:
475,192,113531,1,0,0:0:0:0:
109,192,113531,1,0,0:0:0:0:
182,192,113692,1,0,0:0:0:0:
256,192,113853,1,0,0:0:0:0:
402,192,113853,1,0,0:0:0:0:
329,192,114014,1,0,0:0:0:0:
182,192,114014,1,0,0:0:0:0:
475,192,114175,1,0,0:0:0:0:
256,192,114175,1,0,0:0:0:0:
109,192,114175,1,0,0:0:0:0:
182,192,114337,1,0,0:0:0:0:
402,192,114337,1,0,0:0:0:0:
329,192,114498,1,0,0:0:0:0:
109,192,114498,1,0,0:0:0:0:
36,192,114820,1,0,0:0:0:0:
256,192,114820,1,0,0:0:0:0:
109,192,114981,1,0,0:0:0:0:
329,192,114981,1,0,0:0:0:0:
182,192,115142,1,0,0:0:0:0:
402,192,115142,1,0,0:0:0:0:
256,192,115303,1,0,0:0:0:0:
475,192,115303,1,0,0:0:0:0:
36,192,115464,1,0,0:0:0:0:
182,192,115464,1,0,0:0:0:0:
329,192,115464,1,0,0:0:0:0:
475,192,115746,1,0,0:0:0:0:
329,192,115766,1,0,0:0:0:0:
36,192,115787,1,0,0:0:0:0:
256,192,115787,1,0,0:0:0:0:
109,192,115948,1,0,0:0:0:0:
329,192,115948,1,0,0:0:0:0:
36,192,116109,1,0,0:0:0:0:
182,192,116109,1,0,0:0:0:0:
402,192,116109,1,0,0:0:0:0:
256,192,116270,1,0,0:0:0:0:
475,192,116270,1,0,0:0:0:0:
402,192,116431,1,0,0:0:0:0:
182,192,116431,1,0,0:0:0:0:
329,192,116592,1,0,0:0:0:0:
109,192,116592,1,0,0:0:0:0:
36,192,116753,1,0,0:0:0:0:
182,192,116753,1,0,0:0:0:0:
402,192,116753,1,0,0:0:0:0:
256,192,116914,1,0,0:0:0:0:
36,192,116914,1,0,0:0:0:0:
182,192,117076,1,0,0:0:0:0:
256,192,117237,1,0,0:0:0:0:
402,192,117237,1,0,0:0:0:0:
36,192,117398,1,0,0:0:0:0:
329,192,117398,1,0,0:0:0:0:
475,192,117398,1,0,0:0:0:0:
182,192,117559,1,0,0:0:0:0:
475,192,117720,1,0,0:0:0:0:
329,192,117720,1,0,0:0:0:0:
402,192,117881,1,0,0:0:0:0:
256,192,117881,1,0,0:0:0:0:
36,192,118042,1,0,0:0:0:0:
182,192,118042,1,0,0:0:0:0:
329,192,118042,1,0,0:0:0:0:
256,192,118203,1,0,0:0:0:0:
402,192,118203,1,0,0:0:0:0:
329,192,118364,1,0,0:0:0:0:
182,192,118364,1,0,0:0:0:0:
256,192,118526,1,0,0:0:0:0:
109,192,118526,1,0,0:0:0:0:
36,192,118687,1,0,0:0:0:0:
329,192,118687,1,0,0:0:0:0:
475,192,118687,1,0,0:0:0:0:
36,192,119331,1,0,0:0:0:0:
256,192,119331,1,0,0:0:0:0:
402,192,119331,1,0,0:0:0:0:
329,192,119492,1,0,0:0:0:0:
475,192,119492,1,0,0:0:0:0:
402,192,119653,1,0,0:0:0:0:
256,192,119653,1,0,0:0:0:0:
329,192,119815,1,0,0:0:0:0:
182,192,119815,1,0,0:0:0:0:
256,192,119976,1,0,0:0:0:0:
109,192,119976,1,0,0:0:0:0:
475,192,119976,1,0,0:0:0:0:
182,192,120137,1,0,0:0:0:0:
109,192,120298,1,0,0:0:0:0:
329,192,120298,1,0,0:0:0:0:
182,192,120459,1,0,0:0:0:0:
256,192,120620,1,0,0:0:0:0:
475,192,120620,1,0,0:0:0:0:
36,192,120620,1,0,0:0:0:0:
329,192,120781,1,0,0:0:0:0:
256,192,120942,1,0,0:0:0:0:
109,192,120942,1,0,0:0:0:0:
36,192,121103,1,0,0:0:0:0:
329,192,121103,1,0,0:0:0:0:
109,192,121157,1,0,0:0:0:0:
182,192,121211,1,0,0:0:0:0:
256,192,121265,1,0,0:0:0:0:
475,192,121265,1,0,0:0:0:0:
329,192,121426,1,0,0:0:0:0:
402,192,121587,1,0,0:0:0:0:
182,192,121587,1,0,0:0:0:0:
256,192,121748,1,0,0:0:0:0:
329,192,121909,1,0,0:0:0:0:
109,192,121909,1,0,0:0:0:0:
475,192,121909,1,0,0:0:0:0:
182,192,122070,1,0,0:0:0:0:
256,192,122231,1,0,0:0:0:0:
475,192,122231,1,0,0:0:0:0:
402,192,122392,1,0,0:0:0:0:
182,192,122392,1,0,0:0:0:0:
475,192,122554,1,0,0:0:0:0:
256,192,122554,1,0,0:0:0:0:
36,192,122554,1,0,0:0:0:0:
182,192,122715,1,0,0:0:0:0:
402,192,122715,1,0,0:0:0:0:
329,192,122876,1,0,0:0:0:0:
109,192,122876,1,0,0:0:0:0:
182,192,123037,1,0,0:0:0:0:
402,192,123037,1,0,0:0:0:0:
256,192,123198,1,0,0:0:0:0:
475,192,123198,1,0,0:0:0:0:
109,192,123198,1,0,0:0:0:0:
182,192,123359,1,0,0:0:0:0:
36,192,123359,1,0,0:0:0:0:
109,192,123520,1,0,0:0:0:0:
256,192,123520,1,0,0:0:0:0:
182,192,123681,1,0,0:0:0:0:
329,192,123681,1,0,0:0:0:0:
256,192,123842,1,0,0:0:0:0:
402,192,123842,1,0,0:0:0:0:
109,192,123842,1,0,0:0:0:0:
182,192,124004,1,0,0:0:0:0:
329,192,124004,1,0,0:0:0:0:
256,192,124165,1,0,0:0:0:0:
109,192,124165,1,0,0:0:0:0:
182,192,124326,1,0,0:0:0:0:
329,192,124326,1,0,0:0:0:0:
256,192,124487,1,0,0:0:0:0:
402,192,124487,1,0,0:0:0:0:
36,192,124487,1,0,0:0:0:0:
182,192,124648,1,0,0:0:0:0:
329,192,124648,1,0,0:0:0:0:
256,192,124809,1,0,0:0:0:0:
402,192,124809,1,0,0:0:0:0:
329,192,124970,1,0,0:0:0:0:
475,192,124970,1,0,0:0:0:0:
182,192,125051,1,0,0:0:0:0:
36,192,125051,1,0,0:0:0:0:
402,192,125131,1,0,0:0:0:0:
475,192,125131,1,0,0:0:0:0:
256,192,125131,128,0,126420:0:0:0:0:
109,192,125293,1,0,0:0:0:0:
402,192,125454,1,0,0:0:0:0:
182,192,125615,1,0,0:0:0:0:
329,192,125776,1,0,0:0:0:0:
109,192,125937,1,0,0:0:0:0:
475,192,126098,1,0,0:0:0:0:
182,192,126259,1,0,0:0:0:0:
402,192,126259,1,0,0:0:0:0:
109,192,126420,128,0,127709:0:0:0:0:
475,192,126420,1,0,0:0:0:0:
329,192,126420,1,0,0:0:0:0:
256,192,126581,1,0,0:0:0:0:
402,192,126743,1,0,0:0:0:0:
182,192,126904,1,0,0:0:0:0:
329,192,127065,1,0,0:0:0:0:
475,192,127226,1,0,0:0:0:0:
256,192,127387,1,0,0:0:0:0:
329,192,127548,1,0,0:0:0:0:
475,192,127548,1,0,0:0:0:0:
256,192,127709,1,0,0:0:0:0:
36,192,127709,1,0,0:0:0:0:
402,192,127709,128,0,128998:0:0:0:0:
182,192,127870,1,0,0:0:0:0:
329,192,128032,1,0,0:0:0:0:
109,192,128193,1,0,0:0:0:0:
256,192,128354,1,0,0:0:0:0:
36,192,128515,1,0,0:0:0:0:
256,192,128676,1,0,0:0:0:0:
182,192,128837,1,0,0:0:0:0:
329,192,128998,1,0,0:0:0:0:
475,192,128998,1,0,0:0:0:0:
109,192,128998,1,0,0:0:0:0:
36,192,128998,1,0,0:0:0:0:
109,192,129079,1,0,0:0:0:0:
36,192,129079,1,0,0:0:0:0:
329,192,129079,1,0,0:0:0:0:
475,192,129079,1,0,0:0:0:0:
402,192,129159,1,0,0:0:0:0:
256,192,129159,1,0,0:0:0:0:
182,192,129159,1,0,0:0:0:0:
402,192,129320,1,0,0:0:0:0:
256,192,129320,1,0,0:0:0:0:
182,192,129320,1,0,0:0:0:0:
475,192,129482,5,0,0:0:0:0:
182,192,129482,1,0,0:0:0:0:
402,192,129482,1,0,0:0:0:0:
36,192,129482,1,0,0:0:0:0:
475,192,129562,1,0,0:0:0:0:
402,192,129562,1,0,0:0:0:0:
182,192,129562,1,0,0:0:0:0:
36,192,129562,1,0,0:0:0:0:
109,192,129643,1,0,0:0:0:0:
256,192,129643,1,0,0:0:0:0:
329,192,129643,1,0,0:0:0:0:
329,192,129804,1,0,0:0:0:0:
256,192,129804,1,0,0:0:0:0:
109,192,129804,1,0,0:0:0:0:
256,192,129965,1,0,0:0:0:0:
109,192,129965,1,0,0:0:0:0:
36,192,129965,1,0,0:0:0:0:
329,192,129965,1,0,0:0:0:0:
475,192,129965,1,0,0:0:0:0:
109,192,130287,128,0,130609:0:0:0:0:
475,192,130287,128,0,130609:0:0:0:0:
329,192,130609,1,0,0:0:0:0:
402,192,130609,1,0,0:0:0:0:
36,192,130609,1,0,0:0:0:0:
182,192,130690,1,0,0:0:0:0:
256,192,130690,1,0,0:0:0:0:
402,192,130771,1,0,0:0:0:0:
475,192,130771,1,0,0:0:0:0:
109,192,130771,1,0,0:0:0:0:
256,192,130851,1,0,0:0:0:0:
329,192,130851,1,0,0:0:0:0:
182,192,130932,1,0,0:0:0:0:
475,192,130932,1,0,0:0:0:0:
36,192,130932,1,0,0:0:0:0:
329,192,131012,1,0,0:0:0:0:
402,192,131012,1,0,0:0:0:0:
109,192,131093,1,0,0:0:0:0:
256,192,131093,1,0,0:0:0:0:
36,192,131093,1,0,0:0:0:0:
402,192,131173,1,0,0:0:0:0:
475,192,131173,1,0,0:0:0:0:
182,192,131254,1,0,0:0:0:0:
329,192,131254,1,0,0:0:0:0:
109,192,131254,1,0,0:0:0:0:
36,192,131254,1,0,0:0:0:0:
402,192,131334,1,0,0:0:0:0:
256,192,131334,1,0,0:0:0:0:
475,192,131415,1,0,0:0:0:0:
109,192,131415,1,0,0:0:0:0:
329,192,131415,1,0,0:0:0:0:
182,192,131496,1,0,0:0:0:0:
475,192,131576,1,0,0:0:0:0:
36,192,131576,1,0,0:0:0:0:
256,192,131576,1,0,0:0:0:0:
402,192,131576,1,0,0:0:0:0:
182,192,131657,1,0,0:0:0:0:
109,192,131737,1,0,0:0:0:0:
329,192,131737,1,0,0:0:0:0:
402,192,131737,1,0,0:0:0:0:
256,192,131818,1,0,0:0:0:0:
182,192,131898,1,0,0:0:0:0:
36,192,131898,1,0,0:0:0:0:
402,192,131898,1,0,0:0:0:0:
475,192,131898,1,0,0:0:0:0:
256,192,131979,1,0,0:0:0:0:
109,192,131979,1,0,0:0:0:0:
329,192,132059,1,0,0:0:0:0:
402,192,132059,1,0,0:0:0:0:
182,192,132059,1,0,0:0:0:0:
109,192,132140,1,0,0:0:0:0:
256,192,132221,1,0,0:0:0:0:
36,192,132221,1,0,0:0:0:0:
402,192,132221,1,0,0:0:0:0:
475,192,132221,1,0,0:0:0:0:
182,192,132301,1,0,0:0:0:0:
329,192,132301,1,0,0:0:0:0:
109,192,132382,1,0,0:0:0:0:
256,192,132382,1,0,0:0:0:0:
36,192,132382,1,0,0:0:0:0:
329,192,132462,1,0,0:0:0:0:
475,192,132543,1,0,0:0:0:0:
402,192,132543,1,0,0:0:0:0:
182,192,132543,1,0,0:0:0:0:
36,192,132543,1,0,0:0:0:0:
256,192,132623,1,0,0:0:0:0:
109,192,132623,1,0,0:0:0:0:
402,192,132704,1,0,0:0:0:0:
329,192,132704,1,0,0:0:0:0:
182,192,132704,1,0,0:0:0:0:
109,192,132784,1,0,0:0:0:0:
36,192,132865,1,0,0:0:0:0:
329,192,132865,1,0,0:0:0:0:
475,192,132865,1,0,0:0:0:0:
256,192,132865,1,0,0:0:0:0:
182,192,132946,1,0,0:0:0:0:
109,192,133026,1,0,0:0:0:0:
329,192,133026,1,0,0:0:0:0:
36,192,133026,1,0,0:0:0:0:
402,192,133107,1,0,0:0:0:0:
182,192,133187,1,0,0:0:0:0:
36,192,133187,1,0,0:0:0:0:
475,192,133187,1,0,0:0:0:0:
256,192,133187,1,0,0:0:0:0:
329,192,133268,1,0,0:0:0:0:
182,192,133348,1,0,0:0:0:0:
475,192,133348,1,0,0:0:0:0:
402,192,133348,1,0,0:0:0:0:
329,192,133429,1,0,0:0:0:0:
109,192,133429,1,0,0:0:0:0:
475,192,133510,1,0,0:0:0:0:
256,192,133510,1,0,0:0:0:0:
36,192,133510,1,0,0:0:0:0:
402,192,133590,1,0,0:0:0:0:
182,192,133590,1,0,0:0:0:0:
36,192,133671,1,0,0:0:0:0:
256,192,133671,1,0,0:0:0:0:
475,192,133671,1,0,0:0:0:0:
109,192,133751,1,0,0:0:0:0:
329,192,133751,1,0,0:0:0:0:
402,192,133832,1,0,0:0:0:0:
475,192,133832,1,0,0:0:0:0:
182,192,133832,1,0,0:0:0:0:
256,192,133912,1,0,0:0:0:0:
329,192,133912,1,0,0:0:0:0:
402,192,133993,1,0,0:0:0:0:
182,192,133993,1,0,0:0:0:0:
109,192,133993,1,0,0:0:0:0:
256,192,134073,1,0,0:0:0:0:
329,192,134073,1,0,0:0:0:0:
182,192,134154,1,0,0:0:0:0:
36,192,134154,1,0,0:0:0:0:
402,192,134154,1,0,0:0:0:0:
475,192,134154,1,0,0:0:0:0:
329,192,134235,1,0,0:0:0:0:
256,192,134315,1,0,0:0:0:0:
109,192,134315,1,0,0:0:0:0:
475,192,134315,1,0,0:0:0:0:
402,192,134396,1,0,0:0:0:0:
329,192,134476,1,0,0:0:0:0:
36,192,134476,1,0,0:0:0:0:
182,192,134476,1,0,0:0:0:0:
109,192,134476,1,0,0:0:0:0:
256,192,134557,1,0,0:0:0:0:
402,192,134557,1,0,0:0:0:0:
329,192,134637,1,0,0:0:0:0:
475,192,134637,1,0,0:0:0:0:
109,192,134637,1,0,0:0:0:0:
182,192,134718,1,0,0:0:0:0:
256,192,134718,1,0,0:0:0:0:
402,192,134798,1,0,0:0:0:0:
475,192,134798,1,0,0:0:0:0:
36,192,134798,1,0,0:0:0:0:
109,192,134798,1,0,0:0:0:0:
256,192,134879,1,0,0:0:0:0:
329,192,134879,1,0,0:0:0:0:
182,192,134960,1,0,0:0:0:0:
109,192,134960,1,0,0:0:0:0:
475,192,134960,1,0,0:0:0:0:
256,192,135040,1,0,0:0:0:0:
329,192,135040,1,0,0:0:0:0:
109,192,135121,1,0,0:0:0:0:
36,192,135121,1,0,0:0:0:0:
475,192,135121,1,0,0:0:0:0:
402,192,135121,1,0,0:0:0:0:
182,192,135201,1,0,0:0:0:0:
256,192,135282,1,0,0:0:0:0:
329,192,135282,1,0,0:0:0:0:
36,192,135282,1,0,0:0:0:0:
109,192,135362,1,0,0:0:0:0:
182,192,135443,1,0,0:0:0:0:
256,192,135443,1,0,0:0:0:0:
402,192,135443,1,0,0:0:0:0:
475,192,135443,1,0,0:0:0:0:
36,192,135523,1,0,0:0:0:0:
109,192,135604,1,0,0:0:0:0:
182,192,135604,1,0,0:0:0:0:
329,192,135604,1,0,0:0:0:0:
402,192,135604,1,0,0:0:0:0:
475,192,135685,1,0,0:0:0:0:
36,192,135765,1,0,0:0:0:0:
109,192,135765,1,0,0:0:0:0:
256,192,135765,1,0,0:0:0:0:
329,192,135765,1,0,0:0:0:0:
475,192,135846,1,0,0:0:0:0:
182,192,135926,1,0,0:0:0:0:
109,192,135926,1,0,0:0:0:0:
329,192,135926,1,0,0:0:0:0:
402,192,135926,1,0,0:0:0:0:
36,192,136007,1,0,0:0:0:0:
182,192,136087,1,0,0:0:0:0:
256,192,136087,1,0,0:0:0:0:
402,192,136087,1,0,0:0:0:0:
475,192,136087,1,0,0:0:0:0:
329,192,136168,1,0,0:0:0:0:
109,192,136168,1,0,0:0:0:0:
256,192,136248,1,0,0:0:0:0:
36,192,136248,1,0,0:0:0:0:
475,192,136248,1,0,0:0:0:0:
402,192,136329,1,0,0:0:0:0:
182,192,136329,1,0,0:0:0:0:
329,192,136410,1,0,0:0:0:0:
109,192,136410,1,0,0:0:0:0:
36,192,136410,1,0,0:0:0:0:
256,192,136410,1,0,0:0:0:0:
475,192,136490,1,0,0:0:0:0:
109,192,136571,1,0,0:0:0:0:
182,192,136571,1,0,0:0:0:0:
402,192,136571,1,0,0:0:0:0:
329,192,136571,1,0,0:0:0:0:
36,192,136651,1,0,0:0:0:0:
182,192,136732,1,0,0:0:0:0:
256,192,136732,1,0,0:0:0:0:
402,192,136732,1,0,0:0:0:0:
475,192,136732,1,0,0:0:0:0:
36,192,136812,1,0,0:0:0:0:
109,192,136893,1,0,0:0:0:0:
182,192,136893,1,0,0:0:0:0:
329,192,136893,1,0,0:0:0:0:
402,192,136893,1,0,0:0:0:0:
475,192,136974,1,0,0:0:0:0:
109,192,137054,1,0,0:0:0:0:
36,192,137054,1,0,0:0:0:0:
329,192,137054,1,0,0:0:0:0:
256,192,137054,1,0,0:0:0:0:
402,192,137135,1,0,0:0:0:0:
182,192,137135,1,0,0:0:0:0:
475,192,137215,1,0,0:0:0:0:
256,192,137215,1,0,0:0:0:0:
36,192,137215,1,0,0:0:0:0:
109,192,137296,1,0,0:0:0:0:
329,192,137296,1,0,0:0:0:0:
182,192,137376,1,0,0:0:0:0:
402,192,137376,1,0,0:0:0:0:
475,192,137376,1,0,0:0:0:0:
256,192,137457,1,0,0:0:0:0:
36,192,137457,1,0,0:0:0:0:
329,192,137537,1,0,0:0:0:0:
109,192,137537,1,0,0:0:0:0:
402,192,137537,1,0,0:0:0:0:
182,192,137618,1,0,0:0:0:0:
256,192,137699,1,0,0:0:0:0:
36,192,137699,1,0,0:0:0:0:
329,192,137699,1,0,0:0:0:0:
475,192,137699,1,0,0:0:0:0:
109,192,137779,1,0,0:0:0:0:
182,192,137779,1,0,0:0:0:0:
256,192,137860,1,0,0:0:0:0:
475,192,137860,1,0,0:0:0:0:
36,192,137860,1,0,0:0:0:0:
329,192,137940,1,0,0:0:0:0:
402,192,137940,1,0,0:0:0:0:
182,192,138021,1,0,0:0:0:0:
256,192,138021,1,0,0:0:0:0:
475,192,138021,1,0,0:0:0:0:
36,192,138021,1,0,0:0:0:0:
329,192,138101,1,0,0:0:0:0:
402,192,138182,1,0,0:0:0:0:
109,192,138182,1,0,0:0:0:0:
182,192,138182,1,0,0:0:0:0:
329,192,138262,1,0,0:0:0:0:
256,192,138343,1,0,0:0:0:0:
109,192,138343,1,0,0:0:0:0:
36,192,138343,1,0,0:0:0:0:
475,192,138343,1,0,0:0:0:0:
402,192,138343,1,0,0:0:0:0:
182,192,138424,1,0,0:0:0:0:
109,192,138504,1,0,0:0:0:0:
329,192,138504,1,0,0:0:0:0:
402,192,138504,1,0,0:0:0:0:
182,192,138585,1,0,0:0:0:0:
256,192,138665,1,0,0:0:0:0:
402,192,138665,1,0,0:0:0:0:
475,192,138665,1,0,0:0:0:0:
36,192,138665,1,0,0:0:0:0:
329,192,138746,1,0,0:0:0:0:
402,192,138826,1,0,0:0:0:0:
109,192,138826,1,0,0:0:0:0:
182,192,138826,1,0,0:0:0:0:
329,192,138907,1,0,0:0:0:0:
256,192,138987,1,0,0:0:0:0:
109,192,138987,1,0,0:0:0:0:
36,192,138987,1,0,0:0:0:0:
475,192,138987,1,0,0:0:0:0:
402,192,138987,1,0,0:0:0:0:
182,192,139068,1,0,0:0:0:0:
109,192,139149,1,0,0:0:0:0:
329,192,139149,1,0,0:0:0:0:
402,192,139149,1,0,0:0:0:0:
256,192,139229,1,0,0:0:0:0:
182,192,139310,1,0,0:0:0:0:
36,192,139310,1,0,0:0:0:0:
402,192,139310,1,0,0:0:0:0:
475,192,139310,1,0,0:0:0:0:
402,192,139390,1,0,0:0:0:0:
475,192,139390,1,0,0:0:0:0:
182,192,139390,1,0,0:0:0:0:
36,192,139390,1,0,0:0:0:0:
109,192,139471,1,0,0:0:0:0:
256,192,139471,1,0,0:0:0:0:
329,192,139471,1,0,0:0:0:0:
109,192,139632,1,0,0:0:0:0:
256,192,139632,1,0,0:0:0:0:
329,192,139632,1,0,0:0:0:0:
36,192,139793,1,0,0:0:0:0:
109,192,139793,1,0,0:0:0:0:
329,192,139793,1,0,0:0:0:0:
475,192,139793,1,0,0:0:0:0:
36,192,139874,1,0,0:0:0:0:
109,192,139874,1,0,0:0:0:0:
329,192,139874,1,0,0:0:0:0:
475,192,139874,1,0,0:0:0:0:
402,192,139954,1,0,0:0:0:0:
256,192,139954,1,0,0:0:0:0:
182,192,139954,1,0,0:0:0:0:
109,192,140035,1,0,0:0:0:0:
36,192,140035,1,0,0:0:0:0:
256,192,140115,1,0,0:0:0:0:
329,192,140115,1,0,0:0:0:0:
475,192,140115,1,0,0:0:0:0:
182,192,140196,1,0,0:0:0:0:
109,192,140276,1,0,0:0:0:0:
36,192,140276,1,0,0:0:0:0:
329,192,140276,1,0,0:0:0:0:
475,192,140276,1,0,0:0:0:0:
329,192,140438,1,0,0:0:0:0:
475,192,140438,1,0,0:0:0:0:
109,192,140438,1,0,0:0:0:0:
36,192,140438,1,0,0:0:0:0:
256,192,140599,5,0,0:0:0:0:
329,192,140599,1,0,0:0:0:0:
109,192,140599,1,0,0:0:0:0:
36,192,140599,1,0,0:0:0:0:
402,192,140679,1,0,0:0:0:0:
475,192,140679,1,0,0:0:0:0:
256,192,140760,1,0,0:0:0:0:
182,192,140760,1,0,0:0:0:0:
36,192,140760,1,0,0:0:0:0:
402,192,140840,1,0,0:0:0:0:
329,192,140840,1,0,0:0:0:0:
182,192,140921,1,0,0:0:0:0:
109,192,140921,1,0,0:0:0:0:
475,192,140921,1,0,0:0:0:0:
329,192,141001,1,0,0:0:0:0:
256,192,141001,1,0,0:0:0:0:
109,192,141082,1,0,0:0:0:0:
36,192,141082,1,0,0:0:0:0:
402,192,141082,1,0,0:0:0:0:
256,192,141163,1,0,0:0:0:0:
182,192,141163,1,0,0:0:0:0:
329,192,141243,1,0,0:0:0:0:
36,192,141243,1,0,0:0:0:0:
475,192,141243,1,0,0:0:0:0:
182,192,141324,1,0,0:0:0:0:
109,192,141324,1,0,0:0:0:0:
402,192,141404,1,0,0:0:0:0:
256,192,141404,1,0,0:0:0:0:
475,192,141404,1,0,0:0:0:0:
109,192,141485,1,0,0:0:0:0:
36,192,141485,1,0,0:0:0:0:
329,192,141565,1,0,0:0:0:0:
182,192,141565,1,0,0:0:0:0:
402,192,141565,1,0,0:0:0:0:
475,192,141565,1,0,0:0:0:0:
109,192,141646,1,0,0:0:0:0:
256,192,141646,1,0,0:0:0:0:
36,192,141726,1,0,0:0:0:0:
402,192,141726,1,0,0:0:0:0:
182,192,141726,1,0,0:0:0:0:
329,192,141807,1,0,0:0:0:0:
36,192,141888,1,0,0:0:0:0:
475,192,141888,1,0,0:0:0:0:
256,192,141888,1,0,0:0:0:0:
109,192,141888,1,0,0:0:0:0:
329,192,141968,1,0,0:0:0:0:
402,192,142049,1,0,0:0:0:0:
182,192,142049,1,0,0:0:0:0:
109,192,142049,1,0,0:0:0:0:
256,192,142129,1,0,0:0:0:0:
329,192,142210,1,0,0:0:0:0:
475,192,142210,1,0,0:0:0:0:
109,192,142210,1,0,0:0:0:0:
36,192,142210,1,0,0:0:0:0:
256,192,142290,1,0,0:0:0:0:
402,192,142290,1,0,0:0:0:0:
182,192,142371,1,0,0:0:0:0:
109,192,142371,1,0,0:0:0:0:
329,192,142371,1,0,0:0:0:0:
402,192,142452,1,0,0:0:0:0:
256,192,142532,1,0,0:0:0:0:
475,192,142532,1,0,0:0:0:0:
109,192,142532,1,0,0:0:0:0:
36,192,142532,1,0,0:0:0:0:
329,192,142613,1,0,0:0:0:0:
182,192,142613,1,0,0:0:0:0:
402,192,142693,1,0,0:0:0:0:
256,192,142693,1,0,0:0:0:0:
475,192,142693,1,0,0:0:0:0:
182,192,142774,1,0,0:0:0:0:
36,192,142854,1,0,0:0:0:0:
109,192,142854,1,0,0:0:0:0:
329,192,142854,1,0,0:0:0:0:
475,192,142854,1,0,0:0:0:0:
256,192,142935,1,0,0:0:0:0:
402,192,142935,1,0,0:0:0:0:
109,192,143015,1,0,0:0:0:0:
182,192,143015,1,0,0:0:0:0:
329,192,143015,1,0,0:0:0:0:
402,192,143096,1,0,0:0:0:0:
475,192,143177,1,0,0:0:0:0:
182,192,143177,1,0,0:0:0:0:
36,192,143177,1,0,0:0:0:0:
256,192,143177,1,0,0:0:0:0:
329,192,143257,1,0,0:0:0:0:
402,192,143338,1,0,0:0:0:0:
182,192,143338,1,0,0:0:0:0:
475,192,143338,1,0,0:0:0:0:
109,192,143418,1,0,0:0:0:0:
36,192,143499,1,0,0:0:0:0:
256,192,143499,1,0,0:0:0:0:
329,192,143499,1,0,0:0:0:0:
475,192,143499,1,0,0:0:0:0:
182,192,143579,1,0,0:0:0:0:
109,192,143660,1,0,0:0:0:0:
36,192,143660,1,0,0:0:0:0:
329,192,143660,1,0,0:0:0:0:
402,192,143740,1,0,0:0:0:0:
182,192,143740,1,0,0:0:0:0:
475,192,143821,1,0,0:0:0:0:
256,192,143821,1,0,0:0:0:0:
36,192,143821,1,0,0:0:0:0:
329,192,143902,1,0,0:0:0:0:
109,192,143902,1,0,0:0:0:0:
36,192,143982,1,0,0:0:0:0:
256,192,143982,1,0,0:0:0:0:
475,192,143982,1,0,0:0:0:0:
182,192,144063,1,0,0:0:0:0:
402,192,144063,1,0,0:0:0:0:
329,192,144143,1,0,0:0:0:0:
36,192,144143,1,0,0:0:0:0:
109,192,144143,1,0,0:0:0:0:
182,192,144224,1,0,0:0:0:0:
256,192,144224,1,0,0:0:0:0:
402,192,144304,1,0,0:0:0:0:
329,192,144304,1,0,0:0:0:0:
109,192,144304,1,0,0:0:0:0:
182,192,144385,1,0,0:0:0:0:
256,192,144385,1,0,0:0:0:0:
329,192,144465,1,0,0:0:0:0:
475,192,144465,1,0,0:0:0:0:
109,192,144465,1,0,0:0:0:0:
36,192,144465,1,0,0:0:0:0:
182,192,144546,1,0,0:0:0:0:
402,192,144627,1,0,0:0:0:0:
475,192,144627,1,0,0:0:0:0:
329,192,144627,1,0,0:0:0:0:
109,192,144627,1,0,0:0:0:0:
256,192,144707,1,0,0:0:0:0:
475,192,144788,1,0,0:0:0:0:
36,192,144788,1,0,0:0:0:0:
402,192,144788,1,0,0:0:0:0:
182,192,144788,1,0,0:0:0:0:
329,192,144868,1,0,0:0:0:0:
402,192,144949,1,0,0:0:0:0:
182,192,144949,1,0,0:0:0:0:
109,192,144949,1,0,0:0:0:0:
36,192,144949,1,0,0:0:0:0:
256,192,145029,1,0,0:0:0:0:
329,192,145110,1,0,0:0:0:0:
475,192,145110,1,0,0:0:0:0:
109,192,145110,1,0,0:0:0:0:
36,192,145110,1,0,0:0:0:0:
182,192,145190,1,0,0:0:0:0:
256,192,145190,1,0,0:0:0:0:
402,192,145271,1,0,0:0:0:0:
329,192,145271,1,0,0:0:0:0:
36,192,145271,1,0,0:0:0:0:
109,192,145352,1,0,0:0:0:0:
182,192,145352,1,0,0:0:0:0:
256,192,145432,1,0,0:0:0:0:
475,192,145432,1,0,0:0:0:0:
402,192,145432,1,0,0:0:0:0:
36,192,145432,1,0,0:0:0:0:
182,192,145513,1,0,0:0:0:0:
329,192,145593,1,0,0:0:0:0:
109,192,145593,1,0,0:0:0:0:
402,192,145593,1,0,0:0:0:0:
475,192,145593,1,0,0:0:0:0:
182,192,145674,1,0,0:0:0:0:
256,192,145754,1,0,0:0:0:0:
402,192,145754,1,0,0:0:0:0:
475,192,145754,1,0,0:0:0:0:
36,192,145754,1,0,0:0:0:0:
109,192,145835,1,0,0:0:0:0:
182,192,145916,1,0,0:0:0:0:
256,192,145916,1,0,0:0:0:0:
402,192,145916,1,0,0:0:0:0:
475,192,145916,1,0,0:0:0:0:
36,192,145996,1,0,0:0:0:0:
109,192,146077,1,0,0:0:0:0:
182,192,146077,1,0,0:0:0:0:
329,192,146077,1,0,0:0:0:0:
402,192,146077,1,0,0:0:0:0:
475,192,146157,1,0,0:0:0:0:
329,192,146238,1,0,0:0:0:0:
256,192,146238,1,0,0:0:0:0:
109,192,146238,1,0,0:0:0:0:
36,192,146238,1,0,0:0:0:0:
402,192,146318,1,0,0:0:0:0:
475,192,146399,1,0,0:0:0:0:
256,192,146399,1,0,0:0:0:0:
182,192,146399,1,0,0:0:0:0:
36,192,146399,1,0,0:0:0:0:
329,192,146479,1,0,0:0:0:0:
402,192,146560,1,0,0:0:0:0:
109,192,146560,1,0,0:0:0:0:
182,192,146560,1,0,0:0:0:0:
329,192,146641,1,0,0:0:0:0:
256,192,146721,1,0,0:0:0:0:
36,192,146721,1,0,0:0:0:0:
109,192,146721,1,0,0:0:0:0:
475,192,146721,1,0,0:0:0:0:
329,192,146802,1,0,0:0:0:0:
182,192,146882,1,0,0:0:0:0:
36,192,146882,1,0,0:0:0:0:
109,192,146882,1,0,0:0:0:0:
402,192,146882,1,0,0:0:0:0:
329,192,146963,1,0,0:0:0:0:
256,192,147043,1,0,0:0:0:0:
109,192,147043,1,0,0:0:0:0:
36,192,147043,1,0,0:0:0:0:
475,192,147043,1,0,0:0:0:0:
402,192,147124,1,0,0:0:0:0:
329,192,147204,1,0,0:0:0:0:
256,192,147204,1,0,0:0:0:0:
109,192,147204,1,0,0:0:0:0:
36,192,147204,1,0,0:0:0:0:
475,192,147285,1,0,0:0:0:0:
402,192,147366,1,0,0:0:0:0:
329,192,147366,1,0,0:0:0:0:
182,192,147366,1,0,0:0:0:0:
109,192,147366,1,0,0:0:0:0:
36,192,147446,1,0,0:0:0:0:
182,192,147527,1,0,0:0:0:0:
256,192,147527,1,0,0:0:0:0:
402,192,147527,1,0,0:0:0:0:
475,192,147527,1,0,0:0:0:0:
109,192,147607,1,0,0:0:0:0:
36,192,147688,1,0,0:0:0:0:
256,192,147688,1,0,0:0:0:0:
329,192,147688,1,0,0:0:0:0:
475,192,147688,1,0,0:0:0:0:
182,192,147768,1,0,0:0:0:0:
109,192,147849,1,0,0:0:0:0:
402,192,147849,1,0,0:0:0:0:
329,192,147849,1,0,0:0:0:0:
182,192,147929,1,0,0:0:0:0:
256,192,148010,1,0,0:0:0:0:
475,192,148010,1,0,0:0:0:0:
402,192,148010,1,0,0:0:0:0:
36,192,148010,1,0,0:0:0:0:
182,192,148091,1,0,0:0:0:0:
329,192,148171,1,0,0:0:0:0:
475,192,148171,1,0,0:0:0:0:
402,192,148171,1,0,0:0:0:0:
109,192,148171,1,0,0:0:0:0:
182,192,148252,1,0,0:0:0:0:
256,192,148332,1,0,0:0:0:0:
402,192,148332,1,0,0:0:0:0:
36,192,148332,1,0,0:0:0:0:
475,192,148332,1,0,0:0:0:0:
109,192,148413,1,0,0:0:0:0:
329,192,148413,1,0,0:0:0:0:
182,192,148493,1,0,0:0:0:0:
402,192,148493,1,0,0:0:0:0:
256,192,148493,1,0,0:0:0:0:
36,192,148574,1,0,0:0:0:0:
109,192,148655,1,0,0:0:0:0:
256,192,148655,1,0,0:0:0:0:
329,192,148655,1,0,0:0:0:0:
475,192,148655,1,0,0:0:0:0:
182,192,148735,1,0,0:0:0:0:
402,192,148816,1,0,0:0:0:0:
475,192,148816,1,0,0:0:0:0:
256,192,148816,1,0,0:0:0:0:
36,192,148816,1,0,0:0:0:0:
256,192,148977,1,0,0:0:0:0:
109,192,148977,1,0,0:0:0:0:
36,192,148977,1,0,0:0:0:0:
475,192,148977,1,0,0:0:0:0:
402,192,149057,1,0,0:0:0:0:
182,192,149057,1,0,0:0:0:0:
329,192,149138,1,0,0:0:0:0:
109,192,149138,1,0,0:0:0:0:
256,192,149138,1,0,0:0:0:0:
475,192,149218,1,0,0:0:0:0:
402,192,149299,1,0,0:0:0:0:
256,192,149299,1,0,0:0:0:0:
182,192,149299,1,0,0:0:0:0:
36,192,149299,1,0,0:0:0:0:
329,192,149380,1,0,0:0:0:0:
256,192,149460,1,0,0:0:0:0:
109,192,149460,1,0,0:0:0:0:
36,192,149460,1,0,0:0:0:0:
475,192,149460,1,0,0:0:0:0:
109,192,149621,1,0,0:0:0:0:
36,192,149621,1,0,0:0:0:0:
256,192,149621,1,0,0:0:0:0:
402,192,149621,1,0,0:0:0:0:
329,192,149782,1,0,0:0:0:0:
182,192,149782,1,0,0:0:0:0:
475,192,149782,1,0,0:0:0:0:
402,192,149943,1,0,0:0:0:0:
256,192,149943,1,0,0:0:0:0:
36,192,149943,1,0,0:0:0:0:
475,192,149943,1,0,0:0:0:0:
329,192,150105,1,0,0:0:0:0:
182,192,150105,1,0,0:0:0:0:
109,192,150105,1,0,0:0:0:0:
402,192,150266,1,0,0:0:0:0:
475,192,150266,1,0,0:0:0:0:
256,192,150266,1,0,0:0:0:0:
109,192,150346,1,0,0:0:0:0:
182,192,150346,1,0,0:0:0:0:
36,192,150346,1,0,0:0:0:0:
402,192,150427,1,0,0:0:0:0:
329,192,150427,1,0,0:0:0:0:
475,192,150427,1,0,0:0:0:0:
182,192,150507,1,0,0:0:0:0:
109,192,150507,1,0,0:0:0:0:
36,192,150507,1,0,0:0:0:0:
402,192,150588,1,0,0:0:0:0:
256,192,150588,1,0,0:0:0:0:
475,192,150588,1,0,0:0:0:0:
182,192,150668,1,0,0:0:0:0:
109,192,150749,1,0,0:0:0:0:
329,192,150749,1,0,0:0:0:0:
256,192,150830,1,0,0:0:0:0:
182,192,150910,1,0,0:0:0:0:
402,192,150910,1,0,0:0:0:0:
475,192,150910,1,0,0:0:0:0:
36,192,150910,128,0,151313:0:0:0:0:
256,192,151071,1,0,0:0:0:0:
329,192,151232,1,0,0:0:0:0:
475,192,151394,1,0,0:0:0:0:
402,192,151394,1,0,0:0:0:0:
182,192,151394,1,0,0:0:0:0:
36,192,151394,128,0,151957:0:0:0:0:
256,192,151716,1,0,0:0:0:0:
329,192,151877,1,0,0:0:0:0:
402,192,152038,1,0,0:0:0:0:
475,192,152038,1,0,0:0:0:0:
182,192,152038,1,0,0:0:0:0:
36,192,152038,1,0,0:0:0:0:
329,192,152199,1,0,0:0:0:0:
475,192,152199,1,0,0:0:0:0:
256,192,152280,1,0,0:0:0:0:
182,192,152360,1,0,0:0:0:0:
36,192,152360,1,0,0:0:0:0:
109,192,152521,1,0,0:0:0:0:
402,192,152521,1,0,0:0:0:0:
329,192,152682,5,0,0:0:0:0:
402,192,152682,1,0,0:0:0:0:
256,192,152763,1,0,0:0:0:0:
109,192,152844,1,0,0:0:0:0:
182,192,152844,1,0,0:0:0:0:
36,192,153005,1,0,0:0:0:0:
182,192,153005,1,0,0:0:0:0:
329,192,153005,1,0,0:0:0:0:
475,192,153005,1,0,0:0:0:0:
402,192,153166,1,0,0:0:0:0:
256,192,153166,1,0,0:0:0:0:
109,192,153166,1,0,0:0:0:0:
36,192,153488,5,0,0:0:0:0:
182,192,153488,1,0,0:0:0:0:
475,192,153488,1,0,0:0:0:0:
402,192,153488,1,0,0:0:0:0:
256,192,153569,1,0,0:0:0:0:
475,192,153649,1,0,0:0:0:0:
109,192,153649,1,0,0:0:0:0:
329,192,153649,1,0,0:0:0:0:
256,192,153730,1,0,0:0:0:0:
182,192,153810,1,0,0:0:0:0:
36,192,153810,1,0,0:0:0:0:
475,192,153810,1,0,0:0:0:0:
402,192,153810,1,0,0:0:0:0:
329,192,153891,1,0,0:0:0:0:
109,192,153971,1,0,0:0:0:0:
475,192,153971,1,0,0:0:0:0:
256,192,153971,1,0,0:0:0:0:
329,192,154052,1,0,0:0:0:0:
402,192,154132,1,0,0:0:0:0:
36,192,154132,1,0,0:0:0:0:
182,192,154132,1,0,0:0:0:0:
256,192,154213,1,0,0:0:0:0:
475,192,154213,1,0,0:0:0:0:
182,192,154294,1,0,0:0:0:0:
36,192,154294,1,0,0:0:0:0:
402,192,154294,1,0,0:0:0:0:
256,192,154374,1,0,0:0:0:0:
109,192,154374,1,0,0:0:0:0:
329,192,154455,1,0,0:0:0:0:
182,192,154455,1,0,0:0:0:0:
475,192,154455,1,0,0:0:0:0:
402,192,154455,1,0,0:0:0:0:
109,192,154535,1,0,0:0:0:0:
36,192,154616,1,0,0:0:0:0:
256,192,154616,1,0,0:0:0:0:
402,192,154616,1,0,0:0:0:0:
109,192,154696,1,0,0:0:0:0:
182,192,154777,1,0,0:0:0:0:
329,192,154777,1,0,0:0:0:0:
475,192,154777,1,0,0:0:0:0:
109,192,154858,1,0,0:0:0:0:
36,192,154938,1,0,0:0:0:0:
256,192,154938,1,0,0:0:0:0:
402,192,154938,1,0,0:0:0:0:
182,192,155019,1,0,0:0:0:0:
109,192,155099,1,0,0:0:0:0:
329,192,155099,1,0,0:0:0:0:
475,192,155099,1,0,0:0:0:0:
36,192,155099,1,0,0:0:0:0:
256,192,155180,1,0,0:0:0:0:
182,192,155260,1,0,0:0:0:0:
402,192,155260,1,0,0:0:0:0:
36,192,155260,1,0,0:0:0:0:
329,192,155341,1,0,0:0:0:0:
256,192,155421,1,0,0:0:0:0:
475,192,155421,1,0,0:0:0:0:
109,192,155421,1,0,0:0:0:0:
402,192,155502,1,0,0:0:0:0:
329,192,155583,1,0,0:0:0:0:
182,192,155583,1,0,0:0:0:0:
36,192,155583,1,0,0:0:0:0:
256,192,155663,1,0,0:0:0:0:
402,192,155663,1,0,0:0:0:0:
329,192,155744,1,0,0:0:0:0:
475,192,155744,1,0,0:0:0:0:
109,192,155744,1,0,0:0:0:0:
36,192,155744,1,0,0:0:0:0:
182,192,155824,1,0,0:0:0:0:
256,192,155824,1,0,0:0:0:0:
329,192,155905,1,0,0:0:0:0:
402,192,155905,1,0,0:0:0:0:
36,192,155905,1,0,0:0:0:0:
109,192,155985,1,0,0:0:0:0:
182,192,155985,1,0,0:0:0:0:
402,192,156066,1,0,0:0:0:0:
475,192,156066,1,0,0:0:0:0:
256,192,156066,1,0,0:0:0:0:
109,192,156146,1,0,0:0:0:0:
36,192,156146,1,0,0:0:0:0:
182,192,156227,1,0,0:0:0:0:
329,192,156227,1,0,0:0:0:0:
402,192,156227,1,0,0:0:0:0:
475,192,156308,1,0,0:0:0:0:
36,192,156308,1,0,0:0:0:0:
109,192,156388,1,0,0:0:0:0:
256,192,156388,1,0,0:0:0:0:
329,192,156388,1,0,0:0:0:0:
402,192,156469,1,0,0:0:0:0:
475,192,156469,1,0,0:0:0:0:
256,192,156549,1,0,0:0:0:0:
182,192,156549,1,0,0:0:0:0:
36,192,156549,1,0,0:0:0:0:
402,192,156630,1,0,0:0:0:0:
329,192,156630,1,0,0:0:0:0:
475,192,156710,1,0,0:0:0:0:
182,192,156710,1,0,0:0:0:0:
109,192,156710,1,0,0:0:0:0:
256,192,156791,1,0,0:0:0:0:
329,192,156791,1,0,0:0:0:0:
402,192,156871,1,0,0:0:0:0:
109,192,156871,1,0,0:0:0:0:
36,192,156871,1,0,0:0:0:0:
182,192,156952,1,0,0:0:0:0:
256,192,156952,1,0,0:0:0:0:
329,192,157033,1,0,0:0:0:0:
36,192,157033,1,0,0:0:0:0:
475,192,157033,1,0,0:0:0:0:
109,192,157113,1,0,0:0:0:0:
182,192,157113,1,0,0:0:0:0:
256,192,157194,1,0,0:0:0:0:
402,192,157194,1,0,0:0:0:0:
475,192,157194,1,0,0:0:0:0:
36,192,157274,1,0,0:0:0:0:
109,192,157274,1,0,0:0:0:0:
329,192,157355,1,0,0:0:0:0:
182,192,157355,1,0,0:0:0:0:
256,192,157355,1,0,0:0:0:0:
402,192,157435,1,0,0:0:0:0:
475,192,157516,1,0,0:0:0:0:
256,192,157516,1,0,0:0:0:0:
109,192,157516,1,0,0:0:0:0:
329,192,157597,1,0,0:0:0:0:
402,192,157677,1,0,0:0:0:0:
182,192,157677,1,0,0:0:0:0:
36,192,157677,1,0,0:0:0:0:
475,192,157677,1,0,0:0:0:0:
256,192,157758,1,0,0:0:0:0:
329,192,157838,1,0,0:0:0:0:
109,192,157838,1,0,0:0:0:0:
475,192,157838,1,0,0:0:0:0:
402,192,157919,1,0,0:0:0:0:
256,192,157919,1,0,0:0:0:0:
36,192,157999,1,0,0:0:0:0:
329,192,157999,1,0,0:0:0:0:
182,192,157999,1,0,0:0:0:0:
402,192,158080,1,0,0:0:0:0:
109,192,158080,1,0,0:0:0:0:
182,192,158160,1,0,0:0:0:0:
329,192,158160,1,0,0:0:0:0:
475,192,158160,1,0,0:0:0:0:
109,192,158241,1,0,0:0:0:0:
36,192,158322,1,0,0:0:0:0:
256,192,158322,1,0,0:0:0:0:
402,192,158322,1,0,0:0:0:0:
475,192,158322,1,0,0:0:0:0:
182,192,158402,1,0,0:0:0:0:
109,192,158483,1,0,0:0:0:0:
329,192,158483,1,0,0:0:0:0:
402,192,158483,1,0,0:0:0:0:
182,192,158563,1,0,0:0:0:0:
256,192,158644,1,0,0:0:0:0:
402,192,158644,1,0,0:0:0:0:
475,192,158644,1,0,0:0:0:0:
36,192,158644,1,0,0:0:0:0:
182,192,158724,1,0,0:0:0:0:
109,192,158805,1,0,0:0:0:0:
329,192,158805,1,0,0:0:0:0:
36,192,158805,1,0,0:0:0:0:
402,192,158805,1,0,0:0:0:0:
256,192,158885,1,0,0:0:0:0:
182,192,158966,1,0,0:0:0:0:
36,192,158966,1,0,0:0:0:0:
402,192,158966,1,0,0:0:0:0:
475,192,158966,1,0,0:0:0:0:
109,192,159047,1,0,0:0:0:0:
256,192,159047,1,0,0:0:0:0:
329,192,159127,1,0,0:0:0:0:
182,192,159127,1,0,0:0:0:0:
402,192,159127,1,0,0:0:0:0:
109,192,159208,1,0,0:0:0:0:
402,192,159288,1,0,0:0:0:0:
475,192,159288,1,0,0:0:0:0:
36,192,159288,1,0,0:0:0:0:
256,192,159288,1,0,0:0:0:0:
182,192,159369,1,0,0:0:0:0:
36,192,159449,1,0,0:0:0:0:
109,192,159449,1,0,0:0:0:0:
329,192,159449,1,0,0:0:0:0:
256,192,159530,1,0,0:0:0:0:
36,192,159610,1,0,0:0:0:0:
182,192,159610,1,0,0:0:0:0:
402,192,159610,1,0,0:0:0:0:
475,192,159610,1,0,0:0:0:0:
256,192,159691,1,0,0:0:0:0:
109,192,159772,1,0,0:0:0:0:
329,192,159772,1,0,0:0:0:0:
36,192,159772,1,0,0:0:0:0:
182,192,159852,1,0,0:0:0:0:
402,192,159852,1,0,0:0:0:0:
256,192,159933,1,0,0:0:0:0:
475,192,159933,1,0,0:0:0:0:
36,192,159933,1,0,0:0:0:0:
329,192,160013,1,0,0:0:0:0:
109,192,160094,1,0,0:0:0:0:
475,192,160094,1,0,0:0:0:0:
256,192,160094,1,0,0:0:0:0:
402,192,160174,1,0,0:0:0:0:
182,192,160255,1,0,0:0:0:0:
36,192,160255,1,0,0:0:0:0:
329,192,160255,1,0,0:0:0:0:
256,192,160335,1,0,0:0:0:0:
402,192,160335,1,0,0:0:0:0:
329,192,160416,1,0,0:0:0:0:
109,192,160416,1,0,0:0:0:0:
475,192,160416,1,0,0:0:0:0:
182,192,160497,1,0,0:0:0:0:
256,192,160577,1,0,0:0:0:0:
402,192,160577,1,0,0:0:0:0:
36,192,160577,1,0,0:0:0:0:
475,192,160577,1,0,0:0:0:0:
182,192,160658,1,0,0:0:0:0:
109,192,160738,1,0,0:0:0:0:
36,192,160738,1,0,0:0:0:0:
329,192,160738,1,0,0:0:0:0:
402,192,160738,1,0,0:0:0:0:
256,192,160819,1,0,0:0:0:0:
182,192,160899,1,0,0:0:0:0:
109,192,160899,1,0,0:0:0:0:
402,192,160899,1,0,0:0:0:0:
475,192,160899,1,0,0:0:0:0:
256,192,160980,1,0,0:0:0:0:
329,192,161061,1,0,0:0:0:0:
402,192,161061,1,0,0:0:0:0:
36,192,161061,1,0,0:0:0:0:
109,192,161061,1,0,0:0:0:0:
182,192,161141,1,0,0:0:0:0:
256,192,161222,1,0,0:0:0:0:
475,192,161222,1,0,0:0:0:0:
402,192,161222,1,0,0:0:0:0:
36,192,161222,1,0,0:0:0:0:
182,192,161302,1,0,0:0:0:0:
109,192,161383,1,0,0:0:0:0:
329,192,161383,1,0,0:0:0:0:
182,192,161463,1,0,0:0:0:0:
402,192,161463,1,0,0:0:0:0:
36,192,161544,1,0,0:0:0:0:
256,192,161544,1,0,0:0:0:0:
109,192,161544,1,0,0:0:0:0:
475,192,161544,1,0,0:0:0:0:
329,192,161624,1,0,0:0:0:0:
182,192,161705,1,0,0:0:0:0:
402,192,161705,1,0,0:0:0:0:
329,192,161786,1,0,0:0:0:0:
109,192,161786,1,0,0:0:0:0:
402,192,161866,1,0,0:0:0:0:
475,192,161866,1,0,0:0:0:0:
256,192,161866,1,0,0:0:0:0:
36,192,161866,1,0,0:0:0:0:
182,192,161947,1,0,0:0:0:0:
329,192,161947,1,0,0:0:0:0:
109,192,162027,1,0,0:0:0:0:
256,192,162027,1,0,0:0:0:0:
475,192,162027,1,0,0:0:0:0:
402,192,162108,1,0,0:0:0:0:
36,192,162188,1,0,0:0:0:0:
182,192,162188,1,0,0:0:0:0:
329,192,162188,1,0,0:0:0:0:
256,192,162269,1,0,0:0:0:0:
109,192,162349,1,0,0:0:0:0:
475,192,162349,1,0,0:0:0:0:
329,192,162349,1,0,0:0:0:0:
402,192,162430,1,0,0:0:0:0:
256,192,162430,1,0,0:0:0:0:
329,192,162511,1,0,0:0:0:0:
182,192,162511,1,0,0:0:0:0:
36,192,162511,1,0,0:0:0:0:
36,192,162591,1,0,0:0:0:0:
182,192,162591,1,0,0:0:0:0:
329,192,162591,1,0,0:0:0:0:
402,192,162672,1,0,0:0:0:0:
475,192,162672,1,0,0:0:0:0:
256,192,162672,1,0,0:0:0:0:
402,192,162833,1,0,0:0:0:0:
475,192,162833,1,0,0:0:0:0:
256,192,162833,1,0,0:0:0:0:
182,192,162994,1,0,0:0:0:0:
329,192,162994,1,0,0:0:0:0:
475,192,162994,1,0,0:0:0:0:
475,192,163074,1,0,0:0:0:0:
329,192,163074,1,0,0:0:0:0:
182,192,163074,1,0,0:0:0:0:
256,192,163155,1,0,0:0:0:0:
109,192,163155,1,0,0:0:0:0:
36,192,163155,1,0,0:0:0:0:
402,192,163236,1,0,0:0:0:0:
475,192,163236,1,0,0:0:0:0:
329,192,163316,1,0,0:0:0:0:
109,192,163316,1,0,0:0:0:0:
182,192,163316,1,0,0:0:0:0:
402,192,163397,1,0,0:0:0:0:
475,192,163397,1,0,0:0:0:0:
256,192,163477,1,0,0:0:0:0:
36,192,163477,1,0,0:0:0:0:
109,192,163477,1,0,0:0:0:0:
329,192,163477,1,0,0:0:0:0:
329,192,163638,1,0,0:0:0:0:
256,192,163638,1,0,0:0:0:0:
109,192,163638,1,0,0:0:0:0:
36,192,163638,1,0,0:0:0:0:
36,192,163800,5,0,0:0:0:0:
182,192,163800,1,0,0:0:0:0:
475,192,163800,1,0,0:0:0:0:
402,192,163800,1,0,0:0:0:0:
256,192,163880,1,0,0:0:0:0:
475,192,163961,1,0,0:0:0:0:
109,192,163961,1,0,0:0:0:0:
329,192,163961,1,0,0:0:0:0:
256,192,164041,1,0,0:0:0:0:
182,192,164122,1,0,0:0:0:0:
36,192,164122,1,0,0:0:0:0:
475,192,164122,1,0,0:0:0:0:
402,192,164122,1,0,0:0:0:0:
329,192,164202,1,0,0:0:0:0:
109,192,164283,1,0,0:0:0:0:
475,192,164283,1,0,0:0:0:0:
256,192,164283,1,0,0:0:0:0:
329,192,164363,1,0,0:0:0:0:
402,192,164444,1,0,0:0:0:0:
36,192,164444,1,0,0:0:0:0:
182,192,164444,1,0,0:0:0:0:
256,192,164525,1,0,0:0:0:0:
475,192,164525,1,0,0:0:0:0:
182,192,164605,1,0,0:0:0:0:
36,192,164605,1,0,0:0:0:0:
402,192,164605,1,0,0:0:0:0:
256,192,164686,1,0,0:0:0:0:
109,192,164686,1,0,0:0:0:0:
329,192,164766,1,0,0:0:0:0:
182,192,164766,1,0,0:0:0:0:
475,192,164766,1,0,0:0:0:0:
402,192,164766,1,0,0:0:0:0:
109,192,164847,1,0,0:0:0:0:
36,192,164927,1,0,0:0:0:0:
256,192,164927,1,0,0:0:0:0:
402,192,164927,1,0,0:0:0:0:
109,192,165008,1,0,0:0:0:0:
182,192,165088,1,0,0:0:0:0:
329,192,165088,1,0,0:0:0:0:
475,192,165088,1,0,0:0:0:0:
36,192,165169,1,0,0:0:0:0:
109,192,165169,1,0,0:0:0:0:
256,192,165250,1,0,0:0:0:0:
402,192,165250,1,0,0:0:0:0:
109,192,165330,1,0,0:0:0:0:
182,192,165330,1,0,0:0:0:0:
329,192,165411,1,0,0:0:0:0:
475,192,165411,1,0,0:0:0:0:
36,192,165411,1,0,0:0:0:0:
182,192,165491,1,0,0:0:0:0:
256,192,165491,1,0,0:0:0:0:
402,192,165572,1,0,0:0:0:0:
36,192,165572,1,0,0:0:0:0:
109,192,165572,1,0,0:0:0:0:
256,192,165652,1,0,0:0:0:0:
329,192,165652,1,0,0:0:0:0:
109,192,165733,1,0,0:0:0:0:
182,192,165733,1,0,0:0:0:0:
475,192,165733,1,0,0:0:0:0:
329,192,165813,1,0,0:0:0:0:
402,192,165813,1,0,0:0:0:0:
182,192,165894,1,0,0:0:0:0:
256,192,165894,1,0,0:0:0:0:
36,192,165894,1,0,0:0:0:0:
402,192,165975,1,0,0:0:0:0:
475,192,165975,1,0,0:0:0:0:
256,192,166055,1,0,0:0:0:0:
329,192,166055,1,0,0:0:0:0:
109,192,166055,1,0,0:0:0:0:
475,192,166136,1,0,0:0:0:0:
36,192,166136,1,0,0:0:0:0:
329,192,166216,1,0,0:0:0:0:
402,192,166216,1,0,0:0:0:0:
182,192,166216,1,0,0:0:0:0:
109,192,166297,1,0,0:0:0:0:
36,192,166297,1,0,0:0:0:0:
475,192,166377,1,0,0:0:0:0:
402,192,166377,1,0,0:0:0:0:
256,192,166377,1,0,0:0:0:0:
329,192,166458,1,0,0:0:0:0:
36,192,166539,1,0,0:0:0:0:
182,192,166539,1,0,0:0:0:0:
402,192,166539,1,0,0:0:0:0:
256,192,166619,1,0,0:0:0:0:
329,192,166700,1,0,0:0:0:0:
475,192,166700,1,0,0:0:0:0:
36,192,166700,1,0,0:0:0:0:
109,192,166700,1,0,0:0:0:0:
182,192,166780,1,0,0:0:0:0:
402,192,166861,1,0,0:0:0:0:
36,192,166861,1,0,0:0:0:0:
256,192,166861,1,0,0:0:0:0:
182,192,166941,1,0,0:0:0:0:
109,192,167022,1,0,0:0:0:0:
475,192,167022,1,0,0:0:0:0:
329,192,167022,1,0,0:0:0:0:
256,192,167102,1,0,0:0:0:0:
36,192,167102,1,0,0:0:0:0:
329,192,167183,1,0,0:0:0:0:
475,192,167183,1,0,0:0:0:0:
109,192,167183,1,0,0:0:0:0:
256,192,167264,1,0,0:0:0:0:
402,192,167264,1,0,0:0:0:0:
182,192,167344,1,0,0:0:0:0:
329,192,167344,1,0,0:0:0:0:
36,192,167344,1,0,0:0:0:0:
109,192,167344,1,0,0:0:0:0:
402,192,167425,1,0,0:0:0:0:
475,192,167505,1,0,0:0:0:0:
256,192,167505,1,0,0:0:0:0:
109,192,167505,1,0,0:0:0:0:
402,192,167586,1,0,0:0:0:0:
475,192,167666,1,0,0:0:0:0:
182,192,167666,1,0,0:0:0:0:
36,192,167666,1,0,0:0:0:0:
256,192,167666,1,0,0:0:0:0:
329,192,167747,1,0,0:0:0:0:
402,192,167827,1,0,0:0:0:0:
182,192,167827,1,0,0:0:0:0:
475,192,167827,1,0,0:0:0:0:
109,192,167908,1,0,0:0:0:0:
36,192,167989,1,0,0:0:0:0:
256,192,167989,1,0,0:0:0:0:
329,192,167989,1,0,0:0:0:0:
475,192,167989,1,0,0:0:0:0:
182,192,168069,1,0,0:0:0:0:
109,192,168150,1,0,0:0:0:0:
36,192,168150,1,0,0:0:0:0:
329,192,168150,1,0,0:0:0:0:
402,192,168230,1,0,0:0:0:0:
182,192,168230,1,0,0:0:0:0:
475,192,168311,1,0,0:0:0:0:
256,192,168311,1,0,0:0:0:0:
109,192,168311,1,0,0:0:0:0:
36,192,168311,1,0,0:0:0:0:
329,192,168391,1,0,0:0:0:0:
36,192,168472,1,0,0:0:0:0:
256,192,168472,1,0,0:0:0:0:
475,192,168472,1,0,0:0:0:0:
182,192,168552,1,0,0:0:0:0:
475,192,168633,1,0,0:0:0:0:
329,192,168633,1,0,0:0:0:0:
36,192,168633,1,0,0:0:0:0:
109,192,168633,1,0,0:0:0:0:
256,192,168714,1,0,0:0:0:0:
182,192,168794,1,0,0:0:0:0:
109,192,168794,1,0,0:0:0:0:
402,192,168794,1,0,0:0:0:0:
475,192,168794,1,0,0:0:0:0:
256,192,168875,1,0,0:0:0:0:
109,192,168955,1,0,0:0:0:0:
36,192,168955,1,0,0:0:0:0:
329,192,168955,1,0,0:0:0:0:
475,192,168955,1,0,0:0:0:0:
182,192,169036,1,0,0:0:0:0:
329,192,169116,1,0,0:0:0:0:
109,192,169116,1,0,0:0:0:0:
402,192,169116,1,0,0:0:0:0:
475,192,169116,1,0,0:0:0:0:
256,192,169197,1,0,0:0:0:0:
402,192,169277,1,0,0:0:0:0:
182,192,169277,1,0,0:0:0:0:
475,192,169277,1,0,0:0:0:0:
36,192,169277,1,0,0:0:0:0:
329,192,169358,1,0,0:0:0:0:
109,192,169439,1,0,0:0:0:0:
36,192,169439,1,0,0:0:0:0:
402,192,169439,1,0,0:0:0:0:
182,192,169439,1,0,0:0:0:0:
256,192,169519,1,0,0:0:0:0:
109,192,169600,1,0,0:0:0:0:
36,192,169600,1,0,0:0:0:0:
329,192,169600,1,0,0:0:0:0:
475,192,169600,1,0,0:0:0:0:
256,192,169680,1,0,0:0:0:0:
182,192,169680,1,0,0:0:0:0:
36,192,169761,1,0,0:0:0:0:
329,192,169761,1,0,0:0:0:0:
402,192,169761,1,0,0:0:0:0:
182,192,169841,1,0,0:0:0:0:
109,192,169841,1,0,0:0:0:0:
402,192,169922,1,0,0:0:0:0:
36,192,169922,1,0,0:0:0:0:
256,192,169922,1,0,0:0:0:0:
475,192,169922,1,0,0:0:0:0:
182,192,170003,1,0,0:0:0:0:
402,192,170083,1,0,0:0:0:0:
475,192,170083,1,0,0:0:0:0:
329,192,170083,1,0,0:0:0:0:
109,192,170083,1,0,0:0:0:0:
182,192,170164,1,0,0:0:0:0:
475,192,170244,1,0,0:0:0:0:
36,192,170244,1,0,0:0:0:0:
256,192,170244,1,0,0:0:0:0:
402,192,170244,1,0,0:0:0:0:
109,192,170325,1,0,0:0:0:0:
402,192,170405,1,0,0:0:0:0:
475,192,170405,1,0,0:0:0:0:
182,192,170405,1,0,0:0:0:0:
256,192,170405,1,0,0:0:0:0:
36,192,170486,1,0,0:0:0:0:
329,192,170566,1,0,0:0:0:0:
402,192,170566,1,0,0:0:0:0:
109,192,170566,1,0,0:0:0:0:
182,192,170566,1,0,0:0:0:0:
475,192,170647,1,0,0:0:0:0:
109,192,170728,1,0,0:0:0:0:
36,192,170728,1,0,0:0:0:0:
329,192,170728,1,0,0:0:0:0:
256,192,170728,1,0,0:0:0:0:
402,192,170808,1,0,0:0:0:0:
182,192,170889,1,0,0:0:0:0:
36,192,170889,1,0,0:0:0:0:
475,192,170889,1,0,0:0:0:0:
256,192,170889,1,0,0:0:0:0:
329,192,170969,1,0,0:0:0:0:
182,192,171050,1,0,0:0:0:0:
109,192,171050,1,0,0:0:0:0:
402,192,171050,1,0,0:0:0:0:
329,192,171130,1,0,0:0:0:0:
109,192,171211,1,0,0:0:0:0:
475,192,171211,1,0,0:0:0:0:
256,192,171211,1,0,0:0:0:0:
36,192,171211,1,0,0:0:0:0:
329,192,171291,1,0,0:0:0:0:
109,192,171372,1,0,0:0:0:0:
402,192,171372,1,0,0:0:0:0:
182,192,171372,1,0,0:0:0:0:
36,192,171372,1,0,0:0:0:0:
329,192,171453,1,0,0:0:0:0:
36,192,171533,1,0,0:0:0:0:
475,192,171533,1,0,0:0:0:0:
256,192,171533,1,0,0:0:0:0:
109,192,171533,1,0,0:0:0:0:
402,192,171614,1,0,0:0:0:0:
109,192,171694,1,0,0:0:0:0:
36,192,171694,1,0,0:0:0:0:
329,192,171694,1,0,0:0:0:0:
256,192,171694,1,0,0:0:0:0:
475,192,171775,1,0,0:0:0:0:
182,192,171855,1,0,0:0:0:0:
109,192,171855,1,0,0:0:0:0:
402,192,171855,1,0,0:0:0:0:
329,192,171855,1,0,0:0:0:0:
36,192,171936,1,0,0:0:0:0:
402,192,172016,1,0,0:0:0:0:
475,192,172016,1,0,0:0:0:0:
182,192,172016,1,0,0:0:0:0:
256,192,172016,1,0,0:0:0:0:
109,192,172097,1,0,0:0:0:0:
329,192,172178,1,0,0:0:0:0:
475,192,172178,1,0,0:0:0:0:
36,192,172178,1,0,0:0:0:0:
256,192,172178,1,0,0:0:0:0:
182,192,172258,1,0,0:0:0:0:
329,192,172339,1,0,0:0:0:0:
402,192,172339,1,0,0:0:0:0:
109,192,172339,1,0,0:0:0:0:
182,192,172419,1,0,0:0:0:0:
402,192,172500,1,0,0:0:0:0:
36,192,172500,1,0,0:0:0:0:
256,192,172500,1,0,0:0:0:0:
475,192,172500,1,0,0:0:0:0:
182,192,172580,1,0,0:0:0:0:
402,192,172661,1,0,0:0:0:0:
109,192,172661,1,0,0:0:0:0:
329,192,172661,1,0,0:0:0:0:
475,192,172661,1,0,0:0:0:0:
182,192,172742,1,0,0:0:0:0:
36,192,172822,1,0,0:0:0:0:
475,192,172822,1,0,0:0:0:0:
256,192,172822,1,0,0:0:0:0:
402,192,172822,1,0,0:0:0:0:
329,192,172983,1,0,0:0:0:0:
182,192,172983,1,0,0:0:0:0:
256,192,173144,1,0,0:0:0:0:
109,192,173144,1,0,0:0:0:0:
36,192,173144,1,0,0:0:0:0:
475,192,173144,1,0,0:0:0:0:
402,192,173305,1,0,0:0:0:0:
182,192,173305,1,0,0:0:0:0:
256,192,173467,1,0,0:0:0:0:
475,192,173467,1,0,0:0:0:0:
329,192,173467,1,0,0:0:0:0:
182,192,173547,1,0,0:0:0:0:
36,192,173547,1,0,0:0:0:0:
109,192,173547,1,0,0:0:0:0:
329,192,173628,1,0,0:0:0:0:
402,192,173628,1,0,0:0:0:0:
475,192,173628,1,0,0:0:0:0:
182,192,173708,1,0,0:0:0:0:
36,192,173708,1,0,0:0:0:0:
109,192,173708,1,0,0:0:0:0:
256,192,173789,1,0,0:0:0:0:
329,192,173789,1,0,0:0:0:0:
475,192,173789,1,0,0:0:0:0:
402,192,173950,1,0,0:0:0:0:
182,192,173950,1,0,0:0:0:0:
256,192,174111,1,0,0:0:0:0:
402,192,174111,1,0,0:0:0:0:
109,192,174111,1,0,0:0:0:0:
36,192,174111,1,0,0:0:0:0:
475,192,174272,1,0,0:0:0:0:
182,192,174272,1,0,0:0:0:0:
329,192,174272,1,0,0:0:0:0:
36,192,174433,1,0,0:0:0:0:
475,192,174433,1,0,0:0:0:0:
402,192,174433,1,0,0:0:0:0:
256,192,174433,1,0,0:0:0:0:
109,192,174594,1,0,0:0:0:0:
182,192,174594,1,0,0:0:0:0:
329,192,174594,1,0,0:0:0:0:
256,192,174755,1,0,0:0:0:0:
402,192,174755,1,0,0:0:0:0:
329,192,174917,1,0,0:0:0:0:
182,192,174917,1,0,0:0:0:0:
402,192,175078,1,0,0:0:0:0:
256,192,175078,1,0,0:0:0:0:
329,192,175239,1,0,0:0:0:0:
109,192,175239,1,0,0:0:0:0:
36,192,175239,1,0,0:0:0:0:
475,192,175239,128,0,176206:0:0:0:0:
329,192,176206,1,0,0:0:0:0:
256,192,176367,1,0,0:0:0:0:
402,192,176367,1,0,0:0:0:0:
182,192,176528,1,0,0:0:0:0:
475,192,176528,1,0,0:0:0:0:
109,192,176689,1,0,0:0:0:0:
402,192,176689,1,0,0:0:0:0:
36,192,176689,1,0,0:0:0:0:
329,192,176689,128,0,176931:0:0:0:0:
109,192,176931,1,0,0:0:0:0:
475,192,176931,1,0,0:0:0:0:
402,192,176931,1,0,0:0:0:0:
182,192,176931,128,0,177172:0:0:0:0:
402,192,177172,1,0,0:0:0:0:
109,192,177172,1,0,0:0:0:0:
36,192,177172,1,0,0:0:0:0:
329,192,177172,128,0,177494:0:0:0:0:
109,192,177494,1,0,0:0:0:0:
402,192,177494,1,0,0:0:0:0:
475,192,177494,1,0,0:0:0:0:
182,192,177494,128,0,177656:0:0:0:0:
329,192,177656,1,0,0:0:0:0:
475,192,177656,1,0,0:0:0:0:
36,192,177656,1,0,0:0:0:0:
256,192,177656,128,0,177978:0:0:0:0:
402,192,177978,1,0,0:0:0:0:
109,192,177978,1,0,0:0:0:0:
475,192,177978,1,0,0:0:0:0:
182,192,177978,128,0,178219:0:0:0:0:
402,192,178219,1,0,0:0:0:0:
36,192,178219,1,0,0:0:0:0:
109,192,178219,1,0,0:0:0:0:
329,192,178219,128,0,178461:0:0:0:0:
109,192,178461,1,0,0:0:0:0:
402,192,178461,1,0,0:0:0:0:
475,192,178461,1,0,0:0:0:0:
182,192,178461,128,0,178783:0:0:0:0:
402,192,178783,1,0,0:0:0:0:
109,192,178783,1,0,0:0:0:0:
36,192,178783,1,0,0:0:0:0:
329,192,178783,128,0,178945:0:0:0:0:
256,192,178945,1,0,0:0:0:0:
182,192,178945,1,0,0:0:0:0:
36,192,178945,1,0,0:0:0:0:
475,192,178945,1,0,0:0:0:0:
329,192,179106,1,0,0:0:0:0:
475,192,179106,1,0,0:0:0:0:
36,192,179106,1,0,0:0:0:0:
256,192,179106,128,0,180556:0:0:0:0:
