osu file format v14

[General]
AudioFilename: gimmme1.01.mp3
AudioLeadIn: 0
PreviewTime: 113286
Countdown: 0
SampleSet: Soft
StackLeniency: 0.7
Mode: 3
LetterboxInBreaks: 0
SpecialStyle: 0
WidescreenStoryboard: 0

[Editor]
DistanceSpacing: 2
BeatDivisor: 4
GridSize: 4
TimelineZoom: 4.599998

[Metadata]
Title:Gimmme!
TitleUnicode:Gimmme!
Artist:ORESAMA
ArtistUnicode:ORESAMA
Creator:Lung_P
Version:Oyasumi 1.1x
Source:魔王城でおやすみ
Tags:Anime Japanese Pop JPop J-Pop Sleepy Princess in the Demon Castle Maoujou de Oyasumi Ending ED LACM-24047
BeatmapID:3498412
BeatmapSetID:1712056

[Difficulty]
HPDrainRate:8
CircleSize:7
OverallDifficulty:8
ApproachRate:5
SliderMultiplier:1.4
SliderTickRate:1

[Events]
//Background and Video events
0,0,"88224725_p0.jpg",0,0
//Break Periods
//Storyboard Layer 0 (Background)
//Storyboard Layer 1 (Fail)
//Storyboard Layer 2 (Pass)
//Storyboard Layer 3 (Foreground)
//Storyboard Layer 4 (Overlay)
//Storyboard Sound Samples

[TimingPoints]
1776,410.116199589884,4,2,0,5,1,0
4646,-20,4,2,0,5,0,0
4698,-133.333333333333,4,2,0,5,0,0
4852,-100,4,2,0,5,0,0
5056,-100,4,2,0,5,0,1
18180,-100,4,2,0,5,0,0
44018,-20,4,2,0,5,0,0
44070,-133.333333333333,4,2,0,5,0,0
44224,-100,4,2,0,5,0,0
44428,-100,4,2,0,5,0,1
55911,-100,4,2,0,5,0,0
57551,-100,4,2,0,5,0,1
70675,-100,4,2,0,5,0,0
73546,-20,4,2,0,5,0,0
73598,-133.333333333333,4,2,0,5,0,0
73752,-100,4,2,0,5,0,0
73956,-100,4,2,0,5,0,1
87080,-100,4,2,0,5,0,0
112917,-20,4,2,0,5,0,0
112969,-133.333333333333,4,2,0,5,0,0
113123,-100,4,2,0,5,0,0
113327,-100,4,2,0,5,0,1
124810,-100,4,2,0,5,0,0
126451,-100,4,2,0,5,0,1
139575,-100,4,2,0,5,0,1
139626,-100,4,2,0,5,0,0
165412,-20,4,2,0,5,0,0
165464,-133.333333333333,4,2,0,5,0,0
165617,-100,4,2,0,5,0,0
166232,-100,4,2,0,5,0,1
177305,-100,4,2,0,5,0,0
178946,-100,4,2,0,5,0,1
192069,-100,4,2,0,5,0,0
194941,-20,4,2,0,5,0,0
194993,-133.333333333333,4,2,0,5,0,0
195146,-100,4,2,0,5,0,0
195350,-100,4,2,0,5,0,1
206834,-100,4,2,0,5,0,0
208474,-100,4,2,0,5,0,1
221598,-100,4,2,0,5,0,0

[HitObjects]
182,192,1775,128,0,3416:0:0:0:0:
329,192,2186,128,0,3416:0:0:0:0:
36,192,2596,128,0,3416:0:0:0:0:
475,192,3006,128,0,3416:0:0:0:0:
402,192,3416,1,0,0:0:0:0:
256,192,3416,1,0,0:0:0:0:
109,192,3416,1,0,0:0:0:0:
402,192,3518,1,0,0:0:0:0:
256,192,3518,1,0,0:0:0:0:
109,192,3518,1,0,0:0:0:0:
329,192,3621,128,0,3826:0:0:0:0:
475,192,3621,128,0,3826:0:0:0:0:
182,192,3826,128,0,4031:0:0:0:0:
36,192,3826,128,0,4031:0:0:0:0:
402,192,4031,1,0,0:0:0:0:
256,192,4031,1,0,0:0:0:0:
109,192,4031,1,0,0:0:0:0:
256,192,4134,1,0,0:0:0:0:
402,192,4134,1,0,0:0:0:0:
109,192,4134,1,0,0:0:0:0:
182,192,4236,128,0,4441:0:0:0:0:
36,192,4236,128,0,4441:0:0:0:0:
329,192,4441,128,0,4646:0:0:0:0:
475,192,4441,128,0,4646:0:0:0:0:
256,192,4646,128,0,5056:0:0:0:0:
402,192,4646,1,0,0:0:0:0:
36,192,4646,1,0,0:0:0:0:
182,192,4646,1,0,0:0:0:0:
36,192,5056,1,0,0:0:0:0:
475,192,5056,1,0,0:0:0:0:
182,192,5056,1,0,0:0:0:0:
402,192,5056,1,0,0:0:0:0:
256,192,5159,1,0,0:0:0:0:
475,192,5261,1,0,0:0:0:0:
109,192,5261,1,0,0:0:0:0:
329,192,5261,1,0,0:0:0:0:
256,192,5364,1,0,0:0:0:0:
182,192,5467,1,0,0:0:0:0:
36,192,5467,1,0,0:0:0:0:
475,192,5467,1,0,0:0:0:0:
402,192,5467,1,0,0:0:0:0:
329,192,5569,1,0,0:0:0:0:
109,192,5672,1,0,0:0:0:0:
475,192,5672,1,0,0:0:0:0:
256,192,5672,1,0,0:0:0:0:
329,192,5774,1,0,0:0:0:0:
402,192,5877,1,0,0:0:0:0:
36,192,5877,1,0,0:0:0:0:
182,192,5877,1,0,0:0:0:0:
256,192,5979,1,0,0:0:0:0:
475,192,5979,1,0,0:0:0:0:
182,192,6082,1,0,0:0:0:0:
36,192,6082,1,0,0:0:0:0:
402,192,6082,1,0,0:0:0:0:
256,192,6184,1,0,0:0:0:0:
109,192,6184,1,0,0:0:0:0:
329,192,6287,1,0,0:0:0:0:
182,192,6287,1,0,0:0:0:0:
475,192,6287,1,0,0:0:0:0:
402,192,6287,1,0,0:0:0:0:
109,192,6389,1,0,0:0:0:0:
36,192,6492,1,0,0:0:0:0:
256,192,6492,1,0,0:0:0:0:
402,192,6492,1,0,0:0:0:0:
109,192,6594,1,0,0:0:0:0:
182,192,6697,1,0,0:0:0:0:
329,192,6697,1,0,0:0:0:0:
475,192,6697,1,0,0:0:0:0:
36,192,6799,1,0,0:0:0:0:
109,192,6799,1,0,0:0:0:0:
256,192,6902,1,0,0:0:0:0:
402,192,6902,1,0,0:0:0:0:
109,192,7004,1,0,0:0:0:0:
182,192,7004,1,0,0:0:0:0:
329,192,7107,1,0,0:0:0:0:
475,192,7107,1,0,0:0:0:0:
36,192,7107,1,0,0:0:0:0:
182,192,7210,1,0,0:0:0:0:
256,192,7210,1,0,0:0:0:0:
402,192,7312,1,0,0:0:0:0:
36,192,7312,1,0,0:0:0:0:
109,192,7312,1,0,0:0:0:0:
256,192,7415,1,0,0:0:0:0:
329,192,7415,1,0,0:0:0:0:
109,192,7517,1,0,0:0:0:0:
182,192,7517,1,0,0:0:0:0:
475,192,7517,1,0,0:0:0:0:
329,192,7620,1,0,0:0:0:0:
402,192,7620,1,0,0:0:0:0:
182,192,7722,1,0,0:0:0:0:
256,192,7722,1,0,0:0:0:0:
36,192,7722,1,0,0:0:0:0:
402,192,7825,1,0,0:0:0:0:
475,192,7825,1,0,0:0:0:0:
256,192,7927,1,0,0:0:0:0:
329,192,7927,1,0,0:0:0:0:
109,192,7927,1,0,0:0:0:0:
475,192,8030,1,0,0:0:0:0:
36,192,8030,1,0,0:0:0:0:
329,192,8132,1,0,0:0:0:0:
402,192,8132,1,0,0:0:0:0:
182,192,8132,1,0,0:0:0:0:
109,192,8235,1,0,0:0:0:0:
36,192,8235,1,0,0:0:0:0:
475,192,8337,1,0,0:0:0:0:
402,192,8337,1,0,0:0:0:0:
256,192,8337,1,0,0:0:0:0:
329,192,8440,1,0,0:0:0:0:
36,192,8542,1,0,0:0:0:0:
182,192,8542,1,0,0:0:0:0:
402,192,8542,1,0,0:0:0:0:
256,192,8645,1,0,0:0:0:0:
329,192,8747,1,0,0:0:0:0:
475,192,8747,1,0,0:0:0:0:
36,192,8747,1,0,0:0:0:0:
109,192,8747,1,0,0:0:0:0:
182,192,8850,1,0,0:0:0:0:
402,192,8953,1,0,0:0:0:0:
36,192,8953,1,0,0:0:0:0:
256,192,8953,1,0,0:0:0:0:
182,192,9055,1,0,0:0:0:0:
109,192,9158,1,0,0:0:0:0:
475,192,9158,1,0,0:0:0:0:
329,192,9158,1,0,0:0:0:0:
256,192,9260,1,0,0:0:0:0:
36,192,9260,1,0,0:0:0:0:
329,192,9363,1,0,0:0:0:0:
475,192,9363,1,0,0:0:0:0:
109,192,9363,1,0,0:0:0:0:
256,192,9465,1,0,0:0:0:0:
402,192,9465,1,0,0:0:0:0:
182,192,9568,1,0,0:0:0:0:
329,192,9568,1,0,0:0:0:0:
36,192,9568,1,0,0:0:0:0:
109,192,9568,1,0,0:0:0:0:
402,192,9670,1,0,0:0:0:0:
475,192,9773,1,0,0:0:0:0:
256,192,9773,1,0,0:0:0:0:
109,192,9773,1,0,0:0:0:0:
402,192,9875,1,0,0:0:0:0:
36,192,9978,1,0,0:0:0:0:
329,192,9978,1,0,0:0:0:0:
182,192,9978,1,0,0:0:0:0:
402,192,10080,1,0,0:0:0:0:
109,192,10080,1,0,0:0:0:0:
256,192,10183,1,0,0:0:0:0:
475,192,10183,1,0,0:0:0:0:
329,192,10183,1,0,0:0:0:0:
36,192,10183,1,0,0:0:0:0:
182,192,10285,1,0,0:0:0:0:
109,192,10285,1,0,0:0:0:0:
256,192,10388,1,0,0:0:0:0:
402,192,10388,1,0,0:0:0:0:
475,192,10388,1,0,0:0:0:0:
36,192,10388,1,0,0:0:0:0:
109,192,10490,1,0,0:0:0:0:
182,192,10490,1,0,0:0:0:0:
475,192,10593,1,0,0:0:0:0:
329,192,10593,1,0,0:0:0:0:
36,192,10593,1,0,0:0:0:0:
256,192,10696,1,0,0:0:0:0:
182,192,10696,1,0,0:0:0:0:
36,192,10798,1,0,0:0:0:0:
109,192,10798,1,0,0:0:0:0:
329,192,10798,1,0,0:0:0:0:
475,192,10798,1,0,0:0:0:0:
256,192,10901,1,0,0:0:0:0:
402,192,10901,1,0,0:0:0:0:
329,192,11003,1,0,0:0:0:0:
109,192,11003,1,0,0:0:0:0:
182,192,11003,1,0,0:0:0:0:
36,192,11208,1,0,0:0:0:0:
256,192,11208,1,0,0:0:0:0:
402,192,11208,1,0,0:0:0:0:
475,192,11208,1,0,0:0:0:0:
109,192,11208,1,0,0:0:0:0:
329,192,11413,1,0,0:0:0:0:
402,192,11413,1,0,0:0:0:0:
182,192,11413,1,0,0:0:0:0:
109,192,11413,1,0,0:0:0:0:
475,192,11618,1,0,0:0:0:0:
36,192,11618,1,0,0:0:0:0:
329,192,11618,1,0,0:0:0:0:
109,192,11618,1,0,0:0:0:0:
256,192,11721,1,0,0:0:0:0:
36,192,11823,1,0,0:0:0:0:
402,192,11823,1,0,0:0:0:0:
182,192,11823,1,0,0:0:0:0:
256,192,11926,1,0,0:0:0:0:
329,192,12028,1,0,0:0:0:0:
475,192,12028,1,0,0:0:0:0:
36,192,12028,1,0,0:0:0:0:
109,192,12028,1,0,0:0:0:0:
182,192,12131,1,0,0:0:0:0:
402,192,12233,1,0,0:0:0:0:
36,192,12233,1,0,0:0:0:0:
256,192,12233,1,0,0:0:0:0:
182,192,12336,1,0,0:0:0:0:
109,192,12439,1,0,0:0:0:0:
475,192,12439,1,0,0:0:0:0:
329,192,12439,1,0,0:0:0:0:
256,192,12541,1,0,0:0:0:0:
36,192,12541,1,0,0:0:0:0:
329,192,12644,1,0,0:0:0:0:
475,192,12644,1,0,0:0:0:0:
109,192,12644,1,0,0:0:0:0:
256,192,12746,1,0,0:0:0:0:
402,192,12746,1,0,0:0:0:0:
182,192,12849,1,0,0:0:0:0:
329,192,12849,1,0,0:0:0:0:
36,192,12849,1,0,0:0:0:0:
109,192,12849,1,0,0:0:0:0:
402,192,12951,1,0,0:0:0:0:
475,192,13054,1,0,0:0:0:0:
256,192,13054,1,0,0:0:0:0:
109,192,13054,1,0,0:0:0:0:
402,192,13156,1,0,0:0:0:0:
329,192,13259,1,0,0:0:0:0:
182,192,13259,1,0,0:0:0:0:
36,192,13259,1,0,0:0:0:0:
475,192,13361,1,0,0:0:0:0:
402,192,13361,1,0,0:0:0:0:
256,192,13464,1,0,0:0:0:0:
109,192,13464,1,0,0:0:0:0:
402,192,13566,1,0,0:0:0:0:
329,192,13566,1,0,0:0:0:0:
182,192,13669,1,0,0:0:0:0:
36,192,13669,1,0,0:0:0:0:
475,192,13669,1,0,0:0:0:0:
329,192,13771,1,0,0:0:0:0:
256,192,13771,1,0,0:0:0:0:
109,192,13874,1,0,0:0:0:0:
475,192,13874,1,0,0:0:0:0:
402,192,13874,1,0,0:0:0:0:
256,192,13976,1,0,0:0:0:0:
182,192,13976,1,0,0:0:0:0:
402,192,14079,1,0,0:0:0:0:
329,192,14079,1,0,0:0:0:0:
36,192,14079,1,0,0:0:0:0:
182,192,14182,1,0,0:0:0:0:
109,192,14182,1,0,0:0:0:0:
329,192,14284,1,0,0:0:0:0:
256,192,14284,1,0,0:0:0:0:
475,192,14284,1,0,0:0:0:0:
109,192,14387,1,0,0:0:0:0:
36,192,14387,1,0,0:0:0:0:
256,192,14489,1,0,0:0:0:0:
182,192,14489,1,0,0:0:0:0:
402,192,14489,1,0,0:0:0:0:
36,192,14592,1,0,0:0:0:0:
475,192,14592,1,0,0:0:0:0:
182,192,14694,1,0,0:0:0:0:
109,192,14694,1,0,0:0:0:0:
329,192,14694,1,0,0:0:0:0:
402,192,14797,1,0,0:0:0:0:
475,192,14797,1,0,0:0:0:0:
36,192,14899,1,0,0:0:0:0:
109,192,14899,1,0,0:0:0:0:
256,192,14899,1,0,0:0:0:0:
182,192,15002,1,0,0:0:0:0:
475,192,15104,1,0,0:0:0:0:
109,192,15104,1,0,0:0:0:0:
329,192,15104,1,0,0:0:0:0:
256,192,15207,1,0,0:0:0:0:
182,192,15309,1,0,0:0:0:0:
36,192,15309,1,0,0:0:0:0:
475,192,15309,1,0,0:0:0:0:
402,192,15309,1,0,0:0:0:0:
329,192,15412,1,0,0:0:0:0:
109,192,15514,1,0,0:0:0:0:
475,192,15514,1,0,0:0:0:0:
256,192,15514,1,0,0:0:0:0:
329,192,15617,1,0,0:0:0:0:
402,192,15719,1,0,0:0:0:0:
36,192,15719,1,0,0:0:0:0:
182,192,15719,1,0,0:0:0:0:
256,192,15822,1,0,0:0:0:0:
475,192,15822,1,0,0:0:0:0:
182,192,15925,1,0,0:0:0:0:
36,192,15925,1,0,0:0:0:0:
402,192,15925,1,0,0:0:0:0:
256,192,16027,1,0,0:0:0:0:
109,192,16027,1,0,0:0:0:0:
329,192,16130,1,0,0:0:0:0:
182,192,16130,1,0,0:0:0:0:
475,192,16130,1,0,0:0:0:0:
402,192,16130,1,0,0:0:0:0:
109,192,16232,1,0,0:0:0:0:
36,192,16335,1,0,0:0:0:0:
256,192,16335,1,0,0:0:0:0:
402,192,16335,1,0,0:0:0:0:
109,192,16437,1,0,0:0:0:0:
475,192,16540,1,0,0:0:0:0:
182,192,16540,1,0,0:0:0:0:
329,192,16540,1,0,0:0:0:0:
109,192,16642,1,0,0:0:0:0:
475,192,16745,1,0,0:0:0:0:
329,192,16745,1,0,0:0:0:0:
36,192,16745,1,0,0:0:0:0:
256,192,16847,1,0,0:0:0:0:
402,192,16847,1,0,0:0:0:0:
36,192,16950,1,0,0:0:0:0:
182,192,16950,1,0,0:0:0:0:
329,192,16950,1,0,0:0:0:0:
402,192,17052,1,0,0:0:0:0:
36,192,17155,1,0,0:0:0:0:
182,192,17155,1,0,0:0:0:0:
475,192,17155,1,0,0:0:0:0:
109,192,17257,1,0,0:0:0:0:
256,192,17257,1,0,0:0:0:0:
182,192,17360,1,0,0:0:0:0:
329,192,17360,1,0,0:0:0:0:
475,192,17360,1,0,0:0:0:0:
36,192,17565,1,0,0:0:0:0:
256,192,17565,1,0,0:0:0:0:
402,192,17565,1,0,0:0:0:0:
182,192,17565,1,0,0:0:0:0:
256,192,17770,1,0,0:0:0:0:
109,192,17770,1,0,0:0:0:0:
329,192,17770,128,0,18180:0:0:0:0:
475,192,17770,128,0,18180:0:0:0:0:
109,192,18180,1,0,0:0:0:0:
36,192,18180,1,0,0:0:0:0:
256,192,18180,1,0,0:0:0:0:
402,192,18180,1,0,0:0:0:0:
182,192,18385,1,0,0:0:0:0:
329,192,18385,1,0,0:0:0:0:
475,192,18385,1,0,0:0:0:0:
402,192,18590,1,0,0:0:0:0:
475,192,18590,1,0,0:0:0:0:
256,192,18590,1,0,0:0:0:0:
109,192,18590,1,0,0:0:0:0:
36,192,18590,1,0,0:0:0:0:
182,192,18795,1,0,0:0:0:0:
329,192,18795,1,0,0:0:0:0:
36,192,18795,1,0,0:0:0:0:
256,192,19000,1,0,0:0:0:0:
402,192,19000,1,0,0:0:0:0:
475,192,19205,1,0,0:0:0:0:
36,192,19205,1,0,0:0:0:0:
182,192,19205,1,0,0:0:0:0:
329,192,19205,1,0,0:0:0:0:
36,192,19410,1,0,0:0:0:0:
109,192,19410,1,0,0:0:0:0:
256,192,19410,1,0,0:0:0:0:
329,192,19410,1,0,0:0:0:0:
475,192,19410,1,0,0:0:0:0:
182,192,19616,1,0,0:0:0:0:
329,192,19616,1,0,0:0:0:0:
475,192,19616,1,0,0:0:0:0:
109,192,19718,1,0,0:0:0:0:
36,192,19821,1,0,0:0:0:0:
256,192,19821,1,0,0:0:0:0:
475,192,19821,1,0,0:0:0:0:
402,192,19821,1,0,0:0:0:0:
182,192,20026,1,0,0:0:0:0:
329,192,20026,1,0,0:0:0:0:
36,192,20026,1,0,0:0:0:0:
109,192,20231,1,0,0:0:0:0:
256,192,20231,1,0,0:0:0:0:
402,192,20231,1,0,0:0:0:0:
475,192,20231,1,0,0:0:0:0:
36,192,20231,1,0,0:0:0:0:
182,192,20436,1,0,0:0:0:0:
329,192,20436,1,0,0:0:0:0:
475,192,20436,1,0,0:0:0:0:
256,192,20641,1,0,0:0:0:0:
109,192,20641,1,0,0:0:0:0:
475,192,20846,1,0,0:0:0:0:
402,192,20846,1,0,0:0:0:0:
182,192,20846,1,0,0:0:0:0:
36,192,20846,1,0,0:0:0:0:
36,192,21051,1,0,0:0:0:0:
109,192,21051,1,0,0:0:0:0:
256,192,21051,1,0,0:0:0:0:
329,192,21051,1,0,0:0:0:0:
475,192,21051,1,0,0:0:0:0:
402,192,21256,1,0,0:0:0:0:
182,192,21256,1,0,0:0:0:0:
329,192,21256,1,0,0:0:0:0:
36,192,21256,1,0,0:0:0:0:
402,192,21461,1,0,0:0:0:0:
475,192,21461,1,0,0:0:0:0:
256,192,21461,1,0,0:0:0:0:
109,192,21461,1,0,0:0:0:0:
329,192,21666,1,0,0:0:0:0:
182,192,21666,1,0,0:0:0:0:
36,192,21666,1,0,0:0:0:0:
109,192,21871,1,0,0:0:0:0:
36,192,21871,1,0,0:0:0:0:
256,192,21871,1,0,0:0:0:0:
402,192,21871,1,0,0:0:0:0:
475,192,21871,1,0,0:0:0:0:
329,192,22076,1,0,0:0:0:0:
182,192,22076,1,0,0:0:0:0:
475,192,22076,1,0,0:0:0:0:
256,192,22281,1,0,0:0:0:0:
109,192,22281,1,0,0:0:0:0:
36,192,22486,1,0,0:0:0:0:
475,192,22486,1,0,0:0:0:0:
329,192,22486,1,0,0:0:0:0:
182,192,22486,1,0,0:0:0:0:
475,192,22691,1,0,0:0:0:0:
402,192,22691,1,0,0:0:0:0:
256,192,22691,1,0,0:0:0:0:
182,192,22691,1,0,0:0:0:0:
36,192,22691,1,0,0:0:0:0:
329,192,22896,1,0,0:0:0:0:
182,192,22896,1,0,0:0:0:0:
36,192,22896,1,0,0:0:0:0:
402,192,22999,1,0,0:0:0:0:
475,192,23102,1,0,0:0:0:0:
256,192,23102,1,0,0:0:0:0:
36,192,23102,1,0,0:0:0:0:
109,192,23102,1,0,0:0:0:0:
329,192,23307,1,0,0:0:0:0:
182,192,23307,1,0,0:0:0:0:
475,192,23307,1,0,0:0:0:0:
402,192,23512,1,0,0:0:0:0:
256,192,23512,1,0,0:0:0:0:
109,192,23512,1,0,0:0:0:0:
36,192,23512,1,0,0:0:0:0:
475,192,23512,1,0,0:0:0:0:
329,192,23717,1,0,0:0:0:0:
182,192,23717,1,0,0:0:0:0:
36,192,23717,1,0,0:0:0:0:
256,192,23922,1,0,0:0:0:0:
402,192,23922,1,0,0:0:0:0:
36,192,24127,1,0,0:0:0:0:
109,192,24127,1,0,0:0:0:0:
329,192,24127,1,0,0:0:0:0:
475,192,24127,1,0,0:0:0:0:
475,192,24332,1,0,0:0:0:0:
402,192,24332,1,0,0:0:0:0:
256,192,24332,1,0,0:0:0:0:
182,192,24332,1,0,0:0:0:0:
36,192,24332,1,0,0:0:0:0:
109,192,24537,1,0,0:0:0:0:
329,192,24537,1,0,0:0:0:0:
182,192,24537,1,0,0:0:0:0:
475,192,24537,1,0,0:0:0:0:
256,192,24742,1,0,0:0:0:0:
109,192,24742,1,0,0:0:0:0:
36,192,24742,1,0,0:0:0:0:
402,192,24742,1,0,0:0:0:0:
182,192,24947,1,0,0:0:0:0:
329,192,24947,1,0,0:0:0:0:
475,192,24947,1,0,0:0:0:0:
402,192,25152,1,0,0:0:0:0:
256,192,25152,1,0,0:0:0:0:
109,192,25152,1,0,0:0:0:0:
36,192,25152,1,0,0:0:0:0:
475,192,25152,1,0,0:0:0:0:
475,192,25357,1,0,0:0:0:0:
329,192,25357,1,0,0:0:0:0:
182,192,25357,1,0,0:0:0:0:
36,192,25562,1,0,0:0:0:0:
256,192,25562,1,0,0:0:0:0:
182,192,25767,1,0,0:0:0:0:
329,192,25767,1,0,0:0:0:0:
475,192,25767,1,0,0:0:0:0:
109,192,25767,1,0,0:0:0:0:
36,192,25972,1,0,0:0:0:0:
109,192,25972,1,0,0:0:0:0:
256,192,25972,1,0,0:0:0:0:
402,192,25972,1,0,0:0:0:0:
475,192,25972,1,0,0:0:0:0:
182,192,26177,1,0,0:0:0:0:
329,192,26177,1,0,0:0:0:0:
475,192,26177,1,0,0:0:0:0:
109,192,26280,1,0,0:0:0:0:
36,192,26382,1,0,0:0:0:0:
256,192,26382,1,0,0:0:0:0:
402,192,26382,1,0,0:0:0:0:
475,192,26382,1,0,0:0:0:0:
329,192,26588,1,0,0:0:0:0:
182,192,26588,1,0,0:0:0:0:
36,192,26588,1,0,0:0:0:0:
109,192,26793,1,0,0:0:0:0:
256,192,26793,1,0,0:0:0:0:
402,192,26793,1,0,0:0:0:0:
475,192,26793,1,0,0:0:0:0:
36,192,26793,1,0,0:0:0:0:
182,192,26998,1,0,0:0:0:0:
329,192,26998,1,0,0:0:0:0:
475,192,26998,1,0,0:0:0:0:
256,192,27203,1,0,0:0:0:0:
109,192,27203,1,0,0:0:0:0:
182,192,27408,1,0,0:0:0:0:
36,192,27408,1,0,0:0:0:0:
329,192,27408,1,0,0:0:0:0:
402,192,27408,1,0,0:0:0:0:
475,192,27613,1,0,0:0:0:0:
402,192,27613,1,0,0:0:0:0:
256,192,27613,1,0,0:0:0:0:
109,192,27613,1,0,0:0:0:0:
36,192,27613,1,0,0:0:0:0:
329,192,27818,1,0,0:0:0:0:
402,192,27818,1,0,0:0:0:0:
182,192,27818,1,0,0:0:0:0:
36,192,27818,1,0,0:0:0:0:
402,192,28023,1,0,0:0:0:0:
475,192,28023,1,0,0:0:0:0:
256,192,28023,1,0,0:0:0:0:
109,192,28023,1,0,0:0:0:0:
182,192,28228,1,0,0:0:0:0:
329,192,28228,1,0,0:0:0:0:
36,192,28228,1,0,0:0:0:0:
36,192,28433,1,0,0:0:0:0:
109,192,28433,1,0,0:0:0:0:
256,192,28433,1,0,0:0:0:0:
475,192,28433,1,0,0:0:0:0:
329,192,28433,1,0,0:0:0:0:
182,192,28638,1,0,0:0:0:0:
329,192,28638,1,0,0:0:0:0:
36,192,28638,1,0,0:0:0:0:
402,192,28843,1,0,0:0:0:0:
256,192,28843,1,0,0:0:0:0:
182,192,29048,1,0,0:0:0:0:
329,192,29048,1,0,0:0:0:0:
475,192,29048,1,0,0:0:0:0:
109,192,29048,1,0,0:0:0:0:
402,192,29253,1,0,0:0:0:0:
475,192,29253,1,0,0:0:0:0:
256,192,29253,1,0,0:0:0:0:
182,192,29253,1,0,0:0:0:0:
36,192,29253,1,0,0:0:0:0:
329,192,29458,1,0,0:0:0:0:
182,192,29458,1,0,0:0:0:0:
475,192,29458,1,0,0:0:0:0:
109,192,29561,1,0,0:0:0:0:
36,192,29663,1,0,0:0:0:0:
402,192,29663,1,0,0:0:0:0:
475,192,29663,1,0,0:0:0:0:
256,192,29663,1,0,0:0:0:0:
182,192,29868,1,0,0:0:0:0:
329,192,29868,1,0,0:0:0:0:
402,192,29868,1,0,0:0:0:0:
36,192,30074,1,0,0:0:0:0:
109,192,30074,1,0,0:0:0:0:
256,192,30074,1,0,0:0:0:0:
475,192,30074,1,0,0:0:0:0:
329,192,30279,1,0,0:0:0:0:
182,192,30279,1,0,0:0:0:0:
109,192,30279,1,0,0:0:0:0:
256,192,30484,1,0,0:0:0:0:
402,192,30484,1,0,0:0:0:0:
475,192,30484,1,0,0:0:0:0:
36,192,30484,1,0,0:0:0:0:
329,192,30689,1,0,0:0:0:0:
182,192,30689,1,0,0:0:0:0:
402,192,30689,1,0,0:0:0:0:
109,192,30894,1,0,0:0:0:0:
36,192,30894,1,0,0:0:0:0:
256,192,30894,1,0,0:0:0:0:
475,192,30894,1,0,0:0:0:0:
109,192,31099,1,0,0:0:0:0:
182,192,31099,1,0,0:0:0:0:
329,192,31099,1,0,0:0:0:0:
402,192,31304,1,0,0:0:0:0:
475,192,31304,1,0,0:0:0:0:
182,192,31304,1,0,0:0:0:0:
256,192,31304,1,0,0:0:0:0:
36,192,31304,1,0,0:0:0:0:
109,192,31509,1,0,0:0:0:0:
329,192,31509,1,0,0:0:0:0:
182,192,31714,1,0,0:0:0:0:
402,192,31714,1,0,0:0:0:0:
109,192,31919,1,0,0:0:0:0:
329,192,31919,1,0,0:0:0:0:
256,192,32124,1,0,0:0:0:0:
36,192,32124,1,0,0:0:0:0:
402,192,32124,1,0,0:0:0:0:
182,192,32124,128,0,32432:0:0:0:0:
256,192,32432,1,0,0:0:0:0:
475,192,32432,1,0,0:0:0:0:
109,192,32432,1,0,0:0:0:0:
329,192,32432,128,0,32739:0:0:0:0:
256,192,32739,1,0,0:0:0:0:
402,192,32739,1,0,0:0:0:0:
36,192,32739,1,0,0:0:0:0:
182,192,32739,128,0,33765:0:0:0:0:
329,192,33149,1,0,0:0:0:0:
475,192,33149,1,0,0:0:0:0:
402,192,33354,1,0,0:0:0:0:
256,192,33354,1,0,0:0:0:0:
329,192,33560,1,0,0:0:0:0:
475,192,33560,1,0,0:0:0:0:
402,192,33765,1,0,0:0:0:0:
256,192,33765,1,0,0:0:0:0:
109,192,33765,1,0,0:0:0:0:
36,192,33765,128,0,34072:0:0:0:0:
402,192,34072,1,0,0:0:0:0:
256,192,34072,1,0,0:0:0:0:
109,192,34072,1,0,0:0:0:0:
475,192,34072,128,0,34380:0:0:0:0:
256,192,34380,1,0,0:0:0:0:
402,192,34380,1,0,0:0:0:0:
109,192,34380,1,0,0:0:0:0:
36,192,34380,128,0,35405:0:0:0:0:
182,192,34790,128,0,35405:0:0:0:0:
329,192,34995,128,0,35405:0:0:0:0:
475,192,35200,1,0,0:0:0:0:
109,192,35200,1,0,0:0:0:0:
402,192,35200,1,0,0:0:0:0:
256,192,35302,1,0,0:0:0:0:
109,192,35405,1,0,0:0:0:0:
402,192,35405,1,0,0:0:0:0:
475,192,35405,1,0,0:0:0:0:
109,192,35713,1,0,0:0:0:0:
329,192,35713,1,0,0:0:0:0:
182,192,35815,128,0,36020:0:0:0:0:
402,192,35815,128,0,36020:0:0:0:0:
109,192,36020,1,0,0:0:0:0:
329,192,36020,1,0,0:0:0:0:
256,192,36123,1,0,0:0:0:0:
475,192,36123,1,0,0:0:0:0:
329,192,36225,1,0,0:0:0:0:
109,192,36225,1,0,0:0:0:0:
182,192,36328,1,0,0:0:0:0:
402,192,36328,1,0,0:0:0:0:
256,192,36430,1,0,0:0:0:0:
475,192,36430,1,0,0:0:0:0:
109,192,36533,1,0,0:0:0:0:
329,192,36533,1,0,0:0:0:0:
256,192,36635,1,0,0:0:0:0:
475,192,36635,1,0,0:0:0:0:
182,192,36738,1,0,0:0:0:0:
402,192,36738,1,0,0:0:0:0:
109,192,36840,1,0,0:0:0:0:
329,192,36840,1,0,0:0:0:0:
256,192,36943,1,0,0:0:0:0:
475,192,36943,1,0,0:0:0:0:
402,192,37045,1,0,0:0:0:0:
182,192,37045,1,0,0:0:0:0:
36,192,37045,128,0,37353:0:0:0:0:
109,192,37353,1,0,0:0:0:0:
256,192,37353,1,0,0:0:0:0:
475,192,37353,128,0,37661:0:0:0:0:
182,192,37661,1,0,0:0:0:0:
402,192,37661,1,0,0:0:0:0:
36,192,37661,1,0,0:0:0:0:
109,192,37866,1,0,0:0:0:0:
329,192,37866,1,0,0:0:0:0:
402,192,38071,1,0,0:0:0:0:
182,192,38071,1,0,0:0:0:0:
329,192,38276,1,0,0:0:0:0:
109,192,38276,1,0,0:0:0:0:
402,192,38481,1,0,0:0:0:0:
182,192,38481,1,0,0:0:0:0:
256,192,38686,1,0,0:0:0:0:
475,192,38686,1,0,0:0:0:0:
109,192,38686,1,0,0:0:0:0:
329,192,38686,128,0,38994:0:0:0:0:
256,192,38994,1,0,0:0:0:0:
36,192,38994,1,0,0:0:0:0:
402,192,38994,1,0,0:0:0:0:
182,192,38994,128,0,39301:0:0:0:0:
256,192,39301,1,0,0:0:0:0:
109,192,39301,1,0,0:0:0:0:
475,192,39301,1,0,0:0:0:0:
329,192,39301,128,0,40326:0:0:0:0:
182,192,39711,1,0,0:0:0:0:
36,192,39711,1,0,0:0:0:0:
109,192,39916,1,0,0:0:0:0:
256,192,39916,1,0,0:0:0:0:
182,192,40121,1,0,0:0:0:0:
36,192,40121,1,0,0:0:0:0:
109,192,40326,1,0,0:0:0:0:
256,192,40326,1,0,0:0:0:0:
402,192,40326,1,0,0:0:0:0:
475,192,40326,128,0,40634:0:0:0:0:
109,192,40634,1,0,0:0:0:0:
256,192,40634,1,0,0:0:0:0:
402,192,40634,1,0,0:0:0:0:
36,192,40634,128,0,40942:0:0:0:0:
256,192,40942,1,0,0:0:0:0:
109,192,40942,1,0,0:0:0:0:
402,192,40942,1,0,0:0:0:0:
475,192,40942,128,0,41967:0:0:0:0:
329,192,41352,128,0,41967:0:0:0:0:
182,192,41557,128,0,41967:0:0:0:0:
36,192,41762,128,0,41967:0:0:0:0:
402,192,41967,1,0,0:0:0:0:
109,192,41967,1,0,0:0:0:0:
329,192,42069,1,0,0:0:0:0:
182,192,42069,1,0,0:0:0:0:
109,192,42172,1,0,0:0:0:0:
256,192,42172,1,0,0:0:0:0:
402,192,42274,1,0,0:0:0:0:
329,192,42274,1,0,0:0:0:0:
182,192,42377,1,0,0:0:0:0:
109,192,42377,1,0,0:0:0:0:
329,192,42480,1,0,0:0:0:0:
256,192,42480,1,0,0:0:0:0:
109,192,42582,1,0,0:0:0:0:
402,192,42582,1,0,0:0:0:0:
256,192,42685,1,0,0:0:0:0:
182,192,42685,1,0,0:0:0:0:
329,192,42787,1,0,0:0:0:0:
475,192,42787,1,0,0:0:0:0:
109,192,42787,1,0,0:0:0:0:
36,192,42787,1,0,0:0:0:0:
109,192,42890,1,0,0:0:0:0:
36,192,42890,1,0,0:0:0:0:
329,192,42890,1,0,0:0:0:0:
475,192,42890,1,0,0:0:0:0:
402,192,42992,1,0,0:0:0:0:
256,192,42992,1,0,0:0:0:0:
182,192,42992,1,0,0:0:0:0:
402,192,43197,1,0,0:0:0:0:
256,192,43197,1,0,0:0:0:0:
182,192,43197,1,0,0:0:0:0:
475,192,43402,1,0,0:0:0:0:
402,192,43402,1,0,0:0:0:0:
182,192,43402,1,0,0:0:0:0:
36,192,43402,1,0,0:0:0:0:
475,192,43505,1,0,0:0:0:0:
402,192,43505,1,0,0:0:0:0:
182,192,43505,1,0,0:0:0:0:
36,192,43505,1,0,0:0:0:0:
109,192,43607,1,0,0:0:0:0:
256,192,43607,1,0,0:0:0:0:
329,192,43607,1,0,0:0:0:0:
256,192,43812,1,0,0:0:0:0:
329,192,43812,1,0,0:0:0:0:
109,192,43812,1,0,0:0:0:0:
109,192,44017,1,0,0:0:0:0:
36,192,44017,1,0,0:0:0:0:
329,192,44017,1,0,0:0:0:0:
475,192,44017,1,0,0:0:0:0:
256,192,44017,1,0,0:0:0:0:
256,192,44428,5,0,0:0:0:0:
182,192,44428,1,0,0:0:0:0:
402,192,44428,1,0,0:0:0:0:
475,192,44428,1,0,0:0:0:0:
109,192,44530,1,0,0:0:0:0:
36,192,44530,1,0,0:0:0:0:
256,192,44633,1,0,0:0:0:0:
329,192,44633,1,0,0:0:0:0:
475,192,44633,1,0,0:0:0:0:
109,192,44735,1,0,0:0:0:0:
182,192,44735,1,0,0:0:0:0:
329,192,44838,1,0,0:0:0:0:
402,192,44838,1,0,0:0:0:0:
36,192,44838,1,0,0:0:0:0:
182,192,44940,1,0,0:0:0:0:
256,192,44940,1,0,0:0:0:0:
402,192,45043,1,0,0:0:0:0:
475,192,45043,1,0,0:0:0:0:
109,192,45043,1,0,0:0:0:0:
256,192,45145,1,0,0:0:0:0:
329,192,45145,1,0,0:0:0:0:
182,192,45248,1,0,0:0:0:0:
475,192,45248,1,0,0:0:0:0:
36,192,45248,1,0,0:0:0:0:
329,192,45350,1,0,0:0:0:0:
402,192,45350,1,0,0:0:0:0:
109,192,45453,1,0,0:0:0:0:
256,192,45453,1,0,0:0:0:0:
36,192,45453,1,0,0:0:0:0:
402,192,45555,1,0,0:0:0:0:
475,192,45555,1,0,0:0:0:0:
182,192,45658,1,0,0:0:0:0:
329,192,45658,1,0,0:0:0:0:
109,192,45658,1,0,0:0:0:0:
36,192,45658,1,0,0:0:0:0:
402,192,45760,1,0,0:0:0:0:
256,192,45760,1,0,0:0:0:0:
475,192,45863,1,0,0:0:0:0:
109,192,45863,1,0,0:0:0:0:
329,192,45863,1,0,0:0:0:0:
182,192,45966,1,0,0:0:0:0:
475,192,46068,1,0,0:0:0:0:
36,192,46068,1,0,0:0:0:0:
256,192,46068,1,0,0:0:0:0:
402,192,46068,1,0,0:0:0:0:
182,192,46171,1,0,0:0:0:0:
109,192,46273,1,0,0:0:0:0:
329,192,46273,1,0,0:0:0:0:
402,192,46273,1,0,0:0:0:0:
256,192,46376,1,0,0:0:0:0:
182,192,46478,1,0,0:0:0:0:
36,192,46478,1,0,0:0:0:0:
402,192,46478,1,0,0:0:0:0:
475,192,46478,1,0,0:0:0:0:
256,192,46581,1,0,0:0:0:0:
109,192,46581,1,0,0:0:0:0:
329,192,46683,1,0,0:0:0:0:
402,192,46683,1,0,0:0:0:0:
182,192,46683,1,0,0:0:0:0:
109,192,46786,1,0,0:0:0:0:
256,192,46888,1,0,0:0:0:0:
36,192,46888,1,0,0:0:0:0:
402,192,46888,1,0,0:0:0:0:
475,192,46888,1,0,0:0:0:0:
182,192,46991,1,0,0:0:0:0:
329,192,46991,1,0,0:0:0:0:
109,192,47093,1,0,0:0:0:0:
256,192,47093,1,0,0:0:0:0:
36,192,47093,1,0,0:0:0:0:
329,192,47196,1,0,0:0:0:0:
475,192,47298,1,0,0:0:0:0:
402,192,47298,1,0,0:0:0:0:
182,192,47298,1,0,0:0:0:0:
36,192,47298,1,0,0:0:0:0:
256,192,47401,1,0,0:0:0:0:
109,192,47401,1,0,0:0:0:0:
402,192,47503,1,0,0:0:0:0:
329,192,47503,1,0,0:0:0:0:
182,192,47503,1,0,0:0:0:0:
109,192,47606,1,0,0:0:0:0:
36,192,47709,1,0,0:0:0:0:
329,192,47709,1,0,0:0:0:0:
475,192,47709,1,0,0:0:0:0:
256,192,47709,1,0,0:0:0:0:
182,192,47811,1,0,0:0:0:0:
109,192,47914,1,0,0:0:0:0:
329,192,47914,1,0,0:0:0:0:
36,192,47914,1,0,0:0:0:0:
402,192,48016,1,0,0:0:0:0:
475,192,48119,1,0,0:0:0:0:
256,192,48119,1,0,0:0:0:0:
182,192,48119,1,0,0:0:0:0:
36,192,48119,1,0,0:0:0:0:
329,192,48221,1,0,0:0:0:0:
402,192,48324,1,0,0:0:0:0:
475,192,48324,1,0,0:0:0:0:
182,192,48324,1,0,0:0:0:0:
109,192,48426,1,0,0:0:0:0:
329,192,48426,1,0,0:0:0:0:
36,192,48529,1,0,0:0:0:0:
256,192,48529,1,0,0:0:0:0:
475,192,48529,1,0,0:0:0:0:
182,192,48631,1,0,0:0:0:0:
402,192,48631,1,0,0:0:0:0:
475,192,48734,1,0,0:0:0:0:
256,192,48734,1,0,0:0:0:0:
36,192,48734,1,0,0:0:0:0:
329,192,48836,1,0,0:0:0:0:
109,192,48836,1,0,0:0:0:0:
182,192,48939,1,0,0:0:0:0:
475,192,48939,1,0,0:0:0:0:
402,192,48939,1,0,0:0:0:0:
256,192,49041,1,0,0:0:0:0:
329,192,49041,1,0,0:0:0:0:
402,192,49144,1,0,0:0:0:0:
109,192,49144,1,0,0:0:0:0:
182,192,49144,1,0,0:0:0:0:
256,192,49246,1,0,0:0:0:0:
329,192,49246,1,0,0:0:0:0:
182,192,49349,1,0,0:0:0:0:
36,192,49349,1,0,0:0:0:0:
402,192,49349,1,0,0:0:0:0:
475,192,49349,1,0,0:0:0:0:
329,192,49452,1,0,0:0:0:0:
256,192,49554,1,0,0:0:0:0:
109,192,49554,1,0,0:0:0:0:
475,192,49554,1,0,0:0:0:0:
402,192,49657,1,0,0:0:0:0:
329,192,49759,1,0,0:0:0:0:
36,192,49759,1,0,0:0:0:0:
182,192,49759,1,0,0:0:0:0:
109,192,49759,1,0,0:0:0:0:
256,192,49862,1,0,0:0:0:0:
402,192,49862,1,0,0:0:0:0:
329,192,49964,1,0,0:0:0:0:
475,192,49964,1,0,0:0:0:0:
109,192,49964,1,0,0:0:0:0:
182,192,50067,1,0,0:0:0:0:
256,192,50067,1,0,0:0:0:0:
402,192,50169,1,0,0:0:0:0:
475,192,50169,1,0,0:0:0:0:
36,192,50169,1,0,0:0:0:0:
109,192,50169,1,0,0:0:0:0:
256,192,50272,1,0,0:0:0:0:
329,192,50272,1,0,0:0:0:0:
182,192,50374,1,0,0:0:0:0:
109,192,50374,1,0,0:0:0:0:
475,192,50374,1,0,0:0:0:0:
256,192,50477,1,0,0:0:0:0:
329,192,50477,1,0,0:0:0:0:
109,192,50579,1,0,0:0:0:0:
36,192,50579,1,0,0:0:0:0:
475,192,50579,1,0,0:0:0:0:
402,192,50579,1,0,0:0:0:0:
182,192,50682,1,0,0:0:0:0:
256,192,50784,1,0,0:0:0:0:
329,192,50784,1,0,0:0:0:0:
36,192,50784,1,0,0:0:0:0:
109,192,50887,1,0,0:0:0:0:
182,192,50989,1,0,0:0:0:0:
256,192,50989,1,0,0:0:0:0:
402,192,50989,1,0,0:0:0:0:
475,192,50989,1,0,0:0:0:0:
36,192,51092,1,0,0:0:0:0:
109,192,51195,1,0,0:0:0:0:
182,192,51195,1,0,0:0:0:0:
329,192,51195,1,0,0:0:0:0:
402,192,51195,1,0,0:0:0:0:
475,192,51297,1,0,0:0:0:0:
36,192,51400,1,0,0:0:0:0:
109,192,51400,1,0,0:0:0:0:
256,192,51400,1,0,0:0:0:0:
329,192,51400,1,0,0:0:0:0:
475,192,51502,1,0,0:0:0:0:
182,192,51605,1,0,0:0:0:0:
109,192,51605,1,0,0:0:0:0:
329,192,51605,1,0,0:0:0:0:
402,192,51605,1,0,0:0:0:0:
36,192,51707,1,0,0:0:0:0:
182,192,51810,1,0,0:0:0:0:
256,192,51810,1,0,0:0:0:0:
402,192,51810,1,0,0:0:0:0:
475,192,51810,1,0,0:0:0:0:
329,192,51912,1,0,0:0:0:0:
109,192,51912,1,0,0:0:0:0:
256,192,52015,1,0,0:0:0:0:
36,192,52015,1,0,0:0:0:0:
475,192,52015,1,0,0:0:0:0:
402,192,52117,1,0,0:0:0:0:
182,192,52117,1,0,0:0:0:0:
329,192,52220,1,0,0:0:0:0:
109,192,52220,1,0,0:0:0:0:
36,192,52220,1,0,0:0:0:0:
256,192,52220,1,0,0:0:0:0:
475,192,52322,1,0,0:0:0:0:
109,192,52425,1,0,0:0:0:0:
182,192,52425,1,0,0:0:0:0:
402,192,52425,1,0,0:0:0:0:
329,192,52425,1,0,0:0:0:0:
36,192,52527,1,0,0:0:0:0:
182,192,52630,1,0,0:0:0:0:
256,192,52630,1,0,0:0:0:0:
402,192,52630,1,0,0:0:0:0:
475,192,52630,1,0,0:0:0:0:
36,192,52732,1,0,0:0:0:0:
109,192,52835,1,0,0:0:0:0:
182,192,52835,1,0,0:0:0:0:
329,192,52835,1,0,0:0:0:0:
402,192,52835,1,0,0:0:0:0:
475,192,52937,1,0,0:0:0:0:
109,192,53040,1,0,0:0:0:0:
36,192,53040,1,0,0:0:0:0:
329,192,53040,1,0,0:0:0:0:
256,192,53040,1,0,0:0:0:0:
402,192,53143,1,0,0:0:0:0:
182,192,53143,1,0,0:0:0:0:
475,192,53245,1,0,0:0:0:0:
256,192,53245,1,0,0:0:0:0:
36,192,53245,1,0,0:0:0:0:
109,192,53348,1,0,0:0:0:0:
329,192,53348,1,0,0:0:0:0:
182,192,53450,1,0,0:0:0:0:
402,192,53450,1,0,0:0:0:0:
475,192,53450,1,0,0:0:0:0:
256,192,53553,1,0,0:0:0:0:
36,192,53553,1,0,0:0:0:0:
329,192,53655,1,0,0:0:0:0:
109,192,53655,1,0,0:0:0:0:
402,192,53655,1,0,0:0:0:0:
182,192,53758,1,0,0:0:0:0:
256,192,53860,1,0,0:0:0:0:
36,192,53860,1,0,0:0:0:0:
329,192,53860,1,0,0:0:0:0:
475,192,53860,1,0,0:0:0:0:
109,192,53963,1,0,0:0:0:0:
182,192,53963,1,0,0:0:0:0:
256,192,54065,1,0,0:0:0:0:
475,192,54065,1,0,0:0:0:0:
36,192,54065,1,0,0:0:0:0:
329,192,54168,1,0,0:0:0:0:
402,192,54168,1,0,0:0:0:0:
182,192,54270,1,0,0:0:0:0:
256,192,54270,1,0,0:0:0:0:
475,192,54270,1,0,0:0:0:0:
36,192,54270,1,0,0:0:0:0:
329,192,54373,1,0,0:0:0:0:
402,192,54475,1,0,0:0:0:0:
109,192,54475,1,0,0:0:0:0:
182,192,54475,1,0,0:0:0:0:
329,192,54578,1,0,0:0:0:0:
256,192,54680,1,0,0:0:0:0:
109,192,54680,1,0,0:0:0:0:
36,192,54680,1,0,0:0:0:0:
475,192,54680,1,0,0:0:0:0:
402,192,54680,1,0,0:0:0:0:
182,192,54783,1,0,0:0:0:0:
109,192,54886,1,0,0:0:0:0:
329,192,54886,1,0,0:0:0:0:
402,192,54886,1,0,0:0:0:0:
182,192,54988,1,0,0:0:0:0:
256,192,55091,1,0,0:0:0:0:
402,192,55091,1,0,0:0:0:0:
475,192,55091,1,0,0:0:0:0:
36,192,55091,1,0,0:0:0:0:
329,192,55193,1,0,0:0:0:0:
402,192,55296,1,0,0:0:0:0:
109,192,55296,1,0,0:0:0:0:
182,192,55296,1,0,0:0:0:0:
329,192,55398,1,0,0:0:0:0:
256,192,55501,1,0,0:0:0:0:
109,192,55501,1,0,0:0:0:0:
36,192,55501,1,0,0:0:0:0:
475,192,55501,1,0,0:0:0:0:
402,192,55501,1,0,0:0:0:0:
182,192,55603,1,0,0:0:0:0:
109,192,55706,1,0,0:0:0:0:
329,192,55706,1,0,0:0:0:0:
402,192,55706,1,0,0:0:0:0:
256,192,55808,1,0,0:0:0:0:
182,192,55911,1,0,0:0:0:0:
36,192,55911,1,0,0:0:0:0:
402,192,55911,1,0,0:0:0:0:
475,192,55911,1,0,0:0:0:0:
402,192,56013,1,0,0:0:0:0:
475,192,56013,1,0,0:0:0:0:
182,192,56013,1,0,0:0:0:0:
36,192,56013,1,0,0:0:0:0:
109,192,56116,1,0,0:0:0:0:
256,192,56116,1,0,0:0:0:0:
329,192,56116,1,0,0:0:0:0:
109,192,56321,1,0,0:0:0:0:
256,192,56321,1,0,0:0:0:0:
329,192,56321,1,0,0:0:0:0:
36,192,56526,1,0,0:0:0:0:
109,192,56526,1,0,0:0:0:0:
329,192,56526,1,0,0:0:0:0:
475,192,56526,1,0,0:0:0:0:
36,192,56629,1,0,0:0:0:0:
109,192,56629,1,0,0:0:0:0:
329,192,56629,1,0,0:0:0:0:
475,192,56629,1,0,0:0:0:0:
402,192,56731,1,0,0:0:0:0:
256,192,56731,1,0,0:0:0:0:
182,192,56731,1,0,0:0:0:0:
109,192,56834,1,0,0:0:0:0:
36,192,56834,1,0,0:0:0:0:
256,192,56936,1,0,0:0:0:0:
329,192,56936,1,0,0:0:0:0:
475,192,56936,1,0,0:0:0:0:
182,192,57039,1,0,0:0:0:0:
109,192,57141,1,0,0:0:0:0:
36,192,57141,1,0,0:0:0:0:
329,192,57141,1,0,0:0:0:0:
475,192,57141,1,0,0:0:0:0:
329,192,57346,1,0,0:0:0:0:
475,192,57346,1,0,0:0:0:0:
109,192,57346,1,0,0:0:0:0:
36,192,57346,1,0,0:0:0:0:
256,192,57551,5,0,0:0:0:0:
109,192,57551,1,0,0:0:0:0:
329,192,57551,1,0,0:0:0:0:
36,192,57551,1,0,0:0:0:0:
402,192,57654,1,0,0:0:0:0:
475,192,57654,1,0,0:0:0:0:
256,192,57756,1,0,0:0:0:0:
182,192,57756,1,0,0:0:0:0:
36,192,57756,1,0,0:0:0:0:
402,192,57859,1,0,0:0:0:0:
329,192,57859,1,0,0:0:0:0:
182,192,57961,1,0,0:0:0:0:
109,192,57961,1,0,0:0:0:0:
475,192,57961,1,0,0:0:0:0:
329,192,58064,1,0,0:0:0:0:
256,192,58064,1,0,0:0:0:0:
109,192,58166,1,0,0:0:0:0:
36,192,58166,1,0,0:0:0:0:
402,192,58166,1,0,0:0:0:0:
256,192,58269,1,0,0:0:0:0:
182,192,58269,1,0,0:0:0:0:
329,192,58372,1,0,0:0:0:0:
36,192,58372,1,0,0:0:0:0:
475,192,58372,1,0,0:0:0:0:
182,192,58474,1,0,0:0:0:0:
109,192,58474,1,0,0:0:0:0:
402,192,58577,1,0,0:0:0:0:
256,192,58577,1,0,0:0:0:0:
475,192,58577,1,0,0:0:0:0:
109,192,58679,1,0,0:0:0:0:
36,192,58679,1,0,0:0:0:0:
329,192,58782,1,0,0:0:0:0:
182,192,58782,1,0,0:0:0:0:
402,192,58782,1,0,0:0:0:0:
475,192,58782,1,0,0:0:0:0:
109,192,58884,1,0,0:0:0:0:
256,192,58884,1,0,0:0:0:0:
36,192,58987,1,0,0:0:0:0:
402,192,58987,1,0,0:0:0:0:
182,192,58987,1,0,0:0:0:0:
329,192,59089,1,0,0:0:0:0:
36,192,59192,1,0,0:0:0:0:
475,192,59192,1,0,0:0:0:0:
256,192,59192,1,0,0:0:0:0:
109,192,59192,1,0,0:0:0:0:
329,192,59294,1,0,0:0:0:0:
402,192,59397,1,0,0:0:0:0:
182,192,59397,1,0,0:0:0:0:
109,192,59397,1,0,0:0:0:0:
256,192,59499,1,0,0:0:0:0:
329,192,59602,1,0,0:0:0:0:
475,192,59602,1,0,0:0:0:0:
109,192,59602,1,0,0:0:0:0:
36,192,59602,1,0,0:0:0:0:
256,192,59704,1,0,0:0:0:0:
402,192,59704,1,0,0:0:0:0:
182,192,59807,1,0,0:0:0:0:
109,192,59807,1,0,0:0:0:0:
329,192,59807,1,0,0:0:0:0:
402,192,59909,1,0,0:0:0:0:
256,192,60012,1,0,0:0:0:0:
475,192,60012,1,0,0:0:0:0:
109,192,60012,1,0,0:0:0:0:
36,192,60012,1,0,0:0:0:0:
329,192,60115,1,0,0:0:0:0:
182,192,60115,1,0,0:0:0:0:
402,192,60217,1,0,0:0:0:0:
256,192,60217,1,0,0:0:0:0:
475,192,60217,1,0,0:0:0:0:
182,192,60320,1,0,0:0:0:0:
36,192,60422,1,0,0:0:0:0:
109,192,60422,1,0,0:0:0:0:
329,192,60422,1,0,0:0:0:0:
475,192,60422,1,0,0:0:0:0:
256,192,60525,1,0,0:0:0:0:
402,192,60525,1,0,0:0:0:0:
109,192,60627,1,0,0:0:0:0:
182,192,60627,1,0,0:0:0:0:
329,192,60627,1,0,0:0:0:0:
402,192,60730,1,0,0:0:0:0:
475,192,60832,1,0,0:0:0:0:
182,192,60832,1,0,0:0:0:0:
36,192,60832,1,0,0:0:0:0:
256,192,60832,1,0,0:0:0:0:
329,192,60935,1,0,0:0:0:0:
402,192,61037,1,0,0:0:0:0:
182,192,61037,1,0,0:0:0:0:
475,192,61037,1,0,0:0:0:0:
109,192,61140,1,0,0:0:0:0:
329,192,61242,1,0,0:0:0:0:
475,192,61242,1,0,0:0:0:0:
36,192,61242,1,0,0:0:0:0:
256,192,61242,1,0,0:0:0:0:
182,192,61345,1,0,0:0:0:0:
329,192,61447,1,0,0:0:0:0:
36,192,61447,1,0,0:0:0:0:
109,192,61447,1,0,0:0:0:0:
182,192,61550,1,0,0:0:0:0:
402,192,61550,1,0,0:0:0:0:
36,192,61652,1,0,0:0:0:0:
256,192,61652,1,0,0:0:0:0:
475,192,61652,1,0,0:0:0:0:
109,192,61755,1,0,0:0:0:0:
329,192,61755,1,0,0:0:0:0:
475,192,61858,1,0,0:0:0:0:
256,192,61858,1,0,0:0:0:0:
36,192,61858,1,0,0:0:0:0:
402,192,61960,1,0,0:0:0:0:
182,192,61960,1,0,0:0:0:0:
36,192,62063,1,0,0:0:0:0:
109,192,62063,1,0,0:0:0:0:
329,192,62063,1,0,0:0:0:0:
182,192,62165,1,0,0:0:0:0:
256,192,62165,1,0,0:0:0:0:
329,192,62268,1,0,0:0:0:0:
402,192,62268,1,0,0:0:0:0:
109,192,62268,1,0,0:0:0:0:
182,192,62370,1,0,0:0:0:0:
256,192,62370,1,0,0:0:0:0:
329,192,62473,1,0,0:0:0:0:
475,192,62473,1,0,0:0:0:0:
109,192,62473,1,0,0:0:0:0:
36,192,62473,1,0,0:0:0:0:
182,192,62575,1,0,0:0:0:0:
402,192,62678,1,0,0:0:0:0:
475,192,62678,1,0,0:0:0:0:
329,192,62678,1,0,0:0:0:0:
109,192,62678,1,0,0:0:0:0:
256,192,62780,1,0,0:0:0:0:
475,192,62883,1,0,0:0:0:0:
36,192,62883,1,0,0:0:0:0:
402,192,62883,1,0,0:0:0:0:
182,192,62883,1,0,0:0:0:0:
329,192,62985,1,0,0:0:0:0:
402,192,63088,1,0,0:0:0:0:
182,192,63088,1,0,0:0:0:0:
109,192,63088,1,0,0:0:0:0:
36,192,63088,1,0,0:0:0:0:
256,192,63190,1,0,0:0:0:0:
329,192,63293,1,0,0:0:0:0:
475,192,63293,1,0,0:0:0:0:
109,192,63293,1,0,0:0:0:0:
36,192,63293,1,0,0:0:0:0:
182,192,63395,1,0,0:0:0:0:
256,192,63395,1,0,0:0:0:0:
402,192,63498,1,0,0:0:0:0:
329,192,63498,1,0,0:0:0:0:
36,192,63498,1,0,0:0:0:0:
109,192,63601,1,0,0:0:0:0:
182,192,63601,1,0,0:0:0:0:
256,192,63703,1,0,0:0:0:0:
475,192,63703,1,0,0:0:0:0:
402,192,63703,1,0,0:0:0:0:
36,192,63703,1,0,0:0:0:0:
182,192,63806,1,0,0:0:0:0:
329,192,63908,1,0,0:0:0:0:
109,192,63908,1,0,0:0:0:0:
402,192,63908,1,0,0:0:0:0:
475,192,63908,1,0,0:0:0:0:
182,192,64011,1,0,0:0:0:0:
256,192,64113,1,0,0:0:0:0:
402,192,64113,1,0,0:0:0:0:
475,192,64113,1,0,0:0:0:0:
36,192,64113,1,0,0:0:0:0:
109,192,64216,1,0,0:0:0:0:
182,192,64318,1,0,0:0:0:0:
256,192,64318,1,0,0:0:0:0:
402,192,64318,1,0,0:0:0:0:
475,192,64318,1,0,0:0:0:0:
36,192,64421,1,0,0:0:0:0:
109,192,64523,1,0,0:0:0:0:
182,192,64523,1,0,0:0:0:0:
329,192,64523,1,0,0:0:0:0:
402,192,64523,1,0,0:0:0:0:
475,192,64626,1,0,0:0:0:0:
329,192,64728,1,0,0:0:0:0:
256,192,64728,1,0,0:0:0:0:
109,192,64728,1,0,0:0:0:0:
36,192,64728,1,0,0:0:0:0:
402,192,64831,1,0,0:0:0:0:
475,192,64933,1,0,0:0:0:0:
256,192,64933,1,0,0:0:0:0:
182,192,64933,1,0,0:0:0:0:
36,192,64933,1,0,0:0:0:0:
329,192,65036,1,0,0:0:0:0:
402,192,65138,1,0,0:0:0:0:
109,192,65138,1,0,0:0:0:0:
182,192,65138,1,0,0:0:0:0:
329,192,65241,1,0,0:0:0:0:
256,192,65344,1,0,0:0:0:0:
36,192,65344,1,0,0:0:0:0:
109,192,65344,1,0,0:0:0:0:
475,192,65344,1,0,0:0:0:0:
329,192,65446,1,0,0:0:0:0:
182,192,65549,1,0,0:0:0:0:
36,192,65549,1,0,0:0:0:0:
109,192,65549,1,0,0:0:0:0:
402,192,65549,1,0,0:0:0:0:
329,192,65651,1,0,0:0:0:0:
256,192,65754,1,0,0:0:0:0:
109,192,65754,1,0,0:0:0:0:
36,192,65754,1,0,0:0:0:0:
475,192,65754,1,0,0:0:0:0:
402,192,65856,1,0,0:0:0:0:
329,192,65959,1,0,0:0:0:0:
256,192,65959,1,0,0:0:0:0:
109,192,65959,1,0,0:0:0:0:
36,192,65959,1,0,0:0:0:0:
475,192,66061,1,0,0:0:0:0:
402,192,66164,1,0,0:0:0:0:
329,192,66164,1,0,0:0:0:0:
182,192,66164,1,0,0:0:0:0:
109,192,66164,1,0,0:0:0:0:
36,192,66266,1,0,0:0:0:0:
182,192,66369,1,0,0:0:0:0:
256,192,66369,1,0,0:0:0:0:
402,192,66369,1,0,0:0:0:0:
475,192,66369,1,0,0:0:0:0:
109,192,66471,1,0,0:0:0:0:
36,192,66574,1,0,0:0:0:0:
256,192,66574,1,0,0:0:0:0:
329,192,66574,1,0,0:0:0:0:
475,192,66574,1,0,0:0:0:0:
182,192,66676,1,0,0:0:0:0:
109,192,66779,1,0,0:0:0:0:
402,192,66779,1,0,0:0:0:0:
329,192,66779,1,0,0:0:0:0:
182,192,66881,1,0,0:0:0:0:
256,192,66984,1,0,0:0:0:0:
475,192,66984,1,0,0:0:0:0:
402,192,66984,1,0,0:0:0:0:
36,192,66984,1,0,0:0:0:0:
182,192,67087,1,0,0:0:0:0:
329,192,67189,1,0,0:0:0:0:
475,192,67189,1,0,0:0:0:0:
402,192,67189,1,0,0:0:0:0:
109,192,67189,1,0,0:0:0:0:
182,192,67292,1,0,0:0:0:0:
256,192,67394,1,0,0:0:0:0:
402,192,67394,1,0,0:0:0:0:
36,192,67394,1,0,0:0:0:0:
475,192,67394,1,0,0:0:0:0:
109,192,67497,1,0,0:0:0:0:
329,192,67497,1,0,0:0:0:0:
182,192,67599,1,0,0:0:0:0:
402,192,67599,1,0,0:0:0:0:
256,192,67599,1,0,0:0:0:0:
36,192,67702,1,0,0:0:0:0:
109,192,67804,1,0,0:0:0:0:
256,192,67804,1,0,0:0:0:0:
329,192,67804,1,0,0:0:0:0:
475,192,67804,1,0,0:0:0:0:
182,192,67907,1,0,0:0:0:0:
402,192,68009,1,0,0:0:0:0:
475,192,68009,1,0,0:0:0:0:
256,192,68009,1,0,0:0:0:0:
36,192,68009,1,0,0:0:0:0:
256,192,68214,1,0,0:0:0:0:
109,192,68214,1,0,0:0:0:0:
36,192,68214,1,0,0:0:0:0:
475,192,68214,1,0,0:0:0:0:
402,192,68317,1,0,0:0:0:0:
182,192,68317,1,0,0:0:0:0:
329,192,68419,1,0,0:0:0:0:
109,192,68419,1,0,0:0:0:0:
256,192,68419,1,0,0:0:0:0:
475,192,68522,1,0,0:0:0:0:
402,192,68624,1,0,0:0:0:0:
256,192,68624,1,0,0:0:0:0:
182,192,68624,1,0,0:0:0:0:
36,192,68624,1,0,0:0:0:0:
329,192,68727,1,0,0:0:0:0:
256,192,68829,1,0,0:0:0:0:
109,192,68829,1,0,0:0:0:0:
36,192,68829,1,0,0:0:0:0:
475,192,68829,1,0,0:0:0:0:
109,192,69035,1,0,0:0:0:0:
36,192,69035,1,0,0:0:0:0:
256,192,69035,1,0,0:0:0:0:
402,192,69035,1,0,0:0:0:0:
329,192,69240,1,0,0:0:0:0:
182,192,69240,1,0,0:0:0:0:
475,192,69240,1,0,0:0:0:0:
402,192,69445,1,0,0:0:0:0:
256,192,69445,1,0,0:0:0:0:
36,192,69445,1,0,0:0:0:0:
475,192,69445,1,0,0:0:0:0:
329,192,69650,1,0,0:0:0:0:
182,192,69650,1,0,0:0:0:0:
109,192,69650,1,0,0:0:0:0:
402,192,69855,1,0,0:0:0:0:
475,192,69855,1,0,0:0:0:0:
256,192,69855,1,0,0:0:0:0:
109,192,69957,1,0,0:0:0:0:
182,192,69957,1,0,0:0:0:0:
36,192,69957,1,0,0:0:0:0:
402,192,70060,1,0,0:0:0:0:
329,192,70060,1,0,0:0:0:0:
475,192,70060,1,0,0:0:0:0:
182,192,70162,1,0,0:0:0:0:
109,192,70162,1,0,0:0:0:0:
36,192,70162,1,0,0:0:0:0:
402,192,70265,1,0,0:0:0:0:
256,192,70265,1,0,0:0:0:0:
475,192,70265,1,0,0:0:0:0:
182,192,70367,1,0,0:0:0:0:
109,192,70470,1,0,0:0:0:0:
329,192,70470,1,0,0:0:0:0:
256,192,70572,1,0,0:0:0:0:
182,192,70675,1,0,0:0:0:0:
402,192,70675,1,0,0:0:0:0:
475,192,70675,1,0,0:0:0:0:
36,192,70675,128,0,71188:0:0:0:0:
256,192,70880,1,0,0:0:0:0:
329,192,71085,1,0,0:0:0:0:
475,192,71290,1,0,0:0:0:0:
402,192,71290,1,0,0:0:0:0:
182,192,71290,1,0,0:0:0:0:
36,192,71290,128,0,72008:0:0:0:0:
256,192,71700,1,0,0:0:0:0:
329,192,71905,1,0,0:0:0:0:
402,192,72110,1,0,0:0:0:0:
475,192,72110,1,0,0:0:0:0:
182,192,72110,1,0,0:0:0:0:
36,192,72110,1,0,0:0:0:0:
329,192,72315,1,0,0:0:0:0:
475,192,72315,1,0,0:0:0:0:
256,192,72418,1,0,0:0:0:0:
182,192,72521,1,0,0:0:0:0:
36,192,72521,1,0,0:0:0:0:
109,192,72726,1,0,0:0:0:0:
402,192,72726,1,0,0:0:0:0:
329,192,72931,5,0,0:0:0:0:
402,192,72931,1,0,0:0:0:0:
256,192,73033,1,0,0:0:0:0:
109,192,73136,1,0,0:0:0:0:
182,192,73136,1,0,0:0:0:0:
36,192,73341,1,0,0:0:0:0:
182,192,73341,1,0,0:0:0:0:
329,192,73341,1,0,0:0:0:0:
475,192,73341,1,0,0:0:0:0:
402,192,73546,1,0,0:0:0:0:
256,192,73546,1,0,0:0:0:0:
109,192,73546,1,0,0:0:0:0:
36,192,73956,5,0,0:0:0:0:
475,192,73956,1,0,0:0:0:0:
182,192,73956,1,0,0:0:0:0:
402,192,73956,1,0,0:0:0:0:
256,192,74058,1,0,0:0:0:0:
475,192,74161,1,0,0:0:0:0:
109,192,74161,1,0,0:0:0:0:
329,192,74161,1,0,0:0:0:0:
256,192,74264,1,0,0:0:0:0:
182,192,74366,1,0,0:0:0:0:
36,192,74366,1,0,0:0:0:0:
475,192,74366,1,0,0:0:0:0:
402,192,74366,1,0,0:0:0:0:
329,192,74469,1,0,0:0:0:0:
109,192,74571,1,0,0:0:0:0:
475,192,74571,1,0,0:0:0:0:
256,192,74571,1,0,0:0:0:0:
329,192,74674,1,0,0:0:0:0:
402,192,74776,1,0,0:0:0:0:
36,192,74776,1,0,0:0:0:0:
182,192,74776,1,0,0:0:0:0:
256,192,74879,1,0,0:0:0:0:
475,192,74879,1,0,0:0:0:0:
182,192,74981,1,0,0:0:0:0:
36,192,74981,1,0,0:0:0:0:
402,192,74981,1,0,0:0:0:0:
256,192,75084,1,0,0:0:0:0:
109,192,75084,1,0,0:0:0:0:
329,192,75186,1,0,0:0:0:0:
182,192,75186,1,0,0:0:0:0:
475,192,75186,1,0,0:0:0:0:
402,192,75186,1,0,0:0:0:0:
109,192,75289,1,0,0:0:0:0:
36,192,75391,1,0,0:0:0:0:
256,192,75391,1,0,0:0:0:0:
402,192,75391,1,0,0:0:0:0:
109,192,75494,1,0,0:0:0:0:
182,192,75596,1,0,0:0:0:0:
329,192,75596,1,0,0:0:0:0:
475,192,75596,1,0,0:0:0:0:
36,192,75699,1,0,0:0:0:0:
109,192,75699,1,0,0:0:0:0:
256,192,75801,1,0,0:0:0:0:
402,192,75801,1,0,0:0:0:0:
109,192,75904,1,0,0:0:0:0:
182,192,75904,1,0,0:0:0:0:
329,192,76007,1,0,0:0:0:0:
475,192,76007,1,0,0:0:0:0:
36,192,76007,1,0,0:0:0:0:
182,192,76109,1,0,0:0:0:0:
256,192,76109,1,0,0:0:0:0:
402,192,76212,1,0,0:0:0:0:
36,192,76212,1,0,0:0:0:0:
109,192,76212,1,0,0:0:0:0:
256,192,76314,1,0,0:0:0:0:
329,192,76314,1,0,0:0:0:0:
109,192,76417,1,0,0:0:0:0:
182,192,76417,1,0,0:0:0:0:
475,192,76417,1,0,0:0:0:0:
329,192,76519,1,0,0:0:0:0:
402,192,76519,1,0,0:0:0:0:
182,192,76622,1,0,0:0:0:0:
256,192,76622,1,0,0:0:0:0:
36,192,76622,1,0,0:0:0:0:
402,192,76724,1,0,0:0:0:0:
475,192,76724,1,0,0:0:0:0:
256,192,76827,1,0,0:0:0:0:
329,192,76827,1,0,0:0:0:0:
109,192,76827,1,0,0:0:0:0:
475,192,76929,1,0,0:0:0:0:
36,192,76929,1,0,0:0:0:0:
329,192,77032,1,0,0:0:0:0:
402,192,77032,1,0,0:0:0:0:
182,192,77032,1,0,0:0:0:0:
109,192,77134,1,0,0:0:0:0:
36,192,77134,1,0,0:0:0:0:
475,192,77237,1,0,0:0:0:0:
402,192,77237,1,0,0:0:0:0:
256,192,77237,1,0,0:0:0:0:
329,192,77339,1,0,0:0:0:0:
36,192,77442,1,0,0:0:0:0:
182,192,77442,1,0,0:0:0:0:
402,192,77442,1,0,0:0:0:0:
256,192,77544,1,0,0:0:0:0:
329,192,77647,1,0,0:0:0:0:
475,192,77647,1,0,0:0:0:0:
36,192,77647,1,0,0:0:0:0:
109,192,77647,1,0,0:0:0:0:
182,192,77750,1,0,0:0:0:0:
402,192,77852,1,0,0:0:0:0:
36,192,77852,1,0,0:0:0:0:
256,192,77852,1,0,0:0:0:0:
182,192,77955,1,0,0:0:0:0:
109,192,78057,1,0,0:0:0:0:
475,192,78057,1,0,0:0:0:0:
329,192,78057,1,0,0:0:0:0:
256,192,78160,1,0,0:0:0:0:
36,192,78160,1,0,0:0:0:0:
329,192,78262,1,0,0:0:0:0:
475,192,78262,1,0,0:0:0:0:
109,192,78262,1,0,0:0:0:0:
256,192,78365,1,0,0:0:0:0:
402,192,78365,1,0,0:0:0:0:
182,192,78467,1,0,0:0:0:0:
329,192,78467,1,0,0:0:0:0:
36,192,78467,1,0,0:0:0:0:
109,192,78467,1,0,0:0:0:0:
402,192,78570,1,0,0:0:0:0:
475,192,78672,1,0,0:0:0:0:
256,192,78672,1,0,0:0:0:0:
109,192,78672,1,0,0:0:0:0:
402,192,78775,1,0,0:0:0:0:
36,192,78877,1,0,0:0:0:0:
329,192,78877,1,0,0:0:0:0:
182,192,78877,1,0,0:0:0:0:
402,192,78980,1,0,0:0:0:0:
109,192,78980,1,0,0:0:0:0:
256,192,79082,1,0,0:0:0:0:
475,192,79082,1,0,0:0:0:0:
329,192,79082,1,0,0:0:0:0:
36,192,79082,1,0,0:0:0:0:
182,192,79185,1,0,0:0:0:0:
109,192,79185,1,0,0:0:0:0:
256,192,79287,1,0,0:0:0:0:
402,192,79287,1,0,0:0:0:0:
475,192,79287,1,0,0:0:0:0:
36,192,79287,1,0,0:0:0:0:
109,192,79390,1,0,0:0:0:0:
182,192,79390,1,0,0:0:0:0:
475,192,79493,1,0,0:0:0:0:
329,192,79493,1,0,0:0:0:0:
36,192,79493,1,0,0:0:0:0:
256,192,79595,1,0,0:0:0:0:
182,192,79595,1,0,0:0:0:0:
36,192,79698,1,0,0:0:0:0:
109,192,79698,1,0,0:0:0:0:
329,192,79698,1,0,0:0:0:0:
475,192,79698,1,0,0:0:0:0:
256,192,79800,1,0,0:0:0:0:
402,192,79800,1,0,0:0:0:0:
329,192,79903,1,0,0:0:0:0:
109,192,79903,1,0,0:0:0:0:
182,192,79903,1,0,0:0:0:0:
36,192,80108,1,0,0:0:0:0:
256,192,80108,1,0,0:0:0:0:
402,192,80108,1,0,0:0:0:0:
475,192,80108,1,0,0:0:0:0:
109,192,80108,1,0,0:0:0:0:
329,192,80313,1,0,0:0:0:0:
402,192,80313,1,0,0:0:0:0:
182,192,80313,1,0,0:0:0:0:
109,192,80313,1,0,0:0:0:0:
475,192,80518,1,0,0:0:0:0:
36,192,80518,1,0,0:0:0:0:
329,192,80518,1,0,0:0:0:0:
109,192,80518,1,0,0:0:0:0:
256,192,80620,1,0,0:0:0:0:
36,192,80723,1,0,0:0:0:0:
402,192,80723,1,0,0:0:0:0:
182,192,80723,1,0,0:0:0:0:
256,192,80825,1,0,0:0:0:0:
329,192,80928,1,0,0:0:0:0:
475,192,80928,1,0,0:0:0:0:
36,192,80928,1,0,0:0:0:0:
109,192,80928,1,0,0:0:0:0:
182,192,81030,1,0,0:0:0:0:
402,192,81133,1,0,0:0:0:0:
36,192,81133,1,0,0:0:0:0:
256,192,81133,1,0,0:0:0:0:
182,192,81236,1,0,0:0:0:0:
109,192,81338,1,0,0:0:0:0:
475,192,81338,1,0,0:0:0:0:
329,192,81338,1,0,0:0:0:0:
256,192,81441,1,0,0:0:0:0:
36,192,81441,1,0,0:0:0:0:
329,192,81543,1,0,0:0:0:0:
475,192,81543,1,0,0:0:0:0:
109,192,81543,1,0,0:0:0:0:
256,192,81646,1,0,0:0:0:0:
402,192,81646,1,0,0:0:0:0:
182,192,81748,1,0,0:0:0:0:
329,192,81748,1,0,0:0:0:0:
36,192,81748,1,0,0:0:0:0:
109,192,81748,1,0,0:0:0:0:
402,192,81851,1,0,0:0:0:0:
475,192,81953,1,0,0:0:0:0:
256,192,81953,1,0,0:0:0:0:
109,192,81953,1,0,0:0:0:0:
402,192,82056,1,0,0:0:0:0:
329,192,82158,1,0,0:0:0:0:
182,192,82158,1,0,0:0:0:0:
36,192,82158,1,0,0:0:0:0:
475,192,82261,1,0,0:0:0:0:
402,192,82261,1,0,0:0:0:0:
256,192,82363,1,0,0:0:0:0:
109,192,82363,1,0,0:0:0:0:
402,192,82466,1,0,0:0:0:0:
329,192,82466,1,0,0:0:0:0:
182,192,82568,1,0,0:0:0:0:
36,192,82568,1,0,0:0:0:0:
475,192,82568,1,0,0:0:0:0:
329,192,82671,1,0,0:0:0:0:
256,192,82671,1,0,0:0:0:0:
109,192,82773,1,0,0:0:0:0:
475,192,82773,1,0,0:0:0:0:
402,192,82773,1,0,0:0:0:0:
256,192,82876,1,0,0:0:0:0:
182,192,82876,1,0,0:0:0:0:
402,192,82979,1,0,0:0:0:0:
329,192,82979,1,0,0:0:0:0:
36,192,82979,1,0,0:0:0:0:
182,192,83081,1,0,0:0:0:0:
109,192,83081,1,0,0:0:0:0:
329,192,83184,1,0,0:0:0:0:
256,192,83184,1,0,0:0:0:0:
475,192,83184,1,0,0:0:0:0:
109,192,83286,1,0,0:0:0:0:
36,192,83286,1,0,0:0:0:0:
256,192,83389,1,0,0:0:0:0:
182,192,83389,1,0,0:0:0:0:
402,192,83389,1,0,0:0:0:0:
36,192,83491,1,0,0:0:0:0:
475,192,83491,1,0,0:0:0:0:
182,192,83594,1,0,0:0:0:0:
109,192,83594,1,0,0:0:0:0:
329,192,83594,1,0,0:0:0:0:
402,192,83696,1,0,0:0:0:0:
475,192,83696,1,0,0:0:0:0:
36,192,83799,1,0,0:0:0:0:
109,192,83799,1,0,0:0:0:0:
256,192,83799,1,0,0:0:0:0:
182,192,83901,1,0,0:0:0:0:
475,192,84004,1,0,0:0:0:0:
109,192,84004,1,0,0:0:0:0:
329,192,84004,1,0,0:0:0:0:
256,192,84106,1,0,0:0:0:0:
182,192,84209,1,0,0:0:0:0:
36,192,84209,1,0,0:0:0:0:
475,192,84209,1,0,0:0:0:0:
402,192,84209,1,0,0:0:0:0:
329,192,84311,1,0,0:0:0:0:
109,192,84414,1,0,0:0:0:0:
475,192,84414,1,0,0:0:0:0:
256,192,84414,1,0,0:0:0:0:
329,192,84516,1,0,0:0:0:0:
402,192,84619,1,0,0:0:0:0:
36,192,84619,1,0,0:0:0:0:
182,192,84619,1,0,0:0:0:0:
256,192,84722,1,0,0:0:0:0:
475,192,84722,1,0,0:0:0:0:
182,192,84824,1,0,0:0:0:0:
36,192,84824,1,0,0:0:0:0:
402,192,84824,1,0,0:0:0:0:
256,192,84927,1,0,0:0:0:0:
109,192,84927,1,0,0:0:0:0:
329,192,85029,1,0,0:0:0:0:
182,192,85029,1,0,0:0:0:0:
475,192,85029,1,0,0:0:0:0:
402,192,85029,1,0,0:0:0:0:
109,192,85132,1,0,0:0:0:0:
36,192,85234,1,0,0:0:0:0:
256,192,85234,1,0,0:0:0:0:
402,192,85234,1,0,0:0:0:0:
109,192,85337,1,0,0:0:0:0:
475,192,85439,1,0,0:0:0:0:
182,192,85439,1,0,0:0:0:0:
329,192,85439,1,0,0:0:0:0:
256,192,85644,1,0,0:0:0:0:
402,192,85644,1,0,0:0:0:0:
182,192,85849,1,0,0:0:0:0:
329,192,85849,1,0,0:0:0:0:
475,192,85849,1,0,0:0:0:0:
256,192,86054,1,0,0:0:0:0:
402,192,86054,1,0,0:0:0:0:
329,192,86259,1,0,0:0:0:0:
182,192,86259,1,0,0:0:0:0:
36,192,86259,1,0,0:0:0:0:
256,192,86464,1,0,0:0:0:0:
402,192,86464,1,0,0:0:0:0:
329,192,86567,1,0,0:0:0:0:
182,192,86567,1,0,0:0:0:0:
256,192,86670,1,0,0:0:0:0:
109,192,86670,1,0,0:0:0:0:
329,192,86772,1,0,0:0:0:0:
475,192,86772,1,0,0:0:0:0:
402,192,86875,1,0,0:0:0:0:
256,192,86875,1,0,0:0:0:0:
329,192,86977,1,0,0:0:0:0:
182,192,86977,1,0,0:0:0:0:
256,192,87080,1,0,0:0:0:0:
36,192,87080,1,0,0:0:0:0:
109,192,87080,1,0,0:0:0:0:
475,192,87080,1,0,0:0:0:0:
329,192,87285,1,0,0:0:0:0:
109,192,87285,1,0,0:0:0:0:
256,192,87387,1,0,0:0:0:0:
182,192,87490,1,0,0:0:0:0:
475,192,87490,1,0,0:0:0:0:
402,192,87490,1,0,0:0:0:0:
36,192,87490,1,0,0:0:0:0:
329,192,87695,1,0,0:0:0:0:
109,192,87695,1,0,0:0:0:0:
182,192,87797,1,0,0:0:0:0:
256,192,87900,1,0,0:0:0:0:
402,192,87900,1,0,0:0:0:0:
182,192,88105,1,0,0:0:0:0:
36,192,88105,1,0,0:0:0:0:
475,192,88105,1,0,0:0:0:0:
402,192,88105,1,0,0:0:0:0:
36,192,88207,1,0,0:0:0:0:
182,192,88207,1,0,0:0:0:0:
329,192,88310,1,0,0:0:0:0:
475,192,88310,1,0,0:0:0:0:
256,192,88310,1,0,0:0:0:0:
402,192,88310,1,0,0:0:0:0:
182,192,88413,1,0,0:0:0:0:
109,192,88515,1,0,0:0:0:0:
329,192,88515,1,0,0:0:0:0:
256,192,88618,1,0,0:0:0:0:
182,192,88720,1,0,0:0:0:0:
36,192,88720,1,0,0:0:0:0:
402,192,88720,1,0,0:0:0:0:
475,192,88720,1,0,0:0:0:0:
256,192,88925,1,0,0:0:0:0:
109,192,88925,1,0,0:0:0:0:
182,192,89028,1,0,0:0:0:0:
329,192,89028,1,0,0:0:0:0:
256,192,89130,1,0,0:0:0:0:
402,192,89130,1,0,0:0:0:0:
475,192,89130,1,0,0:0:0:0:
36,192,89130,1,0,0:0:0:0:
182,192,89233,1,0,0:0:0:0:
329,192,89335,1,0,0:0:0:0:
36,192,89335,1,0,0:0:0:0:
182,192,89438,1,0,0:0:0:0:
36,192,89540,1,0,0:0:0:0:
402,192,89540,1,0,0:0:0:0:
256,192,89643,1,0,0:0:0:0:
329,192,89745,1,0,0:0:0:0:
475,192,89745,1,0,0:0:0:0:
109,192,89745,1,0,0:0:0:0:
36,192,89745,1,0,0:0:0:0:
329,192,89848,1,0,0:0:0:0:
475,192,89848,1,0,0:0:0:0:
109,192,89950,1,0,0:0:0:0:
36,192,89950,1,0,0:0:0:0:
256,192,89950,1,0,0:0:0:0:
182,192,89950,1,0,0:0:0:0:
329,192,90053,1,0,0:0:0:0:
402,192,90156,1,0,0:0:0:0:
182,192,90156,1,0,0:0:0:0:
256,192,90258,1,0,0:0:0:0:
329,192,90361,1,0,0:0:0:0:
475,192,90361,1,0,0:0:0:0:
109,192,90361,1,0,0:0:0:0:
36,192,90361,1,0,0:0:0:0:
182,192,90566,1,0,0:0:0:0:
402,192,90566,1,0,0:0:0:0:
256,192,90771,1,0,0:0:0:0:
109,192,90771,1,0,0:0:0:0:
36,192,90771,1,0,0:0:0:0:
475,192,90771,1,0,0:0:0:0:
329,192,90873,1,0,0:0:0:0:
182,192,90976,1,0,0:0:0:0:
475,192,90976,1,0,0:0:0:0:
329,192,91078,1,0,0:0:0:0:
475,192,91181,1,0,0:0:0:0:
109,192,91181,1,0,0:0:0:0:
256,192,91283,1,0,0:0:0:0:
182,192,91386,1,0,0:0:0:0:
36,192,91386,1,0,0:0:0:0:
402,192,91386,1,0,0:0:0:0:
475,192,91386,1,0,0:0:0:0:
182,192,91488,1,0,0:0:0:0:
36,192,91488,1,0,0:0:0:0:
402,192,91591,1,0,0:0:0:0:
475,192,91591,1,0,0:0:0:0:
256,192,91591,1,0,0:0:0:0:
329,192,91591,1,0,0:0:0:0:
109,192,91796,1,0,0:0:0:0:
329,192,91796,1,0,0:0:0:0:
182,192,91899,1,0,0:0:0:0:
402,192,91899,1,0,0:0:0:0:
36,192,92001,1,0,0:0:0:0:
475,192,92001,1,0,0:0:0:0:
256,192,92001,1,0,0:0:0:0:
109,192,92001,1,0,0:0:0:0:
182,192,92206,1,0,0:0:0:0:
402,192,92206,1,0,0:0:0:0:
329,192,92309,1,0,0:0:0:0:
109,192,92309,1,0,0:0:0:0:
256,192,92411,1,0,0:0:0:0:
36,192,92411,1,0,0:0:0:0:
475,192,92411,1,0,0:0:0:0:
402,192,92411,1,0,0:0:0:0:
109,192,92616,1,0,0:0:0:0:
329,192,92616,1,0,0:0:0:0:
182,192,92719,1,0,0:0:0:0:
402,192,92719,1,0,0:0:0:0:
256,192,92821,1,0,0:0:0:0:
109,192,92821,1,0,0:0:0:0:
36,192,92821,1,0,0:0:0:0:
475,192,92821,1,0,0:0:0:0:
182,192,93026,1,0,0:0:0:0:
329,192,93026,1,0,0:0:0:0:
402,192,93026,1,0,0:0:0:0:
109,192,93026,1,0,0:0:0:0:
256,192,93231,1,0,0:0:0:0:
475,192,93231,1,0,0:0:0:0:
36,192,93231,1,0,0:0:0:0:
182,192,93231,1,0,0:0:0:0:
402,192,93231,1,0,0:0:0:0:
109,192,93436,1,0,0:0:0:0:
182,192,93436,1,0,0:0:0:0:
402,192,93436,1,0,0:0:0:0:
329,192,93436,1,0,0:0:0:0:
36,192,93642,1,0,0:0:0:0:
475,192,93642,1,0,0:0:0:0:
256,192,93642,1,0,0:0:0:0:
329,192,93642,1,0,0:0:0:0:
182,192,93847,1,0,0:0:0:0:
402,192,93847,1,0,0:0:0:0:
256,192,93949,1,0,0:0:0:0:
329,192,94052,1,0,0:0:0:0:
475,192,94052,1,0,0:0:0:0:
109,192,94052,1,0,0:0:0:0:
36,192,94052,1,0,0:0:0:0:
256,192,94154,1,0,0:0:0:0:
109,192,94257,1,0,0:0:0:0:
402,192,94257,1,0,0:0:0:0:
256,192,94359,1,0,0:0:0:0:
36,192,94462,1,0,0:0:0:0:
182,192,94462,1,0,0:0:0:0:
182,192,94667,1,0,0:0:0:0:
36,192,94667,1,0,0:0:0:0:
402,192,94667,1,0,0:0:0:0:
475,192,94667,1,0,0:0:0:0:
36,192,94769,1,0,0:0:0:0:
182,192,94769,1,0,0:0:0:0:
256,192,94872,1,0,0:0:0:0:
402,192,94872,1,0,0:0:0:0:
475,192,94872,1,0,0:0:0:0:
329,192,94872,1,0,0:0:0:0:
182,192,94974,1,0,0:0:0:0:
109,192,95077,1,0,0:0:0:0:
329,192,95077,1,0,0:0:0:0:
402,192,95179,1,0,0:0:0:0:
475,192,95282,1,0,0:0:0:0:
256,192,95282,1,0,0:0:0:0:
182,192,95282,1,0,0:0:0:0:
36,192,95282,1,0,0:0:0:0:
256,192,95487,1,0,0:0:0:0:
109,192,95487,1,0,0:0:0:0:
329,192,95590,1,0,0:0:0:0:
182,192,95692,1,0,0:0:0:0:
36,192,95692,1,0,0:0:0:0:
402,192,95692,1,0,0:0:0:0:
475,192,95692,1,0,0:0:0:0:
256,192,95795,1,0,0:0:0:0:
402,192,95897,1,0,0:0:0:0:
109,192,95897,1,0,0:0:0:0:
256,192,96000,1,0,0:0:0:0:
475,192,96102,1,0,0:0:0:0:
329,192,96102,1,0,0:0:0:0:
182,192,96205,1,0,0:0:0:0:
329,192,96307,1,0,0:0:0:0:
475,192,96307,1,0,0:0:0:0:
109,192,96307,1,0,0:0:0:0:
36,192,96307,1,0,0:0:0:0:
475,192,96410,1,0,0:0:0:0:
329,192,96410,1,0,0:0:0:0:
256,192,96512,1,0,0:0:0:0:
109,192,96512,1,0,0:0:0:0:
36,192,96512,1,0,0:0:0:0:
182,192,96512,1,0,0:0:0:0:
402,192,96717,1,0,0:0:0:0:
182,192,96717,1,0,0:0:0:0:
109,192,96717,1,0,0:0:0:0:
329,192,96717,1,0,0:0:0:0:
256,192,96922,1,0,0:0:0:0:
329,192,96922,1,0,0:0:0:0:
475,192,96922,1,0,0:0:0:0:
36,192,96922,1,0,0:0:0:0:
402,192,97128,1,0,0:0:0:0:
182,192,97128,1,0,0:0:0:0:
329,192,97230,1,0,0:0:0:0:
256,192,97333,1,0,0:0:0:0:
109,192,97333,1,0,0:0:0:0:
36,192,97333,1,0,0:0:0:0:
475,192,97333,1,0,0:0:0:0:
402,192,97435,1,0,0:0:0:0:
256,192,97538,1,0,0:0:0:0:
182,192,97538,1,0,0:0:0:0:
402,192,97640,1,0,0:0:0:0:
256,192,97743,1,0,0:0:0:0:
109,192,97743,1,0,0:0:0:0:
329,192,97845,1,0,0:0:0:0:
182,192,97948,1,0,0:0:0:0:
36,192,97948,1,0,0:0:0:0:
402,192,97948,1,0,0:0:0:0:
475,192,97948,1,0,0:0:0:0:
36,192,98050,1,0,0:0:0:0:
182,192,98050,1,0,0:0:0:0:
475,192,98153,1,0,0:0:0:0:
402,192,98153,1,0,0:0:0:0:
329,192,98153,1,0,0:0:0:0:
256,192,98153,1,0,0:0:0:0:
109,192,98358,1,0,0:0:0:0:
256,192,98358,1,0,0:0:0:0:
402,192,98358,1,0,0:0:0:0:
36,192,98563,1,0,0:0:0:0:
182,192,98563,1,0,0:0:0:0:
329,192,98563,1,0,0:0:0:0:
256,192,98768,1,0,0:0:0:0:
109,192,98768,1,0,0:0:0:0:
36,192,98973,1,0,0:0:0:0:
182,192,98973,1,0,0:0:0:0:
329,192,98973,1,0,0:0:0:0:
256,192,99178,5,0,0:0:0:0:
402,192,99178,1,0,0:0:0:0:
329,192,99383,1,0,0:0:0:0:
475,192,99383,1,0,0:0:0:0:
182,192,99383,1,0,0:0:0:0:
256,192,99588,1,0,0:0:0:0:
109,192,99588,1,0,0:0:0:0:
475,192,99588,1,0,0:0:0:0:
402,192,99691,1,0,0:0:0:0:
182,192,99793,1,0,0:0:0:0:
36,192,99793,1,0,0:0:0:0:
329,192,99793,1,0,0:0:0:0:
256,192,99896,1,0,0:0:0:0:
109,192,99998,1,0,0:0:0:0:
329,192,99998,1,0,0:0:0:0:
182,192,100101,1,0,0:0:0:0:
402,192,100101,1,0,0:0:0:0:
109,192,100203,5,0,0:0:0:0:
36,192,100203,1,0,0:0:0:0:
329,192,100203,1,0,0:0:0:0:
256,192,100203,1,0,0:0:0:0:
475,192,100203,1,0,0:0:0:0:
402,192,100408,1,0,0:0:0:0:
182,192,100408,1,0,0:0:0:0:
329,192,100614,1,0,0:0:0:0:
109,192,100614,1,0,0:0:0:0:
402,192,100819,1,0,0:0:0:0:
182,192,100819,1,0,0:0:0:0:
256,192,101024,1,0,0:0:0:0:
475,192,101024,1,0,0:0:0:0:
109,192,101024,1,0,0:0:0:0:
329,192,101024,128,0,101331:0:0:0:0:
256,192,101331,1,0,0:0:0:0:
36,192,101331,1,0,0:0:0:0:
402,192,101331,1,0,0:0:0:0:
182,192,101331,128,0,101639:0:0:0:0:
256,192,101639,1,0,0:0:0:0:
109,192,101639,1,0,0:0:0:0:
475,192,101639,1,0,0:0:0:0:
329,192,101639,128,0,102664:0:0:0:0:
182,192,102049,1,0,0:0:0:0:
36,192,102049,1,0,0:0:0:0:
109,192,102254,1,0,0:0:0:0:
256,192,102254,1,0,0:0:0:0:
182,192,102459,1,0,0:0:0:0:
36,192,102459,1,0,0:0:0:0:
109,192,102664,1,0,0:0:0:0:
256,192,102664,1,0,0:0:0:0:
402,192,102664,1,0,0:0:0:0:
475,192,102664,128,0,102972:0:0:0:0:
109,192,102972,1,0,0:0:0:0:
256,192,102972,1,0,0:0:0:0:
402,192,102972,1,0,0:0:0:0:
36,192,102972,128,0,103279:0:0:0:0:
256,192,103279,1,0,0:0:0:0:
109,192,103279,1,0,0:0:0:0:
402,192,103279,1,0,0:0:0:0:
475,192,103279,128,0,104305:0:0:0:0:
329,192,103689,128,0,104305:0:0:0:0:
182,192,103894,128,0,104305:0:0:0:0:
36,192,104099,1,0,0:0:0:0:
402,192,104099,1,0,0:0:0:0:
109,192,104099,1,0,0:0:0:0:
256,192,104202,1,0,0:0:0:0:
402,192,104305,1,0,0:0:0:0:
109,192,104305,1,0,0:0:0:0:
36,192,104305,1,0,0:0:0:0:
402,192,104612,1,0,0:0:0:0:
182,192,104612,1,0,0:0:0:0:
329,192,104715,128,0,104920:0:0:0:0:
109,192,104715,128,0,104920:0:0:0:0:
402,192,104920,1,0,0:0:0:0:
182,192,104920,1,0,0:0:0:0:
256,192,105022,1,0,0:0:0:0:
36,192,105022,1,0,0:0:0:0:
182,192,105125,1,0,0:0:0:0:
402,192,105125,1,0,0:0:0:0:
329,192,105227,1,0,0:0:0:0:
109,192,105227,1,0,0:0:0:0:
256,192,105330,1,0,0:0:0:0:
36,192,105330,1,0,0:0:0:0:
402,192,105432,1,0,0:0:0:0:
182,192,105432,1,0,0:0:0:0:
256,192,105535,1,0,0:0:0:0:
36,192,105535,1,0,0:0:0:0:
329,192,105637,1,0,0:0:0:0:
109,192,105637,1,0,0:0:0:0:
402,192,105740,1,0,0:0:0:0:
182,192,105740,1,0,0:0:0:0:
256,192,105842,1,0,0:0:0:0:
36,192,105842,1,0,0:0:0:0:
109,192,105945,1,0,0:0:0:0:
329,192,105945,1,0,0:0:0:0:
475,192,105945,128,0,106253:0:0:0:0:
402,192,106253,1,0,0:0:0:0:
256,192,106253,1,0,0:0:0:0:
36,192,106253,128,0,106560:0:0:0:0:
329,192,106560,1,0,0:0:0:0:
109,192,106560,1,0,0:0:0:0:
475,192,106560,1,0,0:0:0:0:
402,192,106765,1,0,0:0:0:0:
182,192,106765,1,0,0:0:0:0:
109,192,106970,1,0,0:0:0:0:
329,192,106970,1,0,0:0:0:0:
182,192,107175,1,0,0:0:0:0:
402,192,107175,1,0,0:0:0:0:
109,192,107380,1,0,0:0:0:0:
329,192,107380,1,0,0:0:0:0:
256,192,107585,1,0,0:0:0:0:
36,192,107585,1,0,0:0:0:0:
402,192,107585,1,0,0:0:0:0:
182,192,107585,128,0,107893:0:0:0:0:
256,192,107893,1,0,0:0:0:0:
475,192,107893,1,0,0:0:0:0:
109,192,107893,1,0,0:0:0:0:
329,192,107893,128,0,108201:0:0:0:0:
256,192,108201,1,0,0:0:0:0:
402,192,108201,1,0,0:0:0:0:
36,192,108201,1,0,0:0:0:0:
182,192,108201,128,0,109226:0:0:0:0:
329,192,108611,1,0,0:0:0:0:
475,192,108611,1,0,0:0:0:0:
402,192,108816,1,0,0:0:0:0:
256,192,108816,1,0,0:0:0:0:
329,192,109021,1,0,0:0:0:0:
475,192,109021,1,0,0:0:0:0:
402,192,109226,1,0,0:0:0:0:
256,192,109226,1,0,0:0:0:0:
109,192,109226,1,0,0:0:0:0:
36,192,109226,128,0,109534:0:0:0:0:
402,192,109534,1,0,0:0:0:0:
256,192,109534,1,0,0:0:0:0:
109,192,109534,1,0,0:0:0:0:
475,192,109534,128,0,109841:0:0:0:0:
256,192,109841,1,0,0:0:0:0:
402,192,109841,1,0,0:0:0:0:
109,192,109841,1,0,0:0:0:0:
36,192,109841,128,0,110866:0:0:0:0:
182,192,110251,128,0,110866:0:0:0:0:
329,192,110456,128,0,110866:0:0:0:0:
475,192,110661,128,0,110866:0:0:0:0:
109,192,110866,1,0,0:0:0:0:
402,192,110866,1,0,0:0:0:0:
182,192,110969,1,0,0:0:0:0:
329,192,110969,1,0,0:0:0:0:
402,192,111071,1,0,0:0:0:0:
256,192,111071,1,0,0:0:0:0:
109,192,111174,1,0,0:0:0:0:
182,192,111174,1,0,0:0:0:0:
329,192,111277,1,0,0:0:0:0:
402,192,111277,1,0,0:0:0:0:
182,192,111379,1,0,0:0:0:0:
256,192,111379,1,0,0:0:0:0:
402,192,111482,1,0,0:0:0:0:
109,192,111482,1,0,0:0:0:0:
256,192,111584,1,0,0:0:0:0:
329,192,111584,1,0,0:0:0:0:
182,192,111687,1,0,0:0:0:0:
36,192,111687,1,0,0:0:0:0:
402,192,111687,1,0,0:0:0:0:
475,192,111687,1,0,0:0:0:0:
402,192,111789,1,0,0:0:0:0:
475,192,111789,1,0,0:0:0:0:
182,192,111789,1,0,0:0:0:0:
36,192,111789,1,0,0:0:0:0:
109,192,111892,1,0,0:0:0:0:
256,192,111892,1,0,0:0:0:0:
329,192,111892,1,0,0:0:0:0:
109,192,112097,1,0,0:0:0:0:
256,192,112097,1,0,0:0:0:0:
329,192,112097,1,0,0:0:0:0:
36,192,112302,5,0,0:0:0:0:
109,192,112302,1,0,0:0:0:0:
329,192,112302,1,0,0:0:0:0:
475,192,112302,1,0,0:0:0:0:
36,192,112404,1,0,0:0:0:0:
109,192,112404,1,0,0:0:0:0:
329,192,112404,1,0,0:0:0:0:
475,192,112404,1,0,0:0:0:0:
402,192,112507,1,0,0:0:0:0:
256,192,112507,1,0,0:0:0:0:
182,192,112507,1,0,0:0:0:0:
182,192,112712,1,0,0:0:0:0:
256,192,112712,1,0,0:0:0:0:
402,192,112712,1,0,0:0:0:0:
256,192,112917,1,0,0:0:0:0:
402,192,112917,1,0,0:0:0:0:
475,192,112917,1,0,0:0:0:0:
182,192,112917,1,0,0:0:0:0:
36,192,112917,1,0,0:0:0:0:
256,192,113327,5,0,0:0:0:0:
36,192,113327,1,0,0:0:0:0:
109,192,113327,1,0,0:0:0:0:
329,192,113327,1,0,0:0:0:0:
475,192,113430,1,0,0:0:0:0:
402,192,113430,1,0,0:0:0:0:
36,192,113532,1,0,0:0:0:0:
182,192,113532,1,0,0:0:0:0:
256,192,113532,1,0,0:0:0:0:
329,192,113635,1,0,0:0:0:0:
402,192,113635,1,0,0:0:0:0:
475,192,113737,1,0,0:0:0:0:
109,192,113737,1,0,0:0:0:0:
182,192,113737,1,0,0:0:0:0:
256,192,113840,1,0,0:0:0:0:
329,192,113840,1,0,0:0:0:0:
402,192,113942,1,0,0:0:0:0:
36,192,113942,1,0,0:0:0:0:
109,192,113942,1,0,0:0:0:0:
182,192,114045,1,0,0:0:0:0:
256,192,114045,1,0,0:0:0:0:
475,192,114147,1,0,0:0:0:0:
36,192,114147,1,0,0:0:0:0:
329,192,114147,1,0,0:0:0:0:
109,192,114250,1,0,0:0:0:0:
182,192,114250,1,0,0:0:0:0:
475,192,114352,1,0,0:0:0:0:
256,192,114352,1,0,0:0:0:0:
402,192,114352,1,0,0:0:0:0:
36,192,114455,1,0,0:0:0:0:
109,192,114455,1,0,0:0:0:0:
402,192,114557,1,0,0:0:0:0:
475,192,114557,1,0,0:0:0:0:
329,192,114557,1,0,0:0:0:0:
182,192,114557,1,0,0:0:0:0:
256,192,114660,1,0,0:0:0:0:
109,192,114660,1,0,0:0:0:0:
182,192,114763,1,0,0:0:0:0:
402,192,114763,1,0,0:0:0:0:
36,192,114763,1,0,0:0:0:0:
329,192,114865,1,0,0:0:0:0:
256,192,114968,1,0,0:0:0:0:
109,192,114968,1,0,0:0:0:0:
36,192,114968,1,0,0:0:0:0:
475,192,114968,1,0,0:0:0:0:
329,192,115070,1,0,0:0:0:0:
109,192,115173,1,0,0:0:0:0:
182,192,115173,1,0,0:0:0:0:
402,192,115173,1,0,0:0:0:0:
256,192,115275,1,0,0:0:0:0:
109,192,115378,1,0,0:0:0:0:
36,192,115378,1,0,0:0:0:0:
329,192,115378,1,0,0:0:0:0:
475,192,115378,1,0,0:0:0:0:
402,192,115480,1,0,0:0:0:0:
256,192,115480,1,0,0:0:0:0:
329,192,115583,1,0,0:0:0:0:
109,192,115583,1,0,0:0:0:0:
182,192,115583,1,0,0:0:0:0:
402,192,115685,1,0,0:0:0:0:
109,192,115788,1,0,0:0:0:0:
36,192,115788,1,0,0:0:0:0:
256,192,115788,1,0,0:0:0:0:
475,192,115788,1,0,0:0:0:0:
182,192,115890,1,0,0:0:0:0:
329,192,115890,1,0,0:0:0:0:
475,192,115993,1,0,0:0:0:0:
256,192,115993,1,0,0:0:0:0:
402,192,115993,1,0,0:0:0:0:
182,192,116095,1,0,0:0:0:0:
329,192,116198,1,0,0:0:0:0:
475,192,116198,1,0,0:0:0:0:
36,192,116198,1,0,0:0:0:0:
109,192,116198,1,0,0:0:0:0:
402,192,116300,1,0,0:0:0:0:
256,192,116300,1,0,0:0:0:0:
329,192,116403,1,0,0:0:0:0:
182,192,116403,1,0,0:0:0:0:
109,192,116403,1,0,0:0:0:0:
402,192,116506,1,0,0:0:0:0:
36,192,116608,1,0,0:0:0:0:
256,192,116608,1,0,0:0:0:0:
475,192,116608,1,0,0:0:0:0:
182,192,116608,1,0,0:0:0:0:
329,192,116711,1,0,0:0:0:0:
475,192,116813,1,0,0:0:0:0:
182,192,116813,1,0,0:0:0:0:
402,192,116813,1,0,0:0:0:0:
109,192,116916,1,0,0:0:0:0:
36,192,117018,1,0,0:0:0:0:
256,192,117018,1,0,0:0:0:0:
329,192,117018,1,0,0:0:0:0:
475,192,117018,1,0,0:0:0:0:
182,192,117121,1,0,0:0:0:0:
109,192,117223,1,0,0:0:0:0:
36,192,117223,1,0,0:0:0:0:
329,192,117223,1,0,0:0:0:0:
402,192,117326,1,0,0:0:0:0:
182,192,117326,1,0,0:0:0:0:
475,192,117428,1,0,0:0:0:0:
256,192,117428,1,0,0:0:0:0:
36,192,117428,1,0,0:0:0:0:
329,192,117531,1,0,0:0:0:0:
109,192,117531,1,0,0:0:0:0:
36,192,117633,1,0,0:0:0:0:
256,192,117633,1,0,0:0:0:0:
475,192,117633,1,0,0:0:0:0:
182,192,117736,1,0,0:0:0:0:
402,192,117736,1,0,0:0:0:0:
329,192,117838,1,0,0:0:0:0:
36,192,117838,1,0,0:0:0:0:
109,192,117838,1,0,0:0:0:0:
256,192,117941,1,0,0:0:0:0:
182,192,117941,1,0,0:0:0:0:
109,192,118043,1,0,0:0:0:0:
402,192,118043,1,0,0:0:0:0:
329,192,118043,1,0,0:0:0:0:
256,192,118146,1,0,0:0:0:0:
182,192,118146,1,0,0:0:0:0:
109,192,118249,1,0,0:0:0:0:
36,192,118249,1,0,0:0:0:0:
329,192,118249,1,0,0:0:0:0:
475,192,118249,1,0,0:0:0:0:
182,192,118351,1,0,0:0:0:0:
36,192,118454,1,0,0:0:0:0:
402,192,118454,1,0,0:0:0:0:
256,192,118454,1,0,0:0:0:0:
109,192,118556,1,0,0:0:0:0:
329,192,118659,1,0,0:0:0:0:
402,192,118659,1,0,0:0:0:0:
182,192,118659,1,0,0:0:0:0:
475,192,118659,1,0,0:0:0:0:
109,192,118761,1,0,0:0:0:0:
256,192,118761,1,0,0:0:0:0:
402,192,118864,1,0,0:0:0:0:
36,192,118864,1,0,0:0:0:0:
182,192,118864,1,0,0:0:0:0:
256,192,118966,1,0,0:0:0:0:
329,192,118966,1,0,0:0:0:0:
475,192,119069,1,0,0:0:0:0:
402,192,119069,1,0,0:0:0:0:
109,192,119069,1,0,0:0:0:0:
36,192,119069,1,0,0:0:0:0:
182,192,119171,1,0,0:0:0:0:
256,192,119171,1,0,0:0:0:0:
36,192,119274,1,0,0:0:0:0:
402,192,119274,1,0,0:0:0:0:
329,192,119274,1,0,0:0:0:0:
182,192,119376,1,0,0:0:0:0:
256,192,119376,1,0,0:0:0:0:
36,192,119479,1,0,0:0:0:0:
109,192,119479,1,0,0:0:0:0:
402,192,119479,1,0,0:0:0:0:
475,192,119479,1,0,0:0:0:0:
329,192,119581,1,0,0:0:0:0:
475,192,119684,1,0,0:0:0:0:
182,192,119684,1,0,0:0:0:0:
256,192,119684,1,0,0:0:0:0:
402,192,119786,1,0,0:0:0:0:
109,192,119889,1,0,0:0:0:0:
36,192,119889,1,0,0:0:0:0:
329,192,119889,1,0,0:0:0:0:
256,192,119889,1,0,0:0:0:0:
475,192,119991,1,0,0:0:0:0:
182,192,120094,1,0,0:0:0:0:
109,192,120094,1,0,0:0:0:0:
402,192,120094,1,0,0:0:0:0:
329,192,120094,1,0,0:0:0:0:
36,192,120197,1,0,0:0:0:0:
256,192,120299,1,0,0:0:0:0:
182,192,120299,1,0,0:0:0:0:
475,192,120299,1,0,0:0:0:0:
402,192,120299,1,0,0:0:0:0:
36,192,120402,1,0,0:0:0:0:
182,192,120504,1,0,0:0:0:0:
109,192,120504,1,0,0:0:0:0:
329,192,120504,1,0,0:0:0:0:
402,192,120504,1,0,0:0:0:0:
475,192,120607,1,0,0:0:0:0:
109,192,120709,1,0,0:0:0:0:
36,192,120709,1,0,0:0:0:0:
329,192,120709,1,0,0:0:0:0:
256,192,120709,1,0,0:0:0:0:
402,192,120812,1,0,0:0:0:0:
182,192,120812,1,0,0:0:0:0:
36,192,120914,1,0,0:0:0:0:
475,192,120914,1,0,0:0:0:0:
256,192,120914,1,0,0:0:0:0:
329,192,121017,1,0,0:0:0:0:
109,192,121017,1,0,0:0:0:0:
475,192,121119,1,0,0:0:0:0:
256,192,121119,1,0,0:0:0:0:
182,192,121119,1,0,0:0:0:0:
402,192,121119,1,0,0:0:0:0:
36,192,121222,1,0,0:0:0:0:
109,192,121324,1,0,0:0:0:0:
182,192,121324,1,0,0:0:0:0:
402,192,121324,1,0,0:0:0:0:
329,192,121324,1,0,0:0:0:0:
475,192,121427,1,0,0:0:0:0:
109,192,121529,1,0,0:0:0:0:
36,192,121529,1,0,0:0:0:0:
329,192,121529,1,0,0:0:0:0:
256,192,121529,1,0,0:0:0:0:
475,192,121632,1,0,0:0:0:0:
182,192,121734,1,0,0:0:0:0:
109,192,121734,1,0,0:0:0:0:
402,192,121734,1,0,0:0:0:0:
329,192,121734,1,0,0:0:0:0:
36,192,121837,1,0,0:0:0:0:
182,192,121940,1,0,0:0:0:0:
256,192,121940,1,0,0:0:0:0:
402,192,121940,1,0,0:0:0:0:
475,192,121940,1,0,0:0:0:0:
329,192,122042,1,0,0:0:0:0:
109,192,122042,1,0,0:0:0:0:
475,192,122145,1,0,0:0:0:0:
256,192,122145,1,0,0:0:0:0:
36,192,122145,1,0,0:0:0:0:
182,192,122247,1,0,0:0:0:0:
402,192,122247,1,0,0:0:0:0:
36,192,122350,1,0,0:0:0:0:
109,192,122350,1,0,0:0:0:0:
329,192,122350,1,0,0:0:0:0:
475,192,122452,1,0,0:0:0:0:
256,192,122452,1,0,0:0:0:0:
109,192,122555,1,0,0:0:0:0:
402,192,122555,1,0,0:0:0:0:
182,192,122555,1,0,0:0:0:0:
329,192,122657,1,0,0:0:0:0:
182,192,122760,1,0,0:0:0:0:
36,192,122760,1,0,0:0:0:0:
256,192,122760,1,0,0:0:0:0:
475,192,122760,1,0,0:0:0:0:
329,192,122862,1,0,0:0:0:0:
402,192,122862,1,0,0:0:0:0:
475,192,122965,1,0,0:0:0:0:
36,192,122965,1,0,0:0:0:0:
256,192,122965,1,0,0:0:0:0:
109,192,123067,1,0,0:0:0:0:
182,192,123067,1,0,0:0:0:0:
36,192,123170,1,0,0:0:0:0:
475,192,123170,1,0,0:0:0:0:
329,192,123170,1,0,0:0:0:0:
256,192,123170,1,0,0:0:0:0:
182,192,123272,1,0,0:0:0:0:
329,192,123375,1,0,0:0:0:0:
402,192,123375,1,0,0:0:0:0:
109,192,123375,1,0,0:0:0:0:
182,192,123477,1,0,0:0:0:0:
36,192,123580,1,0,0:0:0:0:
109,192,123580,1,0,0:0:0:0:
475,192,123580,1,0,0:0:0:0:
256,192,123580,1,0,0:0:0:0:
402,192,123580,1,0,0:0:0:0:
329,192,123683,1,0,0:0:0:0:
109,192,123785,1,0,0:0:0:0:
182,192,123785,1,0,0:0:0:0:
402,192,123785,1,0,0:0:0:0:
329,192,123888,1,0,0:0:0:0:
36,192,123990,1,0,0:0:0:0:
475,192,123990,1,0,0:0:0:0:
256,192,123990,1,0,0:0:0:0:
109,192,123990,1,0,0:0:0:0:
182,192,124093,1,0,0:0:0:0:
329,192,124195,1,0,0:0:0:0:
402,192,124195,1,0,0:0:0:0:
109,192,124195,1,0,0:0:0:0:
182,192,124298,1,0,0:0:0:0:
36,192,124400,1,0,0:0:0:0:
109,192,124400,1,0,0:0:0:0:
475,192,124400,1,0,0:0:0:0:
256,192,124400,1,0,0:0:0:0:
402,192,124400,1,0,0:0:0:0:
329,192,124503,1,0,0:0:0:0:
109,192,124605,1,0,0:0:0:0:
182,192,124605,1,0,0:0:0:0:
402,192,124605,1,0,0:0:0:0:
256,192,124708,1,0,0:0:0:0:
109,192,124810,1,0,0:0:0:0:
36,192,124810,1,0,0:0:0:0:
329,192,124810,1,0,0:0:0:0:
475,192,124810,1,0,0:0:0:0:
329,192,124913,1,0,0:0:0:0:
475,192,124913,1,0,0:0:0:0:
109,192,124913,1,0,0:0:0:0:
36,192,124913,1,0,0:0:0:0:
182,192,125015,1,0,0:0:0:0:
256,192,125015,1,0,0:0:0:0:
402,192,125015,1,0,0:0:0:0:
182,192,125220,1,0,0:0:0:0:
256,192,125220,1,0,0:0:0:0:
402,192,125220,1,0,0:0:0:0:
182,192,125426,1,0,0:0:0:0:
36,192,125426,1,0,0:0:0:0:
475,192,125426,1,0,0:0:0:0:
402,192,125426,1,0,0:0:0:0:
182,192,125528,1,0,0:0:0:0:
36,192,125528,1,0,0:0:0:0:
475,192,125528,1,0,0:0:0:0:
402,192,125528,1,0,0:0:0:0:
329,192,125631,1,0,0:0:0:0:
256,192,125631,1,0,0:0:0:0:
109,192,125631,1,0,0:0:0:0:
475,192,125733,1,0,0:0:0:0:
402,192,125733,1,0,0:0:0:0:
36,192,125836,1,0,0:0:0:0:
182,192,125836,1,0,0:0:0:0:
256,192,125836,1,0,0:0:0:0:
329,192,125938,1,0,0:0:0:0:
182,192,126041,1,0,0:0:0:0:
36,192,126041,1,0,0:0:0:0:
402,192,126041,1,0,0:0:0:0:
475,192,126041,1,0,0:0:0:0:
402,192,126246,1,0,0:0:0:0:
475,192,126246,1,0,0:0:0:0:
182,192,126246,1,0,0:0:0:0:
36,192,126246,1,0,0:0:0:0:
256,192,126451,5,0,0:0:0:0:
475,192,126451,1,0,0:0:0:0:
182,192,126451,1,0,0:0:0:0:
402,192,126451,1,0,0:0:0:0:
36,192,126553,1,0,0:0:0:0:
109,192,126553,1,0,0:0:0:0:
475,192,126656,1,0,0:0:0:0:
329,192,126656,1,0,0:0:0:0:
256,192,126656,1,0,0:0:0:0:
182,192,126758,1,0,0:0:0:0:
109,192,126758,1,0,0:0:0:0:
36,192,126861,1,0,0:0:0:0:
402,192,126861,1,0,0:0:0:0:
329,192,126861,1,0,0:0:0:0:
256,192,126963,1,0,0:0:0:0:
182,192,126963,1,0,0:0:0:0:
109,192,127066,1,0,0:0:0:0:
475,192,127066,1,0,0:0:0:0:
402,192,127066,1,0,0:0:0:0:
329,192,127169,1,0,0:0:0:0:
256,192,127169,1,0,0:0:0:0:
36,192,127271,1,0,0:0:0:0:
475,192,127271,1,0,0:0:0:0:
182,192,127271,1,0,0:0:0:0:
402,192,127374,1,0,0:0:0:0:
329,192,127374,1,0,0:0:0:0:
36,192,127476,1,0,0:0:0:0:
256,192,127476,1,0,0:0:0:0:
109,192,127476,1,0,0:0:0:0:
475,192,127579,1,0,0:0:0:0:
402,192,127579,1,0,0:0:0:0:
109,192,127681,1,0,0:0:0:0:
36,192,127681,1,0,0:0:0:0:
182,192,127681,1,0,0:0:0:0:
329,192,127681,1,0,0:0:0:0:
256,192,127784,1,0,0:0:0:0:
402,192,127784,1,0,0:0:0:0:
329,192,127886,1,0,0:0:0:0:
109,192,127886,1,0,0:0:0:0:
475,192,127886,1,0,0:0:0:0:
182,192,127989,1,0,0:0:0:0:
256,192,128091,1,0,0:0:0:0:
402,192,128091,1,0,0:0:0:0:
475,192,128091,1,0,0:0:0:0:
36,192,128091,1,0,0:0:0:0:
182,192,128194,1,0,0:0:0:0:
402,192,128296,1,0,0:0:0:0:
329,192,128296,1,0,0:0:0:0:
109,192,128296,1,0,0:0:0:0:
256,192,128399,1,0,0:0:0:0:
402,192,128501,1,0,0:0:0:0:
475,192,128501,1,0,0:0:0:0:
182,192,128501,1,0,0:0:0:0:
36,192,128501,1,0,0:0:0:0:
109,192,128604,1,0,0:0:0:0:
256,192,128604,1,0,0:0:0:0:
182,192,128706,1,0,0:0:0:0:
402,192,128706,1,0,0:0:0:0:
329,192,128706,1,0,0:0:0:0:
109,192,128809,1,0,0:0:0:0:
402,192,128912,1,0,0:0:0:0:
475,192,128912,1,0,0:0:0:0:
256,192,128912,1,0,0:0:0:0:
36,192,128912,1,0,0:0:0:0:
329,192,129014,1,0,0:0:0:0:
182,192,129014,1,0,0:0:0:0:
36,192,129117,1,0,0:0:0:0:
256,192,129117,1,0,0:0:0:0:
109,192,129117,1,0,0:0:0:0:
329,192,129219,1,0,0:0:0:0:
182,192,129322,1,0,0:0:0:0:
36,192,129322,1,0,0:0:0:0:
475,192,129322,1,0,0:0:0:0:
402,192,129322,1,0,0:0:0:0:
109,192,129424,1,0,0:0:0:0:
256,192,129424,1,0,0:0:0:0:
182,192,129527,1,0,0:0:0:0:
329,192,129527,1,0,0:0:0:0:
402,192,129527,1,0,0:0:0:0:
109,192,129629,1,0,0:0:0:0:
475,192,129732,1,0,0:0:0:0:
256,192,129732,1,0,0:0:0:0:
36,192,129732,1,0,0:0:0:0:
329,192,129732,1,0,0:0:0:0:
182,192,129834,1,0,0:0:0:0:
36,192,129937,1,0,0:0:0:0:
329,192,129937,1,0,0:0:0:0:
109,192,129937,1,0,0:0:0:0:
402,192,130039,1,0,0:0:0:0:
182,192,130142,1,0,0:0:0:0:
36,192,130142,1,0,0:0:0:0:
475,192,130142,1,0,0:0:0:0:
256,192,130142,1,0,0:0:0:0:
329,192,130244,1,0,0:0:0:0:
182,192,130347,1,0,0:0:0:0:
475,192,130347,1,0,0:0:0:0:
402,192,130347,1,0,0:0:0:0:
329,192,130449,1,0,0:0:0:0:
109,192,130449,1,0,0:0:0:0:
475,192,130552,1,0,0:0:0:0:
256,192,130552,1,0,0:0:0:0:
36,192,130552,1,0,0:0:0:0:
402,192,130655,1,0,0:0:0:0:
182,192,130655,1,0,0:0:0:0:
36,192,130757,1,0,0:0:0:0:
256,192,130757,1,0,0:0:0:0:
475,192,130757,1,0,0:0:0:0:
109,192,130860,1,0,0:0:0:0:
329,192,130860,1,0,0:0:0:0:
475,192,130962,1,0,0:0:0:0:
402,192,130962,1,0,0:0:0:0:
182,192,130962,1,0,0:0:0:0:
329,192,131065,1,0,0:0:0:0:
256,192,131065,1,0,0:0:0:0:
182,192,131167,1,0,0:0:0:0:
109,192,131167,1,0,0:0:0:0:
402,192,131167,1,0,0:0:0:0:
329,192,131270,1,0,0:0:0:0:
256,192,131270,1,0,0:0:0:0:
402,192,131372,1,0,0:0:0:0:
475,192,131372,1,0,0:0:0:0:
182,192,131372,1,0,0:0:0:0:
36,192,131372,1,0,0:0:0:0:
329,192,131475,1,0,0:0:0:0:
182,192,131577,1,0,0:0:0:0:
402,192,131577,1,0,0:0:0:0:
109,192,131577,1,0,0:0:0:0:
36,192,131577,1,0,0:0:0:0:
256,192,131680,1,0,0:0:0:0:
109,192,131782,1,0,0:0:0:0:
329,192,131782,1,0,0:0:0:0:
36,192,131782,1,0,0:0:0:0:
475,192,131782,1,0,0:0:0:0:
182,192,131885,1,0,0:0:0:0:
402,192,131987,1,0,0:0:0:0:
475,192,131987,1,0,0:0:0:0:
109,192,131987,1,0,0:0:0:0:
329,192,131987,1,0,0:0:0:0:
256,192,132090,1,0,0:0:0:0:
402,192,132192,1,0,0:0:0:0:
475,192,132192,1,0,0:0:0:0:
182,192,132192,1,0,0:0:0:0:
36,192,132192,1,0,0:0:0:0:
256,192,132295,1,0,0:0:0:0:
329,192,132295,1,0,0:0:0:0:
475,192,132398,1,0,0:0:0:0:
182,192,132398,1,0,0:0:0:0:
109,192,132398,1,0,0:0:0:0:
329,192,132500,1,0,0:0:0:0:
402,192,132500,1,0,0:0:0:0:
109,192,132603,1,0,0:0:0:0:
475,192,132603,1,0,0:0:0:0:
256,192,132603,1,0,0:0:0:0:
36,192,132603,1,0,0:0:0:0:
329,192,132705,1,0,0:0:0:0:
109,192,132808,1,0,0:0:0:0:
36,192,132808,1,0,0:0:0:0:
182,192,132808,1,0,0:0:0:0:
402,192,132808,1,0,0:0:0:0:
329,192,132910,1,0,0:0:0:0:
36,192,133013,1,0,0:0:0:0:
475,192,133013,1,0,0:0:0:0:
256,192,133013,1,0,0:0:0:0:
109,192,133013,1,0,0:0:0:0:
402,192,133115,1,0,0:0:0:0:
109,192,133218,1,0,0:0:0:0:
36,192,133218,1,0,0:0:0:0:
329,192,133218,1,0,0:0:0:0:
256,192,133218,1,0,0:0:0:0:
475,192,133320,1,0,0:0:0:0:
182,192,133423,1,0,0:0:0:0:
109,192,133423,1,0,0:0:0:0:
402,192,133423,1,0,0:0:0:0:
329,192,133423,1,0,0:0:0:0:
36,192,133525,1,0,0:0:0:0:
402,192,133628,1,0,0:0:0:0:
475,192,133628,1,0,0:0:0:0:
182,192,133628,1,0,0:0:0:0:
256,192,133628,1,0,0:0:0:0:
109,192,133730,1,0,0:0:0:0:
329,192,133833,1,0,0:0:0:0:
475,192,133833,1,0,0:0:0:0:
36,192,133833,1,0,0:0:0:0:
256,192,133833,1,0,0:0:0:0:
182,192,133935,1,0,0:0:0:0:
329,192,134038,1,0,0:0:0:0:
402,192,134038,1,0,0:0:0:0:
109,192,134038,1,0,0:0:0:0:
182,192,134141,1,0,0:0:0:0:
402,192,134243,1,0,0:0:0:0:
36,192,134243,1,0,0:0:0:0:
256,192,134243,1,0,0:0:0:0:
475,192,134243,1,0,0:0:0:0:
182,192,134346,1,0,0:0:0:0:
402,192,134448,1,0,0:0:0:0:
109,192,134448,1,0,0:0:0:0:
329,192,134448,1,0,0:0:0:0:
475,192,134448,1,0,0:0:0:0:
182,192,134551,1,0,0:0:0:0:
475,192,134653,1,0,0:0:0:0:
36,192,134653,1,0,0:0:0:0:
256,192,134653,1,0,0:0:0:0:
402,192,134653,1,0,0:0:0:0:
109,192,134756,1,0,0:0:0:0:
402,192,134858,1,0,0:0:0:0:
475,192,134858,1,0,0:0:0:0:
182,192,134858,1,0,0:0:0:0:
256,192,134858,1,0,0:0:0:0:
36,192,134961,1,0,0:0:0:0:
329,192,135063,1,0,0:0:0:0:
402,192,135063,1,0,0:0:0:0:
109,192,135063,1,0,0:0:0:0:
182,192,135063,1,0,0:0:0:0:
475,192,135166,1,0,0:0:0:0:
109,192,135268,1,0,0:0:0:0:
36,192,135268,1,0,0:0:0:0:
329,192,135268,1,0,0:0:0:0:
256,192,135268,1,0,0:0:0:0:
402,192,135371,1,0,0:0:0:0:
182,192,135473,1,0,0:0:0:0:
36,192,135473,1,0,0:0:0:0:
475,192,135473,1,0,0:0:0:0:
256,192,135473,1,0,0:0:0:0:
329,192,135576,1,0,0:0:0:0:
182,192,135678,1,0,0:0:0:0:
109,192,135678,1,0,0:0:0:0:
402,192,135678,1,0,0:0:0:0:
329,192,135781,1,0,0:0:0:0:
109,192,135883,1,0,0:0:0:0:
475,192,135883,1,0,0:0:0:0:
256,192,135883,1,0,0:0:0:0:
36,192,135883,1,0,0:0:0:0:
329,192,135986,1,0,0:0:0:0:
109,192,136089,1,0,0:0:0:0:
402,192,136089,1,0,0:0:0:0:
182,192,136089,1,0,0:0:0:0:
36,192,136089,1,0,0:0:0:0:
329,192,136191,1,0,0:0:0:0:
475,192,136294,1,0,0:0:0:0:
36,192,136294,1,0,0:0:0:0:
256,192,136294,1,0,0:0:0:0:
109,192,136294,1,0,0:0:0:0:
182,192,136396,1,0,0:0:0:0:
402,192,136396,1,0,0:0:0:0:
256,192,136499,1,0,0:0:0:0:
109,192,136499,1,0,0:0:0:0:
329,192,136499,1,0,0:0:0:0:
475,192,136601,1,0,0:0:0:0:
182,192,136704,1,0,0:0:0:0:
36,192,136704,1,0,0:0:0:0:
402,192,136704,1,0,0:0:0:0:
256,192,136704,1,0,0:0:0:0:
329,192,136806,1,0,0:0:0:0:
256,192,136909,1,0,0:0:0:0:
475,192,136909,1,0,0:0:0:0:
109,192,136909,1,0,0:0:0:0:
36,192,136909,1,0,0:0:0:0:
475,192,137114,1,0,0:0:0:0:
36,192,137114,1,0,0:0:0:0:
256,192,137114,1,0,0:0:0:0:
402,192,137114,1,0,0:0:0:0:
329,192,137216,1,0,0:0:0:0:
109,192,137216,1,0,0:0:0:0:
256,192,137319,1,0,0:0:0:0:
402,192,137319,1,0,0:0:0:0:
182,192,137319,1,0,0:0:0:0:
36,192,137421,1,0,0:0:0:0:
329,192,137524,1,0,0:0:0:0:
475,192,137524,1,0,0:0:0:0:
109,192,137524,1,0,0:0:0:0:
256,192,137524,1,0,0:0:0:0:
182,192,137626,1,0,0:0:0:0:
475,192,137729,1,0,0:0:0:0:
36,192,137729,1,0,0:0:0:0:
402,192,137729,1,0,0:0:0:0:
256,192,137729,128,0,139575:0:0:0:0:
329,192,137832,1,0,0:0:0:0:
109,192,137832,1,0,0:0:0:0:
402,192,137934,1,0,0:0:0:0:
36,192,137934,1,0,0:0:0:0:
475,192,138037,1,0,0:0:0:0:
109,192,138037,1,0,0:0:0:0:
182,192,138139,1,0,0:0:0:0:
329,192,138139,1,0,0:0:0:0:
475,192,138242,1,0,0:0:0:0:
36,192,138242,1,0,0:0:0:0:
402,192,138344,1,0,0:0:0:0:
182,192,138344,1,0,0:0:0:0:
329,192,138447,1,0,0:0:0:0:
109,192,138447,1,0,0:0:0:0:
36,192,138549,1,0,0:0:0:0:
475,192,138549,1,0,0:0:0:0:
329,192,138652,1,0,0:0:0:0:
182,192,138652,1,0,0:0:0:0:
402,192,138754,1,0,0:0:0:0:
36,192,138754,1,0,0:0:0:0:
475,192,138857,1,0,0:0:0:0:
109,192,138857,1,0,0:0:0:0:
182,192,138959,1,0,0:0:0:0:
329,192,138959,1,0,0:0:0:0:
475,192,139062,1,0,0:0:0:0:
36,192,139062,1,0,0:0:0:0:
402,192,139164,1,0,0:0:0:0:
182,192,139164,1,0,0:0:0:0:
329,192,139267,1,0,0:0:0:0:
109,192,139267,1,0,0:0:0:0:
36,192,139369,1,0,0:0:0:0:
475,192,139369,1,0,0:0:0:0:
182,192,139472,1,0,0:0:0:0:
402,192,139472,1,0,0:0:0:0:
36,192,139575,1,0,0:0:0:0:
329,192,139575,1,0,0:0:0:0:
109,192,139985,1,0,0:0:0:0:
256,192,139985,1,0,0:0:0:0:
182,192,140190,1,0,0:0:0:0:
329,192,140190,1,0,0:0:0:0:
256,192,140395,1,0,0:0:0:0:
402,192,140395,1,0,0:0:0:0:
475,192,140395,1,0,0:0:0:0:
109,192,140805,1,0,0:0:0:0:
329,192,140805,1,0,0:0:0:0:
36,192,141112,1,0,0:0:0:0:
182,192,141164,1,0,0:0:0:0:
475,192,141215,1,0,0:0:0:0:
329,192,141215,1,0,0:0:0:0:
109,192,141215,1,0,0:0:0:0:
182,192,141420,1,0,0:0:0:0:
256,192,141625,1,0,0:0:0:0:
402,192,141625,1,0,0:0:0:0:
109,192,141830,1,0,0:0:0:0:
329,192,142035,1,0,0:0:0:0:
182,192,142035,1,0,0:0:0:0:
475,192,142035,1,0,0:0:0:0:
36,192,142240,1,0,0:0:0:0:
329,192,142445,1,0,0:0:0:0:
475,192,142445,1,0,0:0:0:0:
402,192,142650,1,0,0:0:0:0:
256,192,142650,1,0,0:0:0:0:
475,192,142855,1,0,0:0:0:0:
329,192,142855,1,0,0:0:0:0:
182,192,142855,1,0,0:0:0:0:
256,192,143061,1,0,0:0:0:0:
109,192,143061,1,0,0:0:0:0:
182,192,143266,1,0,0:0:0:0:
36,192,143266,1,0,0:0:0:0:
256,192,143471,1,0,0:0:0:0:
109,192,143471,1,0,0:0:0:0:
36,192,143676,1,0,0:0:0:0:
475,192,143676,1,0,0:0:0:0:
182,192,143676,1,0,0:0:0:0:
109,192,143881,1,0,0:0:0:0:
256,192,143881,1,0,0:0:0:0:
182,192,144086,1,0,0:0:0:0:
329,192,144086,1,0,0:0:0:0:
256,192,144291,1,0,0:0:0:0:
402,192,144291,1,0,0:0:0:0:
329,192,144496,1,0,0:0:0:0:
475,192,144496,1,0,0:0:0:0:
109,192,144496,1,0,0:0:0:0:
182,192,144701,1,0,0:0:0:0:
256,192,144906,1,0,0:0:0:0:
402,192,144906,1,0,0:0:0:0:
329,192,145111,1,0,0:0:0:0:
182,192,145111,1,0,0:0:0:0:
475,192,145316,1,0,0:0:0:0:
256,192,145316,1,0,0:0:0:0:
109,192,145316,1,0,0:0:0:0:
182,192,145521,1,0,0:0:0:0:
402,192,145521,1,0,0:0:0:0:
329,192,145726,1,0,0:0:0:0:
109,192,145726,1,0,0:0:0:0:
36,192,146136,1,0,0:0:0:0:
256,192,146136,1,0,0:0:0:0:
109,192,146341,1,0,0:0:0:0:
329,192,146341,1,0,0:0:0:0:
182,192,146547,1,0,0:0:0:0:
402,192,146547,1,0,0:0:0:0:
256,192,146752,1,0,0:0:0:0:
475,192,146752,1,0,0:0:0:0:
36,192,146957,1,0,0:0:0:0:
182,192,146957,1,0,0:0:0:0:
329,192,146957,1,0,0:0:0:0:
475,192,147315,1,0,0:0:0:0:
329,192,147341,1,0,0:0:0:0:
36,192,147367,1,0,0:0:0:0:
256,192,147367,1,0,0:0:0:0:
109,192,147572,1,0,0:0:0:0:
329,192,147572,1,0,0:0:0:0:
36,192,147777,1,0,0:0:0:0:
182,192,147777,1,0,0:0:0:0:
402,192,147777,1,0,0:0:0:0:
256,192,147982,1,0,0:0:0:0:
475,192,147982,1,0,0:0:0:0:
402,192,148187,1,0,0:0:0:0:
182,192,148187,1,0,0:0:0:0:
329,192,148392,1,0,0:0:0:0:
109,192,148392,1,0,0:0:0:0:
36,192,148597,1,0,0:0:0:0:
182,192,148597,1,0,0:0:0:0:
402,192,148597,1,0,0:0:0:0:
256,192,148802,1,0,0:0:0:0:
36,192,148802,1,0,0:0:0:0:
182,192,149007,1,0,0:0:0:0:
256,192,149212,1,0,0:0:0:0:
402,192,149212,1,0,0:0:0:0:
36,192,149417,1,0,0:0:0:0:
329,192,149417,1,0,0:0:0:0:
475,192,149417,1,0,0:0:0:0:
182,192,149622,1,0,0:0:0:0:
475,192,149827,1,0,0:0:0:0:
329,192,149827,1,0,0:0:0:0:
402,192,150033,1,0,0:0:0:0:
256,192,150033,1,0,0:0:0:0:
36,192,150238,1,0,0:0:0:0:
182,192,150238,1,0,0:0:0:0:
329,192,150238,1,0,0:0:0:0:
256,192,150443,1,0,0:0:0:0:
402,192,150443,1,0,0:0:0:0:
329,192,150648,1,0,0:0:0:0:
182,192,150648,1,0,0:0:0:0:
256,192,150853,1,0,0:0:0:0:
109,192,150853,1,0,0:0:0:0:
36,192,151058,1,0,0:0:0:0:
329,192,151058,1,0,0:0:0:0:
475,192,151058,1,0,0:0:0:0:
36,192,151878,1,0,0:0:0:0:
256,192,151878,1,0,0:0:0:0:
402,192,151878,1,0,0:0:0:0:
329,192,152083,1,0,0:0:0:0:
475,192,152083,1,0,0:0:0:0:
402,192,152288,1,0,0:0:0:0:
256,192,152288,1,0,0:0:0:0:
329,192,152493,1,0,0:0:0:0:
182,192,152493,1,0,0:0:0:0:
256,192,152698,1,0,0:0:0:0:
109,192,152698,1,0,0:0:0:0:
475,192,152698,1,0,0:0:0:0:
182,192,152903,1,0,0:0:0:0:
109,192,153108,1,0,0:0:0:0:
329,192,153108,1,0,0:0:0:0:
182,192,153313,1,0,0:0:0:0:
256,192,153518,1,0,0:0:0:0:
475,192,153518,1,0,0:0:0:0:
36,192,153518,1,0,0:0:0:0:
329,192,153724,1,0,0:0:0:0:
256,192,153929,1,0,0:0:0:0:
109,192,153929,1,0,0:0:0:0:
36,192,154134,1,0,0:0:0:0:
329,192,154134,1,0,0:0:0:0:
109,192,154202,1,0,0:0:0:0:
182,192,154270,1,0,0:0:0:0:
256,192,154339,1,0,0:0:0:0:
475,192,154339,1,0,0:0:0:0:
329,192,154544,1,0,0:0:0:0:
402,192,154749,1,0,0:0:0:0:
182,192,154749,1,0,0:0:0:0:
256,192,154954,1,0,0:0:0:0:
329,192,155159,1,0,0:0:0:0:
109,192,155159,1,0,0:0:0:0:
475,192,155159,1,0,0:0:0:0:
182,192,155364,1,0,0:0:0:0:
256,192,155569,1,0,0:0:0:0:
475,192,155569,1,0,0:0:0:0:
402,192,155774,1,0,0:0:0:0:
182,192,155774,1,0,0:0:0:0:
475,192,155979,1,0,0:0:0:0:
256,192,155979,1,0,0:0:0:0:
36,192,155979,1,0,0:0:0:0:
182,192,156184,1,0,0:0:0:0:
402,192,156184,1,0,0:0:0:0:
329,192,156389,1,0,0:0:0:0:
109,192,156389,1,0,0:0:0:0:
182,192,156594,1,0,0:0:0:0:
402,192,156594,1,0,0:0:0:0:
256,192,156799,1,0,0:0:0:0:
475,192,156799,1,0,0:0:0:0:
109,192,156799,1,0,0:0:0:0:
182,192,157004,1,0,0:0:0:0:
36,192,157004,1,0,0:0:0:0:
109,192,157210,1,0,0:0:0:0:
256,192,157210,1,0,0:0:0:0:
182,192,157415,1,0,0:0:0:0:
329,192,157415,1,0,0:0:0:0:
256,192,157620,1,0,0:0:0:0:
402,192,157620,1,0,0:0:0:0:
109,192,157620,1,0,0:0:0:0:
182,192,157825,1,0,0:0:0:0:
329,192,157825,1,0,0:0:0:0:
256,192,158030,1,0,0:0:0:0:
109,192,158030,1,0,0:0:0:0:
182,192,158235,1,0,0:0:0:0:
329,192,158235,1,0,0:0:0:0:
256,192,158440,1,0,0:0:0:0:
402,192,158440,1,0,0:0:0:0:
36,192,158440,1,0,0:0:0:0:
182,192,158645,1,0,0:0:0:0:
329,192,158645,1,0,0:0:0:0:
256,192,158850,1,0,0:0:0:0:
402,192,158850,1,0,0:0:0:0:
329,192,159055,1,0,0:0:0:0:
475,192,159055,1,0,0:0:0:0:
182,192,159158,1,0,0:0:0:0:
36,192,159158,1,0,0:0:0:0:
402,192,159260,1,0,0:0:0:0:
475,192,159260,1,0,0:0:0:0:
256,192,159260,128,0,160901:0:0:0:0:
109,192,159465,1,0,0:0:0:0:
402,192,159670,1,0,0:0:0:0:
182,192,159875,1,0,0:0:0:0:
329,192,160080,1,0,0:0:0:0:
109,192,160285,1,0,0:0:0:0:
475,192,160490,1,0,0:0:0:0:
182,192,160696,1,0,0:0:0:0:
402,192,160696,1,0,0:0:0:0:
109,192,160901,128,0,162541:0:0:0:0:
475,192,160901,1,0,0:0:0:0:
329,192,160901,1,0,0:0:0:0:
256,192,161106,1,0,0:0:0:0:
402,192,161311,1,0,0:0:0:0:
182,192,161516,1,0,0:0:0:0:
329,192,161721,1,0,0:0:0:0:
475,192,161926,1,0,0:0:0:0:
256,192,162131,1,0,0:0:0:0:
329,192,162336,1,0,0:0:0:0:
475,192,162336,1,0,0:0:0:0:
256,192,162541,1,0,0:0:0:0:
36,192,162541,1,0,0:0:0:0:
402,192,162541,128,0,164182:0:0:0:0:
182,192,162746,1,0,0:0:0:0:
329,192,162951,1,0,0:0:0:0:
109,192,163156,1,0,0:0:0:0:
256,192,163361,1,0,0:0:0:0:
36,192,163566,1,0,0:0:0:0:
256,192,163771,1,0,0:0:0:0:
182,192,163976,1,0,0:0:0:0:
329,192,164182,1,0,0:0:0:0:
475,192,164182,1,0,0:0:0:0:
109,192,164182,1,0,0:0:0:0:
36,192,164182,1,0,0:0:0:0:
109,192,164284,1,0,0:0:0:0:
36,192,164284,1,0,0:0:0:0:
329,192,164284,1,0,0:0:0:0:
475,192,164284,1,0,0:0:0:0:
402,192,164387,1,0,0:0:0:0:
256,192,164387,1,0,0:0:0:0:
182,192,164387,1,0,0:0:0:0:
402,192,164592,1,0,0:0:0:0:
256,192,164592,1,0,0:0:0:0:
182,192,164592,1,0,0:0:0:0:
475,192,164797,5,0,0:0:0:0:
182,192,164797,1,0,0:0:0:0:
402,192,164797,1,0,0:0:0:0:
36,192,164797,1,0,0:0:0:0:
475,192,164899,1,0,0:0:0:0:
402,192,164899,1,0,0:0:0:0:
182,192,164899,1,0,0:0:0:0:
36,192,164899,1,0,0:0:0:0:
109,192,165002,1,0,0:0:0:0:
256,192,165002,1,0,0:0:0:0:
329,192,165002,1,0,0:0:0:0:
329,192,165207,1,0,0:0:0:0:
256,192,165207,1,0,0:0:0:0:
109,192,165207,1,0,0:0:0:0:
256,192,165412,1,0,0:0:0:0:
109,192,165412,1,0,0:0:0:0:
36,192,165412,1,0,0:0:0:0:
329,192,165412,1,0,0:0:0:0:
475,192,165412,1,0,0:0:0:0:
109,192,165822,128,0,166232:0:0:0:0:
475,192,165822,128,0,166232:0:0:0:0:
329,192,166232,1,0,0:0:0:0:
402,192,166232,1,0,0:0:0:0:
36,192,166232,1,0,0:0:0:0:
182,192,166335,1,0,0:0:0:0:
256,192,166335,1,0,0:0:0:0:
402,192,166437,1,0,0:0:0:0:
475,192,166437,1,0,0:0:0:0:
109,192,166437,1,0,0:0:0:0:
256,192,166540,1,0,0:0:0:0:
329,192,166540,1,0,0:0:0:0:
182,192,166642,1,0,0:0:0:0:
475,192,166642,1,0,0:0:0:0:
36,192,166642,1,0,0:0:0:0:
329,192,166745,1,0,0:0:0:0:
402,192,166745,1,0,0:0:0:0:
109,192,166847,1,0,0:0:0:0:
256,192,166847,1,0,0:0:0:0:
36,192,166847,1,0,0:0:0:0:
402,192,166950,1,0,0:0:0:0:
475,192,166950,1,0,0:0:0:0:
182,192,167052,1,0,0:0:0:0:
329,192,167052,1,0,0:0:0:0:
109,192,167052,1,0,0:0:0:0:
36,192,167052,1,0,0:0:0:0:
402,192,167155,1,0,0:0:0:0:
256,192,167155,1,0,0:0:0:0:
475,192,167257,1,0,0:0:0:0:
109,192,167257,1,0,0:0:0:0:
329,192,167257,1,0,0:0:0:0:
182,192,167360,1,0,0:0:0:0:
475,192,167462,1,0,0:0:0:0:
36,192,167462,1,0,0:0:0:0:
256,192,167462,1,0,0:0:0:0:
402,192,167462,1,0,0:0:0:0:
182,192,167565,1,0,0:0:0:0:
109,192,167668,1,0,0:0:0:0:
329,192,167668,1,0,0:0:0:0:
402,192,167668,1,0,0:0:0:0:
256,192,167770,1,0,0:0:0:0:
182,192,167873,1,0,0:0:0:0:
36,192,167873,1,0,0:0:0:0:
402,192,167873,1,0,0:0:0:0:
475,192,167873,1,0,0:0:0:0:
256,192,167975,1,0,0:0:0:0:
109,192,167975,1,0,0:0:0:0:
329,192,168078,1,0,0:0:0:0:
402,192,168078,1,0,0:0:0:0:
182,192,168078,1,0,0:0:0:0:
109,192,168180,1,0,0:0:0:0:
256,192,168283,1,0,0:0:0:0:
36,192,168283,1,0,0:0:0:0:
402,192,168283,1,0,0:0:0:0:
475,192,168283,1,0,0:0:0:0:
182,192,168385,1,0,0:0:0:0:
329,192,168385,1,0,0:0:0:0:
109,192,168488,1,0,0:0:0:0:
256,192,168488,1,0,0:0:0:0:
36,192,168488,1,0,0:0:0:0:
329,192,168590,1,0,0:0:0:0:
475,192,168693,1,0,0:0:0:0:
402,192,168693,1,0,0:0:0:0:
182,192,168693,1,0,0:0:0:0:
36,192,168693,1,0,0:0:0:0:
256,192,168795,1,0,0:0:0:0:
109,192,168795,1,0,0:0:0:0:
402,192,168898,1,0,0:0:0:0:
329,192,168898,1,0,0:0:0:0:
182,192,168898,1,0,0:0:0:0:
109,192,169000,1,0,0:0:0:0:
36,192,169103,1,0,0:0:0:0:
329,192,169103,1,0,0:0:0:0:
475,192,169103,1,0,0:0:0:0:
256,192,169103,1,0,0:0:0:0:
182,192,169205,1,0,0:0:0:0:
109,192,169308,1,0,0:0:0:0:
329,192,169308,1,0,0:0:0:0:
36,192,169308,1,0,0:0:0:0:
402,192,169410,1,0,0:0:0:0:
475,192,169513,1,0,0:0:0:0:
256,192,169513,1,0,0:0:0:0:
182,192,169513,1,0,0:0:0:0:
36,192,169513,1,0,0:0:0:0:
329,192,169616,1,0,0:0:0:0:
402,192,169718,1,0,0:0:0:0:
475,192,169718,1,0,0:0:0:0:
182,192,169718,1,0,0:0:0:0:
109,192,169821,1,0,0:0:0:0:
329,192,169821,1,0,0:0:0:0:
36,192,169923,1,0,0:0:0:0:
256,192,169923,1,0,0:0:0:0:
475,192,169923,1,0,0:0:0:0:
182,192,170026,1,0,0:0:0:0:
402,192,170026,1,0,0:0:0:0:
475,192,170128,1,0,0:0:0:0:
256,192,170128,1,0,0:0:0:0:
36,192,170128,1,0,0:0:0:0:
329,192,170231,1,0,0:0:0:0:
109,192,170231,1,0,0:0:0:0:
182,192,170333,1,0,0:0:0:0:
475,192,170333,1,0,0:0:0:0:
402,192,170333,1,0,0:0:0:0:
256,192,170436,1,0,0:0:0:0:
329,192,170436,1,0,0:0:0:0:
402,192,170538,1,0,0:0:0:0:
109,192,170538,1,0,0:0:0:0:
182,192,170538,1,0,0:0:0:0:
256,192,170641,1,0,0:0:0:0:
329,192,170641,1,0,0:0:0:0:
182,192,170743,1,0,0:0:0:0:
36,192,170743,1,0,0:0:0:0:
402,192,170743,1,0,0:0:0:0:
475,192,170743,1,0,0:0:0:0:
329,192,170846,1,0,0:0:0:0:
256,192,170948,1,0,0:0:0:0:
109,192,170948,1,0,0:0:0:0:
475,192,170948,1,0,0:0:0:0:
402,192,171051,1,0,0:0:0:0:
329,192,171153,1,0,0:0:0:0:
36,192,171153,1,0,0:0:0:0:
182,192,171153,1,0,0:0:0:0:
109,192,171153,1,0,0:0:0:0:
256,192,171256,1,0,0:0:0:0:
402,192,171256,1,0,0:0:0:0:
329,192,171359,1,0,0:0:0:0:
475,192,171359,1,0,0:0:0:0:
109,192,171359,1,0,0:0:0:0:
182,192,171461,1,0,0:0:0:0:
256,192,171461,1,0,0:0:0:0:
402,192,171564,1,0,0:0:0:0:
475,192,171564,1,0,0:0:0:0:
36,192,171564,1,0,0:0:0:0:
109,192,171564,1,0,0:0:0:0:
256,192,171666,1,0,0:0:0:0:
329,192,171666,1,0,0:0:0:0:
182,192,171769,1,0,0:0:0:0:
109,192,171769,1,0,0:0:0:0:
475,192,171769,1,0,0:0:0:0:
256,192,171871,1,0,0:0:0:0:
329,192,171871,1,0,0:0:0:0:
109,192,171974,1,0,0:0:0:0:
36,192,171974,1,0,0:0:0:0:
475,192,171974,1,0,0:0:0:0:
402,192,171974,1,0,0:0:0:0:
182,192,172076,1,0,0:0:0:0:
256,192,172179,1,0,0:0:0:0:
329,192,172179,1,0,0:0:0:0:
36,192,172179,1,0,0:0:0:0:
109,192,172281,1,0,0:0:0:0:
182,192,172384,1,0,0:0:0:0:
256,192,172384,1,0,0:0:0:0:
402,192,172384,1,0,0:0:0:0:
475,192,172384,1,0,0:0:0:0:
36,192,172486,1,0,0:0:0:0:
109,192,172589,1,0,0:0:0:0:
182,192,172589,1,0,0:0:0:0:
329,192,172589,1,0,0:0:0:0:
402,192,172589,1,0,0:0:0:0:
475,192,172691,1,0,0:0:0:0:
36,192,172794,1,0,0:0:0:0:
109,192,172794,1,0,0:0:0:0:
256,192,172794,1,0,0:0:0:0:
329,192,172794,1,0,0:0:0:0:
475,192,172896,1,0,0:0:0:0:
182,192,172999,1,0,0:0:0:0:
109,192,172999,1,0,0:0:0:0:
329,192,172999,1,0,0:0:0:0:
402,192,172999,1,0,0:0:0:0:
36,192,173102,1,0,0:0:0:0:
182,192,173204,1,0,0:0:0:0:
256,192,173204,1,0,0:0:0:0:
402,192,173204,1,0,0:0:0:0:
475,192,173204,1,0,0:0:0:0:
329,192,173307,1,0,0:0:0:0:
109,192,173307,1,0,0:0:0:0:
256,192,173409,1,0,0:0:0:0:
36,192,173409,1,0,0:0:0:0:
475,192,173409,1,0,0:0:0:0:
402,192,173512,1,0,0:0:0:0:
182,192,173512,1,0,0:0:0:0:
329,192,173614,1,0,0:0:0:0:
109,192,173614,1,0,0:0:0:0:
36,192,173614,1,0,0:0:0:0:
256,192,173614,1,0,0:0:0:0:
475,192,173717,1,0,0:0:0:0:
109,192,173819,1,0,0:0:0:0:
182,192,173819,1,0,0:0:0:0:
402,192,173819,1,0,0:0:0:0:
329,192,173819,1,0,0:0:0:0:
36,192,173922,1,0,0:0:0:0:
182,192,174024,1,0,0:0:0:0:
256,192,174024,1,0,0:0:0:0:
402,192,174024,1,0,0:0:0:0:
475,192,174024,1,0,0:0:0:0:
36,192,174127,1,0,0:0:0:0:
109,192,174229,1,0,0:0:0:0:
182,192,174229,1,0,0:0:0:0:
329,192,174229,1,0,0:0:0:0:
402,192,174229,1,0,0:0:0:0:
475,192,174332,1,0,0:0:0:0:
109,192,174434,1,0,0:0:0:0:
36,192,174434,1,0,0:0:0:0:
329,192,174434,1,0,0:0:0:0:
256,192,174434,1,0,0:0:0:0:
402,192,174537,1,0,0:0:0:0:
182,192,174537,1,0,0:0:0:0:
475,192,174639,1,0,0:0:0:0:
256,192,174639,1,0,0:0:0:0:
36,192,174639,1,0,0:0:0:0:
109,192,174742,1,0,0:0:0:0:
329,192,174742,1,0,0:0:0:0:
182,192,174845,1,0,0:0:0:0:
402,192,174845,1,0,0:0:0:0:
475,192,174845,1,0,0:0:0:0:
256,192,174947,1,0,0:0:0:0:
36,192,174947,1,0,0:0:0:0:
329,192,175050,1,0,0:0:0:0:
109,192,175050,1,0,0:0:0:0:
402,192,175050,1,0,0:0:0:0:
182,192,175152,1,0,0:0:0:0:
256,192,175255,1,0,0:0:0:0:
36,192,175255,1,0,0:0:0:0:
329,192,175255,1,0,0:0:0:0:
475,192,175255,1,0,0:0:0:0:
109,192,175357,1,0,0:0:0:0:
182,192,175357,1,0,0:0:0:0:
256,192,175460,1,0,0:0:0:0:
475,192,175460,1,0,0:0:0:0:
36,192,175460,1,0,0:0:0:0:
329,192,175562,1,0,0:0:0:0:
402,192,175562,1,0,0:0:0:0:
182,192,175665,1,0,0:0:0:0:
256,192,175665,1,0,0:0:0:0:
475,192,175665,1,0,0:0:0:0:
36,192,175665,1,0,0:0:0:0:
329,192,175767,1,0,0:0:0:0:
402,192,175870,1,0,0:0:0:0:
109,192,175870,1,0,0:0:0:0:
182,192,175870,1,0,0:0:0:0:
329,192,175972,1,0,0:0:0:0:
256,192,176075,1,0,0:0:0:0:
109,192,176075,1,0,0:0:0:0:
36,192,176075,1,0,0:0:0:0:
475,192,176075,1,0,0:0:0:0:
402,192,176075,1,0,0:0:0:0:
182,192,176177,1,0,0:0:0:0:
109,192,176280,1,0,0:0:0:0:
329,192,176280,1,0,0:0:0:0:
402,192,176280,1,0,0:0:0:0:
182,192,176382,1,0,0:0:0:0:
256,192,176485,1,0,0:0:0:0:
402,192,176485,1,0,0:0:0:0:
475,192,176485,1,0,0:0:0:0:
36,192,176485,1,0,0:0:0:0:
329,192,176588,1,0,0:0:0:0:
402,192,176690,1,0,0:0:0:0:
109,192,176690,1,0,0:0:0:0:
182,192,176690,1,0,0:0:0:0:
329,192,176793,1,0,0:0:0:0:
256,192,176895,1,0,0:0:0:0:
109,192,176895,1,0,0:0:0:0:
36,192,176895,1,0,0:0:0:0:
475,192,176895,1,0,0:0:0:0:
402,192,176895,1,0,0:0:0:0:
182,192,176998,1,0,0:0:0:0:
109,192,177100,1,0,0:0:0:0:
329,192,177100,1,0,0:0:0:0:
402,192,177100,1,0,0:0:0:0:
256,192,177203,1,0,0:0:0:0:
182,192,177305,1,0,0:0:0:0:
36,192,177305,1,0,0:0:0:0:
402,192,177305,1,0,0:0:0:0:
475,192,177305,1,0,0:0:0:0:
402,192,177408,1,0,0:0:0:0:
475,192,177408,1,0,0:0:0:0:
182,192,177408,1,0,0:0:0:0:
36,192,177408,1,0,0:0:0:0:
109,192,177510,1,0,0:0:0:0:
256,192,177510,1,0,0:0:0:0:
329,192,177510,1,0,0:0:0:0:
109,192,177715,1,0,0:0:0:0:
256,192,177715,1,0,0:0:0:0:
329,192,177715,1,0,0:0:0:0:
36,192,177920,1,0,0:0:0:0:
109,192,177920,1,0,0:0:0:0:
329,192,177920,1,0,0:0:0:0:
475,192,177920,1,0,0:0:0:0:
36,192,178023,1,0,0:0:0:0:
109,192,178023,1,0,0:0:0:0:
329,192,178023,1,0,0:0:0:0:
475,192,178023,1,0,0:0:0:0:
402,192,178125,1,0,0:0:0:0:
256,192,178125,1,0,0:0:0:0:
182,192,178125,1,0,0:0:0:0:
109,192,178228,1,0,0:0:0:0:
36,192,178228,1,0,0:0:0:0:
256,192,178331,1,0,0:0:0:0:
329,192,178331,1,0,0:0:0:0:
475,192,178331,1,0,0:0:0:0:
182,192,178433,1,0,0:0:0:0:
109,192,178536,1,0,0:0:0:0:
36,192,178536,1,0,0:0:0:0:
329,192,178536,1,0,0:0:0:0:
475,192,178536,1,0,0:0:0:0:
329,192,178741,1,0,0:0:0:0:
475,192,178741,1,0,0:0:0:0:
109,192,178741,1,0,0:0:0:0:
36,192,178741,1,0,0:0:0:0:
256,192,178946,5,0,0:0:0:0:
329,192,178946,1,0,0:0:0:0:
109,192,178946,1,0,0:0:0:0:
36,192,178946,1,0,0:0:0:0:
402,192,179048,1,0,0:0:0:0:
475,192,179048,1,0,0:0:0:0:
256,192,179151,1,0,0:0:0:0:
182,192,179151,1,0,0:0:0:0:
36,192,179151,1,0,0:0:0:0:
402,192,179253,1,0,0:0:0:0:
329,192,179253,1,0,0:0:0:0:
182,192,179356,1,0,0:0:0:0:
109,192,179356,1,0,0:0:0:0:
475,192,179356,1,0,0:0:0:0:
329,192,179458,1,0,0:0:0:0:
256,192,179458,1,0,0:0:0:0:
109,192,179561,1,0,0:0:0:0:
36,192,179561,1,0,0:0:0:0:
402,192,179561,1,0,0:0:0:0:
256,192,179663,1,0,0:0:0:0:
182,192,179663,1,0,0:0:0:0:
329,192,179766,1,0,0:0:0:0:
36,192,179766,1,0,0:0:0:0:
475,192,179766,1,0,0:0:0:0:
182,192,179868,1,0,0:0:0:0:
109,192,179868,1,0,0:0:0:0:
402,192,179971,1,0,0:0:0:0:
256,192,179971,1,0,0:0:0:0:
475,192,179971,1,0,0:0:0:0:
109,192,180074,1,0,0:0:0:0:
36,192,180074,1,0,0:0:0:0:
329,192,180176,1,0,0:0:0:0:
182,192,180176,1,0,0:0:0:0:
402,192,180176,1,0,0:0:0:0:
475,192,180176,1,0,0:0:0:0:
109,192,180279,1,0,0:0:0:0:
256,192,180279,1,0,0:0:0:0:
36,192,180381,1,0,0:0:0:0:
402,192,180381,1,0,0:0:0:0:
182,192,180381,1,0,0:0:0:0:
329,192,180484,1,0,0:0:0:0:
36,192,180586,1,0,0:0:0:0:
475,192,180586,1,0,0:0:0:0:
256,192,180586,1,0,0:0:0:0:
109,192,180586,1,0,0:0:0:0:
329,192,180689,1,0,0:0:0:0:
402,192,180791,1,0,0:0:0:0:
182,192,180791,1,0,0:0:0:0:
109,192,180791,1,0,0:0:0:0:
256,192,180894,1,0,0:0:0:0:
329,192,180996,1,0,0:0:0:0:
475,192,180996,1,0,0:0:0:0:
109,192,180996,1,0,0:0:0:0:
36,192,180996,1,0,0:0:0:0:
256,192,181099,1,0,0:0:0:0:
402,192,181099,1,0,0:0:0:0:
182,192,181201,1,0,0:0:0:0:
109,192,181201,1,0,0:0:0:0:
329,192,181201,1,0,0:0:0:0:
402,192,181304,1,0,0:0:0:0:
256,192,181406,1,0,0:0:0:0:
475,192,181406,1,0,0:0:0:0:
109,192,181406,1,0,0:0:0:0:
36,192,181406,1,0,0:0:0:0:
329,192,181509,1,0,0:0:0:0:
182,192,181509,1,0,0:0:0:0:
402,192,181611,1,0,0:0:0:0:
256,192,181611,1,0,0:0:0:0:
475,192,181611,1,0,0:0:0:0:
182,192,181714,1,0,0:0:0:0:
36,192,181817,1,0,0:0:0:0:
109,192,181817,1,0,0:0:0:0:
329,192,181817,1,0,0:0:0:0:
475,192,181817,1,0,0:0:0:0:
256,192,181919,1,0,0:0:0:0:
402,192,181919,1,0,0:0:0:0:
109,192,182022,1,0,0:0:0:0:
182,192,182022,1,0,0:0:0:0:
329,192,182022,1,0,0:0:0:0:
402,192,182124,1,0,0:0:0:0:
475,192,182227,1,0,0:0:0:0:
182,192,182227,1,0,0:0:0:0:
36,192,182227,1,0,0:0:0:0:
256,192,182227,1,0,0:0:0:0:
329,192,182329,1,0,0:0:0:0:
402,192,182432,1,0,0:0:0:0:
182,192,182432,1,0,0:0:0:0:
475,192,182432,1,0,0:0:0:0:
109,192,182534,1,0,0:0:0:0:
329,192,182637,1,0,0:0:0:0:
475,192,182637,1,0,0:0:0:0:
36,192,182637,1,0,0:0:0:0:
256,192,182637,1,0,0:0:0:0:
182,192,182739,1,0,0:0:0:0:
329,192,182842,1,0,0:0:0:0:
36,192,182842,1,0,0:0:0:0:
109,192,182842,1,0,0:0:0:0:
182,192,182944,1,0,0:0:0:0:
402,192,182944,1,0,0:0:0:0:
36,192,183047,1,0,0:0:0:0:
256,192,183047,1,0,0:0:0:0:
475,192,183047,1,0,0:0:0:0:
109,192,183149,1,0,0:0:0:0:
329,192,183149,1,0,0:0:0:0:
475,192,183252,1,0,0:0:0:0:
256,192,183252,1,0,0:0:0:0:
36,192,183252,1,0,0:0:0:0:
402,192,183354,1,0,0:0:0:0:
182,192,183354,1,0,0:0:0:0:
36,192,183457,1,0,0:0:0:0:
109,192,183457,1,0,0:0:0:0:
329,192,183457,1,0,0:0:0:0:
182,192,183560,1,0,0:0:0:0:
256,192,183560,1,0,0:0:0:0:
329,192,183662,1,0,0:0:0:0:
402,192,183662,1,0,0:0:0:0:
109,192,183662,1,0,0:0:0:0:
182,192,183765,1,0,0:0:0:0:
256,192,183765,1,0,0:0:0:0:
329,192,183867,1,0,0:0:0:0:
475,192,183867,1,0,0:0:0:0:
109,192,183867,1,0,0:0:0:0:
36,192,183867,1,0,0:0:0:0:
182,192,183970,1,0,0:0:0:0:
402,192,184072,1,0,0:0:0:0:
475,192,184072,1,0,0:0:0:0:
329,192,184072,1,0,0:0:0:0:
109,192,184072,1,0,0:0:0:0:
256,192,184175,1,0,0:0:0:0:
475,192,184277,1,0,0:0:0:0:
36,192,184277,1,0,0:0:0:0:
402,192,184277,1,0,0:0:0:0:
182,192,184277,1,0,0:0:0:0:
329,192,184380,1,0,0:0:0:0:
402,192,184482,1,0,0:0:0:0:
182,192,184482,1,0,0:0:0:0:
109,192,184482,1,0,0:0:0:0:
36,192,184482,1,0,0:0:0:0:
256,192,184585,1,0,0:0:0:0:
329,192,184687,1,0,0:0:0:0:
475,192,184687,1,0,0:0:0:0:
109,192,184687,1,0,0:0:0:0:
36,192,184687,1,0,0:0:0:0:
182,192,184790,1,0,0:0:0:0:
256,192,184790,1,0,0:0:0:0:
402,192,184892,1,0,0:0:0:0:
329,192,184892,1,0,0:0:0:0:
36,192,184892,1,0,0:0:0:0:
109,192,184995,1,0,0:0:0:0:
182,192,184995,1,0,0:0:0:0:
256,192,185097,1,0,0:0:0:0:
475,192,185097,1,0,0:0:0:0:
402,192,185097,1,0,0:0:0:0:
36,192,185097,1,0,0:0:0:0:
182,192,185200,1,0,0:0:0:0:
329,192,185302,1,0,0:0:0:0:
109,192,185302,1,0,0:0:0:0:
402,192,185302,1,0,0:0:0:0:
475,192,185302,1,0,0:0:0:0:
182,192,185405,1,0,0:0:0:0:
256,192,185508,1,0,0:0:0:0:
402,192,185508,1,0,0:0:0:0:
475,192,185508,1,0,0:0:0:0:
36,192,185508,1,0,0:0:0:0:
109,192,185610,1,0,0:0:0:0:
182,192,185713,1,0,0:0:0:0:
256,192,185713,1,0,0:0:0:0:
402,192,185713,1,0,0:0:0:0:
475,192,185713,1,0,0:0:0:0:
36,192,185815,1,0,0:0:0:0:
109,192,185918,1,0,0:0:0:0:
182,192,185918,1,0,0:0:0:0:
329,192,185918,1,0,0:0:0:0:
402,192,185918,1,0,0:0:0:0:
475,192,186020,1,0,0:0:0:0:
329,192,186123,1,0,0:0:0:0:
256,192,186123,1,0,0:0:0:0:
109,192,186123,1,0,0:0:0:0:
36,192,186123,1,0,0:0:0:0:
402,192,186225,1,0,0:0:0:0:
475,192,186328,1,0,0:0:0:0:
256,192,186328,1,0,0:0:0:0:
182,192,186328,1,0,0:0:0:0:
36,192,186328,1,0,0:0:0:0:
329,192,186430,1,0,0:0:0:0:
402,192,186533,1,0,0:0:0:0:
109,192,186533,1,0,0:0:0:0:
182,192,186533,1,0,0:0:0:0:
329,192,186635,1,0,0:0:0:0:
256,192,186738,1,0,0:0:0:0:
36,192,186738,1,0,0:0:0:0:
109,192,186738,1,0,0:0:0:0:
475,192,186738,1,0,0:0:0:0:
329,192,186840,1,0,0:0:0:0:
182,192,186943,1,0,0:0:0:0:
36,192,186943,1,0,0:0:0:0:
109,192,186943,1,0,0:0:0:0:
402,192,186943,1,0,0:0:0:0:
329,192,187045,1,0,0:0:0:0:
256,192,187148,1,0,0:0:0:0:
109,192,187148,1,0,0:0:0:0:
36,192,187148,1,0,0:0:0:0:
475,192,187148,1,0,0:0:0:0:
402,192,187251,1,0,0:0:0:0:
329,192,187353,1,0,0:0:0:0:
256,192,187353,1,0,0:0:0:0:
109,192,187353,1,0,0:0:0:0:
36,192,187353,1,0,0:0:0:0:
475,192,187456,1,0,0:0:0:0:
402,192,187558,1,0,0:0:0:0:
329,192,187558,1,0,0:0:0:0:
182,192,187558,1,0,0:0:0:0:
109,192,187558,1,0,0:0:0:0:
36,192,187661,1,0,0:0:0:0:
182,192,187763,1,0,0:0:0:0:
256,192,187763,1,0,0:0:0:0:
402,192,187763,1,0,0:0:0:0:
475,192,187763,1,0,0:0:0:0:
109,192,187866,1,0,0:0:0:0:
36,192,187968,1,0,0:0:0:0:
256,192,187968,1,0,0:0:0:0:
329,192,187968,1,0,0:0:0:0:
475,192,187968,1,0,0:0:0:0:
182,192,188071,1,0,0:0:0:0:
109,192,188173,1,0,0:0:0:0:
402,192,188173,1,0,0:0:0:0:
329,192,188173,1,0,0:0:0:0:
182,192,188276,1,0,0:0:0:0:
256,192,188378,1,0,0:0:0:0:
475,192,188378,1,0,0:0:0:0:
402,192,188378,1,0,0:0:0:0:
36,192,188378,1,0,0:0:0:0:
182,192,188481,1,0,0:0:0:0:
329,192,188583,1,0,0:0:0:0:
475,192,188583,1,0,0:0:0:0:
402,192,188583,1,0,0:0:0:0:
109,192,188583,1,0,0:0:0:0:
182,192,188686,1,0,0:0:0:0:
256,192,188788,1,0,0:0:0:0:
402,192,188788,1,0,0:0:0:0:
36,192,188788,1,0,0:0:0:0:
475,192,188788,1,0,0:0:0:0:
109,192,188891,1,0,0:0:0:0:
329,192,188891,1,0,0:0:0:0:
182,192,188994,1,0,0:0:0:0:
402,192,188994,1,0,0:0:0:0:
256,192,188994,1,0,0:0:0:0:
36,192,189096,1,0,0:0:0:0:
109,192,189199,1,0,0:0:0:0:
256,192,189199,1,0,0:0:0:0:
329,192,189199,1,0,0:0:0:0:
475,192,189199,1,0,0:0:0:0:
182,192,189301,1,0,0:0:0:0:
402,192,189404,1,0,0:0:0:0:
475,192,189404,1,0,0:0:0:0:
256,192,189404,1,0,0:0:0:0:
36,192,189404,1,0,0:0:0:0:
256,192,189609,1,0,0:0:0:0:
109,192,189609,1,0,0:0:0:0:
36,192,189609,1,0,0:0:0:0:
475,192,189609,1,0,0:0:0:0:
402,192,189711,1,0,0:0:0:0:
182,192,189711,1,0,0:0:0:0:
329,192,189814,1,0,0:0:0:0:
109,192,189814,1,0,0:0:0:0:
256,192,189814,1,0,0:0:0:0:
475,192,189916,1,0,0:0:0:0:
402,192,190019,1,0,0:0:0:0:
256,192,190019,1,0,0:0:0:0:
182,192,190019,1,0,0:0:0:0:
36,192,190019,1,0,0:0:0:0:
329,192,190121,1,0,0:0:0:0:
256,192,190224,1,0,0:0:0:0:
109,192,190224,1,0,0:0:0:0:
36,192,190224,1,0,0:0:0:0:
475,192,190224,1,0,0:0:0:0:
109,192,190429,1,0,0:0:0:0:
36,192,190429,1,0,0:0:0:0:
256,192,190429,1,0,0:0:0:0:
402,192,190429,1,0,0:0:0:0:
329,192,190634,1,0,0:0:0:0:
182,192,190634,1,0,0:0:0:0:
475,192,190634,1,0,0:0:0:0:
402,192,190839,1,0,0:0:0:0:
256,192,190839,1,0,0:0:0:0:
36,192,190839,1,0,0:0:0:0:
475,192,190839,1,0,0:0:0:0:
329,192,191044,1,0,0:0:0:0:
182,192,191044,1,0,0:0:0:0:
109,192,191044,1,0,0:0:0:0:
402,192,191249,1,0,0:0:0:0:
475,192,191249,1,0,0:0:0:0:
256,192,191249,1,0,0:0:0:0:
109,192,191352,1,0,0:0:0:0:
182,192,191352,1,0,0:0:0:0:
36,192,191352,1,0,0:0:0:0:
402,192,191454,1,0,0:0:0:0:
329,192,191454,1,0,0:0:0:0:
475,192,191454,1,0,0:0:0:0:
182,192,191557,1,0,0:0:0:0:
109,192,191557,1,0,0:0:0:0:
36,192,191557,1,0,0:0:0:0:
402,192,191659,1,0,0:0:0:0:
256,192,191659,1,0,0:0:0:0:
475,192,191659,1,0,0:0:0:0:
182,192,191762,1,0,0:0:0:0:
109,192,191864,1,0,0:0:0:0:
329,192,191864,1,0,0:0:0:0:
256,192,191967,1,0,0:0:0:0:
182,192,192069,1,0,0:0:0:0:
402,192,192069,1,0,0:0:0:0:
475,192,192069,1,0,0:0:0:0:
36,192,192069,128,0,192582:0:0:0:0:
256,192,192274,1,0,0:0:0:0:
329,192,192480,1,0,0:0:0:0:
475,192,192685,1,0,0:0:0:0:
402,192,192685,1,0,0:0:0:0:
182,192,192685,1,0,0:0:0:0:
36,192,192685,128,0,193402:0:0:0:0:
256,192,193095,1,0,0:0:0:0:
329,192,193300,1,0,0:0:0:0:
402,192,193505,1,0,0:0:0:0:
475,192,193505,1,0,0:0:0:0:
182,192,193505,1,0,0:0:0:0:
36,192,193505,1,0,0:0:0:0:
329,192,193710,1,0,0:0:0:0:
475,192,193710,1,0,0:0:0:0:
256,192,193812,1,0,0:0:0:0:
182,192,193915,1,0,0:0:0:0:
36,192,193915,1,0,0:0:0:0:
109,192,194120,1,0,0:0:0:0:
402,192,194120,1,0,0:0:0:0:
329,192,194325,5,0,0:0:0:0:
402,192,194325,1,0,0:0:0:0:
256,192,194428,1,0,0:0:0:0:
109,192,194530,1,0,0:0:0:0:
182,192,194530,1,0,0:0:0:0:
36,192,194735,1,0,0:0:0:0:
182,192,194735,1,0,0:0:0:0:
329,192,194735,1,0,0:0:0:0:
475,192,194735,1,0,0:0:0:0:
402,192,194940,1,0,0:0:0:0:
256,192,194940,1,0,0:0:0:0:
109,192,194940,1,0,0:0:0:0:
36,192,195350,5,0,0:0:0:0:
182,192,195350,1,0,0:0:0:0:
475,192,195350,1,0,0:0:0:0:
402,192,195350,1,0,0:0:0:0:
256,192,195453,1,0,0:0:0:0:
475,192,195555,1,0,0:0:0:0:
109,192,195555,1,0,0:0:0:0:
329,192,195555,1,0,0:0:0:0:
256,192,195658,1,0,0:0:0:0:
182,192,195760,1,0,0:0:0:0:
36,192,195760,1,0,0:0:0:0:
475,192,195760,1,0,0:0:0:0:
402,192,195760,1,0,0:0:0:0:
329,192,195863,1,0,0:0:0:0:
109,192,195966,1,0,0:0:0:0:
475,192,195966,1,0,0:0:0:0:
256,192,195966,1,0,0:0:0:0:
329,192,196068,1,0,0:0:0:0:
402,192,196171,1,0,0:0:0:0:
36,192,196171,1,0,0:0:0:0:
182,192,196171,1,0,0:0:0:0:
256,192,196273,1,0,0:0:0:0:
475,192,196273,1,0,0:0:0:0:
182,192,196376,1,0,0:0:0:0:
36,192,196376,1,0,0:0:0:0:
402,192,196376,1,0,0:0:0:0:
256,192,196478,1,0,0:0:0:0:
109,192,196478,1,0,0:0:0:0:
329,192,196581,1,0,0:0:0:0:
182,192,196581,1,0,0:0:0:0:
475,192,196581,1,0,0:0:0:0:
402,192,196581,1,0,0:0:0:0:
109,192,196683,1,0,0:0:0:0:
36,192,196786,1,0,0:0:0:0:
256,192,196786,1,0,0:0:0:0:
402,192,196786,1,0,0:0:0:0:
109,192,196888,1,0,0:0:0:0:
182,192,196991,1,0,0:0:0:0:
329,192,196991,1,0,0:0:0:0:
475,192,196991,1,0,0:0:0:0:
109,192,197093,1,0,0:0:0:0:
36,192,197196,1,0,0:0:0:0:
256,192,197196,1,0,0:0:0:0:
402,192,197196,1,0,0:0:0:0:
182,192,197298,1,0,0:0:0:0:
109,192,197401,1,0,0:0:0:0:
329,192,197401,1,0,0:0:0:0:
475,192,197401,1,0,0:0:0:0:
36,192,197401,1,0,0:0:0:0:
256,192,197503,1,0,0:0:0:0:
182,192,197606,1,0,0:0:0:0:
402,192,197606,1,0,0:0:0:0:
36,192,197606,1,0,0:0:0:0:
329,192,197709,1,0,0:0:0:0:
256,192,197811,1,0,0:0:0:0:
475,192,197811,1,0,0:0:0:0:
109,192,197811,1,0,0:0:0:0:
402,192,197914,1,0,0:0:0:0:
329,192,198016,1,0,0:0:0:0:
182,192,198016,1,0,0:0:0:0:
36,192,198016,1,0,0:0:0:0:
256,192,198119,1,0,0:0:0:0:
402,192,198119,1,0,0:0:0:0:
329,192,198221,1,0,0:0:0:0:
475,192,198221,1,0,0:0:0:0:
109,192,198221,1,0,0:0:0:0:
36,192,198221,1,0,0:0:0:0:
182,192,198324,1,0,0:0:0:0:
256,192,198324,1,0,0:0:0:0:
329,192,198426,1,0,0:0:0:0:
402,192,198426,1,0,0:0:0:0:
36,192,198426,1,0,0:0:0:0:
109,192,198529,1,0,0:0:0:0:
182,192,198529,1,0,0:0:0:0:
402,192,198631,1,0,0:0:0:0:
475,192,198631,1,0,0:0:0:0:
256,192,198631,1,0,0:0:0:0:
109,192,198734,1,0,0:0:0:0:
36,192,198734,1,0,0:0:0:0:
182,192,198836,1,0,0:0:0:0:
329,192,198836,1,0,0:0:0:0:
402,192,198836,1,0,0:0:0:0:
475,192,198939,1,0,0:0:0:0:
36,192,198939,1,0,0:0:0:0:
109,192,199041,1,0,0:0:0:0:
256,192,199041,1,0,0:0:0:0:
329,192,199041,1,0,0:0:0:0:
402,192,199144,1,0,0:0:0:0:
475,192,199144,1,0,0:0:0:0:
256,192,199246,1,0,0:0:0:0:
182,192,199246,1,0,0:0:0:0:
36,192,199246,1,0,0:0:0:0:
402,192,199349,1,0,0:0:0:0:
329,192,199349,1,0,0:0:0:0:
475,192,199452,1,0,0:0:0:0:
182,192,199452,1,0,0:0:0:0:
109,192,199452,1,0,0:0:0:0:
256,192,199554,1,0,0:0:0:0:
329,192,199554,1,0,0:0:0:0:
402,192,199657,1,0,0:0:0:0:
109,192,199657,1,0,0:0:0:0:
36,192,199657,1,0,0:0:0:0:
182,192,199759,1,0,0:0:0:0:
256,192,199759,1,0,0:0:0:0:
329,192,199862,1,0,0:0:0:0:
36,192,199862,1,0,0:0:0:0:
475,192,199862,1,0,0:0:0:0:
109,192,199964,1,0,0:0:0:0:
182,192,199964,1,0,0:0:0:0:
256,192,200067,1,0,0:0:0:0:
402,192,200067,1,0,0:0:0:0:
475,192,200067,1,0,0:0:0:0:
36,192,200169,1,0,0:0:0:0:
109,192,200169,1,0,0:0:0:0:
329,192,200272,1,0,0:0:0:0:
182,192,200272,1,0,0:0:0:0:
256,192,200272,1,0,0:0:0:0:
402,192,200374,1,0,0:0:0:0:
475,192,200477,1,0,0:0:0:0:
256,192,200477,1,0,0:0:0:0:
109,192,200477,1,0,0:0:0:0:
329,192,200579,1,0,0:0:0:0:
402,192,200682,1,0,0:0:0:0:
182,192,200682,1,0,0:0:0:0:
36,192,200682,1,0,0:0:0:0:
475,192,200682,1,0,0:0:0:0:
256,192,200784,1,0,0:0:0:0:
329,192,200887,1,0,0:0:0:0:
109,192,200887,1,0,0:0:0:0:
475,192,200887,1,0,0:0:0:0:
402,192,200989,1,0,0:0:0:0:
256,192,200989,1,0,0:0:0:0:
36,192,201092,1,0,0:0:0:0:
329,192,201092,1,0,0:0:0:0:
182,192,201092,1,0,0:0:0:0:
402,192,201195,1,0,0:0:0:0:
109,192,201195,1,0,0:0:0:0:
182,192,201297,1,0,0:0:0:0:
329,192,201297,1,0,0:0:0:0:
475,192,201297,1,0,0:0:0:0:
109,192,201400,1,0,0:0:0:0:
36,192,201502,1,0,0:0:0:0:
256,192,201502,1,0,0:0:0:0:
402,192,201502,1,0,0:0:0:0:
475,192,201502,1,0,0:0:0:0:
182,192,201605,1,0,0:0:0:0:
109,192,201707,1,0,0:0:0:0:
329,192,201707,1,0,0:0:0:0:
402,192,201707,1,0,0:0:0:0:
182,192,201810,1,0,0:0:0:0:
256,192,201912,1,0,0:0:0:0:
402,192,201912,1,0,0:0:0:0:
475,192,201912,1,0,0:0:0:0:
36,192,201912,1,0,0:0:0:0:
182,192,202015,1,0,0:0:0:0:
109,192,202117,1,0,0:0:0:0:
329,192,202117,1,0,0:0:0:0:
36,192,202117,1,0,0:0:0:0:
402,192,202117,1,0,0:0:0:0:
256,192,202220,1,0,0:0:0:0:
182,192,202322,1,0,0:0:0:0:
36,192,202322,1,0,0:0:0:0:
402,192,202322,1,0,0:0:0:0:
475,192,202322,1,0,0:0:0:0:
109,192,202425,1,0,0:0:0:0:
256,192,202425,1,0,0:0:0:0:
329,192,202527,1,0,0:0:0:0:
182,192,202527,1,0,0:0:0:0:
402,192,202527,1,0,0:0:0:0:
109,192,202630,1,0,0:0:0:0:
402,192,202732,1,0,0:0:0:0:
475,192,202732,1,0,0:0:0:0:
36,192,202732,1,0,0:0:0:0:
256,192,202732,1,0,0:0:0:0:
182,192,202835,1,0,0:0:0:0:
36,192,202937,1,0,0:0:0:0:
109,192,202937,1,0,0:0:0:0:
329,192,202937,1,0,0:0:0:0:
256,192,203040,1,0,0:0:0:0:
36,192,203143,1,0,0:0:0:0:
182,192,203143,1,0,0:0:0:0:
402,192,203143,1,0,0:0:0:0:
475,192,203143,1,0,0:0:0:0:
256,192,203245,1,0,0:0:0:0:
109,192,203348,1,0,0:0:0:0:
329,192,203348,1,0,0:0:0:0:
36,192,203348,1,0,0:0:0:0:
182,192,203450,1,0,0:0:0:0:
402,192,203450,1,0,0:0:0:0:
256,192,203553,1,0,0:0:0:0:
475,192,203553,1,0,0:0:0:0:
36,192,203553,1,0,0:0:0:0:
329,192,203655,1,0,0:0:0:0:
109,192,203758,1,0,0:0:0:0:
475,192,203758,1,0,0:0:0:0:
256,192,203758,1,0,0:0:0:0:
402,192,203860,1,0,0:0:0:0:
182,192,203963,1,0,0:0:0:0:
36,192,203963,1,0,0:0:0:0:
329,192,203963,1,0,0:0:0:0:
256,192,204065,1,0,0:0:0:0:
402,192,204065,1,0,0:0:0:0:
329,192,204168,1,0,0:0:0:0:
109,192,204168,1,0,0:0:0:0:
475,192,204168,1,0,0:0:0:0:
182,192,204270,1,0,0:0:0:0:
256,192,204373,1,0,0:0:0:0:
402,192,204373,1,0,0:0:0:0:
36,192,204373,1,0,0:0:0:0:
475,192,204373,1,0,0:0:0:0:
182,192,204475,1,0,0:0:0:0:
109,192,204578,1,0,0:0:0:0:
36,192,204578,1,0,0:0:0:0:
329,192,204578,1,0,0:0:0:0:
402,192,204578,1,0,0:0:0:0:
256,192,204680,1,0,0:0:0:0:
182,192,204783,1,0,0:0:0:0:
109,192,204783,1,0,0:0:0:0:
402,192,204783,1,0,0:0:0:0:
475,192,204783,1,0,0:0:0:0:
256,192,204886,1,0,0:0:0:0:
329,192,204988,1,0,0:0:0:0:
402,192,204988,1,0,0:0:0:0:
36,192,204988,1,0,0:0:0:0:
109,192,204988,1,0,0:0:0:0:
182,192,205091,1,0,0:0:0:0:
256,192,205193,1,0,0:0:0:0:
475,192,205193,1,0,0:0:0:0:
402,192,205193,1,0,0:0:0:0:
36,192,205193,1,0,0:0:0:0:
182,192,205296,1,0,0:0:0:0:
109,192,205398,1,0,0:0:0:0:
329,192,205398,1,0,0:0:0:0:
182,192,205501,1,0,0:0:0:0:
402,192,205501,1,0,0:0:0:0:
36,192,205603,1,0,0:0:0:0:
256,192,205603,1,0,0:0:0:0:
109,192,205603,1,0,0:0:0:0:
475,192,205603,1,0,0:0:0:0:
329,192,205706,1,0,0:0:0:0:
182,192,205808,1,0,0:0:0:0:
402,192,205808,1,0,0:0:0:0:
329,192,205911,1,0,0:0:0:0:
109,192,205911,1,0,0:0:0:0:
402,192,206013,1,0,0:0:0:0:
475,192,206013,1,0,0:0:0:0:
256,192,206013,1,0,0:0:0:0:
36,192,206013,1,0,0:0:0:0:
182,192,206116,1,0,0:0:0:0:
329,192,206116,1,0,0:0:0:0:
109,192,206218,1,0,0:0:0:0:
256,192,206218,1,0,0:0:0:0:
475,192,206218,1,0,0:0:0:0:
402,192,206321,1,0,0:0:0:0:
36,192,206423,1,0,0:0:0:0:
182,192,206423,1,0,0:0:0:0:
329,192,206423,1,0,0:0:0:0:
256,192,206526,1,0,0:0:0:0:
109,192,206629,1,0,0:0:0:0:
475,192,206629,1,0,0:0:0:0:
329,192,206629,1,0,0:0:0:0:
402,192,206731,1,0,0:0:0:0:
256,192,206731,1,0,0:0:0:0:
329,192,206834,1,0,0:0:0:0:
182,192,206834,1,0,0:0:0:0:
36,192,206834,1,0,0:0:0:0:
36,192,206936,1,0,0:0:0:0:
182,192,206936,1,0,0:0:0:0:
329,192,206936,1,0,0:0:0:0:
402,192,207039,1,0,0:0:0:0:
475,192,207039,1,0,0:0:0:0:
256,192,207039,1,0,0:0:0:0:
402,192,207244,1,0,0:0:0:0:
475,192,207244,1,0,0:0:0:0:
256,192,207244,1,0,0:0:0:0:
182,192,207449,1,0,0:0:0:0:
329,192,207449,1,0,0:0:0:0:
475,192,207449,1,0,0:0:0:0:
475,192,207551,1,0,0:0:0:0:
329,192,207551,1,0,0:0:0:0:
182,192,207551,1,0,0:0:0:0:
256,192,207654,1,0,0:0:0:0:
109,192,207654,1,0,0:0:0:0:
36,192,207654,1,0,0:0:0:0:
402,192,207756,1,0,0:0:0:0:
475,192,207756,1,0,0:0:0:0:
329,192,207859,1,0,0:0:0:0:
109,192,207859,1,0,0:0:0:0:
182,192,207859,1,0,0:0:0:0:
402,192,207961,1,0,0:0:0:0:
475,192,207961,1,0,0:0:0:0:
256,192,208064,1,0,0:0:0:0:
36,192,208064,1,0,0:0:0:0:
109,192,208064,1,0,0:0:0:0:
329,192,208064,1,0,0:0:0:0:
329,192,208269,1,0,0:0:0:0:
256,192,208269,1,0,0:0:0:0:
109,192,208269,1,0,0:0:0:0:
36,192,208269,1,0,0:0:0:0:
36,192,208474,5,0,0:0:0:0:
182,192,208474,1,0,0:0:0:0:
475,192,208474,1,0,0:0:0:0:
402,192,208474,1,0,0:0:0:0:
256,192,208577,1,0,0:0:0:0:
475,192,208679,1,0,0:0:0:0:
109,192,208679,1,0,0:0:0:0:
329,192,208679,1,0,0:0:0:0:
256,192,208782,1,0,0:0:0:0:
182,192,208884,1,0,0:0:0:0:
36,192,208884,1,0,0:0:0:0:
475,192,208884,1,0,0:0:0:0:
402,192,208884,1,0,0:0:0:0:
329,192,208987,1,0,0:0:0:0:
109,192,209089,1,0,0:0:0:0:
475,192,209089,1,0,0:0:0:0:
256,192,209089,1,0,0:0:0:0:
329,192,209192,1,0,0:0:0:0:
402,192,209294,1,0,0:0:0:0:
36,192,209294,1,0,0:0:0:0:
182,192,209294,1,0,0:0:0:0:
256,192,209397,1,0,0:0:0:0:
475,192,209397,1,0,0:0:0:0:
182,192,209499,1,0,0:0:0:0:
36,192,209499,1,0,0:0:0:0:
402,192,209499,1,0,0:0:0:0:
256,192,209602,1,0,0:0:0:0:
109,192,209602,1,0,0:0:0:0:
329,192,209704,1,0,0:0:0:0:
182,192,209704,1,0,0:0:0:0:
475,192,209704,1,0,0:0:0:0:
402,192,209704,1,0,0:0:0:0:
109,192,209807,1,0,0:0:0:0:
36,192,209909,1,0,0:0:0:0:
256,192,209909,1,0,0:0:0:0:
402,192,209909,1,0,0:0:0:0:
109,192,210012,1,0,0:0:0:0:
182,192,210115,1,0,0:0:0:0:
329,192,210115,1,0,0:0:0:0:
475,192,210115,1,0,0:0:0:0:
36,192,210217,1,0,0:0:0:0:
109,192,210217,1,0,0:0:0:0:
256,192,210320,1,0,0:0:0:0:
402,192,210320,1,0,0:0:0:0:
109,192,210422,1,0,0:0:0:0:
182,192,210422,1,0,0:0:0:0:
329,192,210525,1,0,0:0:0:0:
475,192,210525,1,0,0:0:0:0:
36,192,210525,1,0,0:0:0:0:
182,192,210627,1,0,0:0:0:0:
256,192,210627,1,0,0:0:0:0:
402,192,210730,1,0,0:0:0:0:
36,192,210730,1,0,0:0:0:0:
109,192,210730,1,0,0:0:0:0:
256,192,210832,1,0,0:0:0:0:
329,192,210832,1,0,0:0:0:0:
109,192,210935,1,0,0:0:0:0:
182,192,210935,1,0,0:0:0:0:
475,192,210935,1,0,0:0:0:0:
329,192,211037,1,0,0:0:0:0:
402,192,211037,1,0,0:0:0:0:
182,192,211140,1,0,0:0:0:0:
256,192,211140,1,0,0:0:0:0:
36,192,211140,1,0,0:0:0:0:
402,192,211242,1,0,0:0:0:0:
475,192,211242,1,0,0:0:0:0:
256,192,211345,1,0,0:0:0:0:
329,192,211345,1,0,0:0:0:0:
109,192,211345,1,0,0:0:0:0:
475,192,211447,1,0,0:0:0:0:
36,192,211447,1,0,0:0:0:0:
329,192,211550,1,0,0:0:0:0:
402,192,211550,1,0,0:0:0:0:
182,192,211550,1,0,0:0:0:0:
109,192,211652,1,0,0:0:0:0:
36,192,211652,1,0,0:0:0:0:
475,192,211755,1,0,0:0:0:0:
402,192,211755,1,0,0:0:0:0:
256,192,211755,1,0,0:0:0:0:
329,192,211858,1,0,0:0:0:0:
36,192,211960,1,0,0:0:0:0:
182,192,211960,1,0,0:0:0:0:
402,192,211960,1,0,0:0:0:0:
256,192,212063,1,0,0:0:0:0:
329,192,212165,1,0,0:0:0:0:
475,192,212165,1,0,0:0:0:0:
36,192,212165,1,0,0:0:0:0:
109,192,212165,1,0,0:0:0:0:
182,192,212268,1,0,0:0:0:0:
402,192,212370,1,0,0:0:0:0:
36,192,212370,1,0,0:0:0:0:
256,192,212370,1,0,0:0:0:0:
182,192,212473,1,0,0:0:0:0:
109,192,212575,1,0,0:0:0:0:
475,192,212575,1,0,0:0:0:0:
329,192,212575,1,0,0:0:0:0:
256,192,212678,1,0,0:0:0:0:
36,192,212678,1,0,0:0:0:0:
329,192,212780,1,0,0:0:0:0:
475,192,212780,1,0,0:0:0:0:
109,192,212780,1,0,0:0:0:0:
256,192,212883,1,0,0:0:0:0:
402,192,212883,1,0,0:0:0:0:
182,192,212985,1,0,0:0:0:0:
329,192,212985,1,0,0:0:0:0:
36,192,212985,1,0,0:0:0:0:
109,192,212985,1,0,0:0:0:0:
402,192,213088,1,0,0:0:0:0:
475,192,213190,1,0,0:0:0:0:
256,192,213190,1,0,0:0:0:0:
109,192,213190,1,0,0:0:0:0:
402,192,213293,1,0,0:0:0:0:
475,192,213395,1,0,0:0:0:0:
182,192,213395,1,0,0:0:0:0:
36,192,213395,1,0,0:0:0:0:
256,192,213395,1,0,0:0:0:0:
329,192,213498,1,0,0:0:0:0:
402,192,213601,1,0,0:0:0:0:
182,192,213601,1,0,0:0:0:0:
475,192,213601,1,0,0:0:0:0:
109,192,213703,1,0,0:0:0:0:
36,192,213806,1,0,0:0:0:0:
256,192,213806,1,0,0:0:0:0:
329,192,213806,1,0,0:0:0:0:
475,192,213806,1,0,0:0:0:0:
182,192,213908,1,0,0:0:0:0:
109,192,214011,1,0,0:0:0:0:
36,192,214011,1,0,0:0:0:0:
329,192,214011,1,0,0:0:0:0:
402,192,214113,1,0,0:0:0:0:
182,192,214113,1,0,0:0:0:0:
475,192,214216,1,0,0:0:0:0:
256,192,214216,1,0,0:0:0:0:
109,192,214216,1,0,0:0:0:0:
36,192,214216,1,0,0:0:0:0:
329,192,214318,1,0,0:0:0:0:
36,192,214421,1,0,0:0:0:0:
256,192,214421,1,0,0:0:0:0:
475,192,214421,1,0,0:0:0:0:
182,192,214523,1,0,0:0:0:0:
475,192,214626,1,0,0:0:0:0:
329,192,214626,1,0,0:0:0:0:
36,192,214626,1,0,0:0:0:0:
109,192,214626,1,0,0:0:0:0:
256,192,214728,1,0,0:0:0:0:
182,192,214831,1,0,0:0:0:0:
109,192,214831,1,0,0:0:0:0:
402,192,214831,1,0,0:0:0:0:
475,192,214831,1,0,0:0:0:0:
256,192,214933,1,0,0:0:0:0:
109,192,215036,1,0,0:0:0:0:
36,192,215036,1,0,0:0:0:0:
329,192,215036,1,0,0:0:0:0:
475,192,215036,1,0,0:0:0:0:
182,192,215138,1,0,0:0:0:0:
329,192,215241,1,0,0:0:0:0:
109,192,215241,1,0,0:0:0:0:
402,192,215241,1,0,0:0:0:0:
475,192,215241,1,0,0:0:0:0:
256,192,215344,1,0,0:0:0:0:
402,192,215446,1,0,0:0:0:0:
182,192,215446,1,0,0:0:0:0:
475,192,215446,1,0,0:0:0:0:
36,192,215446,1,0,0:0:0:0:
329,192,215549,1,0,0:0:0:0:
109,192,215651,1,0,0:0:0:0:
36,192,215651,1,0,0:0:0:0:
402,192,215651,1,0,0:0:0:0:
182,192,215651,1,0,0:0:0:0:
256,192,215754,1,0,0:0:0:0:
109,192,215856,1,0,0:0:0:0:
36,192,215856,1,0,0:0:0:0:
329,192,215856,1,0,0:0:0:0:
475,192,215856,1,0,0:0:0:0:
256,192,215959,1,0,0:0:0:0:
182,192,215959,1,0,0:0:0:0:
36,192,216061,1,0,0:0:0:0:
329,192,216061,1,0,0:0:0:0:
402,192,216061,1,0,0:0:0:0:
182,192,216164,1,0,0:0:0:0:
109,192,216164,1,0,0:0:0:0:
402,192,216266,1,0,0:0:0:0:
36,192,216266,1,0,0:0:0:0:
256,192,216266,1,0,0:0:0:0:
475,192,216266,1,0,0:0:0:0:
182,192,216369,1,0,0:0:0:0:
402,192,216471,1,0,0:0:0:0:
475,192,216471,1,0,0:0:0:0:
329,192,216471,1,0,0:0:0:0:
109,192,216471,1,0,0:0:0:0:
182,192,216574,1,0,0:0:0:0:
475,192,216676,1,0,0:0:0:0:
36,192,216676,1,0,0:0:0:0:
256,192,216676,1,0,0:0:0:0:
402,192,216676,1,0,0:0:0:0:
109,192,216779,1,0,0:0:0:0:
402,192,216881,1,0,0:0:0:0:
475,192,216881,1,0,0:0:0:0:
182,192,216881,1,0,0:0:0:0:
256,192,216881,1,0,0:0:0:0:
36,192,216984,1,0,0:0:0:0:
329,192,217087,1,0,0:0:0:0:
402,192,217087,1,0,0:0:0:0:
109,192,217087,1,0,0:0:0:0:
182,192,217087,1,0,0:0:0:0:
475,192,217189,1,0,0:0:0:0:
109,192,217292,1,0,0:0:0:0:
36,192,217292,1,0,0:0:0:0:
329,192,217292,1,0,0:0:0:0:
256,192,217292,1,0,0:0:0:0:
402,192,217394,1,0,0:0:0:0:
182,192,217497,1,0,0:0:0:0:
36,192,217497,1,0,0:0:0:0:
475,192,217497,1,0,0:0:0:0:
256,192,217497,1,0,0:0:0:0:
329,192,217599,1,0,0:0:0:0:
182,192,217702,1,0,0:0:0:0:
109,192,217702,1,0,0:0:0:0:
402,192,217702,1,0,0:0:0:0:
329,192,217804,1,0,0:0:0:0:
109,192,217907,1,0,0:0:0:0:
475,192,217907,1,0,0:0:0:0:
256,192,217907,1,0,0:0:0:0:
36,192,217907,1,0,0:0:0:0:
329,192,218009,1,0,0:0:0:0:
109,192,218112,1,0,0:0:0:0:
402,192,218112,1,0,0:0:0:0:
182,192,218112,1,0,0:0:0:0:
36,192,218112,1,0,0:0:0:0:
329,192,218214,1,0,0:0:0:0:
36,192,218317,1,0,0:0:0:0:
475,192,218317,1,0,0:0:0:0:
256,192,218317,1,0,0:0:0:0:
109,192,218317,1,0,0:0:0:0:
402,192,218419,1,0,0:0:0:0:
109,192,218522,1,0,0:0:0:0:
36,192,218522,1,0,0:0:0:0:
329,192,218522,1,0,0:0:0:0:
256,192,218522,1,0,0:0:0:0:
475,192,218624,1,0,0:0:0:0:
182,192,218727,1,0,0:0:0:0:
109,192,218727,1,0,0:0:0:0:
402,192,218727,1,0,0:0:0:0:
329,192,218727,1,0,0:0:0:0:
36,192,218829,1,0,0:0:0:0:
402,192,218932,1,0,0:0:0:0:
475,192,218932,1,0,0:0:0:0:
182,192,218932,1,0,0:0:0:0:
256,192,218932,1,0,0:0:0:0:
109,192,219035,1,0,0:0:0:0:
329,192,219137,1,0,0:0:0:0:
475,192,219137,1,0,0:0:0:0:
36,192,219137,1,0,0:0:0:0:
256,192,219137,1,0,0:0:0:0:
182,192,219240,1,0,0:0:0:0:
329,192,219342,1,0,0:0:0:0:
402,192,219342,1,0,0:0:0:0:
109,192,219342,1,0,0:0:0:0:
182,192,219445,1,0,0:0:0:0:
402,192,219547,1,0,0:0:0:0:
36,192,219547,1,0,0:0:0:0:
256,192,219547,1,0,0:0:0:0:
475,192,219547,1,0,0:0:0:0:
182,192,219650,1,0,0:0:0:0:
402,192,219752,1,0,0:0:0:0:
109,192,219752,1,0,0:0:0:0:
329,192,219752,1,0,0:0:0:0:
475,192,219752,1,0,0:0:0:0:
182,192,219855,1,0,0:0:0:0:
36,192,219957,1,0,0:0:0:0:
475,192,219957,1,0,0:0:0:0:
256,192,219957,1,0,0:0:0:0:
402,192,219957,1,0,0:0:0:0:
329,192,220162,1,0,0:0:0:0:
182,192,220162,1,0,0:0:0:0:
256,192,220367,1,0,0:0:0:0:
109,192,220367,1,0,0:0:0:0:
36,192,220367,1,0,0:0:0:0:
475,192,220367,1,0,0:0:0:0:
402,192,220572,1,0,0:0:0:0:
182,192,220572,1,0,0:0:0:0:
256,192,220778,1,0,0:0:0:0:
475,192,220778,1,0,0:0:0:0:
329,192,220778,1,0,0:0:0:0:
182,192,220880,1,0,0:0:0:0:
36,192,220880,1,0,0:0:0:0:
109,192,220880,1,0,0:0:0:0:
329,192,220983,1,0,0:0:0:0:
402,192,220983,1,0,0:0:0:0:
475,192,220983,1,0,0:0:0:0:
182,192,221085,1,0,0:0:0:0:
36,192,221085,1,0,0:0:0:0:
109,192,221085,1,0,0:0:0:0:
256,192,221188,1,0,0:0:0:0:
329,192,221188,1,0,0:0:0:0:
475,192,221188,1,0,0:0:0:0:
402,192,221393,1,0,0:0:0:0:
182,192,221393,1,0,0:0:0:0:
256,192,221598,1,0,0:0:0:0:
402,192,221598,1,0,0:0:0:0:
109,192,221598,1,0,0:0:0:0:
36,192,221598,1,0,0:0:0:0:
475,192,221803,1,0,0:0:0:0:
182,192,221803,1,0,0:0:0:0:
329,192,221803,1,0,0:0:0:0:
36,192,222008,1,0,0:0:0:0:
475,192,222008,1,0,0:0:0:0:
402,192,222008,1,0,0:0:0:0:
256,192,222008,1,0,0:0:0:0:
109,192,222213,1,0,0:0:0:0:
182,192,222213,1,0,0:0:0:0:
329,192,222213,1,0,0:0:0:0:
256,192,222418,1,0,0:0:0:0:
402,192,222418,1,0,0:0:0:0:
329,192,222623,1,0,0:0:0:0:
182,192,222623,1,0,0:0:0:0:
402,192,222828,1,0,0:0:0:0:
256,192,222828,1,0,0:0:0:0:
329,192,223033,1,0,0:0:0:0:
109,192,223033,1,0,0:0:0:0:
36,192,223033,1,0,0:0:0:0:
475,192,223033,128,0,224264:0:0:0:0:
329,192,224264,1,0,0:0:0:0:
256,192,224469,1,0,0:0:0:0:
402,192,224469,1,0,0:0:0:0:
182,192,224674,1,0,0:0:0:0:
475,192,224674,1,0,0:0:0:0:
109,192,224879,1,0,0:0:0:0:
402,192,224879,1,0,0:0:0:0:
36,192,224879,1,0,0:0:0:0:
329,192,224879,128,0,225186:0:0:0:0:
109,192,225186,1,0,0:0:0:0:
475,192,225186,1,0,0:0:0:0:
402,192,225186,1,0,0:0:0:0:
182,192,225186,128,0,225494:0:0:0:0:
402,192,225494,1,0,0:0:0:0:
109,192,225494,1,0,0:0:0:0:
36,192,225494,1,0,0:0:0:0:
329,192,225494,128,0,225904:0:0:0:0:
109,192,225904,1,0,0:0:0:0:
402,192,225904,1,0,0:0:0:0:
475,192,225904,1,0,0:0:0:0:
182,192,225904,128,0,226109:0:0:0:0:
329,192,226109,1,0,0:0:0:0:
475,192,226109,1,0,0:0:0:0:
36,192,226109,1,0,0:0:0:0:
256,192,226109,128,0,226519:0:0:0:0:
402,192,226519,1,0,0:0:0:0:
109,192,226519,1,0,0:0:0:0:
475,192,226519,1,0,0:0:0:0:
182,192,226519,128,0,226827:0:0:0:0:
402,192,226827,1,0,0:0:0:0:
36,192,226827,1,0,0:0:0:0:
109,192,226827,1,0,0:0:0:0:
329,192,226827,128,0,227134:0:0:0:0:
109,192,227134,1,0,0:0:0:0:
402,192,227134,1,0,0:0:0:0:
475,192,227134,1,0,0:0:0:0:
182,192,227134,128,0,227544:0:0:0:0:
402,192,227544,1,0,0:0:0:0:
109,192,227544,1,0,0:0:0:0:
36,192,227544,1,0,0:0:0:0:
329,192,227544,128,0,227750:0:0:0:0:
256,192,227750,1,0,0:0:0:0:
182,192,227750,1,0,0:0:0:0:
36,192,227750,1,0,0:0:0:0:
475,192,227750,1,0,0:0:0:0:
329,192,227955,1,0,0:0:0:0:
475,192,227955,1,0,0:0:0:0:
36,192,227955,1,0,0:0:0:0:
256,192,227955,128,0,229800:0:0:0:0:
